  0
SECTION
  2
HEADER
  9
$ACADVER
  1
AC1014
  9
$ACADMAINTVER
 70
     9
  9
$DWGCODEPAGE
  3
ANSI_1250
  9
$INSBASE
 10
0.0
 20
0.0
 30
0.0
  9
$EXTMIN
 10
0.0
 20
0.0
 30
0.0
  9
$EXTMAX
 10
201.630407
 20
297.0
 30
0.0
  9
$LIMMIN
 10
0.0
 20
0.0
  9
$LIMMAX
 10
420.0
 20
297.0
  9
$ORTHOMODE
 70
     0
  9
$REGENMODE
 70
     1
  9
$FILLMODE
 70
     1
  9
$QTEXTMODE
 70
     0
  9
$MIRRTEXT
 70
     1
  9
$DRAGMODE
 70
     2
  9
$LTSCALE
 40
1.0
  9
$OSMODE
 70
  2951
  9
$ATTMODE
 70
     1
  9
$TEXTSIZE
 40
3.0
  9
$TRACEWID
 40
1.0
  9
$TEXTSTYLE
  7
STANDARD
  9
$CLAYER
  8
OSIE
  9
$CELTYPE
  6
BYLAYER
  9
$CECOLOR
 62
   256
  9
$CELTSCALE
 40
1.0
  9
$DELOBJ
 70
     1
  9
$DISPSILH
 70
     0
  9
$DIMSCALE
 40
1.0
  9
$DIMASZ
 40
2.0
  9
$DIMEXO
 40
1.0
  9
$DIMDLI
 40
3.75
  9
$DIMRND
 40
0.0
  9
$DIMDLE
 40
0.0
  9
$DIMEXE
 40
1.0
  9
$DIMTP
 40
0.0
  9
$DIMTM
 40
0.0
  9
$DIMTXT
 40
3.0
  9
$DIMCEN
 40
2.5
  9
$DIMTSZ
 40
0.0
  9
$DIMTOL
 70
     0
  9
$DIMLIM
 70
     0
  9
$DIMTIH
 70
     0
  9
$DIMTOH
 70
     1
  9
$DIMSE1
 70
     0
  9
$DIMSE2
 70
     0
  9
$DIMTAD
 70
     3
  9
$DIMZIN
 70
     8
  9
$DIMBLK
  1

  9
$DIMASO
 70
     1
  9
$DIMSHO
 70
     1
  9
$DIMPOST
  1

  9
$DIMAPOST
  1

  9
$DIMALT
 70
     0
  9
$DIMALTD
 70
     3
  9
$DIMALTF
 40
0.0393700787
  9
$DIMLFAC
 40
1.0
  9
$DIMTOFL
 70
     1
  9
$DIMTVP
 40
0.0
  9
$DIMTIX
 70
     0
  9
$DIMSOXD
 70
     0
  9
$DIMSAH
 70
     0
  9
$DIMBLK1
  1

  9
$DIMBLK2
  1

  9
$DIMSTYLE
  2
ISO-25
  9
$DIMCLRD
 70
     0
  9
$DIMCLRE
 70
     0
  9
$DIMCLRT
 70
     0
  9
$DIMTFAC
 40
1.0
  9
$DIMGAP
 40
1.524
  9
$DIMJUST
 70
     0
  9
$DIMSD1
 70
     0
  9
$DIMSD2
 70
     0
  9
$DIMTOLJ
 70
     0
  9
$DIMTZIN
 70
     8
  9
$DIMALTZ
 70
     0
  9
$DIMALTTZ
 70
     0
  9
$DIMFIT
 70
     5
  9
$DIMUPT
 70
     0
  9
$DIMUNIT
 70
     2
  9
$DIMDEC
 70
     2
  9
$DIMTDEC
 70
     2
  9
$DIMALTU
 70
     2
  9
$DIMALTTD
 70
     3
  9
$DIMTXSTY
  7
STANDARD
  9
$DIMAUNIT
 70
     0
  9
$LUNITS
 70
     2
  9
$LUPREC
 70
     4
  9
$SKETCHINC
 40
1.0
  9
$FILLETRAD
 40
10.0
  9
$AUNITS
 70
     0
  9
$AUPREC
 70
     2
  9
$MENU
  1
.
  9
$ELEVATION
 40
0.0
  9
$PELEVATION
 40
0.0
  9
$THICKNESS
 40
0.0
  9
$LIMCHECK
 70
     0
  9
$CHAMFERA
 40
0.0
  9
$CHAMFERB
 40
0.0
  9
$CHAMFERC
 40
0.0
  9
$CHAMFERD
 40
0.0
  9
$SKPOLY
 70
     0
  9
$TDCREATE
 40
2457799.404180521
  9
$TDUPDATE
 40
2458047.35049904
  9
$TDINDWG
 40
0.0171055208
  9
$TDUSRTIMER
 40
2458047.266495891
  9
$USRTIMER
 70
     1
  9
$ANGBASE
 50
0.0
  9
$ANGDIR
 70
     0
  9
$PDMODE
 70
     0
  9
$PDSIZE
 40
-1.0
  9
$PLINEWID
 40
0.0
  9
$COORDS
 70
     1
  9
$SPLFRAME
 70
     0
  9
$SPLINETYPE
 70
     6
  9
$SPLINESEGS
 70
     8
  9
$ATTDIA
 70
     0
  9
$ATTREQ
 70
     1
  9
$HANDLING
 70
     1
  9
$HANDSEED
  5
89AD
  9
$SURFTAB1
 70
     6
  9
$SURFTAB2
 70
     6
  9
$SURFTYPE
 70
     6
  9
$SURFU
 70
     6
  9
$SURFV
 70
     6
  9
$UCSNAME
  2

  9
$UCSORG
 10
0.0
 20
0.0
 30
0.0
  9
$UCSXDIR
 10
1.0
 20
0.0
 30
0.0
  9
$UCSYDIR
 10
0.0
 20
1.0
 30
0.0
  9
$PUCSNAME
  2

  9
$PUCSORG
 10
0.0
 20
0.0
 30
0.0
  9
$PUCSXDIR
 10
1.0
 20
0.0
 30
0.0
  9
$PUCSYDIR
 10
0.0
 20
1.0
 30
0.0
  9
$USERI1
 70
     0
  9
$USERI2
 70
     0
  9
$USERI3
 70
     0
  9
$USERI4
 70
     0
  9
$USERI5
 70
     0
  9
$USERR1
 40
0.0
  9
$USERR2
 40
0.0
  9
$USERR3
 40
0.0
  9
$USERR4
 40
0.0
  9
$USERR5
 40
0.0
  9
$WORLDVIEW
 70
     1
  9
$SHADEDGE
 70
     3
  9
$SHADEDIF
 70
    70
  9
$TILEMODE
 70
     1
  9
$MAXACTVP
 70
    64
  9
$PINSBASE
 10
0.0
 20
0.0
 30
0.0
  9
$PLIMCHECK
 70
     0
  9
$PEXTMIN
 10
1.000000000000000E+20
 20
1.000000000000000E+20
 30
1.000000000000000E+20
  9
$PEXTMAX
 10
-1.000000000000000E+20
 20
-1.000000000000000E+20
 30
-1.000000000000000E+20
  9
$PLIMMIN
 10
0.0
 20
0.0
  9
$PLIMMAX
 10
0.0
 20
0.0
  9
$UNITMODE
 70
     0
  9
$VISRETAIN
 70
     1
  9
$PLINEGEN
 70
     0
  9
$PSLTSCALE
 70
     1
  9
$TREEDEPTH
 70
  3020
  9
$PICKSTYLE
 70
     1
  9
$CMLSTYLE
  2
STANDARD
  9
$CMLJUST
 70
     0
  9
$CMLSCALE
 40
20.0
  9
$PROXYGRAPHICS
 70
     1
  9
$MEASUREMENT
 70
     1
  0
ENDSEC
  0
SECTION
  2
CLASSES
  0
CLASS
  1
ACDBDICTIONARYWDFLT
  2
AcDbDictionaryWithDefault
  3
ObjectDBX Classes
 90
        0
280
     0
281
     0
  0
CLASS
  1
VISUALSTYLE
  2
AcDbVisualStyle
  3
ObjectDBX Classes
 90
     4095
280
     0
281
     0
  0
CLASS
  1
MATERIAL
  2
AcDbMaterial
  3
ObjectDBX Classes
 90
     1153
280
     0
281
     0
  0
CLASS
  1
SCALE
  2
AcDbScale
  3
ObjectDBX Classes
 90
     1153
280
     0
281
     0
  0
CLASS
  1
TABLESTYLE
  2
AcDbTableStyle
  3
ObjectDBX Classes
 90
     4095
280
     0
281
     0
  0
CLASS
  1
MLEADERSTYLE
  2
AcDbMLeaderStyle
  3
ACDB_MLEADERSTYLE_CLASS
 90
     4095
280
     0
281
     0
  0
CLASS
  1
SUN
  2
AcDbSun
  3
SCENEOE
 90
     1153
280
     0
281
     0
  0
CLASS
  1
XRECORD
  2
AcDbXrecord
  3
ObjectDBX Classes
 90
        0
280
     0
281
     0
  0
CLASS
  1
LWPOLYLINE
  2
AcDbPolyline
  3
ObjectDBX Classes
 90
        0
280
     0
281
     1
  0
CLASS
  1
HATCH
  2
AcDbHatch
  3
ObjectDBX Classes
 90
        0
280
     0
281
     1
  0
CLASS
  1
RASTERVARIABLES
  2
AcDbRasterVariables
  3
ISM
 90
        0
280
     0
281
     0
  0
CLASS
  1
DICTIONARYVAR
  2
AcDbDictionaryVar
  3
ObjectDBX Classes
 90
        0
280
     0
281
     0
  0
CLASS
  1
DIMASSOC
  2
AcDbDimAssoc
  3
"AcDbDimAssoc|Product Desc:     AcDim ARX App For Dimension|Company:          Autodesk, Inc.|WEB Address:      www.autodesk.com"
 90
        0
280
     0
281
     0
  0
ENDSEC
  0
SECTION
  2
TABLES
  0
TABLE
  2
VPORT
  5
8
330
0
100
AcDbSymbolTable
 70
     1
  0
VPORT
  5
29
330
8
100
AcDbSymbolTableRecord
100
AcDbViewportTableRecord
  2
*ACTIVE
 70
     0
 10
0.0
 20
0.0
 11
1.0
 21
1.0
 12
100.8152035
 22
148.5
 13
0.0
 23
0.0
 14
10.0
 24
10.0
 15
10.0
 25
10.0
 16
0.0
 26
0.0
 36
1.0
 17
0.0
 27
0.0
 37
0.0
 40
302.94
 41
2.047210300429184
 42
50.0
 43
0.0
 44
0.0
 50
0.0
 51
0.0
 71
    16
 72
  2000
 73
     1
 74
     3
 75
     0
 76
     0
 77
     0
 78
     0
  0
ENDTAB
  0
TABLE
  2
LTYPE
  5
5
330
0
100
AcDbSymbolTable
 70
     6
  0
LTYPE
  5
14
330
5
100
AcDbSymbolTableRecord
100
AcDbLinetypeTableRecord
  2
BYBLOCK
 70
     0
  3

 72
    65
 73
     0
 40
0.0
  0
LTYPE
  5
15
330
5
100
AcDbSymbolTableRecord
100
AcDbLinetypeTableRecord
  2
BYLAYER
 70
     0
  3

 72
    65
 73
     0
 40
0.0
  0
LTYPE
  5
16
330
5
100
AcDbSymbolTableRecord
100
AcDbLinetypeTableRecord
  2
CONTINUOUS
 70
     0
  3
Solid line
 72
    65
 73
     0
 40
0.0
  0
LTYPE
  5
6E
330
5
100
AcDbSymbolTableRecord
100
AcDbLinetypeTableRecord
  2
HIDDEN
 70
     0
  3
Hidden __ __ __ __ __ __ __ __ __ __ __ __ __ __
 72
    65
 73
     2
 40
1.905
 49
1.27
 74
     0
 49
-0.635
 74
     0
  0
LTYPE
  5
6F
330
5
100
AcDbSymbolTableRecord
100
AcDbLinetypeTableRecord
  2
PHANTOM
 70
     0
  3
Phantom ______  __  __  ______  __  __  ______
 72
    65
 73
     6
 40
12.7
 49
6.35
 74
     0
 49
-1.27
 74
     0
 49
1.27
 74
     0
 49
-1.27
 74
     0
 49
1.27
 74
     0
 49
-1.27
 74
     0
  0
LTYPE
  5
70
330
5
100
AcDbSymbolTableRecord
100
AcDbLinetypeTableRecord
  2
CENTER
 70
     0
  3
Center ____ _ ____ _ ____ _ ____ _ ____ _ ____
 72
    65
 73
     4
 40
10.16
 49
6.35
 74
     0
 49
-1.27
 74
     0
 49
1.27
 74
     0
 49
-1.27
 74
     0
  0
LTYPE
  5
71
330
5
100
AcDbSymbolTableRecord
100
AcDbLinetypeTableRecord
  2
CENTERX2
 70
     0
  3
Center (2x) ________  __  ________  __  _____
 72
    65
 73
     4
 40
20.32
 49
12.7
 74
     0
 49
-2.54
 74
     0
 49
2.54
 74
     0
 49
-2.54
 74
     0
  0
LTYPE
  5
72
330
5
100
AcDbSymbolTableRecord
100
AcDbLinetypeTableRecord
  2
DOT2
 70
     0
  3
Dot (.5x) ........................................
 72
    65
 73
     2
 40
0.635
 49
0.0
 74
     0
 49
-0.635
 74
     0
  0
ENDTAB
  0
TABLE
  2
LAYER
  5
2
102
{ACAD_XDICTIONARY
360
724
102
}
330
0
100
AcDbSymbolTable
 70
    12
  0
LAYER
  5
10
330
2
100
AcDbSymbolTableRecord
100
AcDbLayerTableRecord
  2
0
 70
     0
 62
     7
  6
CONTINUOUS
  0
LAYER
  5
4C7
330
2
100
AcDbSymbolTableRecord
100
AcDbLayerTableRecord
  2
DEFPOINTS
 70
     0
 62
     7
  6
CONTINUOUS
  0
LAYER
  5
4C8
330
2
100
AcDbSymbolTableRecord
100
AcDbLayerTableRecord
  2
1
 70
     0
 62
     3
  6
CONTINUOUS
  0
LAYER
  5
4CA
330
2
100
AcDbSymbolTableRecord
100
AcDbLayerTableRecord
  2
2
 70
     0
 62
     6
  6
CONTINUOUS
  0
LAYER
  5
4CB
330
2
100
AcDbSymbolTableRecord
100
AcDbLayerTableRecord
  2
OSIE
 70
     0
 62
     2
  6
CENTER
  0
LAYER
  5
4CD
330
2
100
AcDbSymbolTableRecord
100
AcDbLayerTableRecord
  2
WY
 70
     0
 62
     1
  6
CONTINUOUS
  0
LAYER
  5
4CE
330
2
100
AcDbSymbolTableRecord
100
AcDbLayerTableRecord
  2
WYMIARY
 70
     0
 62
     1
  6
CONTINUOUS
  0
LAYER
  5
F28
330
2
100
AcDbSymbolTableRecord
100
AcDbLayerTableRecord
  2
3
 70
     0
 62
     4
  6
HIDDEN
  0
LAYER
  5
F2C
330
2
100
AcDbSymbolTableRecord
100
AcDbLayerTableRecord
  2
TABELKA
 70
     0
 62
     7
  6
CONTINUOUS
  0
LAYER
  5
F2D
330
2
100
AcDbSymbolTableRecord
100
AcDbLayerTableRecord
  2
EBLAYER5
 70
     0
 62
     3
  6
CONTINUOUS
  0
LAYER
  5
F2E
330
2
100
AcDbSymbolTableRecord
100
AcDbLayerTableRecord
  2
KRESKOWANIE
 70
     0
 62
     5
  6
CONTINUOUS
1001
ACAECLAYERSTANDARD
1000

1000

  0
LAYER
  5
F30
330
2
100
AcDbSymbolTableRecord
100
AcDbLayerTableRecord
  2
WYKRESY
 70
     0
 62
    21
  6
CONTINUOUS
1001
ACAECLAYERSTANDARD
1000

1000

  0
ENDTAB
  0
TABLE
  2
STYLE
  5
3
330
0
100
AcDbSymbolTable
 70
     3
  0
STYLE
  5
11
330
3
100
AcDbSymbolTableRecord
100
AcDbTextStyleTableRecord
  2
STANDARD
 70
     0
 40
0.0
 41
1.0
 50
0.0
 71
     0
 42
3.0
  3
txt
  4

  0
STYLE
  5
18A
330
3
100
AcDbSymbolTableRecord
100
AcDbTextStyleTableRecord
  2
SLDTEXTSTYLE0
 70
     0
 40
0.0
 41
0.75
 50
0.0
 71
     0
 42
3.0
  3
TXT
  4

  0
STYLE
  5
4D1
330
3
100
AcDbSymbolTableRecord
100
AcDbTextStyleTableRecord
  2
ITALIC
 70
     0
 40
0.0
 41
1.0
 50
15.0
 71
     0
 42
3.0
  3
simplex
  4

  0
ENDTAB
  0
TABLE
  2
VIEW
  5
6
330
0
100
AcDbSymbolTable
 70
     0
  0
ENDTAB
  0
TABLE
  2
UCS
  5
7
330
0
100
AcDbSymbolTable
 70
     0
  0
ENDTAB
  0
TABLE
  2
APPID
  5
9
330
0
100
AcDbSymbolTable
 70
     2
  0
APPID
  5
12
330
9
100
AcDbSymbolTableRecord
100
AcDbRegAppTableRecord
  2
ACAD
 70
     0
  0
APPID
  5
F2F
330
9
100
AcDbSymbolTableRecord
100
AcDbRegAppTableRecord
  2
ACAECLAYERSTANDARD
 70
     0
  0
ENDTAB
  0
TABLE
  2
DIMSTYLE
  5
A
330
0
100
AcDbSymbolTable
 70
     6
  0
DIMSTYLE
105
27
102
{ACAD_REACTORS
330
251A
330
251D
330
251F
330
2522
330
2525
330
2528
330
252B
330
252E
330
2531
330
88A5
330
88CF
330
88ED
330
88FC
330
88FF
330
891A
330
8936
102
}
330
A
100
AcDbSymbolTableRecord
100
AcDbDimStyleTableRecord
  2
ISO-25
 70
     0
  3

  4

  5

  6

  7

 40
1.0
 41
2.5
 42
0.625
 43
3.75
 44
1.25
 45
0.0
 46
0.0
 47
0.0
 48
0.0
140
2.5
141
2.5
142
0.0
143
0.0393700787
144
1.0
145
0.0
146
1.0
147
0.625
 71
     0
 72
     0
 73
     0
 74
     0
 75
     0
 76
     0
 77
     1
 78
     8
170
     0
171
     3
172
     1
173
     0
174
     0
175
     0
176
     0
177
     0
178
     0
270
     2
271
     2
272
     2
273
     2
274
     3
340
11
275
     0
280
     0
281
     0
282
     0
283
     0
284
     8
285
     0
286
     0
287
     3
288
     0
  0
DIMSTYLE
105
18B
330
A
100
AcDbSymbolTableRecord
100
AcDbDimStyleTableRecord
  2
SLDDIMSTYLE0
 70
     0
  3

  4

  5

  6

  7

 40
1.0
 41
2.0
 42
0.0625
 43
0.38
 44
0.0
 45
0.000000001
 46
0.0
 47
0.0
 48
0.0
140
3.0
141
0.09
142
0.0
143
25.4
144
1.0
145
0.0
146
1.0
147
0.75
 71
     0
 72
     0
 73
     0
 74
     0
 75
     0
 76
     0
 77
     1
 78
    12
170
     0
171
     2
172
     0
173
     1
174
     0
175
     0
176
     0
177
     0
178
     0
270
     2
271
     1
272
     2
273
     2
274
     2
340
18A
275
     0
280
     0
281
     0
282
     0
283
     1
284
    12
285
     0
286
     0
287
     3
288
     0
  0
DIMSTYLE
105
196
330
A
100
AcDbSymbolTableRecord
100
AcDbDimStyleTableRecord
  2
SLDDIMSTYLE1
 70
     0
  3

  4

  5

  6

  7

 40
1.0
 41
2.0
 42
0.0625
 43
0.38
 44
0.0
 45
0.000000001
 46
0.0
 47
0.0
 48
0.0
140
3.0
141
0.09
142
0.0
143
25.4
144
1.0
145
0.0
146
1.0
147
0.75
 71
     0
 72
     0
 73
     0
 74
     0
 75
     0
 76
     0
 77
     1
 78
    12
170
     0
171
     2
172
     0
173
     1
174
     0
175
     0
176
     0
177
     0
178
     0
270
     2
271
     1
272
     1
273
     2
274
     2
340
18A
275
     0
280
     0
281
     0
282
     0
283
     1
284
    12
285
     0
286
     0
287
     3
288
     0
  0
DIMSTYLE
105
1A1
330
A
100
AcDbSymbolTableRecord
100
AcDbDimStyleTableRecord
  2
SLDDIMSTYLE2
 70
     0
  3

  4

  5

  6

  7

 40
1.0
 41
2.0
 42
0.0625
 43
0.38
 44
0.0
 45
0.000000001
 46
0.0
 47
0.0
 48
0.0
140
3.0
141
0.09
142
0.0
143
25.4
144
1.0
145
0.0
146
1.0
147
0.75
 71
     0
 72
     0
 73
     0
 74
     0
 75
     0
 76
     0
 77
     1
 78
    12
170
     0
171
     2
172
     0
173
     1
174
     0
175
     0
176
     0
177
     0
178
     0
270
     2
271
     2
272
     2
273
     2
274
     2
340
18A
275
     0
280
     0
281
     0
282
     0
283
     1
284
    12
285
     0
286
     0
287
     3
288
     0
  0
DIMSTYLE
105
1AC
330
A
100
AcDbSymbolTableRecord
100
AcDbDimStyleTableRecord
  2
SLDDIMSTYLE3
 70
     0
  3

  4

  5

  6

  7

 40
1.0
 41
2.0
 42
0.0625
 43
0.38
 44
0.0
 45
0.000000001
 46
0.0
 47
0.0
 48
0.0
140
3.0
141
0.09
142
0.0
143
25.4
144
1.0
145
0.0
146
1.0
147
0.75
 71
     0
 72
     0
 73
     0
 74
     0
 75
     0
 76
     0
 77
     1
 78
    12
170
     0
171
     2
172
     1
173
     1
174
     0
175
     0
176
     0
177
     0
178
     0
270
     2
271
     1
272
     2
273
     2
274
     2
340
18A
275
     0
280
     0
281
     0
282
     0
283
     1
284
    12
285
     0
286
     0
287
     3
288
     0
  0
DIMSTYLE
105
F31
330
A
100
AcDbSymbolTableRecord
100
AcDbDimStyleTableRecord
  2
STANDARD
 70
     0
  3

  4

  5

  6

  7

 40
0.0
 41
3.5
 42
1.5
 43
7.0
 44
1.5
 45
0.0
 46
0.0
 47
0.1
 48
0.0
140
3.5
141
-1.0
142
0.0
143
25.4
144
0.5
145
0.0
146
1.0
147
1.5
 71
     0
 72
     0
 73
     0
 74
     0
 75
     0
 76
     0
 77
     1
 78
     0
170
     0
171
     2
172
     0
173
     0
174
     0
175
     0
176
     0
177
     0
178
     0
270
     2
271
     1
272
     4
273
     2
274
     2
340
4D1
275
     0
280
     0
281
     0
282
     0
283
     1
284
     0
285
     0
286
     0
287
     3
288
     0
  0
ENDTAB
  0
TABLE
  2
BLOCK_RECORD
  5
1
330
0
100
AcDbSymbolTable
 70
   282
  0
BLOCK_RECORD
  5
1F
330
1
100
AcDbSymbolTableRecord
100
AcDbBlockTableRecord
  2
*MODEL_SPACE
  0
BLOCK_RECORD
  5
1B
330
1
100
AcDbSymbolTableRecord
100
AcDbBlockTableRecord
  2
*PAPER_SPACE
  0
BLOCK_RECORD
  5
23
330
1
100
AcDbSymbolTableRecord
100
AcDbBlockTableRecord
  2
*PAPER_SPACE0
  0
BLOCK_RECORD
  5
73
330
1
100
AcDbSymbolTableRecord
100
AcDbBlockTableRecord
  2
BLOK1
  0
BLOCK_RECORD
  5
18C
330
1
100
AcDbSymbolTableRecord
100
AcDbBlockTableRecord
  2
_D
  0
BLOCK_RECORD
  5
197
330
1
100
AcDbSymbolTableRecord
100
AcDbBlockTableRecord
  2
_D_1
  0
BLOCK_RECORD
  5
1A2
330
1
100
AcDbSymbolTableRecord
100
AcDbBlockTableRecord
  2
_D_2
  0
BLOCK_RECORD
  5
1AD
330
1
100
AcDbSymbolTableRecord
100
AcDbBlockTableRecord
  2
_D_3
  0
BLOCK_RECORD
  5
1B9
330
1
100
AcDbSymbolTableRecord
100
AcDbBlockTableRecord
  2
_D_4
  0
BLOCK_RECORD
  5
1C3
330
1
100
AcDbSymbolTableRecord
100
AcDbBlockTableRecord
  2
_D_5
  0
BLOCK_RECORD
  5
1CD
330
1
100
AcDbSymbolTableRecord
100
AcDbBlockTableRecord
  2
_D_6
  0
BLOCK_RECORD
  5
2F4
330
1
100
AcDbSymbolTableRecord
100
AcDbBlockTableRecord
  2
_D_7
  0
BLOCK_RECORD
  5
46A
330
1
100
AcDbSymbolTableRecord
100
AcDbBlockTableRecord
  2
_D_8
  0
BLOCK_RECORD
  5
2537
330
1
100
AcDbSymbolTableRecord
100
AcDbBlockTableRecord
  2
*D103
  0
BLOCK_RECORD
  5
2545
330
1
100
AcDbSymbolTableRecord
100
AcDbBlockTableRecord
  2
*D104
  0
BLOCK_RECORD
  5
2551
330
1
100
AcDbSymbolTableRecord
100
AcDbBlockTableRecord
  2
*D105
  0
BLOCK_RECORD
  5
255D
330
1
100
AcDbSymbolTableRecord
100
AcDbBlockTableRecord
  2
*D106
  0
BLOCK_RECORD
  5
2569
330
1
100
AcDbSymbolTableRecord
100
AcDbBlockTableRecord
  2
*D107
  0
BLOCK_RECORD
  5
2575
330
1
100
AcDbSymbolTableRecord
100
AcDbBlockTableRecord
  2
*D108
  0
BLOCK_RECORD
  5
2581
330
1
100
AcDbSymbolTableRecord
100
AcDbBlockTableRecord
  2
*D109
  0
BLOCK_RECORD
  5
258D
330
1
100
AcDbSymbolTableRecord
100
AcDbBlockTableRecord
  2
*D110
  0
BLOCK_RECORD
  5
2599
330
1
100
AcDbSymbolTableRecord
100
AcDbBlockTableRecord
  2
*D111
  0
BLOCK_RECORD
  5
88B7
330
1
100
AcDbSymbolTableRecord
100
AcDbBlockTableRecord
  2
*D273
  0
BLOCK_RECORD
  5
88D2
330
1
100
AcDbSymbolTableRecord
100
AcDbBlockTableRecord
  2
*D275
  0
BLOCK_RECORD
  5
88F0
330
1
100
AcDbSymbolTableRecord
100
AcDbBlockTableRecord
  2
*D276
  0
BLOCK_RECORD
  5
8902
330
1
100
AcDbSymbolTableRecord
100
AcDbBlockTableRecord
  2
*D277
  0
BLOCK_RECORD
  5
890E
330
1
100
AcDbSymbolTableRecord
100
AcDbBlockTableRecord
  2
*D278
  0
BLOCK_RECORD
  5
891D
330
1
100
AcDbSymbolTableRecord
100
AcDbBlockTableRecord
  2
*D279
  0
BLOCK_RECORD
  5
8939
330
1
100
AcDbSymbolTableRecord
100
AcDbBlockTableRecord
  2
*D281
  0
ENDTAB
  0
ENDSEC
  0
SECTION
  2
BLOCKS
  0
BLOCK
  5
20
330
1F
100
AcDbEntity
  8
0
100
AcDbBlockBegin
  2
*MODEL_SPACE
 70
     0
 10
0.0
 20
0.0
 30
0.0
  3
*MODEL_SPACE
  1

  0
ENDBLK
  5
21
330
1F
100
AcDbEntity
  8
0
100
AcDbBlockEnd
  0
BLOCK
  5
1C
330
1B
100
AcDbEntity
 67
     1
  8
0
100
AcDbBlockBegin
  2
*PAPER_SPACE
 70
     0
 10
0.0
 20
0.0
 30
0.0
  3
*PAPER_SPACE
  1

  0
ENDBLK
  5
1D
330
1B
100
AcDbEntity
 67
     1
  8
0
100
AcDbBlockEnd
  0
BLOCK
  5
24
330
23
100
AcDbEntity
  8
0
100
AcDbBlockBegin
  2
*PAPER_SPACE0
 70
     0
 10
0.0
 20
0.0
 30
0.0
  3
*PAPER_SPACE0
  1

  0
ENDBLK
  5
25
330
23
100
AcDbEntity
  8
0
100
AcDbBlockEnd
  0
BLOCK
  5
74
330
73
100
AcDbEntity
  8
0
100
AcDbBlockBegin
  2
BLOK1
 70
     0
 10
0.0
 20
0.0
 30
0.0
  3
BLOK1
  1

  0
ARC
  5
76
330
73
100
AcDbEntity
  8
0
  6
CONTINUOUS
 62
     7
100
AcDbCircle
 10
1.0411420849
 20
3.9042828156
 30
0.0
 40
1.041142084854396
100
AcDbArc
 50
90.0003824973
 51
180.0
  0
ARC
  5
77
330
73
100
AcDbEntity
  8
0
  6
CONTINUOUS
 62
     7
100
AcDbCircle
 10
1.1650875761
 20
3.3234964822
 30
0.0
 40
0.1239454912436155
100
AcDbArc
 50
179.9999999999
 51
332.0292762105
  0
ARC
  5
78
330
73
100
AcDbEntity
  8
0
  6
CONTINUOUS
 62
     7
100
AcDbCircle
 10
3.2493195146
 20
2.2166563875
 30
0.0
 40
2.235952338909132
100
AcDbArc
 50
80.9608246617
 51
152.0292762105
  0
ARC
  5
79
330
73
100
AcDbEntity
  8
0
  6
CONTINUOUS
 62
     7
100
AcDbCircle
 10
1.7352298576
 20
7.9820762264
 30
0.0
 40
0.694094723236172
100
AcDbArc
 50
90.0
 51
180.0
  0
ARC
  5
7A
330
73
100
AcDbEntity
  8
0
  6
CONTINUOUS
 62
     7
100
AcDbCircle
 10
5.4659889943
 20
7.9820762264
 30
0.0
 40
0.6940947232363461
100
AcDbArc
 50
360.0
 51
90.0
  0
ARC
  5
7B
330
73
100
AcDbEntity
  8
0
  6
CONTINUOUS
 62
     7
100
AcDbCircle
 10
14.1366574824
 20
2.75049
 30
0.0
 40
1.282787156391457
100
AcDbArc
 50
189.5348291278
 51
270.296328748
  0
ARC
  5
7C
330
73
100
AcDbEntity
  8
0
  6
CONTINUOUS
 62
     7
100
AcDbCircle
 10
14.9059263487
 20
2.75049
 30
0.0
 40
1.282787156391457
100
AcDbArc
 50
269.7036712521
 51
350.4651708722
  0
ARC
  5
7D
330
73
100
AcDbEntity
  8
0
  6
CONTINUOUS
 62
     7
100
AcDbCircle
 10
14.1366574824
 20
6.085895778
 30
0.0
 40
1.282787156391459
100
AcDbArc
 50
89.703671252
 51
170.4651708722
  0
ARC
  5
7E
330
73
100
AcDbEntity
  8
0
  6
CONTINUOUS
 62
     7
100
AcDbCircle
 10
11.0739987159
 20
6.2325057991
 30
0.0
 40
1.239711070219349
100
AcDbArc
 50
16.2650613742
 51
130.5272988796
  0
ARC
  5
7F
330
73
100
AcDbEntity
  8
0
  6
CONTINUOUS
 62
     7
100
AcDbCircle
 10
10.5617561932
 20
6.2505
 30
0.0
 40
0.303750000000047
100
AcDbArc
 50
360.0
 51
180.0
  0
ARC
  5
80
330
73
100
AcDbEntity
  8
0
  6
CONTINUOUS
 62
     7
100
AcDbCircle
 10
14.9059263487
 20
6.085895778
 30
0.0
 40
1.282787156391571
100
AcDbArc
 50
9.5348291278
 51
90.29632874800001
  0
ARC
  5
81
330
73
100
AcDbEntity
  8
0
  6
CONTINUOUS
 62
     7
100
AcDbCircle
 10
14.5631419155
 20
2.55285
 30
0.0
 40
0.303750000000047
100
AcDbArc
 50
180.0
 51
360.0
  0
ARC
  5
82
330
73
100
AcDbEntity
  8
0
  6
CONTINUOUS
 62
     7
100
AcDbCircle
 10
14.5631419155
 20
6.2505
 30
0.0
 40
0.303750000000047
100
AcDbArc
 50
360.0
 51
180.0
  0
ARC
  5
83
330
73
100
AcDbEntity
  8
0
  6
CONTINUOUS
 62
     7
100
AcDbCircle
 10
24.943436798
 20
2.7785772609
 30
0.0
 40
1.339576980850868
100
AcDbArc
 50
269.3008867473
 51
348.3657315406
  0
ARC
  5
84
330
73
100
AcDbEntity
  8
0
  6
CONTINUOUS
 62
     7
100
AcDbCircle
 10
24.0737470331
 20
2.7785772609
 30
0.0
 40
1.339576980850891
100
AcDbArc
 50
191.6342684594
 51
270.6991132527
  0
ARC
  5
85
330
73
100
AcDbEntity
  8
0
  6
CONTINUOUS
 62
     7
100
AcDbCircle
 10
21.1389077999
 20
2.4481369237
 30
0.0
 40
1.016016213647187
100
AcDbArc
 50
276.7195757122
 51
2.175193988
  0
ARC
  5
86
330
73
100
AcDbEntity
  8
0
  6
CONTINUOUS
 62
     7
100
AcDbCircle
 10
20.7435139155
 20
2.07765
 30
0.0
 40
0.6389597056028636
100
AcDbArc
 50
203.800079996
 51
272.0519182535
  0
ARC
  5
87
330
73
100
AcDbEntity
  8
0
  6
CONTINUOUS
 62
     7
100
AcDbCircle
 10
24.0737470331
 20
6.0370558604
 30
0.0
 40
1.339576980850944
100
AcDbArc
 50
89.30088674730001
 51
168.3657315406
  0
ARC
  5
88
330
73
100
AcDbEntity
  8
0
  6
CONTINUOUS
 62
     7
100
AcDbCircle
 10
20.4626419155
 20
6.2505
 30
0.0
 40
0.3037500000000506
100
AcDbArc
 50
0.0
 51
180.0
  0
ARC
  5
89
330
73
100
AcDbEntity
  8
0
  6
CONTINUOUS
 62
     7
100
AcDbCircle
 10
20.4626419155
 20
2.55285
 30
0.0
 40
0.3037500000000506
100
AcDbArc
 50
180.0
 51
360.0
  0
ARC
  5
8A
330
73
100
AcDbEntity
  8
0
  6
CONTINUOUS
 62
     7
100
AcDbCircle
 10
20.9320163077
 20
6.1119911977
 30
0.0
 40
1.268134875327391
100
AcDbArc
 50
15.472549735
 51
127.5645400105
  0
ARC
  5
8B
330
73
100
AcDbEntity
  8
0
  6
CONTINUOUS
 62
     7
100
AcDbCircle
 10
24.943436798
 20
6.0370558604
 30
0.0
 40
1.339576980850933
100
AcDbArc
 50
11.6342684594
 51
90.6991132527
  0
ARC
  5
8C
330
73
100
AcDbEntity
  8
0
  6
CONTINUOUS
 62
     7
100
AcDbCircle
 10
24.5085919155
 20
2.55285
 30
0.0
 40
0.3037499999999369
100
AcDbArc
 50
180.0
 51
360.0
  0
ARC
  5
8D
330
73
100
AcDbEntity
  8
0
  6
CONTINUOUS
 62
     7
100
AcDbCircle
 10
24.5085919155
 20
6.2505
 30
0.0
 40
0.3037499999999369
100
AcDbArc
 50
360.0
 51
180.0
  0
LINE
  5
8E
330
73
100
AcDbEntity
  8
0
  6
CONTINUOUS
 62
     7
100
AcDbLine
 10
1.0411351344
 20
4.9454249004
 30
0.0
 11
1.0411351344
 21
7.9820762264
 31
0.0
  0
LINE
  5
8F
330
73
100
AcDbEntity
  8
0
  6
CONTINUOUS
 62
     7
100
AcDbLine
 10
0.0
 20
3.9042828156
 30
0.0
 11
1.0411420849
 21
3.9042828156
 31
0.0
  0
LINE
  5
90
330
73
100
AcDbEntity
  8
0
  6
CONTINUOUS
 62
     7
100
AcDbLine
 10
1.0411351344
 20
3.3234964822
 30
0.0
 11
1.0411351344
 21
3.9042828156
 31
0.0
  0
LINE
  5
91
330
73
100
AcDbEntity
  8
0
  6
CONTINUOUS
 62
     7
100
AcDbLine
 10
1.7352298576
 20
8.6761709496
 30
0.0
 11
5.4659889943
 21
8.6761709496
 31
0.0
  0
LINE
  5
92
330
73
100
AcDbEntity
  8
0
  6
CONTINUOUS
 62
     7
100
AcDbLine
 10
6.1600837175
 20
6.9843150604
 30
0.0
 11
6.1600837175
 21
7.9820762264
 31
0.0
  0
LINE
  5
93
330
73
100
AcDbEntity
  8
0
  6
CONTINUOUS
 62
     7
100
AcDbLine
 10
8.8805182472
 20
7.368665778
 30
0.0
 11
10.2684217256
 21
7.368665778
 31
0.0
  0
LINE
  5
94
330
73
100
AcDbEntity
  8
0
  6
CONTINUOUS
 62
     7
100
AcDbLine
 10
8.8805182472
 20
1.4391000979
 30
0.0
 11
10.2684217256
 21
1.4391000979
 31
0.0
  0
LINE
  5
95
330
73
100
AcDbEntity
  8
0
  6
CONTINUOUS
 62
     7
100
AcDbLine
 10
10.2580061932
 20
6.2505
 30
0.0
 11
10.2684217256
 21
1.4391000979
 31
0.0
  0
LINE
  5
96
330
73
100
AcDbEntity
  8
0
  6
CONTINUOUS
 62
     7
100
AcDbLine
 10
18.1797919155
 20
8.8155
 30
0.0
 11
18.1797919155
 21
1.4391
 31
0.0
  0
LINE
  5
97
330
73
100
AcDbEntity
  8
0
  6
CONTINUOUS
 62
     7
100
AcDbLine
 10
16.7892919155
 20
1.4391
 30
0.0
 11
16.7892919155
 21
8.8155
 31
0.0
  0
LINE
  5
98
330
73
100
AcDbEntity
  8
0
  6
CONTINUOUS
 62
     7
100
AcDbLine
 10
14.1300230493
 20
1.46772
 30
0.0
 11
14.8992919155
 21
1.46772
 31
0.0
  0
LINE
  5
99
330
73
100
AcDbEntity
  8
0
  6
CONTINUOUS
 62
     7
100
AcDbLine
 10
18.1797919155
 20
1.4391
 30
0.0
 11
16.7892919155
 21
1.4391
 31
0.0
  0
LINE
  5
9A
330
73
100
AcDbEntity
  8
0
  6
CONTINUOUS
 62
     7
100
AcDbLine
 10
10.8759217256
 20
4.967825778
 30
0.0
 11
12.2640919155
 21
4.967825778
 31
0.0
  0
LINE
  5
9B
330
73
100
AcDbEntity
  8
0
  6
CONTINUOUS
 62
     7
100
AcDbLine
 10
10.8655061932
 20
6.2505
 30
0.0
 11
10.8759217256
 21
4.967825778
 31
0.0
  0
LINE
  5
9C
330
73
100
AcDbEntity
  8
0
  6
CONTINUOUS
 62
     7
100
AcDbLine
 10
10.2684217256
 20
7.368665778
 30
0.0
 11
10.2684217256
 21
7.174805778
 31
0.0
  0
LINE
  5
9D
330
73
100
AcDbEntity
  8
0
  6
CONTINUOUS
 62
     7
100
AcDbLine
 10
12.8715919155
 20
2.538
 30
0.0
 11
12.8715919155
 21
6.298385778
 31
0.0
  0
LINE
  5
9E
330
73
100
AcDbEntity
  8
0
  6
CONTINUOUS
 62
     7
100
AcDbLine
 10
12.2640919155
 20
4.967825778
 30
0.0
 11
12.2640919155
 21
6.579725778
 31
0.0
  0
LINE
  5
9F
330
73
100
AcDbEntity
  8
0
  6
CONTINUOUS
 62
     7
100
AcDbLine
 10
14.8668919155
 20
3.348365778
 30
0.0
 11
16.1709919155
 21
3.348365778
 31
0.0
  0
LINE
  5
A0
330
73
100
AcDbEntity
  8
0
  6
CONTINUOUS
 62
     7
100
AcDbLine
 10
16.1709919155
 20
3.955865778
 30
0.0
 11
14.2593919155
 21
3.955865778
 31
0.0
  0
LINE
  5
A1
330
73
100
AcDbEntity
  8
0
  6
CONTINUOUS
 62
     7
100
AcDbLine
 10
14.2593919155
 20
6.2505
 30
0.0
 11
14.2593919155
 21
4.765865778
 31
0.0
  0
LINE
  5
A2
330
73
100
AcDbEntity
  8
0
  6
CONTINUOUS
 62
     7
100
AcDbLine
 10
14.8668919155
 20
6.2505
 30
0.0
 11
14.8668919155
 21
4.765865778
 31
0.0
  0
LINE
  5
A3
330
73
100
AcDbEntity
  8
0
  6
CONTINUOUS
 62
     7
100
AcDbLine
 10
14.2593919155
 20
3.955865778
 30
0.0
 11
14.2593919155
 21
2.55285
 31
0.0
  0
LINE
  5
A4
330
73
100
AcDbEntity
  8
0
  6
CONTINUOUS
 62
     7
100
AcDbLine
 10
14.8668919155
 20
3.348365778
 30
0.0
 11
14.8668919155
 21
2.55285
 31
0.0
  0
LINE
  5
A5
330
73
100
AcDbEntity
  8
0
  6
CONTINUOUS
 62
     7
100
AcDbLine
 10
14.2593919155
 20
4.765865778
 30
0.0
 11
14.8668919155
 21
4.765865778
 31
0.0
  0
LINE
  5
A6
330
73
100
AcDbEntity
  8
0
  6
CONTINUOUS
 62
     7
100
AcDbLine
 10
14.1300230493
 20
7.368665778
 30
0.0
 11
14.8992919155
 21
7.368665778
 31
0.0
  0
LINE
  5
A7
330
73
100
AcDbEntity
  8
0
  6
CONTINUOUS
 62
     7
100
AcDbLine
 10
16.1709919155
 20
3.955865778
 30
0.0
 11
16.1709919155
 21
6.298385778
 31
0.0
  0
LINE
  5
A8
330
73
100
AcDbEntity
  8
0
  6
CONTINUOUS
 62
     7
100
AcDbLine
 10
16.1709919155
 20
3.348365778
 30
0.0
 11
16.1709919155
 21
2.538
 31
0.0
  0
LINE
  5
A9
330
73
100
AcDbEntity
  8
0
  6
CONTINUOUS
 62
     7
100
AcDbLine
 10
16.7892919155
 20
8.8155
 30
0.0
 11
18.1797919155
 21
8.8155
 31
0.0
  0
LINE
  5
AA
330
73
100
AcDbEntity
  8
0
  6
CONTINUOUS
 62
     7
100
AcDbLine
 10
26.8629919155
 20
8.8155
 30
0.0
 11
28.2534919155
 21
8.8155
 31
0.0
  0
LINE
  5
AB
330
73
100
AcDbEntity
  8
0
  6
CONTINUOUS
 62
     7
100
AcDbLine
 10
28.2534919155
 20
1.4391
 30
0.0
 11
26.8629919155
 21
1.4391
 31
0.0
  0
LINE
  5
AC
330
73
100
AcDbEntity
  8
0
  6
CONTINUOUS
 62
     7
100
AcDbLine
 10
26.8629919155
 20
1.4391
 30
0.0
 11
26.8629919155
 21
8.8155
 31
0.0
  0
LINE
  5
AD
330
73
100
AcDbEntity
  8
0
  6
CONTINUOUS
 62
     7
100
AcDbLine
 10
18.7683919155
 20
0.0
 30
0.0
 11
18.7683919155
 21
7.3764
 31
0.0
  0
LINE
  5
AE
330
73
100
AcDbEntity
  8
0
  6
CONTINUOUS
 62
     7
100
AcDbLine
 10
20.1588919155
 20
0.0
 30
0.0
 11
18.7683919155
 21
0.0
 31
0.0
  0
LINE
  5
AF
330
73
100
AcDbEntity
  8
0
  6
CONTINUOUS
 62
     7
100
AcDbLine
 10
20.1588919155
 20
1.8198
 30
0.0
 11
20.1588919155
 21
0.0
 31
0.0
  0
LINE
  5
B0
330
73
100
AcDbEntity
  8
0
  6
CONTINUOUS
 62
     7
100
AcDbLine
 10
20.7663919155
 20
1.4391
 30
0.0
 11
21.2577919155
 21
1.4391
 31
0.0
  0
LINE
  5
B1
330
73
100
AcDbEntity
  8
0
  6
CONTINUOUS
 62
     7
100
AcDbLine
 10
24.0900919155
 20
1.4391
 30
0.0
 11
24.9270919155
 21
1.4391
 31
0.0
  0
LINE
  5
B2
330
73
100
AcDbEntity
  8
0
  6
CONTINUOUS
 62
     7
100
AcDbLine
 10
20.1588919155
 20
6.2505
 30
0.0
 11
20.1588919155
 21
2.55285
 31
0.0
  0
LINE
  5
B3
330
73
100
AcDbEntity
  8
0
  6
CONTINUOUS
 62
     7
100
AcDbLine
 10
18.7683919155
 20
7.3764
 30
0.0
 11
20.1588919155
 21
7.3764
 31
0.0
  0
LINE
  5
B4
330
73
100
AcDbEntity
  8
0
  6
CONTINUOUS
 62
     7
100
AcDbLine
 10
20.1588919155
 20
7.3764
 30
0.0
 11
20.1588919155
 21
7.1172
 31
0.0
  0
LINE
  5
B5
330
73
100
AcDbEntity
  8
0
  6
CONTINUOUS
 62
     7
100
AcDbLine
 10
22.7616919155
 20
2.5084331213
 30
0.0
 11
22.7616919155
 21
6.3072
 31
0.0
  0
LINE
  5
B6
330
73
100
AcDbEntity
  8
0
  6
CONTINUOUS
 62
     7
100
AcDbLine
 10
20.7663919155
 20
6.2505
 30
0.0
 11
20.7663919155
 21
2.55285
 31
0.0
  0
LINE
  5
B7
330
73
100
AcDbEntity
  8
0
  6
CONTINUOUS
 62
     7
100
AcDbLine
 10
22.1541919155
 20
6.4503
 30
0.0
 11
22.1541919155
 21
2.4867
 31
0.0
  0
LINE
  5
B8
330
73
100
AcDbEntity
  8
0
  6
CONTINUOUS
 62
     7
100
AcDbLine
 10
24.8123419155
 20
6.2505
 30
0.0
 11
24.8123419155
 21
2.55285
 31
0.0
  0
LINE
  5
B9
330
73
100
AcDbEntity
  8
0
  6
CONTINUOUS
 62
     7
100
AcDbLine
 10
24.2048419155
 20
6.2505
 30
0.0
 11
24.2048419155
 21
2.55285
 31
0.0
  0
LINE
  5
BA
330
73
100
AcDbEntity
  8
0
  6
CONTINUOUS
 62
     7
100
AcDbLine
 10
24.0900919155
 20
7.3765331213
 30
0.0
 11
24.9270919155
 21
7.3765331213
 31
0.0
  0
LINE
  5
BB
330
73
100
AcDbEntity
  8
0
  6
CONTINUOUS
 62
     7
100
AcDbLine
 10
26.2554919155
 20
6.3072
 30
0.0
 11
26.2554919155
 21
2.5084331213
 31
0.0
  0
LINE
  5
BC
330
73
100
AcDbEntity
  8
0
  6
CONTINUOUS
 62
     7
100
AcDbLine
 10
28.2534919155
 20
8.8155
 30
0.0
 11
28.2534919155
 21
1.4391
 31
0.0
  0
ENDBLK
  5
75
330
73
100
AcDbEntity
  8
0
100
AcDbBlockEnd
  0
BLOCK
  5
18D
330
18C
100
AcDbEntity
  8
0
100
AcDbBlockBegin
  2
_D
 70
     0
 10
0.0
 20
0.0
 30
0.0
  3
_D
  1

  0
LINE
  5
18F
330
18C
100
AcDbEntity
  8
WY
  6
CONTINUOUS
 62
     0
100
AcDbLine
 10
419.7120770521609
 20
253.7065165394345
 30
0.0
 11
351.2133493218787
 21
253.7065165394345
 31
0.0
  0
LINE
  5
190
330
18C
100
AcDbEntity
  8
WY
  6
CONTINUOUS
 62
     0
100
AcDbLine
 10
464.5120770521609
 20
189.4615766671345
 30
0.0
 11
351.2133493218787
 21
189.4615766671345
 31
0.0
  0
LINE
  5
191
330
18C
100
AcDbEntity
  8
WY
  6
CONTINUOUS
 62
     0
100
AcDbLine
 10
351.2133493218787
 20
251.7065165394345
 30
0.0
 11
351.2133493218787
 21
191.4615766671345
 31
0.0
  0
SOLID
  5
192
330
18C
100
AcDbEntity
  8
WY
 62
     0
100
AcDbTrace
 10
351.546682655212
 20
251.7065165394345
 30
0.0
 11
350.8800159885454
 21
251.7065165394345
 31
0.0
 12
351.2133493218787
 22
253.7065165394345
 32
0.0
 13
351.2133493218787
 23
253.7065165394345
 33
0.0
  0
SOLID
  5
193
330
18C
100
AcDbEntity
  8
WY
 62
     0
100
AcDbTrace
 10
350.8800159885454
 20
191.4615766671345
 30
0.0
 11
351.546682655212
 21
191.4615766671345
 31
0.0
 12
351.2133493218787
 22
189.4615766671345
 32
0.0
 13
351.2133493218787
 23
189.4615766671345
 33
0.0
  0
MTEXT
  5
194
330
18C
100
AcDbEntity
  8
WY
 62
     0
100
AcDbMText
 10
348.7133493218787
 20
221.5840466032345
 30
0.0
 40
3.0
 41
0.0
 71
     5
 72
     1
  1
\A1;64,5
  7
SLDTEXTSTYLE0
 11
0.0
 21
1.0
 31
0.0
  0
POINT
  5
8FA
330
18C
100
AcDbEntity
  8
DEFPOINTS
 62
     0
100
AcDbPoint
 10
419.7745770521609
 20
253.7065165394345
 30
0.0
  0
POINT
  5
8FB
330
18C
100
AcDbEntity
  8
DEFPOINTS
 62
     0
100
AcDbPoint
 10
464.5745770521609
 20
189.4615766671345
 30
0.0
  0
POINT
  5
8FC
330
18C
100
AcDbEntity
  8
DEFPOINTS
 62
     0
100
AcDbPoint
 10
351.2133493218787
 20
189.4615766671345
 30
0.0
  0
ENDBLK
  5
18E
330
18C
100
AcDbEntity
  8
0
100
AcDbBlockEnd
  0
BLOCK
  5
198
330
197
100
AcDbEntity
  8
0
100
AcDbBlockBegin
  2
_D_1
 70
     0
 10
0.0
 20
0.0
 30
0.0
  3
_D_1
  1

  0
LINE
  5
19A
330
197
100
AcDbEntity
  8
WY
  6
CONTINUOUS
 62
     0
100
AcDbLine
 10
370.3833039199609
 20
192.8990766671345
 30
0.0
 11
370.3833039199609
 21
161.4615766671345
 31
0.0
  0
LINE
  5
19B
330
197
100
AcDbEntity
  8
WY
  6
CONTINUOUS
 62
     0
100
AcDbLine
 10
469.1658501843609
 20
192.8990766671345
 30
0.0
 11
469.1658501843609
 21
161.4615766671345
 31
0.0
  0
LINE
  5
19C
330
197
100
AcDbEntity
  8
WY
  6
CONTINUOUS
 62
     0
100
AcDbLine
 10
372.3833039199609
 20
161.4615766671345
 30
0.0
 11
467.1658501843609
 21
161.4615766671345
 31
0.0
  0
SOLID
  5
19D
330
197
100
AcDbEntity
  8
WY
 62
     0
100
AcDbTrace
 10
372.3833039199609
 20
161.7949100004678
 30
0.0
 11
372.3833039199609
 21
161.1282433338011
 31
0.0
 12
370.3833039199609
 22
161.4615766671345
 32
0.0
 13
370.3833039199609
 23
161.4615766671345
 33
0.0
  0
SOLID
  5
19E
330
197
100
AcDbEntity
  8
WY
 62
     0
100
AcDbTrace
 10
467.1658501843609
 20
161.1282433338011
 30
0.0
 11
467.1658501843609
 21
161.7949100004678
 31
0.0
 12
469.1658501843609
 22
161.4615766671345
 32
0.0
 13
469.1658501843609
 23
161.4615766671345
 33
0.0
  0
MTEXT
  5
19F
330
197
100
AcDbEntity
  8
WY
 62
     0
100
AcDbMText
 10
419.7745770521609
 20
163.7115766671345
 30
0.0
 40
3.0
 41
0.0
 71
     5
 72
     1
  1
\A1;98.8
  7
SLDTEXTSTYLE0
  0
POINT
  5
8FD
330
197
100
AcDbEntity
  8
DEFPOINTS
 62
     0
100
AcDbPoint
 10
370.3833039199609
 20
192.9615766671345
 30
0.0
  0
POINT
  5
8FE
330
197
100
AcDbEntity
  8
DEFPOINTS
 62
     0
100
AcDbPoint
 10
469.1658501843609
 20
192.9615766671345
 30
0.0
  0
POINT
  5
8FF
330
197
100
AcDbEntity
  8
DEFPOINTS
 62
     0
100
AcDbPoint
 10
469.1658501843609
 20
161.4615766671345
 30
0.0
  0
ENDBLK
  5
199
330
197
100
AcDbEntity
  8
0
100
AcDbBlockEnd
  0
BLOCK
  5
1A3
330
1A2
100
AcDbEntity
  8
0
100
AcDbBlockBegin
  2
_D_2
 70
     0
 10
0.0
 20
0.0
 30
0.0
  3
_D_2
  1

  0
LINE
  5
1A5
330
1A2
100
AcDbEntity
  8
WY
  6
CONTINUOUS
 62
     0
100
AcDbLine
 10
397.2745770521609
 20
252.4162469364969
 30
0.0
 11
397.2745770521609
 21
265.6910095214344
 31
0.0
  0
LINE
  5
1A6
330
1A2
100
AcDbEntity
  8
WY
  6
CONTINUOUS
 62
     0
100
AcDbLine
 10
442.2745770521609
 20
252.2550214417345
 30
0.0
 11
442.2745770521609
 21
265.6910095214344
 31
0.0
  0
LINE
  5
1A7
330
1A2
100
AcDbEntity
  8
WY
  6
CONTINUOUS
 62
     0
100
AcDbLine
 10
399.2745770521609
 20
265.6910095214344
 30
0.0
 11
440.2745770521609
 21
265.6910095214344
 31
0.0
  0
SOLID
  5
1A8
330
1A2
100
AcDbEntity
  8
WY
 62
     0
100
AcDbTrace
 10
399.2745770521609
 20
266.0243428547677
 30
0.0
 11
399.2745770521609
 21
265.3576761881011
 31
0.0
 12
397.2745770521609
 22
265.6910095214344
 32
0.0
 13
397.2745770521609
 23
265.6910095214344
 33
0.0
  0
SOLID
  5
1A9
330
1A2
100
AcDbEntity
  8
WY
 62
     0
100
AcDbTrace
 10
440.2745770521609
 20
265.3576761881011
 30
0.0
 11
440.2745770521609
 21
266.0243428547677
 31
0.0
 12
442.2745770521609
 22
265.6910095214344
 32
0.0
 13
442.2745770521609
 23
265.6910095214344
 33
0.0
  0
MTEXT
  5
1AA
330
1A2
100
AcDbEntity
  8
WY
 62
     0
100
AcDbMText
 10
419.7745770521609
 20
267.9410095214344
 30
0.0
 40
3.0
 41
0.0
 71
     5
 72
     1
  1
\A1;45
  7
SLDTEXTSTYLE0
  0
POINT
  5
900
330
1A2
100
AcDbEntity
  8
DEFPOINTS
 62
     0
100
AcDbPoint
 10
397.2745770521609
 20
252.3537469364969
 30
0.0
  0
POINT
  5
901
330
1A2
100
AcDbEntity
  8
DEFPOINTS
 62
     0
100
AcDbPoint
 10
442.2745770521609
 20
252.1925214417345
 30
0.0
  0
POINT
  5
902
330
1A2
100
AcDbEntity
  8
DEFPOINTS
 62
     0
100
AcDbPoint
 10
442.2745770521609
 20
265.6910095214344
 30
0.0
  0
ENDBLK
  5
1A4
330
1A2
100
AcDbEntity
  8
0
100
AcDbBlockEnd
  0
BLOCK
  5
1AE
330
1AD
100
AcDbEntity
  8
0
100
AcDbBlockBegin
  2
_D_3
 70
     0
 10
0.0
 20
0.0
 30
0.0
  3
_D_3
  1

  0
LINE
  5
1B0
330
1AD
100
AcDbEntity
  8
WY
  6
CONTINUOUS
 62
     0
100
AcDbLine
 10
468.1432110289609
 20
192.9615766671345
 30
0.0
 11
475.6495871952609
 21
192.9615766671345
 31
0.0
  0
LINE
  5
1B1
330
1AD
100
AcDbEntity
  8
WY
  6
CONTINUOUS
 62
     0
100
AcDbLine
 10
464.6370770521609
 20
189.4615766671345
 30
0.0
 11
475.6495871952609
 21
189.4615766671345
 31
0.0
  0
LINE
  5
1B2
330
1AD
100
AcDbEntity
  8
WY
  6
CONTINUOUS
 62
     0
100
AcDbLine
 10
475.6495871952609
 20
192.9615766671345
 30
0.0
 11
475.6495871952609
 21
202.9615766671345
 31
0.0
  0
LINE
  5
1B3
330
1AD
100
AcDbEntity
  8
WY
  6
CONTINUOUS
 62
     0
100
AcDbLine
 10
475.6495871952609
 20
192.9615766671345
 30
0.0
 11
475.6495871952609
 21
189.4615766671345
 31
0.0
  0
LINE
  5
1B4
330
1AD
100
AcDbEntity
  8
WY
  6
CONTINUOUS
 62
     0
100
AcDbLine
 10
475.6495871952609
 20
194.9615766671345
 30
0.0
 11
475.6495871952609
 21
196.9615766671345
 31
0.0
  0
LINE
  5
1B5
330
1AD
100
AcDbEntity
  8
WY
  6
CONTINUOUS
 62
     0
100
AcDbLine
 10
475.6495871952609
 20
187.4615766671345
 30
0.0
 11
475.6495871952609
 21
185.4615766671345
 31
0.0
  0
SOLID
  5
1B6
330
1AD
100
AcDbEntity
  8
WY
 62
     0
100
AcDbTrace
 10
475.3162538619276
 20
194.9615766671345
 30
0.0
 11
475.9829205285942
 21
194.9615766671345
 31
0.0
 12
475.6495871952609
 22
192.9615766671345
 32
0.0
 13
475.6495871952609
 23
192.9615766671345
 33
0.0
  0
SOLID
  5
1B7
330
1AD
100
AcDbEntity
  8
WY
 62
     0
100
AcDbTrace
 10
475.9829205285942
 20
187.4615766671345
 30
0.0
 11
475.3162538619276
 21
187.4615766671345
 31
0.0
 12
475.6495871952609
 22
189.4615766671345
 32
0.0
 13
475.6495871952609
 23
189.4615766671345
 33
0.0
  0
MTEXT
  5
903
330
1AD
100
AcDbEntity
  8
WY
 62
     0
100
AcDbMText
 10
473.3995871952609
 20
199.9615766671345
 30
0.0
 40
3.0
 41
0.0
 71
     5
 72
     1
  1
\A1;3.5
  7
SLDTEXTSTYLE0
 11
0.0
 21
1.0
 31
0.0
  0
POINT
  5
904
330
1AD
100
AcDbEntity
  8
DEFPOINTS
 62
     0
100
AcDbPoint
 10
468.0807110289609
 20
192.9615766671345
 30
0.0
  0
POINT
  5
905
330
1AD
100
AcDbEntity
  8
DEFPOINTS
 62
     0
100
AcDbPoint
 10
464.5745770521609
 20
189.4615766671345
 30
0.0
  0
POINT
  5
906
330
1AD
100
AcDbEntity
  8
DEFPOINTS
 62
     0
100
AcDbPoint
 10
475.6495871952609
 20
189.4615766671345
 30
0.0
  0
ENDBLK
  5
1AF
330
1AD
100
AcDbEntity
  8
0
100
AcDbBlockEnd
  0
BLOCK
  5
1BA
330
1B9
100
AcDbEntity
  8
0
100
AcDbBlockBegin
  2
_D_4
 70
     0
 10
0.0
 20
0.0
 30
0.0
  3
_D_4
  1

  0
LINE
  5
1BC
330
1B9
100
AcDbEntity
  8
WY
  6
CONTINUOUS
 62
     0
100
AcDbLine
 10
386.8120770521609
 20
236.9615766671345
 30
0.0
 11
356.7409515309109
 21
236.9615766671345
 31
0.0
  0
LINE
  5
1BD
330
1B9
100
AcDbEntity
  8
WY
  6
CONTINUOUS
 62
     0
100
AcDbLine
 10
371.4059430752609
 20
192.9615766671345
 30
0.0
 11
356.7409515309109
 21
192.9615766671345
 31
0.0
  0
LINE
  5
1BE
330
1B9
100
AcDbEntity
  8
WY
  6
CONTINUOUS
 62
     0
100
AcDbLine
 10
356.7409515309109
 20
234.9615766671345
 30
0.0
 11
356.7409515309109
 21
194.9615766671345
 31
0.0
  0
SOLID
  5
1BF
330
1B9
100
AcDbEntity
  8
WY
 62
     0
100
AcDbTrace
 10
357.0742848642442
 20
234.9615766671345
 30
0.0
 11
356.4076181975776
 21
234.9615766671345
 31
0.0
 12
356.7409515309109
 22
236.9615766671345
 32
0.0
 13
356.7409515309109
 23
236.9615766671345
 33
0.0
  0
SOLID
  5
1C0
330
1B9
100
AcDbEntity
  8
WY
 62
     0
100
AcDbTrace
 10
356.4076181975776
 20
194.9615766671345
 30
0.0
 11
357.0742848642442
 21
194.9615766671345
 31
0.0
 12
356.7409515309109
 22
192.9615766671345
 32
0.0
 13
356.7409515309109
 23
192.9615766671345
 33
0.0
  0
MTEXT
  5
1C1
330
1B9
100
AcDbEntity
  8
WY
 62
     0
100
AcDbMText
 10
354.4909515309109
 20
214.9615766671345
 30
0.0
 40
3.0
 41
0.0
 71
     5
 72
     1
  1
\A1;44
  7
SLDTEXTSTYLE0
 11
0.0
 21
1.0
 31
0.0
  0
POINT
  5
907
330
1B9
100
AcDbEntity
  8
DEFPOINTS
 62
     0
100
AcDbPoint
 10
386.8745770521609
 20
236.9615766671345
 30
0.0
  0
POINT
  5
908
330
1B9
100
AcDbEntity
  8
DEFPOINTS
 62
     0
100
AcDbPoint
 10
371.4684430752609
 20
192.9615766671345
 30
0.0
  0
POINT
  5
909
330
1B9
100
AcDbEntity
  8
DEFPOINTS
 62
     0
100
AcDbPoint
 10
356.7409515309109
 20
192.9615766671345
 30
0.0
  0
ENDBLK
  5
1BB
330
1B9
100
AcDbEntity
  8
0
100
AcDbBlockEnd
  0
BLOCK
  5
1C4
330
1C3
100
AcDbEntity
  8
0
100
AcDbBlockBegin
  2
_D_5
 70
     0
 10
0.0
 20
0.0
 30
0.0
  3
_D_5
  1

  0
LINE
  5
1C6
330
1C3
100
AcDbEntity
  8
WY
  6
CONTINUOUS
 62
     0
100
AcDbLine
 10
402.0745770521609
 20
189.3990766671345
 30
0.0
 11
402.0745770521609
 21
179.4615766671345
 31
0.0
  0
LINE
  5
1C7
330
1C3
100
AcDbEntity
  8
WY
  6
CONTINUOUS
 62
     0
100
AcDbLine
 10
437.4745770521608
 20
189.3990766671345
 30
0.0
 11
437.4745770521608
 21
179.4615766671345
 31
0.0
  0
LINE
  5
1C8
330
1C3
100
AcDbEntity
  8
WY
  6
CONTINUOUS
 62
     0
100
AcDbLine
 10
404.0745770521609
 20
179.4615766671345
 30
0.0
 11
435.4745770521608
 21
179.4615766671345
 31
0.0
  0
SOLID
  5
1C9
330
1C3
100
AcDbEntity
  8
WY
 62
     0
100
AcDbTrace
 10
404.0745770521609
 20
179.7949100004678
 30
0.0
 11
404.0745770521609
 21
179.1282433338011
 31
0.0
 12
402.0745770521609
 22
179.4615766671345
 32
0.0
 13
402.0745770521609
 23
179.4615766671345
 33
0.0
  0
SOLID
  5
1CA
330
1C3
100
AcDbEntity
  8
WY
 62
     0
100
AcDbTrace
 10
435.4745770521608
 20
179.1282433338011
 30
0.0
 11
435.4745770521608
 21
179.7949100004678
 31
0.0
 12
437.4745770521608
 22
179.4615766671345
 32
0.0
 13
437.4745770521608
 23
179.4615766671345
 33
0.0
  0
MTEXT
  5
1CB
330
1C3
100
AcDbEntity
  8
WY
 62
     0
100
AcDbMText
 10
419.7745770521609
 20
181.7115766671345
 30
0.0
 40
3.0
 41
0.0
 71
     5
 72
     1
  1
\A1;35.4
  7
SLDTEXTSTYLE0
  0
POINT
  5
90A
330
1C3
100
AcDbEntity
  8
DEFPOINTS
 62
     0
100
AcDbPoint
 10
402.0745770521609
 20
189.4615766671345
 30
0.0
  0
POINT
  5
90B
330
1C3
100
AcDbEntity
  8
DEFPOINTS
 62
     0
100
AcDbPoint
 10
437.4745770521608
 20
189.4615766671345
 30
0.0
  0
POINT
  5
90C
330
1C3
100
AcDbEntity
  8
DEFPOINTS
 62
     0
100
AcDbPoint
 10
437.4745770521608
 20
179.4615766671345
 30
0.0
  0
ENDBLK
  5
1C5
330
1C3
100
AcDbEntity
  8
0
100
AcDbBlockEnd
  0
BLOCK
  5
1CE
330
1CD
100
AcDbEntity
  8
0
100
AcDbBlockBegin
  2
_D_6
 70
     0
 10
0.0
 20
0.0
 30
0.0
  3
_D_6
  1

  0
LINE
  5
1D0
330
1CD
100
AcDbEntity
  8
WY
  6
CONTINUOUS
 62
     0
100
AcDbLine
 10
374.7745770521609
 20
189.5990766671345
 30
0.0
 11
374.7745770521609
 21
170.4615766671345
 31
0.0
  0
LINE
  5
1D1
330
1CD
100
AcDbEntity
  8
WY
  6
CONTINUOUS
 62
     0
100
AcDbLine
 10
464.7745770521609
 20
189.5990766671345
 30
0.0
 11
464.7745770521609
 21
170.4615766671345
 31
0.0
  0
LINE
  5
1D2
330
1CD
100
AcDbEntity
  8
WY
  6
CONTINUOUS
 62
     0
100
AcDbLine
 10
376.7745770521609
 20
170.4615766671345
 30
0.0
 11
462.7745770521609
 21
170.4615766671345
 31
0.0
  0
SOLID
  5
1D3
330
1CD
100
AcDbEntity
  8
WY
 62
     0
100
AcDbTrace
 10
376.7745770521609
 20
170.7949100004678
 30
0.0
 11
376.7745770521609
 21
170.1282433338011
 31
0.0
 12
374.7745770521609
 22
170.4615766671345
 32
0.0
 13
374.7745770521609
 23
170.4615766671345
 33
0.0
  0
SOLID
  5
1D4
330
1CD
100
AcDbEntity
  8
WY
 62
     0
100
AcDbTrace
 10
462.7745770521609
 20
170.1282433338011
 30
0.0
 11
462.7745770521609
 21
170.7949100004678
 31
0.0
 12
464.7745770521609
 22
170.4615766671345
 32
0.0
 13
464.7745770521609
 23
170.4615766671345
 33
0.0
  0
MTEXT
  5
1D5
330
1CD
100
AcDbEntity
  8
WY
 62
     0
100
AcDbMText
 10
419.7745770521609
 20
172.7115766671345
 30
0.0
 40
3.0
 41
0.0
 71
     5
 72
     1
  1
\A1;90
  7
SLDTEXTSTYLE0
  0
POINT
  5
90D
330
1CD
100
AcDbEntity
  8
DEFPOINTS
 62
     0
100
AcDbPoint
 10
374.7745770521609
 20
189.6615766671345
 30
0.0
  0
POINT
  5
90E
330
1CD
100
AcDbEntity
  8
DEFPOINTS
 62
     0
100
AcDbPoint
 10
464.7745770521609
 20
189.6615766671345
 30
0.0
  0
POINT
  5
90F
330
1CD
100
AcDbEntity
  8
DEFPOINTS
 62
     0
100
AcDbPoint
 10
464.7745770521609
 20
170.4615766671345
 30
0.0
  0
ENDBLK
  5
1CF
330
1CD
100
AcDbEntity
  8
0
100
AcDbBlockEnd
  0
BLOCK
  5
2F5
330
2F4
100
AcDbEntity
  8
0
100
AcDbBlockBegin
  2
_D_7
 70
     0
 10
0.0
 20
0.0
 30
0.0
  3
_D_7
  1

  0
LINE
  5
2F7
330
2F4
100
AcDbEntity
  8
WY
  6
CONTINUOUS
 62
     0
100
AcDbLine
 10
464.0370770521608
 20
125.4135409588345
 30
0.0
 11
481.7453071364608
 21
125.4135409588345
 31
0.0
  0
LINE
  5
2F8
330
2F4
100
AcDbEntity
  8
WY
  6
CONTINUOUS
 62
     0
100
AcDbLine
 10
464.0370770521608
 20
142.9135409588345
 30
0.0
 11
481.7453071364608
 21
142.9135409588345
 31
0.0
  0
LINE
  5
2F9
330
2F4
100
AcDbEntity
  8
WY
  6
CONTINUOUS
 62
     0
100
AcDbLine
 10
481.7453071364608
 20
127.4135409588345
 30
0.0
 11
481.7453071364608
 21
140.9135409588345
 31
0.0
  0
SOLID
  5
2FA
330
2F4
100
AcDbEntity
  8
WY
 62
     0
100
AcDbTrace
 10
481.4119738031275
 20
127.4135409588345
 30
0.0
 11
482.0786404697942
 21
127.4135409588345
 31
0.0
 12
481.7453071364608
 22
125.4135409588345
 32
0.0
 13
481.7453071364608
 23
125.4135409588345
 33
0.0
  0
SOLID
  5
2FB
330
2F4
100
AcDbEntity
  8
WY
 62
     0
100
AcDbTrace
 10
482.0786404697942
 20
140.9135409588345
 30
0.0
 11
481.4119738031275
 21
140.9135409588345
 31
0.0
 12
481.7453071364608
 22
142.9135409588345
 32
0.0
 13
481.7453071364608
 23
142.9135409588345
 33
0.0
  0
MTEXT
  5
2FC
330
2F4
100
AcDbEntity
  8
WY
 62
     0
100
AcDbMText
 10
479.4953071364608
 20
134.1635409588345
 30
0.0
 40
3.0
 41
0.0
 71
     5
 72
     1
  1
\A1;17.5
  7
SLDTEXTSTYLE0
 11
0.0
 21
1.0
 31
0.0
  0
POINT
  5
910
330
2F4
100
AcDbEntity
  8
DEFPOINTS
 62
     0
100
AcDbPoint
 10
463.9745770521608
 20
125.4135409588345
 30
0.0
  0
POINT
  5
911
330
2F4
100
AcDbEntity
  8
DEFPOINTS
 62
     0
100
AcDbPoint
 10
463.9745770521608
 20
142.9135409588345
 30
0.0
  0
POINT
  5
912
330
2F4
100
AcDbEntity
  8
DEFPOINTS
 62
     0
100
AcDbPoint
 10
481.7453071364608
 20
142.9135409588345
 30
0.0
  0
ENDBLK
  5
2F6
330
2F4
100
AcDbEntity
  8
0
100
AcDbBlockEnd
  0
BLOCK
  5
46B
330
46A
100
AcDbEntity
  8
0
100
AcDbBlockBegin
  2
_D_8
 70
     0
 10
0.0
 20
0.0
 30
0.0
  3
_D_8
  1

  0
LINE
  5
46D
330
46A
100
AcDbEntity
  8
WY
  6
CONTINUOUS
 62
     0
100
AcDbLine
 10
464.8625916705608
 20
90.87494911273444
 30
0.0
 11
482.0956485336609
 21
90.87494911273444
 31
0.0
  0
LINE
  5
46E
330
46A
100
AcDbEntity
  8
WY
  6
CONTINUOUS
 62
     0
100
AcDbLine
 10
464.8625916705608
 20
108.3749491127344
 30
0.0
 11
482.0956485336609
 21
108.3749491127344
 31
0.0
  0
LINE
  5
46F
330
46A
100
AcDbEntity
  8
WY
  6
CONTINUOUS
 62
     0
100
AcDbLine
 10
482.0956485336609
 20
92.87494911273444
 30
0.0
 11
482.0956485336609
 21
106.3749491127344
 31
0.0
  0
SOLID
  5
470
330
46A
100
AcDbEntity
  8
WY
 62
     0
100
AcDbTrace
 10
481.7623152003276
 20
92.87494911273444
 30
0.0
 11
482.4289818669942
 21
92.87494911273444
 31
0.0
 12
482.0956485336609
 22
90.87494911273444
 32
0.0
 13
482.0956485336609
 23
90.87494911273444
 33
0.0
  0
SOLID
  5
471
330
46A
100
AcDbEntity
  8
WY
 62
     0
100
AcDbTrace
 10
482.4289818669942
 20
106.3749491127344
 30
0.0
 11
481.7623152003276
 21
106.3749491127344
 31
0.0
 12
482.0956485336609
 22
108.3749491127344
 32
0.0
 13
482.0956485336609
 23
108.3749491127344
 33
0.0
  0
MTEXT
  5
472
330
46A
100
AcDbEntity
  8
WY
 62
     0
100
AcDbMText
 10
479.8456485336609
 20
99.62494911273444
 30
0.0
 40
3.0
 41
0.0
 71
     5
 72
     1
  1
\A1;17.5
  7
SLDTEXTSTYLE0
 11
0.0
 21
1.0
 31
0.0
  0
POINT
  5
913
330
46A
100
AcDbEntity
  8
DEFPOINTS
 62
     0
100
AcDbPoint
 10
464.8000916705608
 20
90.87494911273444
 30
0.0
  0
POINT
  5
914
330
46A
100
AcDbEntity
  8
DEFPOINTS
 62
     0
100
AcDbPoint
 10
464.8000916705608
 20
108.3749491127344
 30
0.0
  0
POINT
  5
915
330
46A
100
AcDbEntity
  8
DEFPOINTS
 62
     0
100
AcDbPoint
 10
482.0956485336609
 20
108.3749491127344
 30
0.0
  0
ENDBLK
  5
46C
330
46A
100
AcDbEntity
  8
0
100
AcDbBlockEnd
  0
BLOCK
  5
2538
330
2537
100
AcDbEntity
  8
0
100
AcDbBlockBegin
  2
*D103
 70
     1
 10
0.0
 20
0.0
 30
0.0
  3
*D103
  1

  0
LINE
  5
253A
330
2537
100
AcDbEntity
  8
WY
 62
     0
100
AcDbLine
 10
59.44575697641352
 20
148.8516121345776
 30
0.0
 11
45.80340334846358
 21
148.8516121345776
 31
0.0
  0
LINE
  5
253B
330
2537
100
AcDbEntity
  8
WY
 62
     0
100
AcDbLine
 10
64.03702886971348
 20
145.3516120519776
 30
0.0
 11
45.80340334846358
 21
145.3516120519776
 31
0.0
  0
LINE
  5
253C
330
2537
100
AcDbEntity
  8
WY
 62
     0
100
AcDbLine
 10
46.80340334846358
 20
148.8516121345776
 30
0.0
 11
46.80340334846358
 21
132.3036120519776
 31
0.0
  0
LINE
  5
253D
330
2537
100
AcDbEntity
  8
WY
 62
     0
100
AcDbLine
 10
46.80340334846358
 20
148.8516121345776
 30
0.0
 11
46.80340334846358
 21
145.3516120519776
 31
0.0
  0
LINE
  5
253E
330
2537
100
AcDbEntity
  8
WY
 62
     0
100
AcDbLine
 10
46.80340334846358
 20
150.8516121345776
 30
0.0
 11
46.80340334846358
 21
152.8516121345776
 31
0.0
  0
SOLID
  5
253F
330
2537
100
AcDbEntity
  8
WY
 62
     0
100
AcDbTrace
 10
46.47007001513024
 20
150.8516121345776
 30
0.0
 11
47.13673668179691
 21
150.8516121345776
 31
0.0
 12
46.80340334846358
 22
148.8516121345776
 32
0.0
 13
46.80340334846358
 23
148.8516121345776
 33
0.0
  0
SOLID
  5
2540
330
2537
100
AcDbEntity
  8
WY
 62
     0
100
AcDbTrace
 10
47.13673668179691
 20
143.3516120519776
 30
0.0
 11
46.47007001513024
 21
143.3516120519776
 31
0.0
 12
46.80340334846358
 22
145.3516120519776
 32
0.0
 13
46.80340334846358
 23
145.3516120519776
 33
0.0
  0
MTEXT
  5
2541
330
2537
100
AcDbEntity
  8
WY
 62
     0
100
AcDbMText
 10
43.77940334846357
 20
136.8276120519776
 30
0.0
 40
3.0
 41
0.0
 71
     5
 72
     1
  1
3.5
 11
0.0
 21
1.0
 31
0.0
  0
POINT
  5
2542
330
2537
100
AcDbEntity
  8
DEFPOINTS
 62
     0
100
AcDbPoint
 10
60.44575697641352
 20
148.8516121345776
 30
0.0
  0
POINT
  5
2543
330
2537
100
AcDbEntity
  8
DEFPOINTS
 62
     0
100
AcDbPoint
 10
65.03702886971348
 20
145.3516120519776
 30
0.0
  0
POINT
  5
2544
330
2537
100
AcDbEntity
  8
DEFPOINTS
 62
     0
100
AcDbPoint
 10
46.80340334846358
 20
145.3516120519776
 30
0.0
  0
ENDBLK
  5
2539
330
2537
100
AcDbEntity
  8
0
100
AcDbBlockEnd
  0
BLOCK
  5
2546
330
2545
100
AcDbEntity
  8
0
100
AcDbBlockBegin
  2
*D104
 70
     1
 10
0.0
 20
0.0
 30
0.0
  3
*D104
  1

  0
LINE
  5
2548
330
2545
100
AcDbEntity
  8
WY
 62
     0
100
AcDbLine
 10
64.6370288697135
 20
172.8516120519776
 30
0.0
 11
52.41209586975395
 21
172.8516120519776
 31
0.0
  0
LINE
  5
2549
330
2545
100
AcDbEntity
  8
WY
 62
     0
100
AcDbLine
 10
56.88858453770382
 20
148.8516121345776
 30
0.0
 11
52.41209586975395
 21
148.8516121345776
 31
0.0
  0
LINE
  5
254A
330
2545
100
AcDbEntity
  8
WY
 62
     0
100
AcDbLine
 10
53.41209586975395
 20
170.8516120519776
 30
0.0
 11
53.41209586975395
 21
150.8516121345776
 31
0.0
  0
SOLID
  5
254B
330
2545
100
AcDbEntity
  8
WY
 62
     0
100
AcDbTrace
 10
53.74542920308729
 20
170.8516120519776
 30
0.0
 11
53.07876253642062
 21
170.8516120519776
 31
0.0
 12
53.41209586975395
 22
172.8516120519776
 32
0.0
 13
53.41209586975395
 23
172.8516120519776
 33
0.0
  0
SOLID
  5
254C
330
2545
100
AcDbEntity
  8
WY
 62
     0
100
AcDbTrace
 10
53.07876253642062
 20
150.8516121345776
 30
0.0
 11
53.74542920308729
 21
150.8516121345776
 31
0.0
 12
53.41209586975395
 22
148.8516121345776
 32
0.0
 13
53.41209586975395
 23
148.8516121345776
 33
0.0
  0
MTEXT
  5
254D
330
2545
100
AcDbEntity
  8
WY
 62
     0
100
AcDbMText
 10
50.38809586975395
 20
160.8516120932777
 30
0.0
 40
3.0
 41
0.0
 71
     5
 72
     1
  1
24
 11
0.0
 21
1.0
 31
0.0
  0
POINT
  5
254E
330
2545
100
AcDbEntity
  8
DEFPOINTS
 62
     0
100
AcDbPoint
 10
65.6370288697135
 20
172.8516120519776
 30
0.0
  0
POINT
  5
254F
330
2545
100
AcDbEntity
  8
DEFPOINTS
 62
     0
100
AcDbPoint
 10
57.88858453770382
 20
148.8516121345776
 30
0.0
  0
POINT
  5
2550
330
2545
100
AcDbEntity
  8
DEFPOINTS
 62
     0
100
AcDbPoint
 10
53.41209586975395
 20
148.8516121345776
 30
0.0
  0
ENDBLK
  5
2547
330
2545
100
AcDbEntity
  8
0
100
AcDbBlockEnd
  0
BLOCK
  5
2552
330
2551
100
AcDbEntity
  8
0
100
AcDbBlockBegin
  2
*D105
 70
     1
 10
0.0
 20
0.0
 30
0.0
  3
*D105
  1

  0
LINE
  5
2554
330
2551
100
AcDbEntity
  8
WY
 62
     0
100
AcDbLine
 10
75.93702853191348
 20
192.8516109648776
 30
0.0
 11
45.80340334846358
 21
192.8516109648776
 31
0.0
  0
LINE
  5
2555
330
2551
100
AcDbEntity
  8
WY
 62
     0
100
AcDbLine
 10
59.44575697641352
 20
148.8516121345776
 30
0.0
 11
45.80340334846358
 21
148.8516121345776
 31
0.0
  0
LINE
  5
2556
330
2551
100
AcDbEntity
  8
WY
 62
     0
100
AcDbLine
 10
46.80340334846358
 20
190.8516109648776
 30
0.0
 11
46.80340334846358
 21
150.8516121345776
 31
0.0
  0
SOLID
  5
2557
330
2551
100
AcDbEntity
  8
WY
 62
     0
100
AcDbTrace
 10
47.13673668179691
 20
190.8516109648776
 30
0.0
 11
46.47007001513024
 21
190.8516109648776
 31
0.0
 12
46.80340334846358
 22
192.8516109648776
 32
0.0
 13
46.80340334846358
 23
192.8516109648776
 33
0.0
  0
SOLID
  5
2558
330
2551
100
AcDbEntity
  8
WY
 62
     0
100
AcDbTrace
 10
46.47007001513024
 20
150.8516121345776
 30
0.0
 11
47.13673668179691
 21
150.8516121345776
 31
0.0
 12
46.80340334846358
 22
148.8516121345776
 32
0.0
 13
46.80340334846358
 23
148.8516121345776
 33
0.0
  0
MTEXT
  5
2559
330
2551
100
AcDbEntity
  8
WY
 62
     0
100
AcDbMText
 10
43.77940334846357
 20
170.8516115497276
 30
0.0
 40
3.0
 41
0.0
 71
     5
 72
     1
  1
44
 11
0.0
 21
1.0
 31
0.0
  0
POINT
  5
255A
330
2551
100
AcDbEntity
  8
DEFPOINTS
 62
     0
100
AcDbPoint
 10
76.93702853191348
 20
192.8516109648776
 30
0.0
  0
POINT
  5
255B
330
2551
100
AcDbEntity
  8
DEFPOINTS
 62
     0
100
AcDbPoint
 10
60.44575697641352
 20
148.8516121345776
 30
0.0
  0
POINT
  5
255C
330
2551
100
AcDbEntity
  8
DEFPOINTS
 62
     0
100
AcDbPoint
 10
46.80340334846358
 20
148.8516121345776
 30
0.0
  0
ENDBLK
  5
2553
330
2551
100
AcDbEntity
  8
0
100
AcDbBlockEnd
  0
BLOCK
  5
255E
330
255D
100
AcDbEntity
  8
0
100
AcDbBlockBegin
  2
*D106
 70
     1
 10
0.0
 20
0.0
 30
0.0
  3
*D106
  1

  0
LINE
  5
2560
330
255D
100
AcDbEntity
  8
WY
 62
     0
100
AcDbLine
 10
64.03702825771347
 20
145.3516124921776
 30
0.0
 11
39.85983203713999
 21
145.3516124921776
 31
0.0
  0
LINE
  5
2561
330
255D
100
AcDbEntity
  8
WY
 62
     0
100
AcDbLine
 10
108.8370288697134
 20
209.8565519242777
 30
0.0
 11
39.85983203714
 21
209.8565519242777
 31
0.0
  0
LINE
  5
2562
330
255D
100
AcDbEntity
  8
WY
 62
     0
100
AcDbLine
 10
40.85983203713999
 20
147.3516124921776
 30
0.0
 11
40.85983203714
 21
207.8565519242777
 31
0.0
  0
SOLID
  5
2563
330
255D
100
AcDbEntity
  8
WY
 62
     0
100
AcDbTrace
 10
40.52649870380665
 20
147.3516124921776
 30
0.0
 11
41.19316537047332
 21
147.3516124921776
 31
0.0
 12
40.85983203713999
 22
145.3516124921776
 32
0.0
 13
40.85983203713999
 23
145.3516124921776
 33
0.0
  0
SOLID
  5
2564
330
255D
100
AcDbEntity
  8
WY
 62
     0
100
AcDbTrace
 10
41.19316537047333
 20
207.8565519242777
 30
0.0
 11
40.52649870380666
 21
207.8565519242777
 31
0.0
 12
40.85983203714
 22
209.8565519242777
 32
0.0
 13
40.85983203714
 23
209.8565519242777
 33
0.0
  0
MTEXT
  5
2565
330
255D
100
AcDbEntity
  8
WY
 62
     0
100
AcDbMText
 10
37.83583203713999
 20
177.6040822082277
 30
0.0
 40
3.0
 41
0.0
 71
     5
 72
     1
  1
64.5
 11
1.101532288869195E-16
 21
1.0
 31
0.0
  0
POINT
  5
2566
330
255D
100
AcDbEntity
  8
DEFPOINTS
 62
     0
100
AcDbPoint
 10
65.03702825771347
 20
145.3516124921776
 30
0.0
  0
POINT
  5
2567
330
255D
100
AcDbEntity
  8
DEFPOINTS
 62
     0
100
AcDbPoint
 10
109.8370288697134
 20
209.8565519242777
 30
0.0
  0
POINT
  5
2568
330
255D
100
AcDbEntity
  8
DEFPOINTS
 62
     0
100
AcDbPoint
 10
40.85983203714
 20
209.8565519242777
 30
0.0
  0
ENDBLK
  5
255F
330
255D
100
AcDbEntity
  8
0
100
AcDbBlockEnd
  0
BLOCK
  5
256A
330
2569
100
AcDbEntity
  8
0
100
AcDbBlockBegin
  2
*D107
 70
     1
 10
0.0
 20
0.0
 30
0.0
  3
*D107
  1

  0
LINE
  5
256C
330
2569
100
AcDbEntity
  8
WY
 62
     0
100
AcDbLine
 10
87.33702886971355
 20
209.0825568265777
 30
0.0
 11
87.33702886971355
 21
220.2968894867662
 31
0.0
  0
LINE
  5
256D
330
2569
100
AcDbEntity
  8
WY
 62
     0
100
AcDbLine
 10
132.3370288697135
 20
209.0825568265777
 30
0.0
 11
132.3370288697135
 21
220.2968894867662
 31
0.0
  0
LINE
  5
256E
330
2569
100
AcDbEntity
  8
WY
 62
     0
100
AcDbLine
 10
89.33702886971355
 20
219.2968894867662
 30
0.0
 11
130.3370288697135
 21
219.2968894867662
 31
0.0
  0
SOLID
  5
256F
330
2569
100
AcDbEntity
  8
WY
 62
     0
100
AcDbTrace
 10
89.33702886971355
 20
219.6302228200995
 30
0.0
 11
89.33702886971355
 21
218.9635561534328
 31
0.0
 12
87.33702886971355
 22
219.2968894867662
 32
0.0
 13
87.33702886971355
 23
219.2968894867662
 33
0.0
  0
SOLID
  5
2570
330
2569
100
AcDbEntity
  8
WY
 62
     0
100
AcDbTrace
 10
130.3370288697135
 20
218.9635561534328
 30
0.0
 11
130.3370288697135
 21
219.6302228200995
 31
0.0
 12
132.3370288697135
 22
219.2968894867662
 32
0.0
 13
132.3370288697135
 23
219.2968894867662
 33
0.0
  0
MTEXT
  5
2571
330
2569
100
AcDbEntity
  8
WY
 62
     0
100
AcDbMText
 10
109.8370288697135
 20
222.3208894867662
 30
0.0
 40
3.0
 41
0.0
 71
     5
 72
     1
  1
45
  0
POINT
  5
2572
330
2569
100
AcDbEntity
  8
DEFPOINTS
 62
     0
100
AcDbPoint
 10
87.33702886971355
 20
208.0825568265777
 30
0.0
  0
POINT
  5
2573
330
2569
100
AcDbEntity
  8
DEFPOINTS
 62
     0
100
AcDbPoint
 10
132.3370288697135
 20
208.0825568265777
 30
0.0
  0
POINT
  5
2574
330
2569
100
AcDbEntity
  8
DEFPOINTS
 62
     0
100
AcDbPoint
 10
132.3370288697135
 20
219.2968894867662
 30
0.0
  0
ENDBLK
  5
256B
330
2569
100
AcDbEntity
  8
0
100
AcDbBlockEnd
  0
BLOCK
  5
2576
330
2575
100
AcDbEntity
  8
0
100
AcDbBlockBegin
  2
*D108
 70
     1
 10
0.0
 20
0.0
 30
0.0
  3
*D108
  1

  0
LINE
  5
2578
330
2575
100
AcDbEntity
  8
WY
 62
     0
100
AcDbLine
 10
92.13703251341349
 20
144.3516124921776
 30
0.0
 11
92.13703251341349
 21
130.9245202436588
 31
0.0
  0
LINE
  5
2579
330
2575
100
AcDbEntity
  8
WY
 62
     0
100
AcDbLine
 10
127.5370282577135
 20
144.3516124921776
 30
0.0
 11
127.5370282577135
 21
130.9245202436588
 31
0.0
  0
LINE
  5
257A
330
2575
100
AcDbEntity
  8
WY
 62
     0
100
AcDbLine
 10
94.13703251341349
 20
131.9245202436588
 30
0.0
 11
125.5370282577135
 21
131.9245202436588
 31
0.0
  0
SOLID
  5
257B
330
2575
100
AcDbEntity
  8
WY
 62
     0
100
AcDbTrace
 10
94.13703251341349
 20
132.2578535769921
 30
0.0
 11
94.13703251341349
 21
131.5911869103255
 31
0.0
 12
92.13703251341349
 22
131.9245202436588
 32
0.0
 13
92.13703251341349
 23
131.9245202436588
 33
0.0
  0
SOLID
  5
257C
330
2575
100
AcDbEntity
  8
WY
 62
     0
100
AcDbTrace
 10
125.5370282577135
 20
131.5911869103255
 30
0.0
 11
125.5370282577135
 21
132.2578535769921
 31
0.0
 12
127.5370282577135
 22
131.9245202436588
 32
0.0
 13
127.5370282577135
 23
131.9245202436588
 33
0.0
  0
MTEXT
  5
257D
330
2575
100
AcDbEntity
  8
WY
 62
     0
100
AcDbMText
 10
109.8370303855635
 20
134.9485202436588
 30
0.0
 40
3.0
 41
0.0
 71
     5
 72
     1
  1
35.4
  0
POINT
  5
257E
330
2575
100
AcDbEntity
  8
DEFPOINTS
 62
     0
100
AcDbPoint
 10
92.13703251341349
 20
145.3516124921776
 30
0.0
  0
POINT
  5
257F
330
2575
100
AcDbEntity
  8
DEFPOINTS
 62
     0
100
AcDbPoint
 10
127.5370282577135
 20
145.3516124921776
 30
0.0
  0
POINT
  5
2580
330
2575
100
AcDbEntity
  8
DEFPOINTS
 62
     0
100
AcDbPoint
 10
127.5370282577135
 20
131.9245202436588
 30
0.0
  0
ENDBLK
  5
2577
330
2575
100
AcDbEntity
  8
0
100
AcDbBlockEnd
  0
BLOCK
  5
2582
330
2581
100
AcDbEntity
  8
0
100
AcDbBlockBegin
  2
*D109
 70
     1
 10
0.0
 20
0.0
 30
0.0
  3
*D109
  1

  0
LINE
  5
2584
330
2581
100
AcDbEntity
  8
WY
 62
     0
100
AcDbLine
 10
64.83702886971349
 20
144.5516120519776
 30
0.0
 11
64.83702886971349
 21
124.0135858363881
 31
0.0
  0
LINE
  5
2585
330
2581
100
AcDbEntity
  8
WY
 62
     0
100
AcDbLine
 10
154.8370289141135
 20
144.5516121524776
 30
0.0
 11
154.8370289141135
 21
124.0135858363881
 31
0.0
  0
LINE
  5
2586
330
2581
100
AcDbEntity
  8
WY
 62
     0
100
AcDbLine
 10
66.83702886971349
 20
125.0135858363881
 30
0.0
 11
152.8370289141135
 21
125.0135858363881
 31
0.0
  0
SOLID
  5
2587
330
2581
100
AcDbEntity
  8
WY
 62
     0
100
AcDbTrace
 10
66.83702886971349
 20
125.3469191697214
 30
0.0
 11
66.83702886971349
 21
124.6802525030547
 31
0.0
 12
64.83702886971349
 22
125.0135858363881
 32
0.0
 13
64.83702886971349
 23
125.0135858363881
 33
0.0
  0
SOLID
  5
2588
330
2581
100
AcDbEntity
  8
WY
 62
     0
100
AcDbTrace
 10
152.8370289141135
 20
124.6802525030547
 30
0.0
 11
152.8370289141135
 21
125.3469191697214
 31
0.0
 12
154.8370289141135
 22
125.0135858363881
 32
0.0
 13
154.8370289141135
 23
125.0135858363881
 33
0.0
  0
MTEXT
  5
2589
330
2581
100
AcDbEntity
  8
WY
 62
     0
100
AcDbMText
 10
109.8370288919135
 20
128.0375858363881
 30
0.0
 40
3.0
 41
0.0
 71
     5
 72
     1
  1
90
  0
POINT
  5
258A
330
2581
100
AcDbEntity
  8
DEFPOINTS
 62
     0
100
AcDbPoint
 10
64.83702886971349
 20
145.5516120519776
 30
0.0
  0
POINT
  5
258B
330
2581
100
AcDbEntity
  8
DEFPOINTS
 62
     0
100
AcDbPoint
 10
154.8370289141135
 20
145.5516121524776
 30
0.0
  0
POINT
  5
258C
330
2581
100
AcDbEntity
  8
DEFPOINTS
 62
     0
100
AcDbPoint
 10
154.8370289141135
 20
125.0135858363881
 30
0.0
  0
ENDBLK
  5
2583
330
2581
100
AcDbEntity
  8
0
100
AcDbBlockEnd
  0
BLOCK
  5
258E
330
258D
100
AcDbEntity
  8
0
100
AcDbBlockBegin
  2
*D110
 70
     1
 10
0.0
 20
0.0
 30
0.0
  3
*D110
  1

  0
LINE
  5
2590
330
258D
100
AcDbEntity
  8
WY
 62
     0
100
AcDbLine
 10
159.2283019320135
 20
147.8516121345776
 30
0.0
 11
159.2283019320135
 21
117.0747967964593
 31
0.0
  0
LINE
  5
2591
330
258D
100
AcDbEntity
  8
WY
 62
     0
100
AcDbLine
 10
60.44575697641352
 20
147.8516121345776
 30
0.0
 11
60.44575697641352
 21
117.0747967964593
 31
0.0
  0
LINE
  5
2592
330
258D
100
AcDbEntity
  8
WY
 62
     0
100
AcDbLine
 10
157.2283019320135
 20
118.0747967964593
 30
0.0
 11
62.44575697641352
 21
118.0747967964593
 31
0.0
  0
SOLID
  5
2593
330
258D
100
AcDbEntity
  8
WY
 62
     0
100
AcDbTrace
 10
157.2283019320135
 20
117.741463463126
 30
0.0
 11
157.2283019320135
 21
118.4081301297926
 31
0.0
 12
159.2283019320135
 22
118.0747967964593
 32
0.0
 13
159.2283019320135
 23
118.0747967964593
 33
0.0
  0
SOLID
  5
2594
330
258D
100
AcDbEntity
  8
WY
 62
     0
100
AcDbTrace
 10
62.44575697641352
 20
118.4081301297926
 30
0.0
 11
62.44575697641352
 21
117.741463463126
 31
0.0
 12
60.44575697641352
 22
118.0747967964593
 32
0.0
 13
60.44575697641352
 23
118.0747967964593
 33
0.0
  0
MTEXT
  5
2595
330
258D
100
AcDbEntity
  8
WY
 62
     0
100
AcDbMText
 10
109.8370294542135
 20
121.0987967964593
 30
0.0
 40
3.0
 41
0.0
 71
     5
 72
     1
  1
98.8
  0
POINT
  5
2596
330
258D
100
AcDbEntity
  8
DEFPOINTS
 62
     0
100
AcDbPoint
 10
159.2283019320135
 20
148.8516121345776
 30
0.0
  0
POINT
  5
2597
330
258D
100
AcDbEntity
  8
DEFPOINTS
 62
     0
100
AcDbPoint
 10
60.44575697641352
 20
148.8516121345776
 30
0.0
  0
POINT
  5
2598
330
258D
100
AcDbEntity
  8
DEFPOINTS
 62
     0
100
AcDbPoint
 10
60.44575697641352
 20
118.0747967964593
 30
0.0
  0
ENDBLK
  5
258F
330
258D
100
AcDbEntity
  8
0
100
AcDbBlockEnd
  0
BLOCK
  5
259A
330
2599
100
AcDbEntity
  8
0
100
AcDbBlockBegin
  2
*D111
 70
     1
 10
0.0
 20
0.0
 30
0.0
  3
*D111
  1

  0
LINE
  5
259C
330
2599
100
AcDbEntity
  8
WY
 62
     0
100
AcDbLine
 10
155.6370289046135
 20
78.86571449145045
 30
0.0
 11
184.5785713095977
 21
78.86571449145045
 31
0.0
  0
LINE
  5
259D
330
2599
100
AcDbEntity
  8
WY
 62
     0
100
AcDbLine
 10
155.6370289046135
 20
96.36571270335044
 30
0.0
 11
184.5785713095977
 21
96.36571270335044
 31
0.0
  0
LINE
  5
259E
330
2599
100
AcDbEntity
  8
WY
 62
     0
100
AcDbLine
 10
183.5785713095977
 20
80.86571449145045
 30
0.0
 11
183.5785713095977
 21
94.36571270335044
 31
0.0
  0
SOLID
  5
259F
330
2599
100
AcDbEntity
  8
WY
 62
     0
100
AcDbTrace
 10
183.2452379762643
 20
80.86571449145045
 30
0.0
 11
183.911904642931
 21
80.86571449145045
 31
0.0
 12
183.5785713095977
 22
78.86571449145045
 32
0.0
 13
183.5785713095977
 23
78.86571449145045
 33
0.0
  0
SOLID
  5
25A0
330
2599
100
AcDbEntity
  8
WY
 62
     0
100
AcDbTrace
 10
183.911904642931
 20
94.36571270335044
 30
0.0
 11
183.2452379762643
 21
94.36571270335044
 31
0.0
 12
183.5785713095977
 22
96.36571270335044
 32
0.0
 13
183.5785713095977
 23
96.36571270335044
 33
0.0
  0
MTEXT
  5
25A1
330
2599
100
AcDbEntity
  8
WY
 62
     0
100
AcDbMText
 10
180.5545713095977
 20
87.61571359740044
 30
0.0
 40
3.0
 41
0.0
 71
     5
 72
     1
  1
17.5
 11
0.0
 21
1.0
 31
0.0
  0
POINT
  5
25A2
330
2599
100
AcDbEntity
  8
DEFPOINTS
 62
     0
100
AcDbPoint
 10
154.6370289046135
 20
78.86571449145045
 30
0.0
  0
POINT
  5
25A3
330
2599
100
AcDbEntity
  8
DEFPOINTS
 62
     0
100
AcDbPoint
 10
154.6370289046135
 20
96.36571270335044
 30
0.0
  0
POINT
  5
25A4
330
2599
100
AcDbEntity
  8
DEFPOINTS
 62
     0
100
AcDbPoint
 10
183.5785713095977
 20
96.36571270335044
 30
0.0
  0
ENDBLK
  5
259B
330
2599
100
AcDbEntity
  8
0
100
AcDbBlockEnd
  0
BLOCK
  5
88B8
330
88B7
100
AcDbEntity
  8
0
100
AcDbBlockBegin
  2
*D273
 70
     1
 10
0.0
 20
0.0
 30
0.0
  3
*D273
  1

  0
LINE
  5
88BA
330
88B7
100
AcDbEntity
  8
WY
 62
     0
100
AcDbLine
 10
105.7370288697028
 20
85.73581204737242
 30
0.0
 11
105.7370288697028
 21
67.85098664161292
 31
0.0
  0
LINE
  5
88BB
330
88B7
100
AcDbEntity
  8
WY
 62
     0
100
AcDbLine
 10
117.0870288697027
 20
85.73581204737242
 30
0.0
 11
117.0870288697027
 21
67.85098664161292
 31
0.0
  0
LINE
  5
88BC
330
88B7
100
AcDbEntity
  8
WY
 62
     0
100
AcDbLine
 10
107.7370288697028
 20
68.85098664161292
 30
0.0
 11
115.0870288697027
 21
68.85098664161292
 31
0.0
  0
SOLID
  5
88BD
330
88B7
100
AcDbEntity
  8
WY
 62
     0
100
AcDbTrace
 10
107.7370288697028
 20
69.18431997494625
 30
0.0
 11
107.7370288697028
 21
68.51765330827959
 31
0.0
 12
105.7370288697028
 22
68.85098664161292
 32
0.0
 13
105.7370288697028
 23
68.85098664161292
 33
0.0
  0
SOLID
  5
88BE
330
88B7
100
AcDbEntity
  8
WY
 62
     0
100
AcDbTrace
 10
115.0870288697027
 20
68.51765330827959
 30
0.0
 11
115.0870288697027
 21
69.18431997494625
 31
0.0
 12
117.0870288697027
 22
68.85098664161292
 32
0.0
 13
117.0870288697027
 23
68.85098664161292
 33
0.0
  0
MTEXT
  5
88BF
330
88B7
100
AcDbEntity
  8
WY
 62
     0
100
AcDbMText
 10
111.4120288697028
 20
71.87498664161292
 30
0.0
 40
3.0
 41
0.0
 71
     5
 72
     1
  1
11.4
  0
POINT
  5
88C0
330
88B7
100
AcDbEntity
  8
DEFPOINTS
 62
     0
100
AcDbPoint
 10
105.7370288697028
 20
86.73581204737242
 30
0.0
  0
POINT
  5
88C1
330
88B7
100
AcDbEntity
  8
DEFPOINTS
 62
     0
100
AcDbPoint
 10
117.0870288697027
 20
86.73581204737242
 30
0.0
  0
POINT
  5
88C2
330
88B7
100
AcDbEntity
  8
DEFPOINTS
 62
     0
100
AcDbPoint
 10
117.0870288697027
 20
68.85098664161292
 30
0.0
  0
ENDBLK
  5
88B9
330
88B7
100
AcDbEntity
  8
0
100
AcDbBlockEnd
  0
BLOCK
  5
88D3
330
88D2
100
AcDbEntity
  8
0
100
AcDbBlockBegin
  2
*D275
 70
     1
 10
0.0
 20
0.0
 30
0.0
  3
*D275
  1

  0
LINE
  5
88D5
330
88D2
100
AcDbEntity
  8
WY
 62
     0
100
AcDbLine
 10
126.2870288696604
 20
83.34463375563615
 30
0.0
 11
126.2870288696604
 21
61.9248584870255
 31
0.0
  0
LINE
  5
88D6
330
88D2
100
AcDbEntity
  8
WY
 62
     0
100
AcDbLine
 10
105.7370288697028
 20
84.73581204737242
 30
0.0
 11
105.7370288697028
 21
61.9248584870255
 31
0.0
  0
LINE
  5
88D7
330
88D2
100
AcDbEntity
  8
WY
 62
     0
100
AcDbLine
 10
124.2870288696604
 20
62.9248584870255
 30
0.0
 11
107.7370288697028
 21
62.9248584870255
 31
0.0
  0
SOLID
  5
88D8
330
88D2
100
AcDbEntity
  8
WY
 62
     0
100
AcDbTrace
 10
124.2870288696604
 20
62.59152515369217
 30
0.0
 11
124.2870288696604
 21
63.25819182035884
 31
0.0
 12
126.2870288696604
 22
62.9248584870255
 32
0.0
 13
126.2870288696604
 23
62.9248584870255
 33
0.0
  0
SOLID
  5
88D9
330
88D2
100
AcDbEntity
  8
WY
 62
     0
100
AcDbTrace
 10
107.7370288697028
 20
63.25819182035884
 30
0.0
 11
107.7370288697028
 21
62.59152515369217
 31
0.0
 12
105.7370288697028
 22
62.9248584870255
 32
0.0
 13
105.7370288697028
 23
62.9248584870255
 33
0.0
  0
MTEXT
  5
88DA
330
88D2
100
AcDbEntity
  8
WY
 62
     0
100
AcDbMText
 10
116.0120288696816
 20
65.9488584870255
 30
0.0
 40
3.0
 41
0.0
 71
     5
 72
     1
  1
20.6
  0
POINT
  5
88DB
330
88D2
100
AcDbEntity
  8
DEFPOINTS
 62
     0
100
AcDbPoint
 10
126.2870288696604
 20
84.34463375563615
 30
0.0
  0
POINT
  5
88DC
330
88D2
100
AcDbEntity
  8
DEFPOINTS
 62
     0
100
AcDbPoint
 10
105.7370288697028
 20
85.73581204737242
 30
0.0
  0
POINT
  5
88DD
330
88D2
100
AcDbEntity
  8
DEFPOINTS
 62
     0
100
AcDbPoint
 10
105.7370288697028
 20
62.9248584870255
 30
0.0
  0
ENDBLK
  5
88D4
330
88D2
100
AcDbEntity
  8
0
100
AcDbBlockEnd
  0
BLOCK
  5
88F1
330
88F0
100
AcDbEntity
  8
0
100
AcDbBlockBegin
  2
*D276
 70
     1
 10
0.0
 20
0.0
 30
0.0
  3
*D276
  1

  0
LINE
  5
88F3
330
88F0
100
AcDbEntity
  8
WY
 62
     0
100
AcDbLine
 10
64.83703232271353
 20
78.0657104264504
 30
0.0
 11
64.83703232271353
 21
61.9248584870255
 31
0.0
  0
LINE
  5
88F4
330
88F0
100
AcDbEntity
  8
WY
 62
     0
100
AcDbLine
 10
105.7370288697028
 20
84.73581204737242
 30
0.0
 11
105.7370288697028
 21
61.9248584870255
 31
0.0
  0
LINE
  5
88F5
330
88F0
100
AcDbEntity
  8
WY
 62
     0
100
AcDbLine
 10
66.83703232271353
 20
62.9248584870255
 30
0.0
 11
103.7370288697028
 21
62.9248584870255
 31
0.0
  0
SOLID
  5
88F6
330
88F0
100
AcDbEntity
  8
WY
 62
     0
100
AcDbTrace
 10
66.83703232271353
 20
63.25819182035884
 30
0.0
 11
66.83703232271353
 21
62.59152515369217
 31
0.0
 12
64.83703232271353
 22
62.9248584870255
 32
0.0
 13
64.83703232271353
 23
62.9248584870255
 33
0.0
  0
SOLID
  5
88F7
330
88F0
100
AcDbEntity
  8
WY
 62
     0
100
AcDbTrace
 10
103.7370288697028
 20
62.59152515369217
 30
0.0
 11
103.7370288697028
 21
63.25819182035884
 31
0.0
 12
105.7370288697028
 22
62.9248584870255
 32
0.0
 13
105.7370288697028
 23
62.9248584870255
 33
0.0
  0
MTEXT
  5
88F8
330
88F0
100
AcDbEntity
  8
WY
 62
     0
100
AcDbMText
 10
85.28703059620818
 20
65.9488584870255
 30
0.0
 40
3.0
 41
0.0
 71
     5
 72
     1
  1
40.9
  0
POINT
  5
88F9
330
88F0
100
AcDbEntity
  8
DEFPOINTS
 62
     0
100
AcDbPoint
 10
64.83703232271353
 20
79.0657104264504
 30
0.0
  0
POINT
  5
88FA
330
88F0
100
AcDbEntity
  8
DEFPOINTS
 62
     0
100
AcDbPoint
 10
105.7370288697028
 20
85.73581204737242
 30
0.0
  0
POINT
  5
88FB
330
88F0
100
AcDbEntity
  8
DEFPOINTS
 62
     0
100
AcDbPoint
 10
105.7370288697028
 20
62.9248584870255
 30
0.0
  0
ENDBLK
  5
88F2
330
88F0
100
AcDbEntity
  8
0
100
AcDbBlockEnd
  0
BLOCK
  5
8903
330
8902
100
AcDbEntity
  8
0
100
AcDbBlockBegin
  2
*D277
 70
     1
 10
0.0
 20
0.0
 30
0.0
  3
*D277
  1

  0
LINE
  5
8905
330
8902
100
AcDbEntity
  8
WY
 62
     0
100
AcDbLine
 10
129.9169299592599
 20
86.86571313692922
 30
0.0
 11
169.5670867981597
 21
86.86571313692922
 31
0.0
  0
LINE
  5
8906
330
8902
100
AcDbEntity
  8
WY
 62
     0
100
AcDbLine
 10
155.6370289046135
 20
78.86571449145013
 30
0.0
 11
169.5670867981597
 21
78.86571449145013
 31
0.0
  0
LINE
  5
8907
330
8902
100
AcDbEntity
  8
WY
 62
     0
100
AcDbLine
 10
168.5670867981597
 20
84.86571313692922
 30
0.0
 11
168.5670867981597
 21
80.86571449145013
 31
0.0
  0
SOLID
  5
8908
330
8902
100
AcDbEntity
  8
WY
 62
     0
100
AcDbTrace
 10
168.900420131493
 20
84.86571313692922
 30
0.0
 11
168.2337534648263
 21
84.86571313692922
 31
0.0
 12
168.5670867981597
 22
86.86571313692922
 32
0.0
 13
168.5670867981597
 23
86.86571313692922
 33
0.0
  0
SOLID
  5
8909
330
8902
100
AcDbEntity
  8
WY
 62
     0
100
AcDbTrace
 10
168.2337534648263
 20
80.86571449145013
 30
0.0
 11
168.900420131493
 21
80.86571449145013
 31
0.0
 12
168.5670867981597
 22
78.86571449145013
 32
0.0
 13
168.5670867981597
 23
78.86571449145013
 33
0.0
  0
MTEXT
  5
890A
330
8902
100
AcDbEntity
  8
WY
 62
     0
100
AcDbMText
 10
165.5430867981597
 20
82.86571381418968
 30
0.0
 40
3.0
 41
0.0
 71
     5
 72
     1
  1
8
 11
0.0
 21
1.0
 31
0.0
  0
POINT
  5
890B
330
8902
100
AcDbEntity
  8
DEFPOINTS
 62
     0
100
AcDbPoint
 10
128.9169299592599
 20
86.86571313692922
 30
0.0
  0
POINT
  5
890C
330
8902
100
AcDbEntity
  8
DEFPOINTS
 62
     0
100
AcDbPoint
 10
154.6370289046135
 20
78.86571449145013
 30
0.0
  0
POINT
  5
890D
330
8902
100
AcDbEntity
  8
DEFPOINTS
 62
     0
100
AcDbPoint
 10
168.5670867981597
 20
78.86571449145013
 30
0.0
  0
ENDBLK
  5
8904
330
8902
100
AcDbEntity
  8
0
100
AcDbBlockEnd
  0
BLOCK
  5
890F
330
890E
100
AcDbEntity
  8
0
100
AcDbBlockBegin
  2
*D278
 70
     1
 10
0.0
 20
0.0
 30
0.0
  3
*D278
  1

  0
LINE
  5
8911
330
890E
100
AcDbEntity
  8
WY
 62
     0
100
AcDbLine
 10
120.7169299592596
 20
89.36571313692922
 30
0.0
 11
176.8194785826906
 21
89.36571313692922
 31
0.0
  0
LINE
  5
8912
330
890E
100
AcDbEntity
  8
WY
 62
     0
100
AcDbLine
 10
155.3370288903634
 20
78.86571449145013
 30
0.0
 11
176.8194785826906
 21
78.86571449145013
 31
0.0
  0
LINE
  5
8913
330
890E
100
AcDbEntity
  8
WY
 62
     0
100
AcDbLine
 10
175.8194785826906
 20
87.36571313692922
 30
0.0
 11
175.8194785826906
 21
80.86571449145013
 31
0.0
  0
SOLID
  5
8914
330
890E
100
AcDbEntity
  8
WY
 62
     0
100
AcDbTrace
 10
176.1528119160239
 20
87.36571313692922
 30
0.0
 11
175.4861452493572
 21
87.36571313692922
 31
0.0
 12
175.8194785826906
 22
89.36571313692922
 32
0.0
 13
175.8194785826906
 23
89.36571313692922
 33
0.0
  0
SOLID
  5
8915
330
890E
100
AcDbEntity
  8
WY
 62
     0
100
AcDbTrace
 10
175.4861452493572
 20
80.86571449145013
 30
0.0
 11
176.1528119160239
 21
80.86571449145013
 31
0.0
 12
175.8194785826906
 22
78.86571449145013
 32
0.0
 13
175.8194785826906
 23
78.86571449145013
 33
0.0
  0
MTEXT
  5
8916
330
890E
100
AcDbEntity
  8
WY
 62
     0
100
AcDbMText
 10
172.7954785826906
 20
84.11571381418968
 30
0.0
 40
3.0
 41
0.0
 71
     5
 72
     1
  1
10.5
 11
0.0
 21
1.0
 31
0.0
  0
POINT
  5
8917
330
890E
100
AcDbEntity
  8
DEFPOINTS
 62
     0
100
AcDbPoint
 10
119.7169299592596
 20
89.36571313692922
 30
0.0
  0
POINT
  5
8918
330
890E
100
AcDbEntity
  8
DEFPOINTS
 62
     0
100
AcDbPoint
 10
154.3370288903634
 20
78.86571449145013
 30
0.0
  0
POINT
  5
8919
330
890E
100
AcDbEntity
  8
DEFPOINTS
 62
     0
100
AcDbPoint
 10
175.8194785826906
 20
78.86571449145013
 30
0.0
  0
ENDBLK
  5
8910
330
890E
100
AcDbEntity
  8
0
100
AcDbBlockEnd
  0
BLOCK
  5
891E
330
891D
100
AcDbEntity
  8
0
100
AcDbBlockBegin
  2
*D279
 70
     1
 10
0.0
 20
0.0
 30
0.0
  3
*D279
  1

  0
LINE
  5
8920
330
891D
100
AcDbEntity
  8
WY
 62
     0
100
AcDbLine
 10
69.80441112356368
 20
82.6157131370501
 30
0.0
 11
50.45941868387052
 21
82.6157131370501
 31
0.0
  0
LINE
  5
8921
330
891D
100
AcDbEntity
  8
WY
 62
     0
100
AcDbLine
 10
69.80441112356368
 20
92.6157131370501
 30
0.0
 11
50.45941868387052
 21
92.6157131370501
 31
0.0
  0
LINE
  5
8922
330
891D
100
AcDbEntity
  8
WY
 62
     0
100
AcDbLine
 10
51.45941868387052
 20
84.6157131370501
 30
0.0
 11
51.45941868387052
 21
90.6157131370501
 31
0.0
  0
SOLID
  5
8923
330
891D
100
AcDbEntity
  8
WY
 62
     0
100
AcDbTrace
 10
51.12608535053719
 20
84.6157131370501
 30
0.0
 11
51.79275201720386
 21
84.6157131370501
 31
0.0
 12
51.45941868387052
 22
82.6157131370501
 32
0.0
 13
51.45941868387052
 23
82.6157131370501
 33
0.0
  0
SOLID
  5
8924
330
891D
100
AcDbEntity
  8
WY
 62
     0
100
AcDbTrace
 10
51.79275201720386
 20
90.6157131370501
 30
0.0
 11
51.12608535053719
 21
90.6157131370501
 31
0.0
 12
51.45941868387052
 22
92.6157131370501
 32
0.0
 13
51.45941868387052
 23
92.6157131370501
 33
0.0
  0
MTEXT
  5
8925
330
891D
100
AcDbEntity
  8
WY
 62
     0
100
AcDbMText
 10
48.43541868387052
 20
87.6157131370501
 30
0.0
 40
3.0
 41
0.0
 71
     5
 72
     1
  1
10
 11
0.0
 21
1.0
 31
0.0
  0
POINT
  5
8926
330
891D
100
AcDbEntity
  8
DEFPOINTS
 62
     0
100
AcDbPoint
 10
70.80441112356368
 20
82.6157131370501
 30
0.0
  0
POINT
  5
8927
330
891D
100
AcDbEntity
  8
DEFPOINTS
 62
     0
100
AcDbPoint
 10
70.80441112356368
 20
92.6157131370501
 30
0.0
  0
POINT
  5
8928
330
891D
100
AcDbEntity
  8
DEFPOINTS
 62
     0
100
AcDbPoint
 10
51.45941868387052
 20
92.6157131370501
 30
0.0
  0
ENDBLK
  5
891F
330
891D
100
AcDbEntity
  8
0
100
AcDbBlockEnd
  0
BLOCK
  5
893A
330
8939
100
AcDbEntity
  8
0
100
AcDbBlockBegin
  2
*D281
 70
     1
 10
0.0
 20
0.0
 30
0.0
  3
*D281
  1

  0
LINE
  5
893C
330
8939
100
AcDbEntity
  8
WY
 62
     0
100
AcDbLine
 10
148.8496488049636
 20
93.6157131370501
 30
0.0
 11
148.8496488049636
 21
105.4742253303806
 31
0.0
  0
LINE
  5
893D
330
8939
100
AcDbEntity
  8
WY
 62
     0
100
AcDbLine
 10
70.80441112356368
 20
93.6157131370501
 30
0.0
 11
70.80441112356368
 21
105.4742253303806
 31
0.0
  0
LINE
  5
893E
330
8939
100
AcDbEntity
  8
WY
 62
     0
100
AcDbLine
 10
146.8496488049636
 20
104.4742253303806
 30
0.0
 11
72.80441112356368
 21
104.4742253303806
 31
0.0
  0
SOLID
  5
893F
330
8939
100
AcDbEntity
  8
WY
 62
     0
100
AcDbTrace
 10
146.8496488049636
 20
104.1408919970473
 30
0.0
 11
146.8496488049636
 21
104.8075586637139
 31
0.0
 12
148.8496488049636
 22
104.4742253303806
 32
0.0
 13
148.8496488049636
 23
104.4742253303806
 33
0.0
  0
SOLID
  5
8940
330
8939
100
AcDbEntity
  8
WY
 62
     0
100
AcDbTrace
 10
72.80441112356368
 20
104.8075586637139
 30
0.0
 11
72.80441112356368
 21
104.1408919970473
 31
0.0
 12
70.80441112356368
 22
104.4742253303806
 32
0.0
 13
70.80441112356368
 23
104.4742253303806
 33
0.0
  0
MTEXT
  5
8941
330
8939
100
AcDbEntity
  8
WY
 62
     0
100
AcDbMText
 10
109.8270299642636
 20
107.4982253303806
 30
0.0
 40
3.0
 41
0.0
 71
     5
 72
     1
  1
78
  0
POINT
  5
8942
330
8939
100
AcDbEntity
  8
DEFPOINTS
 62
     0
100
AcDbPoint
 10
148.8496488049636
 20
92.6157131370501
 30
0.0
  0
POINT
  5
8943
330
8939
100
AcDbEntity
  8
DEFPOINTS
 62
     0
100
AcDbPoint
 10
70.80441112356368
 20
92.6157131370501
 30
0.0
  0
POINT
  5
8944
330
8939
100
AcDbEntity
  8
DEFPOINTS
 62
     0
100
AcDbPoint
 10
70.80441112356368
 20
104.4742253303806
 30
0.0
  0
ENDBLK
  5
893B
330
8939
100
AcDbEntity
  8
0
100
AcDbBlockEnd
  0
ENDSEC
  0
SECTION
  2
ENTITIES
  0
LINE
  5
72C
330
1F
100
AcDbEntity
  8
2
100
AcDbLine
 10
0.0
 20
0.0
 30
0.0
 11
0.0
 21
297.0
 31
0.0
  0
LINE
  5
795
330
1F
100
AcDbEntity
  8
WYMIARY
 62
     6
100
AcDbLine
 10
0.0
 20
0.0
 30
0.0
 11
0.0
 21
297.0
 31
0.0
  0
LINE
  5
79B
330
1F
100
AcDbEntity
  8
WYMIARY
 62
     6
100
AcDbLine
 10
0.0
 20
0.0
 30
0.0
 11
0.0
 21
297.0
 31
0.0
  0
LINE
  5
79C
330
1F
100
AcDbEntity
  8
WYMIARY
 62
     6
100
AcDbLine
 10
0.0
 20
0.0
 30
0.0
 11
0.0
 21
297.0
 31
0.0
  0
LINE
  5
79D
330
1F
100
AcDbEntity
  8
2
100
AcDbLine
 10
0.0
 20
0.0
 30
0.0
 11
0.0
 21
297.0
 31
0.0
  0
LINE
  5
79E
330
1F
100
AcDbEntity
  8
WYMIARY
 62
     6
100
AcDbLine
 10
0.0
 20
0.0
 30
0.0
 11
0.0
 21
297.0
 31
0.0
  0
LINE
  5
79F
330
1F
100
AcDbEntity
  8
2
100
AcDbLine
 10
0.0
 20
0.0
 30
0.0
 11
0.0
 21
297.0
 31
0.0
  0
LINE
  5
7A3
330
1F
100
AcDbEntity
  8
WYMIARY
 62
     6
100
AcDbLine
 10
0.0
 20
0.0
 30
0.0
 11
0.0
 21
297.0
 31
0.0
  0
LINE
  5
22F9
330
1F
100
AcDbEntity
  8
1
  6
CONTINUOUS
 62
     7
100
AcDbLine
 10
159.2021061563135
 20
145.8498663443776
 30
0.0
 11
159.2283019320135
 21
148.8516121345776
 31
0.0
  0
ARC
  5
22FA
330
1F
100
AcDbEntity
  8
1
  6
CONTINUOUS
 62
     7
100
AcDbCircle
 10
159.0021137828135
 20
145.8516120519776
 30
0.0
 40
0.2000000000000073
100
AcDbArc
 50
270.0
 51
359.500000000002
  0
LINE
  5
22FB
102
{ACAD_REACTORS
102
}
330
1F
100
AcDbEntity
  8
1
  6
CONTINUOUS
 62
     7
100
AcDbLine
 10
60.44575697641352
 20
148.8516121345776
 30
0.0
 11
60.47195321781351
 21
145.8498663443776
 31
0.0
  0
ARC
  5
22FC
330
1F
100
AcDbEntity
  8
1
  6
CONTINUOUS
 62
     7
100
AcDbCircle
 10
60.67194395651347
 20
145.8516120519776
 30
0.0
 40
0.2000000000000073
100
AcDbArc
 50
180.499999999998
 51
270.0
  0
LINE
  5
22FD
330
1F
100
AcDbEntity
  8
1
  6
CONTINUOUS
 62
     7
100
AcDbLine
 10
135.3220374779135
 20
192.8516109648776
 30
0.0
 11
135.3220393406135
 21
192.8515960636776
 31
0.0
  0
LINE
  5
22FE
330
1F
100
AcDbEntity
  8
1
  6
CONTINUOUS
 62
     7
100
AcDbLine
 10
139.7320193694135
 20
192.8516109648776
 30
0.0
 11
139.7320193694135
 21
192.8515960636776
 31
0.0
  0
SPLINE
  5
22FF
330
1F
100
AcDbEntity
  8
0
  6
CONTINUOUS
 62
     7
100
AcDbSpline
210
0.0
220
0.0
230
1.0
 70
    24
 71
     3
 72
    11
 73
     7
 74
     0
 42
0.000000001
 43
0.00000001
 40
0.0
 40
0.0
 40
0.0
 40
0.0
 40
0.2578507998679983
 40
0.5157043016465876
 40
0.7735517372762536
 40
1.0
 40
1.0
 40
1.0
 40
1.0
 10
158.1431628195066
 20
148.8516121345989
 30
0.0
 10
158.1656724676345
 20
148.8516121345989
 30
0.0
 10
158.2106919997594
 20
148.8516121345989
 30
0.0
 10
158.2702418276228
 20
148.8516121345989
 30
0.0
 10
158.3150289915939
 20
148.8516121345989
 30
0.0
 10
158.3295187158092
 20
148.8516121345989
 30
0.0
 10
158.336293859357
 20
148.8516121345989
 30
0.0
  0
LINE
  5
2300
330
1F
100
AcDbEntity
  8
1
  6
CONTINUOUS
 62
     7
100
AcDbLine
 10
126.9839716600135
 20
147.9271794843776
 30
0.0
 11
125.4377116905135
 21
147.7725529286776
 31
0.0
  0
ARC
  5
2301
330
1F
100
AcDbEntity
  8
1
  6
CONTINUOUS
 62
     7
100
AcDbCircle
 10
126.9640715238135
 20
148.1261865165776
 30
0.0
 40
0.200000000000018
100
AcDbArc
 50
275.7105931375037
 51
355.0000000000047
  0
LINE
  5
2302
330
1F
100
AcDbEntity
  8
1
  6
CONTINUOUS
 62
     7
100
AcDbLine
 10
127.2123300926135
 20
148.6690431076776
 30
0.0
 11
127.1633108602135
 21
148.1087557214776
 31
0.0
  0
ARC
  5
2303
330
1F
100
AcDbEntity
  8
1
  6
CONTINUOUS
 62
     7
100
AcDbCircle
 10
127.4115682367135
 20
148.6516120519776
 30
0.0
 40
0.200000000000018
100
AcDbArc
 50
90.0
 51
175.0000000000032
  0
LINE
  5
2304
330
1F
100
AcDbEntity
  8
1
  6
CONTINUOUS
 62
     7
100
AcDbLine
 10
158.1431628195135
 20
148.8516121345776
 30
0.0
 11
154.8370289141135
 21
148.8516121345776
 31
0.0
  0
LINE
  5
2305
330
1F
100
AcDbEntity
  8
1
  6
CONTINUOUS
 62
     7
100
AcDbLine
 10
125.2442219750135
 20
147.0274017366776
 30
0.0
 11
125.2378927068135
 21
147.7525714027776
 31
0.0
  0
LWPOLYLINE
  5
2306
330
1F
100
AcDbEntity
  8
1
  6
CONTINUOUS
 62
     7
100
AcDbPolyline
 90
        9
 70
   128
 43
0.0
 10
125.2378927068135
 20
147.7525714027776
 10
125.2417334811135
 20
147.7529551076776
 10
125.2531030671135
 20
147.7540922525776
 10
125.2715674685135
 20
147.7559390652776
 10
125.2964170174135
 20
147.7584238338776
 10
125.3266980396135
 20
147.7614515635776
 10
125.3612426565135
 20
147.7649058389776
 10
125.3987283902135
 20
147.7686544123776
 10
125.4377116905135
 20
147.7725529286776
  0
LINE
  5
2307
330
1F
100
AcDbEntity
  8
1
  6
CONTINUOUS
 62
     7
100
AcDbLine
 10
158.1324446936135
 20
147.0516123983776
 30
0.0
 11
154.8370289141135
 21
147.0516123983776
 31
0.0
  0
LINE
  5
2308
330
1F
100
AcDbEntity
  8
1
  6
CONTINUOUS
 62
     7
100
AcDbLine
 10
126.6719227181135
 20
145.7004738214776
 30
0.0
 11
125.3132273899135
 21
146.8780092138776
 31
0.0
  0
ARC
  5
2309
330
1F
100
AcDbEntity
  8
1
  6
CONTINUOUS
 62
     7
100
AcDbCircle
 10
125.4442140256135
 20
147.0291474079776
 30
0.0
 40
0.2000000000000068
100
AcDbArc
 50
180.499999999998
 51
229.0856167800061
  0
LINE
  5
230A
330
1F
100
AcDbEntity
  8
1
  6
CONTINUOUS
 62
     7
100
AcDbLine
 10
127.5370282577135
 20
145.6516119825776
 30
0.0
 11
126.8029095129135
 21
145.6516119825776
 31
0.0
  0
ARC
  5
230B
330
1F
100
AcDbEntity
  8
1
  6
CONTINUOUS
 62
     7
100
AcDbCircle
 10
126.8029086671135
 20
145.8516120519776
 30
0.0
 40
0.2000000000000306
100
AcDbArc
 50
229.0856167799884
 51
270.0
  0
LINE
  5
230C
102
{ACAD_REACTORS
102
}
330
1F
100
AcDbEntity
  8
0
  6
CONTINUOUS
 62
     7
100
AcDbLine
 10
159.2283019320135
 20
148.8516121345776
 30
0.0
 11
158.3362938593135
 21
148.8516121345776
 31
0.0
  0
SPLINE
  5
230D
330
1F
100
AcDbEntity
  8
1
  6
CONTINUOUS
 62
     7
100
AcDbSpline
210
0.0
220
0.0
230
1.0
 70
     8
 71
     3
 72
    12
 73
     8
 74
     0
 42
0.000000001
 43
0.00000001
 40
0.0
 40
0.0
 40
0.0
 40
0.0
 40
0.0083640738302905
 40
0.3527404474468673
 40
0.6379855050650122
 40
0.8182832300279028
 40
1.0
 40
1.0
 40
1.0
 40
1.0
 10
158.7011782442648
 20
147.2498667600981
 30
0.0
 10
158.7010381890209
 20
147.2491965572967
 30
0.0
 10
158.6951315996727
 20
147.2209319053038
 30
0.0
 10
158.6736618621647
 20
147.1694344412673
 30
0.0
 10
158.6211329393915
 20
147.1108965834489
 30
0.0
 10
158.5633878956101
 20
147.0721708843513
 30
0.0
 10
158.5236785219032
 20
147.0609844802284
 30
0.0
 10
158.5037460075188
 20
147.0553693536154
 30
0.0
  0
LINE
  5
230E
330
1F
100
AcDbEntity
  8
0
  6
CONTINUOUS
 62
     7
100
AcDbLine
 10
158.5037460075135
 20
147.0553693535776
 30
0.0
 11
158.4643289437135
 21
147.0516123983776
 31
0.0
  0
LINE
  5
230F
330
1F
100
AcDbEntity
  8
0
  6
CONTINUOUS
 62
     7
100
AcDbLine
 10
158.4643289437135
 20
147.0516123983776
 30
0.0
 11
158.1324446936135
 21
147.0516123983776
 31
0.0
  0
LINE
  5
2310
330
1F
100
AcDbEntity
  8
1
  6
CONTINUOUS
 62
     7
100
AcDbLine
 10
158.4951340677135
 20
145.6516119825776
 30
0.0
 11
154.8370289141135
 21
145.6516119825776
 31
0.0
  0
LINE
  5
2311
330
1F
100
AcDbEntity
  8
0
  6
CONTINUOUS
 62
     7
100
AcDbLine
 10
159.0021137138135
 20
145.6516119825776
 30
0.0
 11
158.4951340677135
 21
145.6516119825776
 31
0.0
  0
SPLINE
  5
2312
330
1F
100
AcDbEntity
  8
1
  6
CONTINUOUS
 62
     7
100
AcDbSpline
210
0.0
220
0.0
230
1.0
 70
    24
 71
     3
 72
    11
 73
     7
 74
     0
 42
0.000000001
 43
0.00000001
 40
0.0
 40
0.0
 40
0.0
 40
0.0
 40
0.2578450777026733
 40
0.5156820770207594
 40
0.7735215046421543
 40
1.0
 40
1.0
 40
1.0
 40
1.0
 10
61.33776283724791
 20
148.8516121345989
 30
0.0
 10
61.34574002240413
 20
148.8516121345989
 30
0.0
 10
61.36169414278822
 20
148.8516121345989
 30
0.0
 10
61.41052253842395
 20
148.8516121345989
 30
0.0
 10
61.46892499190022
 20
148.8516121345989
 30
0.0
 10
61.51115093809932
 20
148.8516121345989
 30
0.0
 10
61.53089678748142
 20
148.8516121345989
 30
0.0
  0
ARC
  5
2313
330
1F
100
AcDbEntity
  8
1
  6
CONTINUOUS
 62
     7
100
AcDbCircle
 10
92.70998621551348
 20
148.1261865165776
 30
0.0
 40
0.2000000000000345
100
AcDbArc
 50
184.9999999999953
 51
264.2894068624971
  0
LINE
  5
2314
330
1F
100
AcDbEntity
  8
1
  6
CONTINUOUS
 62
     7
100
AcDbLine
 10
94.23634535531352
 20
147.7725529286776
 30
0.0
 11
92.69008911121352
 21
147.9271794843776
 31
0.0
  0
ARC
  5
2315
330
1F
100
AcDbEntity
  8
1
  6
CONTINUOUS
 62
     7
100
AcDbCircle
 10
92.26248950271349
 20
148.6516120519776
 30
0.0
 40
0.1999999999999897
100
AcDbArc
 50
4.999999999996783
 51
90.0
  0
LINE
  5
2316
330
1F
100
AcDbEntity
  8
1
  6
CONTINUOUS
 62
     7
100
AcDbLine
 10
92.51074618561347
 20
148.1087557214776
 30
0.0
 11
92.46172881591349
 21
148.6690431076776
 31
0.0
  0
LINE
  5
2317
330
1F
100
AcDbEntity
  8
1
  6
CONTINUOUS
 62
     7
100
AcDbLine
 10
64.83703232271353
 20
148.8516121345776
 30
0.0
 11
61.53089678751348
 21
148.8516121345776
 31
0.0
  0
LINE
  5
2318
330
1F
100
AcDbEntity
  8
1
  6
CONTINUOUS
 62
     7
100
AcDbLine
 10
94.43616620171349
 20
147.7525714027776
 30
0.0
 11
94.42983693341353
 21
147.0274017366776
 31
0.0
  0
LWPOLYLINE
  5
2319
330
1F
100
AcDbEntity
  8
1
  6
CONTINUOUS
 62
     7
100
AcDbPolyline
 90
        9
 70
   128
 43
0.0
 10
94.23634535531352
 20
147.7725529286776
 10
94.27533051831352
 20
147.7686544123776
 10
94.31281438931353
 20
147.7649058389776
 10
94.34735900621354
 20
147.7614515635776
 10
94.37764189111351
 20
147.7584238338776
 10
94.40248957741352
 20
147.7559390652776
 10
94.4209558414135
 20
147.7540922525776
 10
94.4323254274135
 20
147.7529551076776
 10
94.43616620171349
 20
147.7525714027776
  0
LINE
  5
231A
330
1F
100
AcDbEntity
  8
1
  6
CONTINUOUS
 62
     7
100
AcDbLine
 10
64.83703232271353
 20
147.0516123983776
 30
0.0
 11
61.54161072241351
 21
147.0516123983776
 31
0.0
  0
LINE
  5
231B
330
1F
100
AcDbEntity
  8
1
  6
CONTINUOUS
 62
     7
100
AcDbLine
 10
94.3608296559135
 20
146.8780092138776
 30
0.0
 11
93.00213432771352
 21
145.7004738214776
 31
0.0
  0
ARC
  5
231C
330
1F
100
AcDbEntity
  8
1
  6
CONTINUOUS
 62
     7
100
AcDbCircle
 10
94.22984371381352
 20
147.0291474079776
 30
0.0
 40
0.2000000000000068
100
AcDbArc
 50
310.914383219994
 51
359.500000000002
  0
ARC
  5
231D
330
1F
100
AcDbEntity
  8
1
  6
CONTINUOUS
 62
     7
100
AcDbCircle
 10
92.87114907221348
 20
145.8516120519776
 30
0.0
 40
0.2000000000000306
100
AcDbArc
 50
270.0
 51
310.9143832200116
  0
LINE
  5
231E
330
1F
100
AcDbEntity
  8
1
  6
CONTINUOUS
 62
     7
100
AcDbLine
 10
92.87114567021354
 20
145.6516119825776
 30
0.0
 11
92.13703251341349
 21
145.6516119825776
 31
0.0
  0
LINE
  5
231F
330
1F
100
AcDbEntity
  8
1
  6
CONTINUOUS
 62
     7
100
AcDbLine
 10
61.33776283721352
 20
148.8516121345776
 30
0.0
 11
60.44575697641352
 21
148.8516121345776
 31
0.0
  0
LINE
  5
2320
330
1F
100
AcDbEntity
  8
1
  6
CONTINUOUS
 62
     7
100
AcDbLine
 10
61.54161072241351
 20
147.0516123983776
 30
0.0
 11
61.20973206031351
 21
147.0516123983776
 31
0.0
  0
LINE
  5
2321
330
1F
100
AcDbEntity
  8
1
  6
CONTINUOUS
 62
     7
100
AcDbLine
 10
61.20973206031351
 20
147.0516123983776
 30
0.0
 11
61.17031103831351
 21
147.0553693535776
 31
0.0
  0
SPLINE
  5
2322
330
1F
100
AcDbEntity
  8
1
  6
CONTINUOUS
 62
     7
100
AcDbSpline
210
0.0
220
0.0
230
1.0
 70
     8
 71
     3
 72
    12
 73
     8
 74
     0
 42
0.000000001
 43
0.00000001
 40
0.0
 40
0.0
 40
0.0
 40
0.0
 40
0.181712498975126
 40
0.3620061213872449
 40
0.6472606302123539
 40
0.9916354030353388
 40
1.0
 40
1.0
 40
1.0
 40
1.0
 10
61.17031103833199
 20
147.0553693536154
 30
0.0
 10
61.15037889867972
 20
147.0609844258371
 30
0.0
 10
61.11067025669195
 20
147.0721707257766
 30
0.0
 10
61.05292868722751
 20
147.1108983707266
 30
0.0
 10
61.00038517936622
 20
147.1694316416819
 30
0.0
 10
60.97894135495392
 20
147.2209337920843
 30
0.0
 10
60.973018552003
 20
147.2491965580547
 30
0.0
 10
60.97287810309422
 20
147.2498667600981
 30
0.0
  0
LINE
  5
2323
330
1F
100
AcDbEntity
  8
1
  6
CONTINUOUS
 62
     7
100
AcDbLine
 10
64.83703232271353
 20
145.6516119825776
 30
0.0
 11
61.17892390951351
 21
145.6516119825776
 31
0.0
  0
LINE
  5
2324
330
1F
100
AcDbEntity
  8
1
  6
CONTINUOUS
 62
     7
100
AcDbLine
 10
61.17892390951351
 20
145.6516119825776
 30
0.0
 11
60.67194170221353
 21
145.6516119825776
 31
0.0
  0
ARC
  5
2325
330
1F
100
AcDbEntity
  8
1
  6
CONTINUOUS
 62
     7
100
AcDbCircle
 10
109.8370288697135
 20
-90.1434480757224
 30
0.0
 40
300.0000000000002
100
AcDbArc
 50
85.87651071329996
 51
87.42081894839995
  0
SPLINE
  5
2326
330
1F
100
AcDbEntity
  8
1
  6
CONTINUOUS
 62
     7
100
AcDbSpline
210
0.0
220
0.0
230
1.0
 70
    24
 71
     3
 72
    12
 73
     8
 74
     0
 42
0.000000001
 43
0.00000001
 40
0.0
 40
0.0
 40
0.0
 40
0.0
 40
0.2149618040015677
 40
0.4299310031761185
 40
0.6448123996856084
 40
0.8594657166122008
 40
1.0
 40
1.0
 40
1.0
 40
1.0
 10
123.3370279417801
 20
209.3524461546771
 30
0.0
 10
123.3370279417801
 20
209.3749704940705
 30
0.0
 10
123.3370279417801
 20
209.4200199477456
 30
0.0
 10
123.3370279417802
 20
209.4800536370037
 30
0.0
 10
123.3370279417801
 20
209.5253283693984
 30
0.0
 10
123.3370279417802
 20
209.5492534118036
 30
0.0
 10
123.3370279417802
 20
209.5516849235026
 30
0.0
 10
123.3370279417802
 20
209.5526469806068
 30
0.0
  0
ARC
  5
2327
330
1F
100
AcDbEntity
  8
1
  6
CONTINUOUS
 62
     7
100
AcDbCircle
 10
109.8370288697135
 20
-90.1434480757224
 30
0.0
 40
300.0000000000001
100
AcDbArc
 50
87.76489775620004
 51
92.2351022438
  0
SPLINE
  5
2328
330
1F
100
AcDbEntity
  8
1
  6
CONTINUOUS
 62
     7
100
AcDbSpline
210
0.0
220
0.0
230
1.0
 70
    24
 71
     3
 72
    12
 73
     8
 74
     0
 42
0.000000001
 43
0.00000001
 40
0.0
 40
0.0
 40
0.0
 40
0.0
 40
0.2144843751115903
 40
0.4289725922535833
 40
0.6435364676453705
 40
0.8582526539007943
 40
0.9999999999999999
 40
0.9999999999999999
 40
0.9999999999999999
 40
0.9999999999999999
 10
121.5370272742081
 20
209.6283150771491
 30
0.0
 10
121.5370272742081
 20
209.6261050879539
 30
0.0
 10
121.5370272742081
 20
209.6216850699762
 30
0.0
 10
121.5370272742081
 20
209.5872161757379
 30
0.0
 10
121.5370272742081
 20
209.5364816491096
 30
0.0
 10
121.5370272742082
 20
209.4801957966949
 30
0.0
 10
121.5370272742081
 20
209.4429667650116
 30
0.0
 10
121.5370272742081
 20
209.4281626799934
 30
0.0
  0
SPLINE
  5
2329
330
1F
100
AcDbEntity
  8
1
  6
CONTINUOUS
 62
     7
100
AcDbSpline
210
0.0
220
0.0
230
1.0
 70
    24
 71
     3
 72
    12
 73
     8
 74
     0
 42
0.000000001
 43
0.00000001
 40
0.0
 40
0.0
 40
0.0
 40
0.0
 40
0.2148961858353572
 40
0.4298080971448958
 40
0.644632735930237
 40
0.8593013013273615
 40
1.0
 40
1.0
 40
1.0
 40
1.0
 10
98.13702977164269
 20
209.4281626799934
 30
0.0
 10
98.13702977164269
 20
209.4506767283802
 30
0.0
 10
98.13702977164269
 20
209.4957064726661
 30
0.0
 10
98.1370297716428
 20
209.5557171683342
 30
0.0
 10
98.13702977164269
 20
209.6009800898821
 30
0.0
 10
98.1370297716428
 20
209.6249139246667
 30
0.0
 10
98.13702977164269
 20
209.6273504116324
 30
0.0
 10
98.1370297716428
 20
209.6283150771491
 30
0.0
  0
ARC
  5
232A
330
1F
100
AcDbEntity
  8
1
  6
CONTINUOUS
 62
     7
100
AcDbCircle
 10
109.8370288697135
 20
-90.1434480757224
 30
0.0
 40
300.0000000000002
100
AcDbArc
 50
92.5791810516
 51
94.12348928669999
  0
SPLINE
  5
232B
330
1F
100
AcDbEntity
  8
1
  6
CONTINUOUS
 62
     7
100
AcDbSpline
210
0.0
220
0.0
230
1.0
 70
    24
 71
     3
 72
    12
 73
     8
 74
     0
 42
0.000000001
 43
0.00000001
 40
0.0
 40
0.0
 40
0.0
 40
0.0
 40
0.2144082133770121
 40
0.4288426125297258
 40
0.64336147542902
 40
0.8580905493979792
 40
0.9999999999999999
 40
0.9999999999999999
 40
0.9999999999999999
 40
0.9999999999999999
 10
96.33702910407072
 20
209.5526469806068
 30
0.0
 10
96.33702910407072
 20
209.5504380095574
 30
0.0
 10
96.33702910407072
 20
209.5460197976759
 30
0.0
 10
96.33702910407072
 20
209.51155366625
 30
0.0
 10
96.33702910407072
 20
209.4608232389465
 30
0.0
 10
96.33702910407072
 20
209.4045217776086
 30
0.0
 10
96.33702910407072
 20
209.3672692477552
 30
0.0
 10
96.33702910407072
 20
209.3524461546771
 30
0.0
  0
LINE
  5
232C
102
{ACAD_REACTORS
102
}
330
1F
100
AcDbEntity
  8
1
  6
CONTINUOUS
 62
     7
100
AcDbLine
 10
132.3370288697135
 20
208.0825568265777
 30
0.0
 11
132.3370294170135
 21
204.0516105654776
 31
0.0
  0
LINE
  5
232D
330
1F
100
AcDbEntity
  8
1
  6
CONTINUOUS
 62
     7
100
AcDbLine
 10
132.3370294170135
 20
204.0516105654776
 30
0.0
 11
132.1370297567135
 21
204.0516105654776
 31
0.0
  0
ARC
  5
232E
330
1F
100
AcDbEntity
  8
1
  6
CONTINUOUS
 62
     7
100
AcDbCircle
 10
88.33702886971355
 20
208.0825568265777
 30
0.0
 40
1.0
100
AcDbArc
 50
94.12348928670133
 51
180.0
  0
LINE
  5
232F
330
1F
100
AcDbEntity
  8
1
  6
CONTINUOUS
 62
     7
100
AcDbLine
 10
132.1370297567135
 20
204.0516105654776
 30
0.0
 11
87.53702915171351
 21
204.0516105654776
 31
0.0
  0
LINE
  5
2330
330
1F
100
AcDbEntity
  8
1
  6
CONTINUOUS
 62
     7
100
AcDbLine
 10
96.33702910411353
 20
205.8616107264776
 30
0.0
 11
98.13702977161347
 21
205.8616107264776
 31
0.0
  0
LINE
  5
2331
330
1F
100
AcDbEntity
  8
1
  6
CONTINUOUS
 62
     7
100
AcDbLine
 10
121.5370272742135
 20
205.8616107264776
 30
0.0
 11
123.3370279418135
 21
205.8616107264776
 31
0.0
  0
LINE
  5
2332
330
1F
100
AcDbEntity
  8
1
  6
CONTINUOUS
 62
     7
100
AcDbLine
 10
96.33702910411353
 20
209.3524461546776
 30
0.0
 11
96.33702910411353
 21
205.8616107264776
 31
0.0
  0
LINE
  5
2333
330
1F
100
AcDbEntity
  8
1
  6
CONTINUOUS
 62
     7
100
AcDbLine
 10
121.5370272742135
 20
209.4281626799777
 30
0.0
 11
121.5370272742135
 21
205.8616107264776
 31
0.0
  0
LINE
  5
2334
330
1F
100
AcDbEntity
  8
1
  6
CONTINUOUS
 62
     7
100
AcDbLine
 10
98.13702977161347
 20
209.4281626799777
 30
0.0
 11
98.13702977161347
 21
205.8616107264776
 31
0.0
  0
LINE
  5
2335
330
1F
100
AcDbEntity
  8
1
  6
CONTINUOUS
 62
     7
100
AcDbLine
 10
123.3370279418135
 20
209.3524461546776
 30
0.0
 11
123.3370279418135
 21
205.8616107264776
 31
0.0
  0
ARC
  5
2336
330
1F
100
AcDbEntity
  8
1
  6
CONTINUOUS
 62
     7
100
AcDbCircle
 10
131.3370288697135
 20
208.0825568265777
 30
0.0
 40
1.000000000000028
100
AcDbArc
 50
0.0
 51
85.87651071330205
  0
LINE
  5
2337
102
{ACAD_REACTORS
102
}
330
1F
100
AcDbEntity
  8
1
  6
CONTINUOUS
 62
     7
100
AcDbLine
 10
87.33702576621351
 20
204.0516105654776
 30
0.0
 11
87.33702886971355
 21
208.0825568265777
 31
0.0
  0
LINE
  5
2338
330
1F
100
AcDbEntity
  8
1
  6
CONTINUOUS
 62
     7
100
AcDbLine
 10
87.53702915171351
 20
204.0516105654776
 30
0.0
 11
87.33702576621351
 21
204.0516105654776
 31
0.0
  0
LINE
  5
2339
330
1F
100
AcDbEntity
  8
1
  6
CONTINUOUS
 62
     7
100
AcDbLine
 10
96.33702910411353
 20
208.1116115608776
 30
0.0
 11
98.13702977161347
 21
208.1116115608776
 31
0.0
  0
ARC
  5
233A
330
1F
100
AcDbEntity
  8
1
  6
CONTINUOUS
 62
     7
100
AcDbCircle
 10
109.8370288697135
 20
-90.1434480757224
 30
0.0
 40
300.0000000000001
100
AcDbArc
 50
92.2351022438
 51
92.5791810516
  0
LINE
  5
233B
330
1F
100
AcDbEntity
  8
1
  6
CONTINUOUS
 62
     7
100
AcDbLine
 10
121.5370272742135
 20
208.1116115608776
 30
0.0
 11
123.3370279418135
 21
208.1116115608776
 31
0.0
  0
ARC
  5
233C
330
1F
100
AcDbEntity
  8
1
  6
CONTINUOUS
 62
     7
100
AcDbCircle
 10
109.8370288697135
 20
-90.1434480757224
 30
0.0
 40
300.0000000000001
100
AcDbArc
 50
87.42081894839995
 51
87.76489775620004
  0
LINE
  5
233D
330
1F
100
AcDbEntity
  8
1
  6
CONTINUOUS
 62
     7
100
AcDbLine
 10
128.0625922130135
 20
209.3014208534776
 30
0.0
 11
128.0625922130135
 21
209.3024229565776
 31
0.0
  0
LINE
  5
233E
330
1F
100
AcDbEntity
  8
1
  6
CONTINUOUS
 62
     7
100
AcDbLine
 10
128.0625866250135
 20
209.3014208534776
 30
0.0
 11
128.0625866250135
 21
209.3024229565776
 31
0.0
  0
LINE
  5
233F
330
1F
100
AcDbEntity
  8
1
  6
CONTINUOUS
 62
     7
100
AcDbLine
 10
128.0625922130135
 20
209.3024229565776
 30
0.0
 11
128.0625866250135
 21
209.3024229565776
 31
0.0
  0
SPLINE
  5
2340
330
1F
100
AcDbEntity
  8
1
  6
CONTINUOUS
 62
     7
100
AcDbSpline
210
0.0
220
0.0
230
1.0
 70
     8
 71
     3
 72
    12
 73
     8
 74
     0
 42
0.000000001
 43
0.00000001
 40
0.0
 40
0.0
 40
0.0
 40
0.0
 40
0.2137186485294028
 40
0.4274909537304797
 40
0.6413169663706269
 40
0.8571599990776323
 40
1.0
 40
1.0
 40
1.0
 40
1.0
 10
129.8511338876057
 20
209.1882018307082
 30
0.0
 10
129.8496278198575
 20
209.1883011878226
 30
0.0
 10
129.8466153062443
 20
209.1884999269964
 30
0.0
 10
129.8227845239729
 20
209.1900946737558
 30
0.0
 10
129.7877264100458
 20
209.192433269475
 30
0.0
 10
129.7486425621514
 20
209.1950371678703
 30
0.0
 10
129.7226759592219
 20
209.1967613658894
 30
0.0
 10
129.7123351590205
 20
209.197448001229
 30
0.0
  0
SPLINE
  5
2341
330
1F
100
AcDbEntity
  8
1
  6
CONTINUOUS
 62
     7
100
AcDbSpline
210
0.0
220
0.0
230
1.0
 70
     8
 71
     3
 72
    12
 73
     8
 74
     0
 42
0.000000001
 43
0.00000001
 40
0.0
 40
0.0
 40
0.0
 40
0.0
 40
0.2149062230688922
 40
0.4298751767202807
 40
0.6444560231523789
 40
0.860127819621388
 40
1.0
 40
1.0
 40
1.0
 40
1.0
 10
129.7123351590205
 20
209.197448001229
 30
0.0
 10
129.6967261112465
 20
209.198483200362
 30
0.0
 10
129.665503459457
 20
209.2005539007999
 30
0.0
 10
129.6239369707022
 20
209.2033084649146
 30
0.0
 10
129.592462963483
 20
209.2053825874885
 30
0.0
 10
129.5758385957719
 20
209.2064813444994
 30
0.0
 10
129.5741864069864
 20
209.2065886338343
 30
0.0
 10
129.5735364304353
 20
209.2066308418147
 30
0.0
  0
SPLINE
  5
2342
330
1F
100
AcDbEntity
  8
1
  6
CONTINUOUS
 62
     7
100
AcDbSpline
210
0.0
220
0.0
230
1.0
 70
     8
 71
     3
 72
    10
 73
     6
 74
     0
 42
0.000000001
 43
0.00000001
 40
0.0
 40
0.0
 40
0.0
 40
0.0
 40
0.3566362269533249
 40
0.866534235340795
 40
1.0
 40
1.0
 40
1.0
 40
1.0
 10
127.5861778752375
 20
209.3310369113319
 30
0.0
 10
127.5709280763474
 20
209.3319405767638
 30
0.0
 10
127.5338749902568
 20
209.3341362511649
 30
0.0
 10
127.5011466747951
 20
209.3360678995846
 30
0.0
 10
127.491753275226
 20
209.3366186310073
 30
0.0
 10
127.4898046152163
 20
209.3367328801981
 30
0.0
  0
LINE
  5
2343
330
1F
100
AcDbEntity
  8
1
  6
CONTINUOUS
 62
     7
100
AcDbLine
 10
128.1459046052135
 20
209.2963358321776
 30
0.0
 11
128.1459046052135
 21
209.2973379352777
 31
0.0
  0
LINE
  5
2344
330
1F
100
AcDbEntity
  8
1
  6
CONTINUOUS
 62
     7
100
AcDbLine
 10
128.1280381129135
 20
209.2974273422776
 30
0.0
 11
128.1280381129135
 21
209.2984294453776
 31
0.0
  0
LINE
  5
2345
330
1F
100
AcDbEntity
  8
1
  6
CONTINUOUS
 62
     7
100
AcDbLine
 10
128.1459042697135
 20
209.2973391954776
 30
0.0
 11
128.1280380697135
 21
209.2984310634776
 31
0.0
  0
SPLINE
  5
2346
330
1F
100
AcDbEntity
  8
1
  6
CONTINUOUS
 62
     7
100
AcDbSpline
210
0.0
220
0.0
230
1.0
 70
     8
 71
     3
 72
    11
 73
     7
 74
     0
 42
0.000000001
 43
0.00000001
 40
0.0
 40
0.0
 40
0.0
 40
0.0
 40
0.3001115446468343
 40
0.6033701371830416
 40
0.9080958687737849
 40
1.0
 40
1.0
 40
1.0
 40
1.0
 10
129.6230306373406
 20
209.203363762223
 30
0.0
 10
129.5960020120727
 20
209.2051483135351
 30
0.0
 10
129.5416613323266
 20
209.2087361294295
 30
0.0
 10
129.4818665555423
 20
209.2126603582371
 30
0.0
 10
129.4543456512876
 20
209.2144638946149
 30
0.0
 10
129.4485977209312
 20
209.2148429554365
 30
0.0
 10
129.4472658531237
 20
209.2149307885996
 30
0.0
  0
ARC
  5
2347
330
1F
100
AcDbEntity
  8
1
  6
CONTINUOUS
 62
     7
100
AcDbCircle
 10
65.03702886971348
 20
145.5516120519776
 30
0.0
 40
0.1999999999999886
100
AcDbArc
 50
180.0
 51
270.0
  0
ARC
  5
2348
330
1F
100
AcDbEntity
  8
1
  6
CONTINUOUS
 62
     7
100
AcDbCircle
 10
75.93702886971352
 20
173.0516120519776
 30
0.0
 40
0.2000000000000455
100
AcDbArc
 50
270.0
 51
0.0
  0
LINE
  5
2349
330
1F
100
AcDbEntity
  8
1
  6
CONTINUOUS
 62
     7
100
AcDbLine
 10
84.69254649141351
 20
150.6360941740776
 30
0.0
 11
84.73702645761352
 21
150.5916123452776
 31
0.0
  0
LINE
  5
234A
330
1F
100
AcDbEntity
  8
1
  6
CONTINUOUS
 62
     7
100
AcDbLine
 10
84.73702645761352
 20
150.5516120406776
 30
0.0
 11
84.73702645761352
 21
150.5916123452776
 31
0.0
  0
LINE
  5
234B
330
1F
100
AcDbEntity
  8
1
  6
CONTINUOUS
 62
     7
100
AcDbLine
 10
84.77545655231347
 20
150.5516120406776
 30
0.0
 11
84.73702645761352
 21
150.5516120406776
 31
0.0
  0
LINE
  5
234C
330
1F
100
AcDbEntity
  8
1
  6
CONTINUOUS
 62
     7
100
AcDbLine
 10
84.77698392141349
 20
149.5516118767776
 30
0.0
 11
84.77545655231347
 21
150.5516120406776
 31
0.0
  0
LINE
  5
234D
330
1F
100
AcDbEntity
  8
1
  6
CONTINUOUS
 62
     7
100
AcDbLine
 10
84.69254649141351
 20
150.6360941740776
 30
0.0
 11
84.69254649141351
 21
149.5516118767776
 31
0.0
  0
LWPOLYLINE
  5
234E
330
1F
100
AcDbEntity
  8
1
  6
CONTINUOUS
 62
     7
100
AcDbPolyline
 90
        9
 70
   128
 43
0.0
 10
92.13703251341349
 20
145.3516124921776
 10
92.13318801391353
 20
145.3554551291776
 10
92.1218035267135
 20
145.3668358910776
 10
92.10332608681352
 20
145.3853179874776
 10
92.07844859821353
 20
145.4101908194776
 10
92.04813963631352
 20
145.4404979187776
 10
92.01356894241349
 20
145.4750751319776
 10
91.9760478185135
 20
145.5125943931776
 10
91.93702912791355
 20
145.5516121524776
  0
LINE
  5
234F
102
{ACAD_REACTORS
102
}
330
1F
100
AcDbEntity
  8
1
  6
CONTINUOUS
 62
     7
100
AcDbLine
 10
92.13703251341349
 20
145.3516124921776
 30
0.0
 11
65.03702825771347
 21
145.3516124921776
 31
0.0
  0
ARC
  5
2350
330
1F
100
AcDbEntity
  8
1
  6
CONTINUOUS
 62
     7
100
AcDbCircle
 10
87.1370288697135
 20
193.0516120519776
 30
0.0
 40
0.2000000000000171
100
AcDbArc
 50
270.0
 51
0.0
  0
LINE
  5
2351
330
1F
100
AcDbEntity
  8
1
  6
CONTINUOUS
 62
     7
100
AcDbLine
 10
147.4369851397135
 20
149.5516118767776
 30
0.0
 11
147.4354577706135
 21
150.5516120406776
 31
0.0
  0
LINE
  5
2352
330
1F
100
AcDbEntity
  8
1
  6
CONTINUOUS
 62
     7
100
AcDbLine
 10
147.3525467784135
 20
150.6360941740776
 30
0.0
 11
147.3525467784135
 21
149.5516118767776
 31
0.0
  0
LINE
  5
2353
330
1F
100
AcDbEntity
  8
1
  6
CONTINUOUS
 62
     7
100
AcDbLine
 10
147.3525467784135
 20
150.6360941740776
 30
0.0
 11
147.3708742754135
 21
150.6177666771776
 31
0.0
  0
LINE
  5
2354
330
1F
100
AcDbEntity
  8
1
  6
CONTINUOUS
 62
     7
100
AcDbLine
 10
147.3708742754135
 20
150.6177666771776
 30
0.0
 11
147.3708742754135
 21
150.5516120406776
 31
0.0
  0
LINE
  5
2355
330
1F
100
AcDbEntity
  8
1
  6
CONTINUOUS
 62
     7
100
AcDbLine
 10
147.4354577706135
 20
150.5516120406776
 30
0.0
 11
147.3708742754135
 21
150.5516120406776
 31
0.0
  0
LINE
  5
2356
330
1F
100
AcDbEntity
  8
1
  6
CONTINUOUS
 62
     7
100
AcDbLine
 10
129.0842977808135
 20
149.5285802695776
 30
0.0
 11
129.2370290951135
 21
149.6813125151776
 31
0.0
  0
LINE
  5
2357
330
1F
100
AcDbEntity
  8
1
  6
CONTINUOUS
 62
     7
100
AcDbLine
 10
129.0842977808135
 20
149.5285802695776
 30
0.0
 11
129.0842977808135
 21
150.6516118708776
 31
0.0
  0
LINE
  5
2358
330
1F
100
AcDbEntity
  8
1
  6
CONTINUOUS
 62
     7
100
AcDbLine
 10
129.2370290951135
 20
149.6813125151776
 30
0.0
 11
129.2370290951135
 21
150.6516118708776
 31
0.0
  0
LINE
  5
2359
330
1F
100
AcDbEntity
  8
1
  6
CONTINUOUS
 62
     7
100
AcDbLine
 10
134.8897603796135
 20
150.6516118708776
 30
0.0
 11
134.8897603796135
 21
149.5285802695776
 31
0.0
  0
LINE
  5
235A
330
1F
100
AcDbEntity
  8
1
  6
CONTINUOUS
 62
     7
100
AcDbLine
 10
134.8897603796135
 20
149.5285802695776
 30
0.0
 11
134.7370290653135
 21
149.6813125151776
 31
0.0
  0
LINE
  5
235B
330
1F
100
AcDbEntity
  8
1
  6
CONTINUOUS
 62
     7
100
AcDbLine
 10
134.7370290653135
 20
150.6516118708776
 30
0.0
 11
134.7370290653135
 21
149.6813125151776
 31
0.0
  0
LINE
  5
235C
330
1F
100
AcDbEntity
  8
1
  6
CONTINUOUS
 62
     7
100
AcDbLine
 10
72.08976275191355
 20
149.5288801553776
 30
0.0
 11
66.28430015311352
 21
149.5288801553776
 31
0.0
  0
LINE
  5
235D
330
1F
100
AcDbEntity
  8
1
  6
CONTINUOUS
 62
     7
100
AcDbLine
 10
66.28430015311352
 20
149.5288801553776
 30
0.0
 11
66.43702960471353
 21
149.6816124010776
 31
0.0
  0
LINE
  5
235E
330
1F
100
AcDbEntity
  8
1
  6
CONTINUOUS
 62
     7
100
AcDbLine
 10
71.93702584961352
 20
149.6816124010776
 30
0.0
 11
66.43702960471353
 21
149.6816124010776
 31
0.0
  0
LINE
  5
235F
330
1F
100
AcDbEntity
  8
1
  6
CONTINUOUS
 62
     7
100
AcDbLine
 10
72.08976275191355
 20
149.5288801553776
 30
0.0
 11
71.93702584961352
 21
149.6816124010776
 31
0.0
  0
ARC
  5
2360
330
1F
100
AcDbEntity
  8
1
  6
CONTINUOUS
 62
     7
100
AcDbCircle
 10
154.6370288697135
 20
145.5516120519776
 30
0.0
 40
0.1999999999999886
100
AcDbArc
 50
270.0
 51
0.0
  0
LINE
  5
2361
330
1F
100
AcDbEntity
  8
1
  6
CONTINUOUS
 62
     7
100
AcDbLine
 10
132.5370290772135
 20
192.8516109648776
 30
0.0
 11
142.7370285140135
 21
192.8516109648776
 31
0.0
  0
LINE
  5
2362
330
1F
100
AcDbEntity
  8
1
  6
CONTINUOUS
 62
     7
100
AcDbLine
 10
90.72151160701355
 20
150.6360941740776
 30
0.0
 11
90.70318317871352
 21
150.6177666771776
 31
0.0
  0
LINE
  5
2363
330
1F
100
AcDbEntity
  8
1
  6
CONTINUOUS
 62
     7
100
AcDbLine
 10
84.73702645761352
 20
150.6177666771776
 30
0.0
 11
90.70318317871352
 21
150.6177666771776
 31
0.0
  0
LINE
  5
2364
330
1F
100
AcDbEntity
  8
1
  6
CONTINUOUS
 62
     7
100
AcDbLine
 10
84.73702645761352
 20
150.6177666771776
 30
0.0
 11
84.73702645761352
 21
150.5916123452776
 31
0.0
  0
LINE
  5
2365
330
1F
100
AcDbEntity
  8
1
  6
CONTINUOUS
 62
     7
100
AcDbLine
 10
90.72151160701355
 20
150.6360941740776
 30
0.0
 11
84.69254649141351
 21
150.6360941740776
 31
0.0
  0
ARC
  5
2366
330
1F
100
AcDbEntity
  8
1
  6
CONTINUOUS
 62
     7
100
AcDbCircle
 10
132.5370288697135
 20
193.0516120519776
 30
0.0
 40
0.2000000000000455
100
AcDbArc
 50
180.0
 51
270.0
  0
ARC
  5
2367
330
1F
100
AcDbEntity
  8
1
  6
CONTINUOUS
 62
     7
100
AcDbCircle
 10
65.6370288697135
 20
172.0516120519776
 30
0.0
 40
0.8000000000000398
100
AcDbArc
 50
90.0
 51
180.0
  0
LINE
  5
2368
330
1F
100
AcDbEntity
  8
1
  6
CONTINUOUS
 62
     7
100
AcDbLine
 10
127.5370282577135
 20
148.8516121345776
 30
0.0
 11
92.13703251341349
 21
148.8516121345776
 31
0.0
  0
LWPOLYLINE
  5
2369
330
1F
100
AcDbEntity
  8
1
  6
CONTINUOUS
 62
     7
100
AcDbPolyline
 90
        9
 70
   128
 43
0.0
 10
92.13703251341349
 20
148.8516121345776
 10
92.13318801391353
 20
148.8554547715776
 10
92.1218035267135
 20
148.8668364646776
 10
92.10332608681352
 20
148.8853185611776
 10
92.07844859821353
 20
148.9101904618776
 10
92.04813963631352
 20
148.9404975610776
 10
92.01356894241349
 20
148.9750757056776
 10
91.9760478185135
 20
149.0125940355776
 10
91.93702912791355
 20
149.0516117948776
  0
LINE
  5
236A
330
1F
100
AcDbEntity
  8
1
  6
CONTINUOUS
 62
     7
100
AcDbLine
 10
87.33702576621351
 20
193.0516106250776
 30
0.0
 11
87.33702576621351
 21
204.0516105654776
 31
0.0
  0
LINE
  5
236B
330
1F
100
AcDbEntity
  8
1
  6
CONTINUOUS
 62
     7
100
AcDbLine
 10
153.3823482217135
 20
150.6360941740776
 30
0.0
 11
153.3460254771135
 21
150.5997716623776
 31
0.0
  0
LINE
  5
236C
330
1F
100
AcDbEntity
  8
1
  6
CONTINUOUS
 62
     7
100
AcDbLine
 10
153.3823482217135
 20
149.5516118767776
 30
0.0
 11
153.3823482217135
 21
150.6360941740776
 31
0.0
  0
LINE
  5
236D
330
1F
100
AcDbEntity
  8
1
  6
CONTINUOUS
 62
     7
100
AcDbLine
 10
153.2994365310135
 20
150.5516120406776
 30
0.0
 11
153.2979093948135
 21
149.5516118767776
 31
0.0
  0
LINE
  5
236E
330
1F
100
AcDbEntity
  8
1
  6
CONTINUOUS
 62
     7
100
AcDbLine
 10
153.3460254771135
 20
150.5516120406776
 30
0.0
 11
153.2994365310135
 21
150.5516120406776
 31
0.0
  0
LINE
  5
236F
330
1F
100
AcDbEntity
  8
1
  6
CONTINUOUS
 62
     7
100
AcDbLine
 10
153.3460254771135
 20
150.5516120406776
 30
0.0
 11
153.3460254771135
 21
150.5997716623776
 31
0.0
  0
LINE
  5
2370
102
{ACAD_REACTORS
102
}
330
1F
100
AcDbEntity
  8
1
  6
CONTINUOUS
 62
     7
100
AcDbLine
 10
76.93702853191348
 20
192.8516109648776
 30
0.0
 11
87.13702983121351
 21
192.8516109648776
 31
0.0
  0
LINE
  5
2371
330
1F
100
AcDbEntity
  8
1
  6
CONTINUOUS
 62
     7
100
AcDbLine
 10
76.13702989081355
 20
173.0516120034776
 30
0.0
 11
76.13702989081355
 21
192.0516123238776
 31
0.0
  0
LINE
  5
2372
330
1F
100
AcDbEntity
  8
1
  6
CONTINUOUS
 62
     7
100
AcDbLine
 10
64.83703232271353
 20
145.5516121524776
 30
0.0
 11
64.83703232271353
 21
172.0516118395776
 31
0.0
  0
LINE
  5
2373
330
1F
100
AcDbEntity
  8
1
  6
CONTINUOUS
 62
     7
100
AcDbLine
 10
65.63703096371353
 20
172.8516123431776
 30
0.0
 11
75.9370265053135
 21
172.8516123431776
 31
0.0
  0
LINE
  5
2374
330
1F
100
AcDbEntity
  8
1
  6
CONTINUOUS
 62
     7
100
AcDbLine
 10
143.7370286779135
 20
172.8516123431776
 30
0.0
 11
154.0370288761135
 21
172.8516123431776
 31
0.0
  0
ARC
  5
2375
330
1F
100
AcDbEntity
  8
1
  6
CONTINUOUS
 62
     7
100
AcDbCircle
 10
154.0370288697135
 20
172.0516120519776
 30
0.0
 40
0.7999999999999972
100
AcDbArc
 50
0.0
 51
90.0
  0
LINE
  5
2376
330
1F
100
AcDbEntity
  8
1
  6
CONTINUOUS
 62
     7
100
AcDbLine
 10
134.8897603796135
 20
149.5285802695776
 30
0.0
 11
129.0842977808135
 21
149.5285802695776
 31
0.0
  0
LINE
  5
2377
330
1F
100
AcDbEntity
  8
1
  6
CONTINUOUS
 62
     7
100
AcDbLine
 10
134.7370290653135
 20
149.6813125151776
 30
0.0
 11
129.2370290951135
 21
149.6813125151776
 31
0.0
  0
LINE
  5
2378
330
1F
100
AcDbEntity
  8
1
  6
CONTINUOUS
 62
     7
100
AcDbLine
 10
66.28430015311352
 20
149.5288801553776
 30
0.0
 11
66.28430015311352
 21
150.6516118708776
 31
0.0
  0
LINE
  5
2379
330
1F
100
AcDbEntity
  8
1
  6
CONTINUOUS
 62
     7
100
AcDbLine
 10
66.43702960471353
 20
149.6816124010776
 30
0.0
 11
66.43702960471353
 21
150.6516118708776
 31
0.0
  0
LINE
  5
237A
330
1F
100
AcDbEntity
  8
1
  6
CONTINUOUS
 62
     7
100
AcDbLine
 10
127.5370282577135
 20
145.3516124921776
 30
0.0
 11
127.5370282577135
 21
148.8516121345776
 31
0.0
  0
LINE
  5
237B
330
1F
100
AcDbEntity
  8
1
  6
CONTINUOUS
 62
     7
100
AcDbLine
 10
72.08976275191355
 20
150.6516118708776
 30
0.0
 11
72.08976275191355
 21
149.5288801553776
 31
0.0
  0
LINE
  5
237C
330
1F
100
AcDbEntity
  8
1
  6
CONTINUOUS
 62
     7
100
AcDbLine
 10
71.93702584961352
 20
150.6516118708776
 30
0.0
 11
71.93702584961352
 21
149.6816124010776
 31
0.0
  0
LINE
  5
237D
102
{ACAD_REACTORS
102
}
330
1F
100
AcDbEntity
  8
1
  6
CONTINUOUS
 62
     7
100
AcDbLine
 10
92.13703251341349
 20
148.8516121345776
 30
0.0
 11
92.13703251341349
 21
145.3516124921776
 31
0.0
  0
ARC
  5
237E
330
1F
100
AcDbEntity
  8
1
  6
CONTINUOUS
 62
     7
100
AcDbCircle
 10
143.7370288697135
 20
173.0516120519776
 30
0.0
 40
0.2000000000000028
100
AcDbArc
 50
180.0
 51
270.0
  0
LINE
  5
237F
330
1F
100
AcDbEntity
  8
1
  6
CONTINUOUS
 62
     7
100
AcDbLine
 10
132.3370294170135
 20
204.0516105654776
 30
0.0
 11
132.3370294170135
 21
193.0516106250776
 31
0.0
  0
ARC
  5
2380
330
1F
100
AcDbEntity
  8
1
  6
CONTINUOUS
 62
     7
100
AcDbCircle
 10
142.7370288697135
 20
192.0516120519776
 30
0.0
 40
0.7999999999999972
100
AcDbArc
 50
0.0
 51
90.0
  0
LINE
  5
2381
102
{ACAD_REACTORS
102
}
330
1F
100
AcDbEntity
  8
1
  6
CONTINUOUS
 62
     7
100
AcDbLine
 10
154.6370289046135
 20
145.3516124921776
 30
0.0
 11
127.5370282577135
 21
145.3516124921776
 31
0.0
  0
LINE
  5
2382
102
{ACAD_REACTORS
102
}
330
1F
100
AcDbEntity
  8
1
  6
CONTINUOUS
 62
     7
100
AcDbLine
 10
154.8370289141135
 20
172.0516118395776
 30
0.0
 11
154.8370289141135
 21
145.5516121524776
 31
0.0
  0
LINE
  5
2383
330
1F
100
AcDbEntity
  8
1
  6
CONTINUOUS
 62
     7
100
AcDbLine
 10
90.70318317871352
 20
150.5516120406776
 30
0.0
 11
90.70318317871352
 21
150.6177666771776
 31
0.0
  0
LINE
  5
2384
330
1F
100
AcDbEntity
  8
1
  6
CONTINUOUS
 62
     7
100
AcDbLine
 10
90.72151160701355
 20
149.5516118767776
 30
0.0
 11
90.72151160701355
 21
150.6360941740776
 31
0.0
  0
LINE
  5
2385
330
1F
100
AcDbEntity
  8
1
  6
CONTINUOUS
 62
     7
100
AcDbLine
 10
90.6370741771135
 20
149.5516118767776
 30
0.0
 11
90.63860154611348
 21
150.5516120406776
 31
0.0
  0
LINE
  5
2386
330
1F
100
AcDbEntity
  8
1
  6
CONTINUOUS
 62
     7
100
AcDbLine
 10
90.70318317871352
 20
150.5516120406776
 30
0.0
 11
90.63860154611348
 21
150.5516120406776
 31
0.0
  0
ARC
  5
2387
330
1F
100
AcDbEntity
  8
1
  6
CONTINUOUS
 62
     7
100
AcDbCircle
 10
76.93702886971352
 20
192.0516120519776
 30
0.0
 40
0.8000000000000114
100
AcDbArc
 50
90.0
 51
180.0
  0
LINE
  5
2388
330
1F
100
AcDbEntity
  8
1
  6
CONTINUOUS
 62
     7
100
AcDbLine
 10
143.5370290176135
 20
192.0516123238776
 30
0.0
 11
143.5370290176135
 21
173.0516120034776
 31
0.0
  0
LINE
  5
2389
330
1F
100
AcDbEntity
  8
1
  6
CONTINUOUS
 62
     7
100
AcDbLine
 10
153.3370289010135
 20
150.6177666771776
 30
0.0
 11
153.3460254771135
 21
150.5997716623776
 31
0.0
  0
LINE
  5
238A
330
1F
100
AcDbEntity
  8
1
  6
CONTINUOUS
 62
     7
100
AcDbLine
 10
147.3708742754135
 20
150.6177666771776
 30
0.0
 11
153.3370289010135
 21
150.6177666771776
 31
0.0
  0
LINE
  5
238B
330
1F
100
AcDbEntity
  8
1
  6
CONTINUOUS
 62
     7
100
AcDbLine
 10
153.3823482217135
 20
150.6360941740776
 30
0.0
 11
147.3525467784135
 21
150.6360941740776
 31
0.0
  0
LINE
  5
238C
330
1F
100
AcDbEntity
  8
1
  6
CONTINUOUS
 62
     7
100
AcDbLine
 10
84.69254649141351
 20
149.5516118767776
 30
0.0
 11
90.72151160701355
 21
149.5516118767776
 31
0.0
  0
LINE
  5
238D
330
1F
100
AcDbEntity
  8
1
  6
CONTINUOUS
 62
     7
100
AcDbLine
 10
147.3525467784135
 20
149.5516118767776
 30
0.0
 11
153.3823482217135
 21
149.5516118767776
 31
0.0
  0
LINE
  5
238E
330
1F
100
AcDbEntity
  8
1
  6
CONTINUOUS
 62
     7
100
AcDbLine
 10
134.8897603796135
 20
150.6516118708776
 30
0.0
 11
129.0842977808135
 21
150.6516118708776
 31
0.0
  0
LINE
  5
238F
330
1F
100
AcDbEntity
  8
1
  6
CONTINUOUS
 62
     7
100
AcDbLine
 10
72.08976275191355
 20
150.6516118708776
 30
0.0
 11
66.28430015311352
 21
150.6516118708776
 31
0.0
  0
LINE
  5
2390
330
1F
100
AcDbEntity
  8
1
  6
CONTINUOUS
 62
     7
100
AcDbLine
 10
96.43702707151351
 20
206.5616113999776
 30
0.0
 11
96.43702707151351
 21
208.1116115608776
 31
0.0
  0
LINE
  5
2391
330
1F
100
AcDbEntity
  8
1
  6
CONTINUOUS
 62
     7
100
AcDbLine
 10
98.03702807891352
 20
206.5616113999776
 30
0.0
 11
98.03702807891352
 21
208.1116115608776
 31
0.0
  0
LINE
  5
2392
330
1F
100
AcDbEntity
  8
1
  6
CONTINUOUS
 62
     7
100
AcDbLine
 10
96.43702707151351
 20
206.5616113999776
 30
0.0
 11
98.03702807891352
 21
206.5616113999776
 31
0.0
  0
LINE
  5
2393
330
1F
100
AcDbEntity
  8
1
  6
CONTINUOUS
 62
     7
100
AcDbLine
 10
96.43702707151351
 20
206.0616103866776
 30
0.0
 11
96.43702707151351
 21
206.5616113999776
 31
0.0
  0
LINE
  5
2394
330
1F
100
AcDbEntity
  8
1
  6
CONTINUOUS
 62
     7
100
AcDbLine
 10
98.03702807891352
 20
206.0616103866776
 30
0.0
 11
98.03702807891352
 21
206.5616113999776
 31
0.0
  0
LINE
  5
2395
330
1F
100
AcDbEntity
  8
1
  6
CONTINUOUS
 62
     7
100
AcDbLine
 10
96.43702707151351
 20
206.0616103866776
 30
0.0
 11
98.03702807891352
 21
206.0616103866776
 31
0.0
  0
LINE
  5
2396
330
1F
100
AcDbEntity
  8
1
  6
CONTINUOUS
 62
     7
100
AcDbLine
 10
121.6370289670135
 20
206.5616113999776
 30
0.0
 11
123.2370299743135
 21
206.5616113999776
 31
0.0
  0
LINE
  5
2397
330
1F
100
AcDbEntity
  8
1
  6
CONTINUOUS
 62
     7
100
AcDbLine
 10
123.2370299743135
 20
206.0616103866776
 30
0.0
 11
123.2370299743135
 21
206.5616113999776
 31
0.0
  0
LINE
  5
2398
330
1F
100
AcDbEntity
  8
1
  6
CONTINUOUS
 62
     7
100
AcDbLine
 10
121.6370289670135
 20
206.0616103866776
 30
0.0
 11
123.2370299743135
 21
206.0616103866776
 31
0.0
  0
LINE
  5
2399
330
1F
100
AcDbEntity
  8
1
  6
CONTINUOUS
 62
     7
100
AcDbLine
 10
121.6370289670135
 20
206.0616103866776
 30
0.0
 11
121.6370289670135
 21
206.5616113999776
 31
0.0
  0
LINE
  5
239A
330
1F
100
AcDbEntity
  8
1
  6
CONTINUOUS
 62
     7
100
AcDbLine
 10
123.2370299743135
 20
206.5616113999776
 30
0.0
 11
123.2370299743135
 21
208.1116115608776
 31
0.0
  0
LINE
  5
239B
330
1F
100
AcDbEntity
  8
1
  6
CONTINUOUS
 62
     7
100
AcDbLine
 10
121.6370289670135
 20
206.5616113999776
 30
0.0
 11
121.6370289670135
 21
208.1116115608776
 31
0.0
  0
LINE
  5
239C
330
1F
100
AcDbEntity
  8
1
  6
CONTINUOUS
 62
     7
100
AcDbLine
 10
153.2994365310135
 20
150.5516120406776
 30
0.0
 11
153.1642413223135
 21
150.5516120406776
 31
0.0
  0
LINE
  5
239D
330
1F
100
AcDbEntity
  8
1
  6
CONTINUOUS
 62
     7
100
AcDbLine
 10
147.8098159180135
 20
150.5516120406776
 30
0.0
 11
147.4354577706135
 21
150.5516120406776
 31
0.0
  0
LINE
  5
239E
330
1F
100
AcDbEntity
  8
1
  6
CONTINUOUS
 62
     7
100
AcDbLine
 10
90.63860154611348
 20
150.5516120406776
 30
0.0
 11
90.36424136621349
 21
150.5516120406776
 31
0.0
  0
LINE
  5
239F
330
1F
100
AcDbEntity
  8
1
  6
CONTINUOUS
 62
     7
100
AcDbLine
 10
85.00981456501347
 20
150.5516120406776
 30
0.0
 11
84.77545655231347
 21
150.5516120406776
 31
0.0
  0
LINE
  5
23A0
330
1F
100
AcDbEntity
  8
1
  6
CONTINUOUS
 62
     7
100
AcDbLine
 10
134.6642406182135
 20
150.5516120406776
 30
0.0
 11
134.6640878813135
 21
150.6516118708776
 31
0.0
  0
LINE
  5
23A1
330
1F
100
AcDbEntity
  8
1
  6
CONTINUOUS
 62
     7
100
AcDbLine
 10
129.3098156796135
 20
150.5516120406776
 30
0.0
 11
129.3099684165135
 21
150.6516118708776
 31
0.0
  0
LINE
  5
23A2
330
1F
100
AcDbEntity
  8
1
  6
CONTINUOUS
 62
     7
100
AcDbLine
 10
71.8642411278135
 20
150.5516120406776
 30
0.0
 11
71.8640921162135
 21
150.6516118708776
 31
0.0
  0
LINE
  5
23A3
330
1F
100
AcDbEntity
  8
1
  6
CONTINUOUS
 62
     7
100
AcDbLine
 10
66.50981432661354
 20
150.5516120406776
 30
0.0
 11
66.50997078881352
 21
150.6516118708776
 31
0.0
  0
LINE
  5
23A4
330
1F
100
AcDbEntity
  8
1
  6
CONTINUOUS
 62
     7
100
AcDbLine
 10
153.1112479036135
 20
150.6177666771776
 30
0.0
 11
153.1532444981135
 21
149.7516124683776
 31
0.0
  0
LINE
  5
23A5
330
1F
100
AcDbEntity
  8
1
  6
CONTINUOUS
 62
     7
100
AcDbLine
 10
153.1532444981135
 20
149.7516124683776
 30
0.0
 11
147.8208129750135
 21
149.7516124683776
 31
0.0
  0
LINE
  5
23A6
330
1F
100
AcDbEntity
  8
1
  6
CONTINUOUS
 62
     7
100
AcDbLine
 10
147.8628100352135
 20
150.6177666771776
 30
0.0
 11
147.8208129750135
 21
149.7516124683776
 31
0.0
  0
LINE
  5
23A7
330
1F
100
AcDbEntity
  8
1
  6
CONTINUOUS
 62
     7
100
AcDbLine
 10
85.06281054481349
 20
150.6177666771776
 30
0.0
 11
85.02081162201353
 21
149.7516124683776
 31
0.0
  0
LINE
  5
23A8
330
1F
100
AcDbEntity
  8
1
  6
CONTINUOUS
 62
     7
100
AcDbLine
 10
85.02081162201353
 20
149.7516124683776
 30
0.0
 11
85.00859266981354
 21
149.7516124683776
 31
0.0
  0
LINE
  5
23A9
330
1F
100
AcDbEntity
  8
1
  6
CONTINUOUS
 62
     7
100
AcDbLine
 10
85.00859266981354
 20
149.7516124683776
 30
0.0
 11
85.00991887311352
 21
150.6177666771776
 31
0.0
  0
LINE
  5
23AA
330
1F
100
AcDbEntity
  8
1
  6
CONTINUOUS
 62
     7
100
AcDbLine
 10
90.36546326141354
 20
149.7516124683776
 30
0.0
 11
90.3641370581135
 21
150.6177666771776
 31
0.0
  0
LINE
  5
23AB
330
1F
100
AcDbEntity
  8
1
  6
CONTINUOUS
 62
     7
100
AcDbLine
 10
90.35324430921355
 20
149.7516124683776
 30
0.0
 11
90.36546326141354
 21
149.7516124683776
 31
0.0
  0
LINE
  5
23AC
330
1F
100
AcDbEntity
  8
1
  6
CONTINUOUS
 62
     7
100
AcDbLine
 10
90.31124538641347
 20
150.6177666771776
 30
0.0
 11
90.35324430921355
 21
149.7516124683776
 31
0.0
  0
LINE
  5
23AD
330
1F
100
AcDbEntity
  8
1
  6
CONTINUOUS
 62
     7
100
AcDbLine
 10
90.35324430921355
 20
149.7516124683776
 30
0.0
 11
85.02081162201353
 21
149.7516124683776
 31
0.0
  0
LINE
  5
23AE
330
1F
100
AcDbEntity
  8
1
  6
CONTINUOUS
 62
     7
100
AcDbLine
 10
147.8208129750135
 20
149.7516124683776
 30
0.0
 11
147.8085949541135
 21
149.7516124683776
 31
0.0
  0
LINE
  5
23AF
330
1F
100
AcDbEntity
  8
1
  6
CONTINUOUS
 62
     7
100
AcDbLine
 10
147.8085949541135
 20
149.7516124683776
 30
0.0
 11
147.8099174322135
 21
150.6177666771776
 31
0.0
  0
LINE
  5
23B0
330
1F
100
AcDbEntity
  8
1
  6
CONTINUOUS
 62
     7
100
AcDbLine
 10
153.1654632175135
 20
149.7516124683776
 30
0.0
 11
153.1641402738135
 21
150.6177666771776
 31
0.0
  0
LINE
  5
23B1
330
1F
100
AcDbEntity
  8
1
  6
CONTINUOUS
 62
     7
100
AcDbLine
 10
153.1532444981135
 20
149.7516124683776
 30
0.0
 11
153.1654632175135
 21
149.7516124683776
 31
0.0
  0
LINE
  5
23B2
330
1F
100
AcDbEntity
  8
1
  6
CONTINUOUS
 62
     7
100
AcDbLine
 10
147.7370293335135
 20
150.6177666771776
 30
0.0
 11
147.7370293335135
 21
150.5516120406776
 31
0.0
  0
LINE
  5
23B3
330
1F
100
AcDbEntity
  8
1
  6
CONTINUOUS
 62
     7
100
AcDbLine
 10
153.2370288381135
 20
150.5516120406776
 30
0.0
 11
153.2370288381135
 21
150.6177666771776
 31
0.0
  0
LINE
  5
23B4
330
1F
100
AcDbEntity
  8
1
  6
CONTINUOUS
 62
     7
100
AcDbLine
 10
84.93702984321351
 20
150.6177666771776
 30
0.0
 11
84.93702984321351
 21
150.5516120406776
 31
0.0
  0
LINE
  5
23B5
330
1F
100
AcDbEntity
  8
1
  6
CONTINUOUS
 62
     7
100
AcDbLine
 10
90.4370260881135
 20
150.5516120406776
 30
0.0
 11
90.4370260881135
 21
150.6177666771776
 31
0.0
  0
LINE
  5
23B6
330
1F
100
AcDbEntity
  8
1
  6
CONTINUOUS
 62
     7
100
AcDbLine
 10
71.93702584961352
 20
150.5516120406776
 30
0.0
 11
66.43702960471353
 21
150.5516120406776
 31
0.0
  0
LINE
  5
23B7
330
1F
100
AcDbEntity
  8
1
  6
CONTINUOUS
 62
     7
100
AcDbLine
 10
134.7370290653135
 20
150.5516120406776
 30
0.0
 11
129.2370290951135
 21
150.5516120406776
 31
0.0
  0
LINE
  5
23B8
330
1F
100
AcDbEntity
  8
1
  6
CONTINUOUS
 62
     7
100
AcDbLine
 10
71.93702584961352
 20
150.6177666771776
 30
0.0
 11
71.86413681971351
 21
150.6177666771776
 31
0.0
  0
LINE
  5
23B9
330
1F
100
AcDbEntity
  8
1
  6
CONTINUOUS
 62
     7
100
AcDbLine
 10
66.50991863471347
 20
150.6177666771776
 30
0.0
 11
66.43702960471353
 21
150.6177666771776
 31
0.0
  0
LINE
  5
23BA
330
1F
100
AcDbEntity
  8
1
  6
CONTINUOUS
 62
     7
100
AcDbLine
 10
134.7370290653135
 20
150.6177666771776
 30
0.0
 11
134.6641400353135
 21
150.6177666771776
 31
0.0
  0
LINE
  5
23BB
330
1F
100
AcDbEntity
  8
1
  6
CONTINUOUS
 62
     7
100
AcDbLine
 10
129.3099181251135
 20
150.6177666771776
 30
0.0
 11
129.2370290951135
 21
150.6177666771776
 31
0.0
  0
LWPOLYLINE
  5
23BC
330
1F
100
AcDbEntity
  8
0
  6
CONTINUOUS
 62
     8
100
AcDbPolyline
 90
        3
 70
   128
 43
0.0
 10
158.1324446936135
 20
147.2498667600776
 10
158.1371478726135
 20
147.9526297363776
 10
158.1431628195135
 20
148.8516121345776
  0
LINE
  5
23BD
330
1F
100
AcDbEntity
  8
0
  6
CONTINUOUS
 62
     8
100
AcDbLine
 10
154.8370289141135
 20
147.2498667600776
 30
0.0
 11
158.1324446936135
 21
147.2498667600776
 31
0.0
  0
SPLINE
  5
23BE
330
1F
100
AcDbEntity
  8
0
  6
CONTINUOUS
 62
     8
100
AcDbSpline
210
0.0
220
0.0
230
1.0
 70
     8
 71
     3
 72
    10
 73
     6
 74
     0
 42
0.000000001
 43
0.00000001
 40
0.0
 40
0.0
 40
0.0
 40
0.0
 40
0.4171743015452944
 40
0.9968835153514993
 40
1.0
 40
1.0
 40
1.0
 40
1.0
 10
158.4951340676714
 20
145.8498663443557
 30
0.0
 10
158.4963327441815
 20
146.0175014339947
 30
0.0
 10
158.4991971125015
 20
146.4180837729274
 30
0.0
 10
158.5020533254881
 20
146.8199161788275
 30
0.0
 10
158.5037370045528
 20
147.0541170351686
 30
0.0
 10
158.5037460075188
 20
147.0553693536154
 30
0.0
  0
LINE
  5
23BF
330
1F
100
AcDbEntity
  8
0
  6
CONTINUOUS
 62
     8
100
AcDbLine
 10
154.8370289141135
 20
145.8498663443776
 30
0.0
 11
158.4951340677135
 21
145.8498663443776
 31
0.0
  0
LWPOLYLINE
  5
23C0
330
1F
100
AcDbEntity
  8
0
  6
CONTINUOUS
 62
     8
100
AcDbPolyline
 90
        3
 70
   128
 43
0.0
 10
61.53089678751348
 20
148.8516121345776
 10
61.53690940601348
 20
147.9526297363776
 10
61.54161072241351
 20
147.2498667600776
  0
LINE
  5
23C1
330
1F
100
AcDbEntity
  8
0
  6
CONTINUOUS
 62
     8
100
AcDbLine
 10
61.54161072241351
 20
147.2498667600776
 30
0.0
 11
64.83703232271353
 21
147.2498667600776
 31
0.0
  0
SPLINE
  5
23C2
330
1F
100
AcDbEntity
  8
0
  6
CONTINUOUS
 62
     8
100
AcDbSpline
210
0.0
220
0.0
230
1.0
 70
     8
 71
     3
 72
    10
 73
     6
 74
     0
 42
0.000000001
 43
0.00000001
 40
0.0
 40
0.0
 40
0.0
 40
0.0
 40
0.0031165021494646
 40
0.5828257121955454
 40
1.0
 40
1.0
 40
1.0
 40
1.0
 10
61.1703110383321
 20
147.0553693536154
 30
0.0
 10
61.1703209755272
 20
147.0541170351906
 30
0.0
 10
61.17217935795668
 20
146.819917492611
 30
0.0
 10
61.17481208038731
 20
146.4180833941417
 30
0.0
 10
61.17771084070114
 20
146.0175013204278
 30
0.0
 10
61.17892390950215
 20
145.8498663443557
 30
0.0
  0
LINE
  5
23C3
330
1F
100
AcDbEntity
  8
0
  6
CONTINUOUS
 62
     8
100
AcDbLine
 10
61.17892390951351
 20
145.8498663443776
 30
0.0
 11
64.83703232271353
 21
145.8498663443776
 31
0.0
  0
POINT
  5
23C4
330
1F
100
AcDbEntity
  8
1
  6
CONTINUOUS
 62
     7
100
AcDbPoint
 10
109.8370288697135
 20
209.8565519242777
 30
0.0
 50
90.0
  0
LINE
  5
23C5
330
1F
100
AcDbEntity
  8
1
  6
CONTINUOUS
 62
     7
100
AcDbLine
 10
68.64203638301353
 20
92.6407129775504
 30
0.0
 11
68.64203638301353
 21
82.59071421725044
 31
0.0
  0
ARC
  5
23C6
330
1F
100
AcDbEntity
  8
1
  6
CONTINUOUS
 62
     7
100
AcDbCircle
 10
70.84702886971354
 20
92.64071313695042
 30
0.0
 40
2.204990930820742
100
AcDbArc
 50
0.0
 51
180.0
  0
LINE
  5
23C7
330
1F
100
AcDbEntity
  8
1
  6
CONTINUOUS
 62
     7
100
AcDbLine
 10
73.05202013711352
 20
82.59071421725044
 30
0.0
 11
73.05202013711352
 21
92.6407129775504
 31
0.0
  0
ARC
  5
23C8
330
1F
100
AcDbEntity
  8
1
  6
CONTINUOUS
 62
     7
100
AcDbCircle
 10
70.84702886971354
 20
82.59071313695041
 30
0.0
 40
2.204990930820742
100
AcDbArc
 50
180.0
 51
0.0
  0
LINE
  5
23C9
330
1F
100
AcDbEntity
  8
1
  6
CONTINUOUS
 62
     7
100
AcDbLine
 10
139.7320193694135
 20
82.59071421725044
 30
0.0
 11
139.7320193694135
 21
92.6407129775504
 31
0.0
  0
ARC
  5
23CA
330
1F
100
AcDbEntity
  8
1
  6
CONTINUOUS
 62
     7
100
AcDbCircle
 10
137.5270288697135
 20
82.59071313695041
 30
0.0
 40
2.204990930820728
100
AcDbArc
 50
180.0
 51
0.0
  0
LINE
  5
23CB
330
1F
100
AcDbEntity
  8
1
  6
CONTINUOUS
 62
     7
100
AcDbLine
 10
135.3220374779135
 20
92.6407129775504
 30
0.0
 11
135.3220374779135
 21
82.59071421725044
 31
0.0
  0
ARC
  5
23CC
330
1F
100
AcDbEntity
  8
1
  6
CONTINUOUS
 62
     7
100
AcDbCircle
 10
137.5270288697135
 20
92.64071313695042
 30
0.0
 40
2.204990930820756
100
AcDbArc
 50
0.0
 51
180.0
  0
LINE
  5
23CD
330
1F
100
AcDbEntity
  8
1
  6
CONTINUOUS
 62
     7
100
AcDbLine
 10
151.0320197315135
 20
82.59071421725044
 30
0.0
 11
151.0320197315135
 21
92.6407129775504
 31
0.0
  0
ARC
  5
23CE
330
1F
100
AcDbEntity
  8
1
  6
CONTINUOUS
 62
     7
100
AcDbCircle
 10
148.8270288697135
 20
82.59071313695041
 30
0.0
 40
2.204990930820742
100
AcDbArc
 50
180.0
 51
0.0
  0
LINE
  5
23CF
330
1F
100
AcDbEntity
  8
1
  6
CONTINUOUS
 62
     7
100
AcDbLine
 10
146.6220378400135
 20
92.6407129775504
 30
0.0
 11
146.6220378400135
 21
82.59071421725044
 31
0.0
  0
ARC
  5
23D0
330
1F
100
AcDbEntity
  8
1
  6
CONTINUOUS
 62
     7
100
AcDbCircle
 10
148.8270288697135
 20
92.64071313695042
 30
0.0
 40
2.204990930820742
100
AcDbArc
 50
0.0
 51
180.0
  0
ELLIPSE
  5
23D1
330
1F
100
AcDbEntity
  8
1
  6
CONTINUOUS
 62
     7
100
AcDbEllipse
 10
156.0195675184135
 20
91.40697865355044
 30
0.0
 11
0.141432126226178
 21
0.1414321262261637
 31
0.0
210
0.0
220
0.0
230
1.0
 40
0.9999238505
 41
5.497825219993293
 42
7.068545394366208
  0
LINE
  5
23D2
330
1F
100
AcDbEntity
  8
1
  6
CONTINUOUS
 62
     7
100
AcDbLine
 10
154.9370212936135
 20
91.60698962315037
 30
0.0
 11
156.0195827381135
 21
91.60698962315037
 31
0.0
  0
ELLIPSE
  5
23D3
330
1F
100
AcDbEntity
  8
1
  6
CONTINUOUS
 62
     7
100
AcDbEllipse
 10
154.9370364853135
 20
91.40697865355044
 30
0.0
 11
-0.141432126226178
 21
0.1414321262261637
 31
0.0
210
0.0
220
0.0
230
1.0
 40
0.9999238505
 41
5.497825219993029
 42
6.021369827038046
  0
ELLIPSE
  5
23D4
330
1F
100
AcDbEntity
  8
1
  6
CONTINUOUS
 62
     7
100
AcDbEllipse
 10
154.9370364853135
 20
83.82444762045039
 30
0.0
 11
-0.141432126226178
 21
-0.1414321262261637
 31
0.0
210
0.0
220
0.0
230
1.0
 40
0.9999238505
 41
0.2618154801415695
 42
0.7853600871866214
  0
LINE
  5
23D5
330
1F
100
AcDbEntity
  8
1
  6
CONTINUOUS
 62
     7
100
AcDbLine
 10
156.0195827381135
 20
83.6244375716504
 30
0.0
 11
154.9370212936135
 21
83.6244375716504
 31
0.0
  0
ELLIPSE
  5
23D6
330
1F
100
AcDbEntity
  8
1
  6
CONTINUOUS
 62
     7
100
AcDbEllipse
 10
156.0195675184135
 20
83.82444762045039
 30
0.0
 11
0.141432126226178
 21
-0.1414321262261637
 31
0.0
210
0.0
220
0.0
230
1.0
 40
0.9999238505
 41
5.497825219992979
 42
7.068545394366035
  0
LINE
  5
23D7
330
1F
100
AcDbEntity
  8
1
  6
CONTINUOUS
 62
     7
100
AcDbLine
 10
156.2195751224135
 20
85.93529474845043
 30
0.0
 11
156.2195751224135
 21
83.82443350655042
 31
0.0
  0
SPLINE
  5
23D8
330
1F
100
AcDbEntity
  8
1
  6
CONTINUOUS
 62
     7
100
AcDbSpline
210
0.0
220
0.0
230
1.0
 70
     8
 71
     3
 72
    12
 73
     8
 74
     0
 42
0.000000001
 43
0.00000001
 40
0.0
 40
0.0
 40
0.0
 40
0.0
 40
0.2314094289765279
 40
0.4628075066571636
 40
0.6941949701823618
 40
0.9255903379235065
 40
1.0
 40
1.0
 40
1.0
 40
1.0
 10
156.3969503452615
 20
86.13400918351313
 30
0.0
 10
156.374858803818
 20
86.12926724794973
 30
0.0
 10
156.3306768045845
 20
86.1197836094287
 30
0.0
 10
156.2750525747335
 20
86.07875422917012
 30
0.0
 10
156.2357520121935
 20
86.0232101151757
 30
0.0
 10
156.2208006433314
 20
85.97206670918293
 30
0.0
 10
156.2198149621659
 20
85.94249118041041
 30
0.0
 10
156.2195751224141
 20
85.93529474841252
 30
0.0
  0
ARC
  5
23D9
330
1F
100
AcDbEntity
  8
1
  6
CONTINUOUS
 62
     7
100
AcDbCircle
 10
156.2283020019135
 20
87.61571313695045
 30
0.0
 40
1.491273132209259
100
AcDbArc
 50
276.4934816168993
 51
83.50651838310066
  0
SPLINE
  5
23DA
330
1F
100
AcDbEntity
  8
1
  6
CONTINUOUS
 62
     7
100
AcDbSpline
210
0.0
220
0.0
230
1.0
 70
     8
 71
     3
 72
    12
 73
     8
 74
     0
 42
0.000000001
 43
0.00000001
 40
0.0
 40
0.0
 40
0.0
 40
0.0
 40
0.231424284347008
 40
0.4628179776086129
 40
0.694219657834598
 40
0.9256080069341334
 40
1.0
 40
1.0
 40
1.0
 40
1.0
 10
156.2195751224141
 20
89.2961324463953
 30
0.0
 10
156.2217852738207
 20
89.27364404719312
 30
0.0
 10
156.2262052844825
 20
89.22867022144369
 30
0.0
 10
156.2606907501129
 20
89.1687651452498
 30
0.0
 10
156.3114311987137
 20
89.12343043227709
 30
0.0
 10
156.3605580563031
 20
89.10280066590549
 30
0.0
 10
156.3898291145538
 20
89.0984712873156
 30
0.0
 10
156.3969503452615
 20
89.09741801129469
 30
0.0
  0
LINE
  5
23DB
330
1F
100
AcDbEntity
  8
1
  6
CONTINUOUS
 62
     7
100
AcDbLine
 10
156.2195751224135
 20
91.40699368825041
 30
0.0
 11
156.2195751224135
 21
89.2961324463504
 31
0.0
  0
SPLINE
  5
23DC
330
1F
100
AcDbEntity
  8
1
  6
CONTINUOUS
 62
     7
100
AcDbSpline
210
0.0
220
0.0
230
1.0
 70
     8
 71
     3
 72
    11
 73
     7
 74
     0
 42
0.000000001
 43
0.00000001
 40
0.0
 40
0.0
 40
0.0
 40
0.0
 40
0.257861019321849
 40
0.5156976816280427
 40
0.7735365061248943
 40
1.0
 40
1.0
 40
1.0
 40
1.0
 10
158.336293859357
 20
94.36765325175425
 30
0.0
 10
158.3283184539352
 20
94.38881976426599
 30
0.0
 10
158.3123683964319
 20
94.43115078994488
 30
0.0
 10
158.263535022774
 20
94.4796830119242
 30
0.0
 10
158.2051331086595
 20
94.51036028282108
 30
0.0
 10
158.1629077312007
 20
94.51400628886888
 30
0.0
 10
158.1431628195066
 20
94.51571118937632
 30
0.0
  0
ARC
  5
23DD
330
1F
100
AcDbEntity
  8
1
  6
CONTINUOUS
 62
     7
100
AcDbCircle
 10
133.2283020019135
 20
87.61571313695045
 30
0.0
 40
26.00000000000002
100
AcDbArc
 50
344.9483229917998
 51
15.0516770081999
  0
SPLINE
  5
23DE
330
1F
100
AcDbEntity
  8
1
  6
CONTINUOUS
 62
     7
100
AcDbSpline
210
0.0
220
0.0
230
1.0
 70
     8
 71
     3
 72
    11
 73
     7
 74
     0
 42
0.000000001
 43
0.00000001
 40
0.0
 40
0.0
 40
0.0
 40
0.0
 40
0.2578507998679983
 40
0.5157043016465876
 40
0.7735517372762536
 40
1.0
 40
1.0
 40
1.0
 40
1.0
 10
158.1431628195066
 20
80.71571600543162
 30
0.0
 10
158.1656724676345
 20
80.71792164356584
 30
0.0
 10
158.2106919997594
 20
80.7223329429461
 30
0.0
 10
158.2702418276228
 20
80.75688485836709
 30
0.0
 10
158.3150289915939
 20
80.80531819458709
 30
0.0
 10
158.3295187158092
 20
80.84514443412247
 30
0.0
 10
158.336293859357
 20
80.86376649247298
 30
0.0
  0
LINE
  5
23DF
330
1F
100
AcDbEntity
  8
1
  6
CONTINUOUS
 62
     7
100
AcDbLine
 10
158.1431628195135
 20
80.71571600545037
 30
0.0
 11
154.8370289141135
 21
80.71571600545037
 31
0.0
  0
LINE
  5
23E0
330
1F
100
AcDbEntity
  8
1
  6
CONTINUOUS
 62
     7
100
AcDbLine
 10
154.8370289141135
 20
94.5157111893504
 30
0.0
 11
158.1431628195135
 21
94.5157111893504
 31
0.0
  0
ELLIPSE
  5
23E1
330
1F
100
AcDbEntity
  8
1
  6
CONTINUOUS
 62
     7
100
AcDbEllipse
 10
63.65449022091354
 20
83.82444762045039
 30
0.0
 11
-0.1414321262261921
 21
-0.1414321262261637
 31
0.0
210
0.0
220
0.0
230
1.0
 40
0.9999238505
 41
5.4978252199932
 42
7.068545394366329
  0
LINE
  5
23E2
330
1F
100
AcDbEntity
  8
1
  6
CONTINUOUS
 62
     7
100
AcDbLine
 10
64.73703808051351
 20
83.6244375716504
 30
0.0
 11
63.65447617041355
 21
83.6244375716504
 31
0.0
  0
ELLIPSE
  5
23E3
330
1F
100
AcDbEntity
  8
1
  6
CONTINUOUS
 62
     7
100
AcDbEllipse
 10
64.73702125401348
 20
83.82444762045039
 30
0.0
 11
0.1414321262261637
 21
-0.1414321262261637
 31
0.0
210
0.0
220
0.0
230
1.0
 40
0.9999238504999998
 41
5.4978252199931
 42
6.021369827038029
  0
ELLIPSE
  5
23E4
330
1F
100
AcDbEntity
  8
1
  6
CONTINUOUS
 62
     7
100
AcDbEllipse
 10
64.73702125401348
 20
91.40697865355044
 30
0.0
 11
0.1414321262261637
 21
0.1414321262261637
 31
0.0
210
0.0
220
0.0
230
1.0
 40
0.9999238504999998
 41
0.2618154801416423
 42
0.7853600871865001
  0
LINE
  5
23E5
330
1F
100
AcDbEntity
  8
1
  6
CONTINUOUS
 62
     7
100
AcDbLine
 10
63.65447617041355
 20
91.60698962315037
 30
0.0
 11
64.73703808051351
 21
91.60698962315037
 31
0.0
  0
ELLIPSE
  5
23E6
330
1F
100
AcDbEntity
  8
1
  6
CONTINUOUS
 62
     7
100
AcDbEllipse
 10
63.65449022091354
 20
91.40697865355044
 30
0.0
 11
-0.1414321262261921
 21
0.1414321262261637
 31
0.0
210
0.0
220
0.0
230
1.0
 40
0.9999238505
 41
5.497825219992807
 42
7.068545394366036
  0
LINE
  5
23E7
330
1F
100
AcDbEntity
  8
1
  6
CONTINUOUS
 62
     7
100
AcDbLine
 10
63.45448023541348
 20
89.2961324463504
 30
0.0
 11
63.45448023541348
 21
91.40699368825041
 31
0.0
  0
SPLINE
  5
23E8
330
1F
100
AcDbEntity
  8
1
  6
CONTINUOUS
 62
     7
100
AcDbSpline
210
0.0
220
0.0
230
1.0
 70
     8
 71
     3
 72
    12
 73
     8
 74
     0
 42
0.000000001
 43
0.00000001
 40
0.0
 40
0.0
 40
0.0
 40
0.0
 40
0.2313981097551608
 40
0.4628125938076749
 40
0.6941985855234369
 40
0.9255918968501744
 40
1.0
 40
1.0
 40
1.0
 40
1.0
 10
63.2771042631436
 20
89.09741801129469
 30
0.0
 10
63.29919614418543
 20
89.10215652070112
 30
0.0
 10
63.34338146954474
 20
89.11163387482232
 30
0.0
 10
63.39900127528261
 20
89.1526737712094
 30
0.0
 10
63.43830402207612
 20
89.20821645376652
 30
0.0
 10
63.45326016435195
 20
89.25936020072818
 30
0.0
 10
63.45424146397602
 20
89.2889360114777
 30
0.0
 10
63.45448023541462
 20
89.2961324463953
 30
0.0
  0
ARC
  5
23E9
330
1F
100
AcDbEntity
  8
1
  6
CONTINUOUS
 62
     7
100
AcDbCircle
 10
63.44575573751354
 20
87.61571313695045
 30
0.0
 40
1.491273132209259
100
AcDbArc
 50
96.49348161690159
 51
263.5065183830984
  0
SPLINE
  5
23EA
330
1F
100
AcDbEntity
  8
1
  6
CONTINUOUS
 62
     7
100
AcDbSpline
210
0.0
220
0.0
230
1.0
 70
     8
 71
     3
 72
    12
 73
     8
 74
     0
 42
0.000000001
 43
0.00000001
 40
0.0
 40
0.0
 40
0.0
 40
0.0
 40
0.2314229042924417
 40
0.4628168754115921
 40
0.6942194250277752
 40
0.9256084423223997
 40
1.0
 40
1.0
 40
1.0
 40
1.0
 10
63.45448023541462
 20
85.93529474841252
 30
0.0
 10
63.45227053356592
 20
85.95778318290691
 30
0.0
 10
63.44785140613203
 20
86.00275724032521
 30
0.0
 10
63.41336475334799
 20
86.06266209729843
 30
0.0
 10
63.36262384281724
 20
86.10799674839025
 30
0.0
 10
63.31349665389484
 20
86.1286264827004
 30
0.0
 10
63.28422547588673
 20
86.13295590405467
 30
0.0
 10
63.2771042631436
 20
86.13400918351313
 30
0.0
  0
LINE
  5
23EB
330
1F
100
AcDbEntity
  8
1
  6
CONTINUOUS
 62
     7
100
AcDbLine
 10
63.45448023541348
 20
83.82443350655042
 30
0.0
 11
63.45448023541348
 21
85.93529474845043
 31
0.0
  0
SPLINE
  5
23EC
330
1F
100
AcDbEntity
  8
1
  6
CONTINUOUS
 62
     7
100
AcDbSpline
210
0.0
220
0.0
230
1.0
 70
     8
 71
     3
 72
    11
 73
     7
 74
     0
 42
0.000000001
 43
0.00000001
 40
0.0
 40
0.0
 40
0.0
 40
0.0
 40
0.2578450777026733
 40
0.5156820770207594
 40
0.7735215046421543
 40
1.0
 40
1.0
 40
1.0
 40
1.0
 10
61.33776283724791
 20
80.86376649247298
 30
0.0
 10
61.34574002240413
 20
80.84260286185197
 30
0.0
 10
61.36169414278822
 20
80.80027626367469
 30
0.0
 10
61.41052253842395
 20
80.75174392994093
 30
0.0
 10
61.46892499190022
 20
80.7210663372572
 30
0.0
 10
61.51115093809932
 20
80.71742076233564
 30
0.0
 10
61.53089678748142
 20
80.71571600543162
 30
0.0
  0
ARC
  5
23ED
330
1F
100
AcDbEntity
  8
1
  6
CONTINUOUS
 62
     7
100
AcDbCircle
 10
86.44575573751354
 20
87.61571313695045
 30
0.0
 40
25.99999999999999
100
AcDbArc
 50
164.9483229918001
 51
195.0516770082
  0
SPLINE
  5
23EE
330
1F
100
AcDbEntity
  8
1
  6
CONTINUOUS
 62
     7
100
AcDbSpline
210
0.0
220
0.0
230
1.0
 70
     8
 71
     3
 72
    11
 73
     7
 74
     0
 42
0.000000001
 43
0.00000001
 40
0.0
 40
0.0
 40
0.0
 40
0.0
 40
0.2578397726451999
 40
0.5157005300011231
 40
0.773526802844001
 40
1.0
 40
1.0
 40
1.0
 40
1.0
 10
61.53089678748142
 20
94.51571118937632
 30
0.0
 10
61.50838762468015
 20
94.51350515605641
 30
0.0
 10
61.46336746713257
 20
94.50909290987506
 30
0.0
 10
61.40381420578001
 20
94.47454556824853
 30
0.0
 10
61.35903059304724
 20
94.42610480781072
 30
0.0
 10
61.34453937336809
 20
94.38627764657208
 30
0.0
 10
61.33776283724791
 20
94.36765325175425
 30
0.0
  0
LINE
  5
23EF
330
1F
100
AcDbEntity
  8
1
  6
CONTINUOUS
 62
     7
100
AcDbLine
 10
61.53089678751348
 20
94.5157111893504
 30
0.0
 11
64.83703232271353
 21
94.5157111893504
 31
0.0
  0
LINE
  5
23F0
330
1F
100
AcDbEntity
  8
1
  6
CONTINUOUS
 62
     7
100
AcDbLine
 10
64.83703232271353
 20
80.71571600545037
 30
0.0
 11
61.53089678751348
 21
80.71571600545037
 31
0.0
  0
LINE
  5
23F1
330
1F
100
AcDbEntity
  8
1
  6
CONTINUOUS
 62
     7
100
AcDbLine
 10
98.13702977161347
 20
96.36571270335044
 30
0.0
 11
121.5370272742135
 21
96.36571270335044
 31
0.0
  0
SPLINE
  5
23F2
330
1F
100
AcDbEntity
  8
1
  6
CONTINUOUS
 62
     7
100
AcDbSpline
210
0.0
220
0.0
230
1.0
 70
    24
 71
     3
 72
    12
 73
     8
 74
     0
 42
0.000000001
 43
0.00000001
 40
0.0
 40
0.0
 40
0.0
 40
0.0
 40
0.2148961858353572
 40
0.4298080971448958
 40
0.644632735930237
 40
0.8593013013273615
 40
1.0
 40
1.0
 40
1.0
 40
1.0
 10
121.5370272742081
 20
96.36571270333418
 30
0.0
 10
121.5370272742081
 20
96.3634991784515
 30
0.0
 10
121.5370272742081
 20
96.3590719667068
 30
0.0
 10
121.5370272742081
 20
96.3245510314671
 30
0.0
 10
121.5370272742081
 20
96.2737485102469
 30
0.0
 10
121.5370272742081
 20
96.21752387218801
 30
0.0
 10
121.5370272742081
 20
96.18041076601749
 30
0.0
 10
121.5370272742081
 20
96.16571676837101
 30
0.0
  0
SPLINE
  5
23F3
330
1F
100
AcDbEntity
  8
1
  6
CONTINUOUS
 62
     7
100
AcDbSpline
210
0.0
220
0.0
230
1.0
 70
    24
 71
     3
 72
    12
 73
     8
 74
     0
 42
0.000000001
 43
0.00000001
 40
0.0
 40
0.0
 40
0.0
 40
0.0
 40
0.2144843751115903
 40
0.4289725922535833
 40
0.6435364676453705
 40
0.8582526539007943
 40
0.9999999999999999
 40
0.9999999999999999
 40
0.9999999999999999
 40
0.9999999999999999
 10
98.1370297716428
 20
96.16571676837101
 30
0.0
 10
98.13702977164269
 20
96.18818814374062
 30
0.0
 10
98.1370297716428
 20
96.23313129700661
 30
0.0
 10
98.13702977164269
 20
96.293035291305
 30
0.0
 10
98.1370297716428
 20
96.33826814445031
 30
0.0
 10
98.1370297716428
 20
96.36228286743712
 30
0.0
 10
98.13702977164269
 20
96.36473687129804
 30
0.0
 10
98.1370297716428
 20
96.36571270333418
 30
0.0
  0
LINE
  5
23F4
330
1F
100
AcDbEntity
  8
1
  6
CONTINUOUS
 62
     7
100
AcDbLine
 10
123.3370279418135
 20
95.66571575505039
 30
0.0
 11
121.5370272742135
 21
95.66571575505039
 31
0.0
  0
LINE
  5
23F5
330
1F
100
AcDbEntity
  8
1
  6
CONTINUOUS
 62
     7
100
AcDbLine
 10
123.3370279418135
 20
96.16571676835038
 30
0.0
 11
123.3370279418135
 21
95.66571575505039
 31
0.0
  0
LINE
  5
23F6
330
1F
100
AcDbEntity
  8
1
  6
CONTINUOUS
 62
     7
100
AcDbLine
 10
123.3370279418135
 20
79.56571143975039
 30
0.0
 11
123.3370279418135
 21
79.0657104264504
 31
0.0
  0
LINE
  5
23F7
330
1F
100
AcDbEntity
  8
1
  6
CONTINUOUS
 62
     7
100
AcDbLine
 10
121.5370272742135
 20
79.56571143975039
 30
0.0
 11
123.3370279418135
 21
79.56571143975039
 31
0.0
  0
LINE
  5
23F8
330
1F
100
AcDbEntity
  8
1
  6
CONTINUOUS
 62
     7
100
AcDbLine
 10
121.5370272742135
 20
79.0657104264504
 30
0.0
 11
121.5370272742135
 21
79.56571143975039
 31
0.0
  0
LINE
  5
23F9
330
1F
100
AcDbEntity
  8
1
  6
CONTINUOUS
 62
     7
100
AcDbLine
 10
98.13702977161347
 20
79.56571143975039
 30
0.0
 11
98.13702977161347
 21
79.0657104264504
 31
0.0
  0
LINE
  5
23FA
330
1F
100
AcDbEntity
  8
1
  6
CONTINUOUS
 62
     7
100
AcDbLine
 10
96.33702910411353
 20
79.56571143975039
 30
0.0
 11
98.13702977161347
 21
79.56571143975039
 31
0.0
  0
LINE
  5
23FB
330
1F
100
AcDbEntity
  8
1
  6
CONTINUOUS
 62
     7
100
AcDbLine
 10
96.33702910411353
 20
79.0657104264504
 30
0.0
 11
96.33702910411353
 21
79.56571143975039
 31
0.0
  0
LINE
  5
23FC
330
1F
100
AcDbEntity
  8
1
  6
CONTINUOUS
 62
     7
100
AcDbLine
 10
96.33702910411353
 20
95.66571575505039
 30
0.0
 11
96.33702910411353
 21
96.16571676835038
 31
0.0
  0
LINE
  5
23FD
330
1F
100
AcDbEntity
  8
1
  6
CONTINUOUS
 62
     7
100
AcDbLine
 10
98.13702977161347
 20
95.66571575505039
 30
0.0
 11
96.33702910411353
 21
95.66571575505039
 31
0.0
  0
LINE
  5
23FE
330
1F
100
AcDbEntity
  8
1
  6
CONTINUOUS
 62
     7
100
AcDbLine
 10
98.13702977161347
 20
96.16571676835038
 30
0.0
 11
98.13702977161347
 21
95.66571575505039
 31
0.0
  0
LINE
  5
23FF
330
1F
100
AcDbEntity
  8
1
  6
CONTINUOUS
 62
     7
100
AcDbLine
 10
121.5370272742135
 20
95.66571575505039
 30
0.0
 11
121.5370272742135
 21
96.16571676835038
 31
0.0
  0
LINE
  5
2400
330
1F
100
AcDbEntity
  8
1
  6
CONTINUOUS
 62
     7
100
AcDbLine
 10
121.5370272742135
 20
78.86571449145045
 30
0.0
 11
98.13702977161347
 21
78.86571449145045
 31
0.0
  0
SPLINE
  5
2401
330
1F
100
AcDbEntity
  8
1
  6
CONTINUOUS
 62
     7
100
AcDbSpline
210
0.0
220
0.0
230
1.0
 70
    24
 71
     3
 72
    12
 73
     8
 74
     0
 42
0.000000001
 43
0.00000001
 40
0.0
 40
0.0
 40
0.0
 40
0.0
 40
0.2148961858353572
 40
0.4298080971448958
 40
0.644632735930237
 40
0.8593013013273615
 40
1.0
 40
1.0
 40
1.0
 40
1.0
 10
98.13702977164269
 20
78.86571449147364
 30
0.0
 10
98.13702977164269
 20
78.86792801635632
 30
0.0
 10
98.13702977164269
 20
78.87235522810097
 30
0.0
 10
98.1370297716428
 20
78.90687616334067
 30
0.0
 10
98.13702977164269
 20
78.95767868456092
 30
0.0
 10
98.1370297716428
 20
79.01390332261981
 30
0.0
 10
98.13702977164269
 20
79.05101642879033
 30
0.0
 10
98.1370297716428
 20
79.06571042643681
 30
0.0
  0
SPLINE
  5
2402
330
1F
100
AcDbEntity
  8
1
  6
CONTINUOUS
 62
     7
100
AcDbSpline
210
0.0
220
0.0
230
1.0
 70
    24
 71
     3
 72
    12
 73
     8
 74
     0
 42
0.000000001
 43
0.00000001
 40
0.0
 40
0.0
 40
0.0
 40
0.0
 40
0.2144843751115903
 40
0.4289725922535833
 40
0.6435364676453705
 40
0.8582526539007943
 40
0.9999999999999999
 40
0.9999999999999999
 40
0.9999999999999999
 40
0.9999999999999999
 10
121.5370272742081
 20
79.06571042643681
 30
0.0
 10
121.5370272742081
 20
79.0432390510672
 30
0.0
 10
121.5370272742081
 20
78.99829589780121
 30
0.0
 10
121.5370272742081
 20
78.93839190350282
 30
0.0
 10
121.5370272742081
 20
78.89315905035751
 30
0.0
 10
121.5370272742082
 20
78.8691443273707
 30
0.0
 10
121.5370272742081
 20
78.86669032350979
 30
0.0
 10
121.5370272742081
 20
78.86571449147364
 30
0.0
  0
SPLINE
  5
2403
330
1F
100
AcDbEntity
  8
1
  6
CONTINUOUS
 62
     7
100
AcDbSpline
210
0.0
220
0.0
230
1.0
 70
    24
 71
     3
 72
    12
 73
     8
 74
     0
 42
0.000000001
 43
0.00000001
 40
0.0
 40
0.0
 40
0.0
 40
0.0
 40
0.2149677738351815
 40
0.4299274067308588
 40
0.6448107762306147
 40
0.859488089796006
 40
1.0
 40
1.0
 40
1.0
 40
1.0
 10
96.33702910407072
 20
96.36571270333418
 30
0.0
 10
96.33702910407072
 20
96.3634968179838
 30
0.0
 10
96.33702910407072
 20
96.35906513119961
 30
0.0
 10
96.33702910407072
 20
96.32453841373099
 30
0.0
 10
96.33702910407072
 20
96.2737165328784
 30
0.0
 10
96.33702910407072
 20
96.2174918961452
 30
0.0
 10
96.33702910407072
 20
96.18039299484299
 30
0.0
 10
96.33702910407072
 20
96.16571676837101
 30
0.0
  0
LINE
  5
2404
330
1F
100
AcDbEntity
  8
1
  6
CONTINUOUS
 62
     7
100
AcDbLine
 10
88.27950186001351
 20
96.36571270335044
 30
0.0
 11
96.33702910411353
 21
96.36571270335044
 31
0.0
  0
SPLINE
  5
2405
330
1F
100
AcDbEntity
  8
1
  6
CONTINUOUS
 62
     7
100
AcDbSpline
210
0.0
220
0.0
230
1.0
 70
    24
 71
     3
 72
    12
 73
     8
 74
     0
 42
0.000000001
 43
0.00000001
 40
0.0
 40
0.0
 40
0.0
 40
0.0
 40
0.2149618040015677
 40
0.4299310031761185
 40
0.6448123996856084
 40
0.8594657166122008
 40
1.0
 40
1.0
 40
1.0
 40
1.0
 10
123.3370279417801
 20
78.86571449147364
 30
0.0
 10
123.3370279417801
 20
78.867926694107
 30
0.0
 10
123.3370279417801
 20
78.8723511754787
 30
0.0
 10
123.3370279417802
 20
78.90689048272277
 30
0.0
 10
123.3370279417801
 20
78.957708487706
 30
0.0
 10
123.3370279417802
 20
79.01393233654922
 30
0.0
 10
123.3370279417802
 20
79.05103163779184
 30
0.0
 10
123.3370279417802
 20
79.06571042643681
 30
0.0
  0
LINE
  5
2406
330
1F
100
AcDbEntity
  8
1
  6
CONTINUOUS
 62
     7
100
AcDbLine
 10
131.3945533232135
 20
78.86571449145045
 30
0.0
 11
123.3370279418135
 21
78.86571449145045
 31
0.0
  0
SPLINE
  5
2407
330
1F
100
AcDbEntity
  8
1
  6
CONTINUOUS
 62
     7
100
AcDbSpline
210
0.0
220
0.0
230
1.0
 70
    24
 71
     3
 72
    12
 73
     8
 74
     0
 42
0.000000001
 43
0.00000001
 40
0.0
 40
0.0
 40
0.0
 40
0.0
 40
0.2144082133770121
 40
0.4288426125297258
 40
0.64336147542902
 40
0.8580905493979792
 40
0.9999999999999999
 40
0.9999999999999999
 40
0.9999999999999999
 40
0.9999999999999999
 10
123.3370279417802
 20
96.16571676837101
 30
0.0
 10
123.3370279417802
 20
96.18818313695591
 30
0.0
 10
123.3370279417801
 20
96.2331186179539
 30
0.0
 10
123.3370279417802
 20
96.2930128961806
 30
0.0
 10
123.3370279417802
 20
96.33824748543141
 30
0.0
 10
123.3370279417801
 20
96.36228168707221
 30
0.0
 10
123.3370279417801
 20
96.36473607990577
 30
0.0
 10
123.3370279417802
 20
96.36571270333418
 30
0.0
  0
LINE
  5
2408
330
1F
100
AcDbEntity
  8
1
  6
CONTINUOUS
 62
     7
100
AcDbLine
 10
123.3370279418135
 20
96.36571270335044
 30
0.0
 11
131.3945533232135
 21
96.36571270335044
 31
0.0
  0
SPLINE
  5
2409
330
1F
100
AcDbEntity
  8
1
  6
CONTINUOUS
 62
     7
100
AcDbSpline
210
0.0
220
0.0
230
1.0
 70
    24
 71
     3
 72
    12
 73
     8
 74
     0
 42
0.000000001
 43
0.00000001
 40
0.0
 40
0.0
 40
0.0
 40
0.0
 40
0.2144082133770121
 40
0.4288426125297258
 40
0.64336147542902
 40
0.8580905493979792
 40
0.9999999999999999
 40
0.9999999999999999
 40
0.9999999999999999
 40
0.9999999999999999
 10
96.33702910407072
 20
79.06571042643681
 30
0.0
 10
96.33702910407072
 20
79.04324405785191
 30
0.0
 10
96.33702910407072
 20
78.99830857685392
 30
0.0
 10
96.33702910407072
 20
78.93841429862728
 30
0.0
 10
96.33702910407072
 20
78.89317970937641
 30
0.0
 10
96.33702910407072
 20
78.8691455077355
 30
0.0
 10
96.33702910407072
 20
78.866691114902
 30
0.0
 10
96.33702910407072
 20
78.86571449147364
 30
0.0
  0
LINE
  5
240A
330
1F
100
AcDbEntity
  8
1
  6
CONTINUOUS
 62
     7
100
AcDbLine
 10
96.33702910411353
 20
78.86571449145045
 30
0.0
 11
88.27950186001351
 21
78.86571449145045
 31
0.0
  0
LINE
  5
240B
330
1F
100
AcDbEntity
  8
1
  6
CONTINUOUS
 62
     7
100
AcDbLine
 10
132.3370294170135
 20
96.16571676835038
 30
0.0
 11
132.3370294170135
 21
79.0657104264504
 31
0.0
  0
ARC
  5
240C
330
1F
100
AcDbEntity
  8
1
  6
CONTINUOUS
 62
     7
100
AcDbCircle
 10
87.53702886971348
 20
96.1657131369504
 30
0.0
 40
0.2000000000000171
100
AcDbArc
 50
90.0
 51
180.0
  0
LINE
  5
240D
330
1F
100
AcDbEntity
  8
1
  6
CONTINUOUS
 62
     7
100
AcDbLine
 10
87.53702915171351
 20
96.36571270335044
 30
0.0
 11
88.27950186001351
 21
96.36571270335044
 31
0.0
  0
LINE
  5
240E
330
1F
100
AcDbEntity
  8
1
  6
CONTINUOUS
 62
     7
100
AcDbLine
 10
87.33702576621351
 20
79.0657104264504
 30
0.0
 11
87.33702576621351
 21
96.16571676835038
 31
0.0
  0
ARC
  5
240F
330
1F
100
AcDbEntity
  8
1
  6
CONTINUOUS
 62
     7
100
AcDbCircle
 10
132.1370288697135
 20
96.1657131369504
 30
0.0
 40
0.2000000000000455
100
AcDbArc
 50
0.0
 51
90.0
  0
LINE
  5
2410
330
1F
100
AcDbEntity
  8
1
  6
CONTINUOUS
 62
     7
100
AcDbLine
 10
131.3945533232135
 20
96.36571270335044
 30
0.0
 11
132.1370297567135
 21
96.36571270335044
 31
0.0
  0
ARC
  5
2411
330
1F
100
AcDbEntity
  8
1
  6
CONTINUOUS
 62
     7
100
AcDbCircle
 10
132.1370288697135
 20
79.06571313695038
 30
0.0
 40
0.1999999999999886
100
AcDbArc
 50
270.0
 51
0.0
  0
LINE
  5
2412
330
1F
100
AcDbEntity
  8
1
  6
CONTINUOUS
 62
     7
100
AcDbLine
 10
132.1370297567135
 20
78.86571449145045
 30
0.0
 11
131.3945533232135
 21
78.86571449145045
 31
0.0
  0
ARC
  5
2413
330
1F
100
AcDbEntity
  8
1
  6
CONTINUOUS
 62
     7
100
AcDbCircle
 10
87.53702886971348
 20
79.06571313695038
 30
0.0
 40
0.2000000000000171
100
AcDbArc
 50
180.0
 51
270.0
  0
LINE
  5
2414
330
1F
100
AcDbEntity
  8
1
  6
CONTINUOUS
 62
     7
100
AcDbLine
 10
88.27950186001351
 20
78.86571449145045
 30
0.0
 11
87.53702915171351
 21
78.86571449145045
 31
0.0
  0
LINE
  5
2415
330
1F
100
AcDbEntity
  8
1
  6
CONTINUOUS
 62
     7
100
AcDbLine
 10
123.3370279418135
 20
96.36571270335044
 30
0.0
 11
121.5370272742135
 21
96.36571270335044
 31
0.0
  0
LINE
  5
2416
330
1F
100
AcDbEntity
  8
1
  6
CONTINUOUS
 62
     7
100
AcDbLine
 10
98.13702977161347
 20
96.36571270335044
 30
0.0
 11
96.33702910411353
 21
96.36571270335044
 31
0.0
  0
LINE
  5
2417
330
1F
100
AcDbEntity
  8
1
  6
CONTINUOUS
 62
     7
100
AcDbLine
 10
121.5370272742135
 20
78.86571449145045
 30
0.0
 11
123.3370279418135
 21
78.86571449145045
 31
0.0
  0
LINE
  5
2418
330
1F
100
AcDbEntity
  8
1
  6
CONTINUOUS
 62
     7
100
AcDbLine
 10
96.33702910411353
 20
78.86571449145045
 30
0.0
 11
98.13702977161347
 21
78.86571449145045
 31
0.0
  0
LINE
  5
2419
330
1F
100
AcDbEntity
  8
1
  6
CONTINUOUS
 62
     7
100
AcDbLine
 10
96.43702707151351
 20
79.0657104264504
 30
0.0
 11
96.43702707151351
 21
79.56571143975039
 31
0.0
  0
LINE
  5
241A
330
1F
100
AcDbEntity
  8
1
  6
CONTINUOUS
 62
     7
100
AcDbLine
 10
98.03702807891352
 20
79.0657104264504
 30
0.0
 11
98.03702807891352
 21
79.56571143975039
 31
0.0
  0
LINE
  5
241B
330
1F
100
AcDbEntity
  8
1
  6
CONTINUOUS
 62
     7
100
AcDbLine
 10
96.43702707151351
 20
79.0657104264504
 30
0.0
 11
98.03702807891352
 21
79.0657104264504
 31
0.0
  0
LINE
  5
241C
330
1F
100
AcDbEntity
  8
1
  6
CONTINUOUS
 62
     7
100
AcDbLine
 10
121.6370289670135
 20
79.0657104264504
 30
0.0
 11
121.6370289670135
 21
79.56571143975039
 31
0.0
  0
LINE
  5
241D
330
1F
100
AcDbEntity
  8
1
  6
CONTINUOUS
 62
     7
100
AcDbLine
 10
123.2370299743135
 20
79.0657104264504
 30
0.0
 11
123.2370299743135
 21
79.56571143975039
 31
0.0
  0
LINE
  5
241E
330
1F
100
AcDbEntity
  8
1
  6
CONTINUOUS
 62
     7
100
AcDbLine
 10
121.6370289670135
 20
79.0657104264504
 30
0.0
 11
123.2370299743135
 21
79.0657104264504
 31
0.0
  0
LINE
  5
241F
330
1F
100
AcDbEntity
  8
1
  6
CONTINUOUS
 62
     7
100
AcDbLine
 10
87.33702576621351
 20
82.61571091515039
 30
0.0
 11
87.13702983121351
 21
82.61571091515039
 31
0.0
  0
LINE
  5
2420
330
1F
100
AcDbEntity
  8
1
  6
CONTINUOUS
 62
     7
100
AcDbLine
 10
132.5370290772135
 20
82.61571091515039
 30
0.0
 11
132.3370294170135
 21
82.61571091515039
 31
0.0
  0
LINE
  5
2421
330
1F
100
AcDbEntity
  8
1
  6
CONTINUOUS
 62
     7
100
AcDbLine
 10
79.85679930911351
 20
87.61571359745041
 30
0.0
 11
76.93702853191348
 21
87.61571359745041
 31
0.0
  0
LINE
  5
2422
330
1F
100
AcDbEntity
  8
1
  6
CONTINUOUS
 62
     7
100
AcDbLine
 10
85.74724323021348
 20
87.61571359745041
 30
0.0
 11
84.4372597979135
 21
87.61571359745041
 31
0.0
  0
LINE
  5
2423
330
1F
100
AcDbEntity
  8
1
  6
CONTINUOUS
 62
     7
100
AcDbLine
 10
87.13702983121351
 20
82.61571091515039
 30
0.0
 11
85.79094088541353
 21
82.61571091515039
 31
0.0
  0
LINE
  5
2424
330
1F
100
AcDbEntity
  8
1
  6
CONTINUOUS
 62
     7
100
AcDbLine
 10
142.7370285140135
 20
87.61571359745041
 30
0.0
 11
139.8172577367135
 21
87.61571359745041
 31
0.0
  0
LINE
  5
2425
330
1F
100
AcDbEntity
  8
1
  6
CONTINUOUS
 62
     7
100
AcDbLine
 10
135.2368009732135
 20
87.61571359745041
 30
0.0
 11
133.9268119530135
 21
87.61571359745041
 31
0.0
  0
LINE
  5
2426
330
1F
100
AcDbEntity
  8
1
  6
CONTINUOUS
 62
     7
100
AcDbLine
 10
133.8831161605135
 20
82.61571091515039
 30
0.0
 11
132.5370290772135
 21
82.61571091515039
 31
0.0
  0
SPLINE
  5
2427
330
1F
100
AcDbEntity
  8
0
  6
CONTINUOUS
 62
     7
100
AcDbSpline
210
0.0
220
0.0
230
1.0
 70
    24
 71
     3
 72
    13
 73
     9
 74
     0
 42
0.000000001
 43
0.00000001
 40
0.0
 40
0.0
 40
0.0
 40
0.0
 40
0.2870965604031531
 40
0.4004298845361211
 40
0.4994804554679341
 40
0.5974107416798067
 40
0.7103849935929547
 40
1.0
 40
1.0
 40
1.0
 40
1.0
 10
85.7472432301808
 20
87.61571359740391
 30
0.0
 10
85.7779933566905
 20
87.61571359740391
 30
0.0
 10
85.8208823052397
 20
87.61571359740391
 30
0.0
 10
85.8711506876532
 20
87.61571359740391
 30
0.0
 10
85.89895932911043
 20
87.61571359740391
 30
0.0
 10
85.91929569671112
 20
87.61571359740391
 30
0.0
 10
85.94032478774682
 20
87.61571359740391
 30
0.0
 10
85.9441945569385
 20
87.61571359740391
 30
0.0
 10
85.94697839482319
 20
87.61571359740391
 30
0.0
  0
SPLINE
  5
2428
330
1F
100
AcDbEntity
  8
0
  6
CONTINUOUS
 62
     7
100
AcDbSpline
210
0.0
220
0.0
230
1.0
 70
    24
 71
     3
 72
    13
 73
     9
 74
     0
 42
0.000000001
 43
0.00000001
 40
0.0
 40
0.0
 40
0.0
 40
0.0
 40
0.2870875755802723
 40
0.4004147415614419
 40
0.4994824450764924
 40
0.5973984739073042
 40
0.7103766392827092
 40
1.0
 40
1.0
 40
1.0
 40
1.0
 10
133.7270767883826
 20
87.61571359740391
 30
0.0
 10
133.729871058522
 20
87.61571359740391
 30
0.0
 10
133.7337683604288
 20
87.61571359740391
 30
0.0
 10
133.7547457698666
 20
87.61571359740391
 30
0.0
 10
133.7747257358188
 20
87.61571359740391
 30
0.0
 10
133.8022716302373
 20
87.61571359740391
 30
0.0
 10
133.8526725042476
 20
87.61571359740391
 30
0.0
 10
133.8957923859366
 20
87.61571359740391
 30
0.0
 10
133.9268119530249
 20
87.61571359740391
 30
0.0
  0
LINE
  5
2429
330
1F
100
AcDbEntity
  8
1
  6
CONTINUOUS
 62
     7
100
AcDbLine
 10
84.14672440751349
 20
82.43080985655043
 30
0.0
 11
84.23722661001352
 21
87.61571359745041
 31
0.0
  0
LINE
  5
242A
330
1F
100
AcDbEntity
  8
1
  6
CONTINUOUS
 62
     7
100
AcDbLine
 10
84.23722661001352
 20
87.61571359745041
 30
0.0
 11
84.4372597979135
 21
87.61571359745041
 31
0.0
  0
LINE
  5
242B
330
1F
100
AcDbEntity
  8
1
  6
CONTINUOUS
 62
     7
100
AcDbLine
 10
80.0568324969135
 20
87.61571359745041
 30
0.0
 11
80.14733469951352
 21
82.43080985655043
 31
0.0
  0
LINE
  5
242C
330
1F
100
AcDbEntity
  8
1
  6
CONTINUOUS
 62
     7
100
AcDbLine
 10
79.85679930911351
 20
87.61571359745041
 30
0.0
 11
80.0568324969135
 21
87.61571359745041
 31
0.0
  0
LINE
  5
242D
330
1F
100
AcDbEntity
  8
1
  6
CONTINUOUS
 62
     7
100
AcDbLine
 10
76.13702989081355
 20
79.0657104264504
 30
0.0
 11
76.13702989081355
 21
87.61571359745041
 31
0.0
  0
LINE
  5
242E
330
1F
100
AcDbEntity
  8
1
  6
CONTINUOUS
 62
     7
100
AcDbLine
 10
76.13702989081355
 20
87.61571359745041
 30
0.0
 11
76.93702853191348
 21
87.61571359745041
 31
0.0
  0
ARC
  5
242F
330
1F
100
AcDbEntity
  8
1
  6
CONTINUOUS
 62
     7
100
AcDbCircle
 10
82.1470288697135
 20
82.46571313695041
 30
0.0
 40
2.000000000000026
100
AcDbArc
 50
181.0000000000001
 51
358.9999999999998
  0
LINE
  5
2430
330
1F
100
AcDbEntity
  8
1
  6
CONTINUOUS
 62
     7
100
AcDbLine
 10
135.2368009732135
 20
87.61571359745041
 30
0.0
 11
135.3220374779135
 21
87.61571359745041
 31
0.0
  0
LINE
  5
2431
330
1F
100
AcDbEntity
  8
1
  6
CONTINUOUS
 62
     7
100
AcDbLine
 10
139.7320193694135
 20
87.61571359745041
 30
0.0
 11
139.8172577367135
 21
87.61571359745041
 31
0.0
  0
LINE
  5
2432
330
1F
100
AcDbEntity
  8
1
  6
CONTINUOUS
 62
     7
100
AcDbLine
 10
87.53702915171351
 20
78.86571449145045
 30
0.0
 11
76.93702853191348
 21
78.86571449145045
 31
0.0
  0
LINE
  5
2433
330
1F
100
AcDbEntity
  8
1
  6
CONTINUOUS
 62
     7
100
AcDbLine
 10
143.5370290176135
 20
87.61571359745041
 30
0.0
 11
143.5370290176135
 21
79.0657104264504
 31
0.0
  0
LINE
  5
2434
330
1F
100
AcDbEntity
  8
0
  6
CONTINUOUS
 62
     7
100
AcDbLine
 10
142.7370285140135
 20
87.61571359745041
 30
0.0
 11
143.5370290176135
 21
87.61571359745041
 31
0.0
  0
ARC
  5
2435
330
1F
100
AcDbEntity
  8
1
  6
CONTINUOUS
 62
     7
100
AcDbCircle
 10
76.33702886971355
 20
79.06571313695038
 30
0.0
 40
0.1999999999999886
100
AcDbArc
 50
180.0
 51
270.0
  0
LINE
  5
2436
330
1F
100
AcDbEntity
  8
1
  6
CONTINUOUS
 62
     7
100
AcDbLine
 10
76.3370258258135
 20
78.86571449145045
 30
0.0
 11
76.93702853191348
 21
78.86571449145045
 31
0.0
  0
LINE
  5
2437
330
1F
100
AcDbEntity
  8
1
  6
CONTINUOUS
 62
     7
100
AcDbLine
 10
142.7370285140135
 20
78.86571449145045
 30
0.0
 11
132.1370297567135
 21
78.86571449145045
 31
0.0
  0
ARC
  5
2438
330
1F
100
AcDbEntity
  8
1
  6
CONTINUOUS
 62
     7
100
AcDbCircle
 10
143.3370288697135
 20
79.06571313695038
 30
0.0
 40
0.2000000000000028
100
AcDbArc
 50
270.0
 51
0.0
  0
LINE
  5
2439
330
1F
100
AcDbEntity
  8
1
  6
CONTINUOUS
 62
     7
100
AcDbLine
 10
142.7370285140135
 20
78.86571449145045
 30
0.0
 11
143.3370284261135
 21
78.86571449145045
 31
0.0
  0
LINE
  5
243A
330
1F
100
AcDbEntity
  8
0
  6
CONTINUOUS
 62
     7
100
AcDbLine
 10
85.94697839481353
 20
87.61571359745041
 30
0.0
 11
86.22411764131351
 21
87.61571359745041
 31
0.0
  0
LINE
  5
243B
330
1F
100
AcDbEntity
  8
1
  6
CONTINUOUS
 62
     7
100
AcDbLine
 10
133.7270767884135
 20
87.61571359745041
 30
0.0
 11
133.4499375419135
 21
87.61571359745041
 31
0.0
  0
SPLINE
  5
243C
330
1F
100
AcDbEntity
  8
1
  6
CONTINUOUS
 62
     7
100
AcDbSpline
210
0.0
220
0.0
230
1.0
 70
    24
 71
     3
 72
    13
 73
     9
 74
     0
 42
0.000000001
 43
0.00000001
 40
0.0
 40
0.0
 40
0.0
 40
0.0
 40
0.2881607022838594
 40
0.4012304038551908
 40
0.4996399975178599
 40
0.5982027712278101
 40
0.7114241287584946
 40
0.9999999999999999
 40
0.9999999999999999
 40
0.9999999999999999
 40
0.9999999999999999
 10
133.2502191410828
 20
87.61571359740391
 30
0.0
 10
133.2810808270262
 20
87.61571359740391
 30
0.0
 10
133.3240521503765
 20
87.61571359740391
 30
0.0
 10
133.3743512459463
 20
87.61571359740391
 30
0.0
 10
133.4020360224659
 20
87.61571359740391
 30
0.0
 10
133.4222166169948
 20
87.61571359740391
 30
0.0
 10
133.4432599394056
 20
87.61571359740391
 30
0.0
 10
133.4471463048862
 20
87.61571359740391
 30
0.0
 10
133.4499375419188
 20
87.61571359740391
 30
0.0
  0
SPLINE
  5
243D
330
1F
100
AcDbEntity
  8
0
  6
CONTINUOUS
 62
     7
100
AcDbSpline
210
0.0
220
0.0
230
1.0
 70
    24
 71
     3
 72
    13
 73
     9
 74
     0
 42
0.000000001
 43
0.00000001
 40
0.0
 40
0.0
 40
0.0
 40
0.0
 40
0.2881564684558192
 40
0.4012267872714107
 40
0.4996308375323219
 40
0.5982049728616629
 40
0.7114294697219122
 40
1.0
 40
1.0
 40
1.0
 40
1.0
 10
86.22411764128691
 20
87.61571359740391
 30
0.0
 10
86.22690588088432
 20
87.61571359740391
 30
0.0
 10
86.2307882036439
 20
87.61571359740391
 30
0.0
 10
86.2517450729282
 20
87.61571359740391
 30
0.0
 10
86.2718701420768
 20
87.61571359740391
 30
0.0
 10
86.29953920560547
 20
87.61571359740391
 30
0.0
 10
86.34989770898119
 20
87.61571359740391
 30
0.0
 10
86.39293114634438
 20
87.61571359740391
 30
0.0
 10
86.4238379047681
 20
87.61571359740391
 30
0.0
  0
LINE
  5
243E
330
1F
100
AcDbEntity
  8
1
  6
CONTINUOUS
 62
     7
100
AcDbLine
 10
133.2502191411135
 20
87.61571359745041
 30
0.0
 11
132.3370294170135
 21
87.61571359745041
 31
0.0
  0
LINE
  5
243F
330
1F
100
AcDbEntity
  8
1
  6
CONTINUOUS
 62
     7
100
AcDbLine
 10
86.42383790481352
 20
87.61571359745041
 30
0.0
 11
87.33702576621351
 21
87.61571359745041
 31
0.0
  0
LINE
  5
2440
330
1F
100
AcDbEntity
  8
1
  6
CONTINUOUS
 62
     7
100
AcDbLine
 10
143.7370286779135
 20
82.61571091515039
 30
0.0
 11
143.5370290176135
 21
82.61571091515039
 31
0.0
  0
LINE
  5
2441
330
1F
100
AcDbEntity
  8
1
  6
CONTINUOUS
 62
     7
100
AcDbLine
 10
76.13702989081355
 20
82.61571091515039
 30
0.0
 11
75.9370265053135
 21
82.61571091515039
 31
0.0
  0
LINE
  5
2442
330
1F
100
AcDbEntity
  8
1
  6
CONTINUOUS
 62
     7
100
AcDbLine
 10
68.58679777841348
 20
87.61571359745041
 30
0.0
 11
65.63703096371353
 21
87.61571359745041
 31
0.0
  0
LINE
  5
2443
330
1F
100
AcDbEntity
  8
1
  6
CONTINUOUS
 62
     7
100
AcDbLine
 10
74.54724735481352
 20
87.61571359745041
 30
0.0
 11
73.16725826721347
 21
87.61571359745041
 31
0.0
  0
LINE
  5
2444
330
1F
100
AcDbEntity
  8
1
  6
CONTINUOUS
 62
     7
100
AcDbLine
 10
75.9370265053135
 20
82.61571091515039
 30
0.0
 11
74.59093755941353
 21
82.61571091515039
 31
0.0
  0
LINE
  5
2445
330
1F
100
AcDbEntity
  8
1
  6
CONTINUOUS
 62
     7
100
AcDbLine
 10
154.0370288761135
 20
87.61571359745041
 30
0.0
 11
151.0872574047135
 21
87.61571359745041
 31
0.0
  0
LINE
  5
2446
330
1F
100
AcDbEntity
  8
1
  6
CONTINUOUS
 62
     7
100
AcDbLine
 10
146.5067997099135
 20
87.61571359745041
 30
0.0
 11
145.1268115537135
 21
87.61571359745041
 31
0.0
  0
LINE
  5
2447
330
1F
100
AcDbEntity
  8
1
  6
CONTINUOUS
 62
     7
100
AcDbLine
 10
145.0831166924135
 20
82.61571091515039
 30
0.0
 11
143.7370286779135
 21
82.61571091515039
 31
0.0
  0
SPLINE
  5
2448
330
1F
100
AcDbEntity
  8
0
  6
CONTINUOUS
 62
     7
100
AcDbSpline
210
0.0
220
0.0
230
1.0
 70
    24
 71
     3
 72
    13
 73
     9
 74
     0
 42
0.000000001
 43
0.00000001
 40
0.0
 40
0.0
 40
0.0
 40
0.0
 40
0.2871002552558692
 40
0.4004163068644959
 40
0.499487366006557
 40
0.5974044041893892
 40
0.7103774402804633
 40
1.0
 40
1.0
 40
1.0
 40
1.0
 10
74.54724735482222
 20
87.61571359740391
 30
0.0
 10
74.5779987846642
 20
87.61571359740391
 30
0.0
 10
74.62088754474962
 20
87.61571359740391
 30
0.0
 10
74.6711489069101
 20
87.61571359740391
 30
0.0
 10
74.6989634647154
 20
87.61571359740391
 30
0.0
 10
74.71929080582322
 20
87.61571359740391
 30
0.0
 10
74.74032288832541
 20
87.61571359740391
 30
0.0
 10
74.74419614438631
 20
87.61571359740391
 30
0.0
 10
74.74698251946461
 20
87.61571359740391
 30
0.0
  0
SPLINE
  5
2449
330
1F
100
AcDbEntity
  8
1
  6
CONTINUOUS
 62
     7
100
AcDbSpline
210
0.0
220
0.0
230
1.0
 70
    24
 71
     3
 72
    13
 73
     9
 74
     0
 42
0.000000001
 43
0.00000001
 40
0.0
 40
0.0
 40
0.0
 40
0.0
 40
0.2870923622118554
 40
0.4004139854690785
 40
0.499483305212589
 40
0.5974008548722972
 40
0.7103771424052987
 40
1.0
 40
1.0
 40
1.0
 40
1.0
 10
144.927077320354
 20
87.61571359740391
 30
0.0
 10
144.9298708494803
 20
87.61571359740391
 30
0.0
 10
144.9337670455418
 20
87.61571359740391
 30
0.0
 10
144.954745687413
 20
87.61571359740391
 30
0.0
 10
144.9747265343661
 20
87.61571359740391
 30
0.0
 10
145.0022717281462
 20
87.61571359740391
 30
0.0
 10
145.0526720284821
 20
87.61571359740391
 30
0.0
 10
145.0957918792597
 20
87.61571359740391
 30
0.0
 10
145.1268115536738
 20
87.61571359740391
 30
0.0
  0
LINE
  5
244A
330
1F
100
AcDbEntity
  8
1
  6
CONTINUOUS
 62
     7
100
AcDbLine
 10
68.58679777841348
 20
87.61571359745041
 30
0.0
 11
68.64203638301353
 21
87.61571359745041
 31
0.0
  0
LINE
  5
244B
330
1F
100
AcDbEntity
  8
0
  6
CONTINUOUS
 62
     7
100
AcDbLine
 10
146.5067997099135
 20
87.61571359745041
 30
0.0
 11
146.6220378400135
 21
87.61571359745041
 31
0.0
  0
LINE
  5
244C
330
1F
100
AcDbEntity
  8
1
  6
CONTINUOUS
 62
     7
100
AcDbLine
 10
154.8370289141135
 20
87.61571359745041
 30
0.0
 11
154.8370289141135
 21
79.0657104264504
 31
0.0
  0
LINE
  5
244D
330
1F
100
AcDbEntity
  8
1
  6
CONTINUOUS
 62
     7
100
AcDbLine
 10
154.0370288761135
 20
87.61571359745041
 30
0.0
 11
154.8370289141135
 21
87.61571359745041
 31
0.0
  0
LINE
  5
244E
330
1F
100
AcDbEntity
  8
1
  6
CONTINUOUS
 62
     7
100
AcDbLine
 10
73.05202013711352
 20
87.61571359745041
 30
0.0
 11
73.16725826721347
 21
87.61571359745041
 31
0.0
  0
LINE
  5
244F
102
{ACAD_REACTORS
102
}
330
1F
100
AcDbEntity
  8
1
  6
CONTINUOUS
 62
     7
100
AcDbLine
 10
64.83703232271353
 20
79.0657104264504
 30
0.0
 11
64.83703232271353
 21
87.61571359745041
 31
0.0
  0
LINE
  5
2450
330
1F
100
AcDbEntity
  8
1
  6
CONTINUOUS
 62
     7
100
AcDbLine
 10
64.83703232271353
 20
87.61571359745041
 30
0.0
 11
65.63703096371353
 21
87.61571359745041
 31
0.0
  0
LINE
  5
2451
330
1F
100
AcDbEntity
  8
0
  6
CONTINUOUS
 62
     7
100
AcDbLine
 10
151.0320197315135
 20
87.61571359745041
 30
0.0
 11
151.0872574047135
 21
87.61571359745041
 31
0.0
  0
LINE
  5
2452
330
1F
100
AcDbEntity
  8
1
  6
CONTINUOUS
 62
     7
100
AcDbLine
 10
76.3370258258135
 20
78.86571449145045
 30
0.0
 11
65.63703096371353
 21
78.86571449145045
 31
0.0
  0
LINE
  5
2453
330
1F
100
AcDbEntity
  8
1
  6
CONTINUOUS
 62
     7
100
AcDbLine
 10
154.0370288761135
 20
78.86571449145045
 30
0.0
 11
143.3370284261135
 21
78.86571449145045
 31
0.0
  0
ARC
  5
2454
330
1F
100
AcDbEntity
  8
1
  6
CONTINUOUS
 62
     7
100
AcDbCircle
 10
154.6370288697135
 20
79.06571313695038
 30
0.0
 40
0.1999999999999886
100
AcDbArc
 50
270.0
 51
0.0
  0
LINE
  5
2455
102
{ACAD_REACTORS
102
}
330
1F
100
AcDbEntity
  8
1
  6
CONTINUOUS
 62
     7
100
AcDbLine
 10
154.0370288761135
 20
78.86571449145045
 30
0.0
 11
154.6370289046135
 21
78.86571449145045
 31
0.0
  0
ARC
  5
2456
330
1F
100
AcDbEntity
  8
1
  6
CONTINUOUS
 62
     7
100
AcDbCircle
 10
65.03702886971348
 20
79.06571313695038
 30
0.0
 40
0.2000000000000171
100
AcDbArc
 50
180.0
 51
270.0
  0
LINE
  5
2457
330
1F
100
AcDbEntity
  8
1
  6
CONTINUOUS
 62
     7
100
AcDbLine
 10
65.03702825771347
 20
78.86571449145045
 30
0.0
 11
65.63703096371353
 21
78.86571449145045
 31
0.0
  0
LINE
  5
2458
330
1F
100
AcDbEntity
  8
0
  6
CONTINUOUS
 62
     7
100
AcDbLine
 10
74.7469825195135
 20
87.61571359745041
 30
0.0
 11
75.02412176591349
 21
87.61571359745041
 31
0.0
  0
LINE
  5
2459
330
1F
100
AcDbEntity
  8
1
  6
CONTINUOUS
 62
     7
100
AcDbLine
 10
144.9270773203135
 20
87.61571359745041
 30
0.0
 11
144.6499380739135
 21
87.61571359745041
 31
0.0
  0
SPLINE
  5
245A
330
1F
100
AcDbEntity
  8
0
  6
CONTINUOUS
 62
     7
100
AcDbSpline
210
0.0
220
0.0
230
1.0
 70
    24
 71
     3
 72
    13
 73
     9
 74
     0
 42
0.000000001
 43
0.00000001
 40
0.0
 40
0.0
 40
0.0
 40
0.0
 40
0.2881589633487761
 40
0.4012374276238763
 40
0.4996449560143839
 40
0.5981994584760562
 40
0.7114263519144314
 40
1.0
 40
1.0
 40
1.0
 40
1.0
 10
75.02412176592827
 20
87.61571359740391
 30
0.0
 10
75.02690395697243
 20
87.61571359740391
 30
0.0
 10
75.030777926967
 20
87.61571359740391
 30
0.0
 10
75.05175082882545
 20
87.61571359740391
 30
0.0
 10
75.0718726310871
 20
87.61571359740391
 30
0.0
 10
75.09953741546258
 20
87.61571359740391
 30
0.0
 10
75.14989449764539
 20
87.61571359740391
 30
0.0
 10
75.19292792083388
 20
87.61571359740391
 30
0.0
 10
75.22383457882893
 20
87.61571359740391
 30
0.0
  0
SPLINE
  5
245B
330
1F
100
AcDbEntity
  8
1
  6
CONTINUOUS
 62
     7
100
AcDbSpline
210
0.0
220
0.0
230
1.0
 70
    24
 71
     3
 72
    13
 73
     9
 74
     0
 42
0.000000001
 43
0.00000001
 40
0.0
 40
0.0
 40
0.0
 40
0.0
 40
0.2881584358428036
 40
0.401228387606451
 40
0.4996381990226278
 40
0.5982011908250314
 40
0.7114201279843443
 40
1.0
 40
1.0
 40
1.0
 40
1.0
 10
144.4502196730543
 20
87.61571359740391
 30
0.0
 10
144.4810810430496
 20
87.61571359740391
 30
0.0
 10
144.5240520485186
 20
87.61571359740391
 30
0.0
 10
144.5743508415897
 20
87.61571359740391
 30
0.0
 10
144.6020356390112
 20
87.61571359740391
 30
0.0
 10
144.6222159804639
 20
87.61571359740391
 30
0.0
 10
144.6432600000315
 20
87.61571359740391
 30
0.0
 10
144.6471466237022
 20
87.61571359740391
 30
0.0
 10
144.6499380738903
 20
87.61571359740391
 30
0.0
  0
LINE
  5
245C
330
1F
100
AcDbEntity
  8
1
  6
CONTINUOUS
 62
     7
100
AcDbLine
 10
144.4502196730135
 20
87.61571359745041
 30
0.0
 11
142.3042177678135
 21
87.61571359745041
 31
0.0
  0
LINE
  5
245D
330
1F
100
AcDbEntity
  8
1
  6
CONTINUOUS
 62
     7
100
AcDbLine
 10
75.22383457881352
 20
87.61571359745041
 30
0.0
 11
76.13702989081355
 21
87.61571359745041
 31
0.0
  0
LINE
  5
245E
330
1F
100
AcDbEntity
  8
1
  6
CONTINUOUS
 62
     7
100
AcDbLine
 10
123.2370299743135
 20
96.16571676835038
 30
0.0
 11
123.2370299743135
 21
95.66571575505039
 31
0.0
  0
LINE
  5
245F
330
1F
100
AcDbEntity
  8
1
  6
CONTINUOUS
 62
     7
100
AcDbLine
 10
121.6370289670135
 20
96.16571676835038
 30
0.0
 11
121.6370289670135
 21
95.66571575505039
 31
0.0
  0
LINE
  5
2460
330
1F
100
AcDbEntity
  8
1
  6
CONTINUOUS
 62
     7
100
AcDbLine
 10
123.2370299743135
 20
96.16571676835038
 30
0.0
 11
121.6370289670135
 21
96.16571676835038
 31
0.0
  0
LINE
  5
2461
330
1F
100
AcDbEntity
  8
1
  6
CONTINUOUS
 62
     7
100
AcDbLine
 10
98.03702807891352
 20
96.16571676835038
 30
0.0
 11
96.43702707151351
 21
96.16571676835038
 31
0.0
  0
LINE
  5
2462
330
1F
100
AcDbEntity
  8
1
  6
CONTINUOUS
 62
     7
100
AcDbLine
 10
96.43702707151351
 20
96.16571676835038
 30
0.0
 11
96.43702707151351
 21
95.66571575505039
 31
0.0
  0
LINE
  5
2463
330
1F
100
AcDbEntity
  8
1
  6
CONTINUOUS
 62
     7
100
AcDbLine
 10
98.03702807891352
 20
96.16571676835038
 30
0.0
 11
98.03702807891352
 21
95.66571575505039
 31
0.0
  0
LINE
  5
2464
330
1F
100
AcDbEntity
  8
1
  6
CONTINUOUS
 62
     7
100
AcDbLine
 10
132.3370294170135
 20
92.61571627965039
 30
0.0
 11
132.5370290772135
 21
92.61571627965039
 31
0.0
  0
LINE
  5
2465
330
1F
100
AcDbEntity
  8
1
  6
CONTINUOUS
 62
     7
100
AcDbLine
 10
87.13702983121351
 20
92.61571627965039
 30
0.0
 11
87.33702576621351
 21
92.61571627965039
 31
0.0
  0
LINE
  5
2466
330
1F
100
AcDbEntity
  8
1
  6
CONTINUOUS
 62
     7
100
AcDbLine
 10
132.5370290772135
 20
92.61571627965039
 30
0.0
 11
133.8831161605135
 21
92.61571627965039
 31
0.0
  0
LINE
  5
2467
330
1F
100
AcDbEntity
  8
1
  6
CONTINUOUS
 62
     7
100
AcDbLine
 10
85.79094088541353
 20
92.61571627965039
 30
0.0
 11
87.13702983121351
 21
92.61571627965039
 31
0.0
  0
SPLINE
  5
2468
330
1F
100
AcDbEntity
  8
0
  6
CONTINUOUS
 62
     7
100
AcDbSpline
210
0.0
220
0.0
230
1.0
 70
    24
 71
     3
 72
    13
 73
     9
 74
     0
 42
0.000000001
 43
0.00000001
 40
0.0
 40
0.0
 40
0.0
 40
0.0
 40
0.2870990206744725
 40
0.4004169288155461
 40
0.4994827584232397
 40
0.5974030022994589
 40
0.710380598953589
 40
1.0
 40
1.0
 40
1.0
 40
1.0
 10
133.9268119530249
 20
87.61571359740391
 30
0.0
 10
133.8960611172083
 20
87.61571359740391
 30
0.0
 10
133.8531729345621
 20
87.61571359740391
 30
0.0
 10
133.8029085482315
 20
87.61571359740391
 30
0.0
 10
133.77509579202
 20
87.61571359740391
 30
0.0
 10
133.7547663526551
 20
87.61571359740391
 30
0.0
 10
133.7337317643301
 20
87.61571359740391
 30
0.0
 10
133.729861192438
 20
87.61571359740391
 30
0.0
 10
133.7270767883826
 20
87.61571359740391
 30
0.0
  0
SPLINE
  5
2469
330
1F
100
AcDbEntity
  8
0
  6
CONTINUOUS
 62
     7
100
AcDbSpline
210
0.0
220
0.0
230
1.0
 70
    24
 71
     3
 72
    13
 73
     9
 74
     0
 42
0.000000001
 43
0.00000001
 40
0.0
 40
0.0
 40
0.0
 40
0.0
 40
0.2870838048296721
 40
0.4004078778645384
 40
0.4994856731532116
 40
0.5974010704767966
 40
0.7103785072020636
 40
1.0
 40
1.0
 40
1.0
 40
1.0
 10
85.94697839482319
 20
87.61571359740391
 30
0.0
 10
85.94418475483815
 20
87.61571359740391
 30
0.0
 10
85.94028834745075
 20
87.61571359740391
 30
0.0
 10
85.91931614035951
 20
87.61571359740391
 30
0.0
 10
85.89932900293445
 20
87.61571359740391
 30
0.0
 10
85.87178397709647
 20
87.61571359740391
 30
0.0
 10
85.82138235075581
 20
87.61571359740391
 30
0.0
 10
85.77826265995088
 20
87.61571359740391
 30
0.0
 10
85.7472432301808
 20
87.61571359740391
 30
0.0
  0
LINE
  5
246A
330
1F
100
AcDbEntity
  8
1
  6
CONTINUOUS
 62
     7
100
AcDbLine
 10
132.1370297567135
 20
96.36571270335044
 30
0.0
 11
142.7370285140135
 21
96.36571270335044
 31
0.0
  0
LINE
  5
246B
330
1F
100
AcDbEntity
  8
1
  6
CONTINUOUS
 62
     7
100
AcDbLine
 10
143.5370290176135
 20
96.16571676835038
 30
0.0
 11
143.5370290176135
 21
87.61571359745041
 31
0.0
  0
ARC
  5
246C
330
1F
100
AcDbEntity
  8
1
  6
CONTINUOUS
 62
     7
100
AcDbCircle
 10
143.3370288697135
 20
96.1657131369504
 30
0.0
 40
0.2000000000000455
100
AcDbArc
 50
0.0
 51
90.0
  0
LINE
  5
246D
330
1F
100
AcDbEntity
  8
1
  6
CONTINUOUS
 62
     7
100
AcDbLine
 10
143.3370284261135
 20
96.36571270335044
 30
0.0
 11
142.7370285140135
 21
96.36571270335044
 31
0.0
  0
LINE
  5
246E
330
1F
100
AcDbEntity
  8
1
  6
CONTINUOUS
 62
     7
100
AcDbLine
 10
139.8172577367135
 20
87.61571359745041
 30
0.0
 11
139.7320193694135
 21
87.61571359745041
 31
0.0
  0
LINE
  5
246F
330
1F
100
AcDbEntity
  8
1
  6
CONTINUOUS
 62
     7
100
AcDbLine
 10
135.3220374779135
 20
87.61571359745041
 30
0.0
 11
135.2368009732135
 21
87.61571359745041
 31
0.0
  0
LINE
  5
2470
330
1F
100
AcDbEntity
  8
1
  6
CONTINUOUS
 62
     7
100
AcDbLine
 10
76.93702853191348
 20
96.36571270335044
 30
0.0
 11
87.53702915171351
 21
96.36571270335044
 31
0.0
  0
ARC
  5
2471
330
1F
100
AcDbEntity
  8
1
  6
CONTINUOUS
 62
     7
100
AcDbCircle
 10
82.1470288697135
 20
92.76571313695042
 30
0.0
 40
1.999999999999998
100
AcDbArc
 50
0.9999999999985053
 51
179.0000000000015
  0
LINE
  5
2472
330
1F
100
AcDbEntity
  8
1
  6
CONTINUOUS
 62
     7
100
AcDbLine
 10
84.23722661001352
 20
87.61571359745041
 30
0.0
 11
84.14672440751349
 21
92.8006173382504
 31
0.0
  0
LINE
  5
2473
330
1F
100
AcDbEntity
  8
1
  6
CONTINUOUS
 62
     7
100
AcDbLine
 10
84.4372597979135
 20
87.61571359745041
 30
0.0
 11
84.23722661001352
 21
87.61571359745041
 31
0.0
  0
LINE
  5
2474
330
1F
100
AcDbEntity
  8
1
  6
CONTINUOUS
 62
     7
100
AcDbLine
 10
76.13702989081355
 20
87.61571359745041
 30
0.0
 11
76.13702989081355
 21
96.16571676835038
 31
0.0
  0
ARC
  5
2475
330
1F
100
AcDbEntity
  8
1
  6
CONTINUOUS
 62
     7
100
AcDbCircle
 10
76.33702886971355
 20
96.1657131369504
 30
0.0
 40
0.2000000000000455
100
AcDbArc
 50
90.0
 51
180.0
  0
LINE
  5
2476
330
1F
100
AcDbEntity
  8
1
  6
CONTINUOUS
 62
     7
100
AcDbLine
 10
76.93702853191348
 20
96.36571270335044
 30
0.0
 11
76.3370258258135
 21
96.36571270335044
 31
0.0
  0
LINE
  5
2477
330
1F
100
AcDbEntity
  8
1
  6
CONTINUOUS
 62
     7
100
AcDbLine
 10
80.14733469951352
 20
92.8006173382504
 30
0.0
 11
80.0568324969135
 21
87.61571359745041
 31
0.0
  0
LINE
  5
2478
330
1F
100
AcDbEntity
  8
1
  6
CONTINUOUS
 62
     7
100
AcDbLine
 10
80.0568324969135
 20
87.61571359745041
 30
0.0
 11
79.85679930911351
 21
87.61571359745041
 31
0.0
  0
SPLINE
  5
2479
330
1F
100
AcDbEntity
  8
0
  6
CONTINUOUS
 62
     7
100
AcDbSpline
210
0.0
220
0.0
230
1.0
 70
    24
 71
     3
 72
    13
 73
     9
 74
     0
 42
0.000000001
 43
0.00000001
 40
0.0
 40
0.0
 40
0.0
 40
0.0
 40
0.2881611832153098
 40
0.4012201520489038
 40
0.4996442748777159
 40
0.5981963969191393
 40
0.7114226883017261
 40
1.0
 40
1.0
 40
1.0
 40
1.0
 10
86.4238379047681
 20
87.61571359740391
 30
0.0
 10
86.39297559369743
 20
87.61571359740391
 30
0.0
 10
86.3500045696261
 20
87.61571359740391
 30
0.0
 10
86.29970848360472
 20
87.61571359740391
 30
0.0
 10
86.27201896786721
 20
87.61571359740391
 30
0.0
 10
86.25184575930712
 20
87.61571359740391
 30
0.0
 10
86.23079316503129
 20
87.61571359740391
 30
0.0
 10
86.22690799173711
 20
87.61571359740391
 30
0.0
 10
86.22411764128691
 20
87.61571359740391
 30
0.0
  0
SPLINE
  5
247A
330
1F
100
AcDbEntity
  8
1
  6
CONTINUOUS
 62
     7
100
AcDbSpline
210
0.0
220
0.0
230
1.0
 70
    24
 71
     3
 72
    13
 73
     9
 74
     0
 42
0.000000001
 43
0.00000001
 40
0.0
 40
0.0
 40
0.0
 40
0.0
 40
0.2881547236144333
 40
0.4012298421757826
 40
0.4996339504291165
 40
0.5981985789189747
 40
0.7114176837855704
 40
1.0
 40
1.0
 40
1.0
 40
1.0
 10
133.4499375419188
 20
87.61571359740391
 30
0.0
 10
133.4471521834193
 20
87.61571359740391
 30
0.0
 10
133.4432738192644
 20
87.61571359740391
 30
0.0
 10
133.4223095940866
 20
87.61571359740391
 30
0.0
 10
133.4021855389947
 20
87.61571359740391
 30
0.0
 10
133.3745196603796
 20
87.61571359740391
 30
0.0
 10
133.3241611899375
 20
87.61571359740391
 30
0.0
 10
133.2811271225015
 20
87.61571359740391
 30
0.0
 10
133.2502191410828
 20
87.61571359740391
 30
0.0
  0
LINE
  5
247B
330
1F
100
AcDbEntity
  8
1
  6
CONTINUOUS
 62
     7
100
AcDbLine
 10
143.5370290176135
 20
92.61571627965039
 30
0.0
 11
143.7370286779135
 21
92.61571627965039
 31
0.0
  0
LINE
  5
247C
330
1F
100
AcDbEntity
  8
1
  6
CONTINUOUS
 62
     7
100
AcDbLine
 10
75.9370265053135
 20
92.61571627965039
 30
0.0
 11
76.13702989081355
 21
92.61571627965039
 31
0.0
  0
LINE
  5
247D
330
1F
100
AcDbEntity
  8
1
  6
CONTINUOUS
 62
     7
100
AcDbLine
 10
143.7370286779135
 20
92.61571627965039
 30
0.0
 11
145.0831166924135
 21
92.61571627965039
 31
0.0
  0
LINE
  5
247E
330
1F
100
AcDbEntity
  8
1
  6
CONTINUOUS
 62
     7
100
AcDbLine
 10
74.59093755941353
 20
92.61571627965039
 30
0.0
 11
75.9370265053135
 21
92.61571627965039
 31
0.0
  0
SPLINE
  5
247F
330
1F
100
AcDbEntity
  8
1
  6
CONTINUOUS
 62
     7
100
AcDbSpline
210
0.0
220
0.0
230
1.0
 70
    24
 71
     3
 72
    13
 73
     9
 74
     0
 42
0.000000001
 43
0.00000001
 40
0.0
 40
0.0
 40
0.0
 40
0.0
 40
0.2870966423054057
 40
0.4004178761870138
 40
0.4994838870857853
 40
0.5974061236173148
 40
0.7103800689483024
 40
0.9999999999999999
 40
0.9999999999999999
 40
0.9999999999999999
 40
0.9999999999999999
 10
145.1268115536738
 20
87.61571359740391
 30
0.0
 10
145.0960606892292
 20
87.61571359740391
 30
0.0
 10
145.0531720098878
 20
87.61571359740391
 30
0.0
 10
145.0029095464607
 20
87.61571359740391
 30
0.0
 10
144.9750963512752
 20
87.61571359740391
 30
0.0
 10
144.9547659366042
 20
87.61571359740391
 30
0.0
 10
144.9337327773196
 20
87.61571359740391
 30
0.0
 10
144.9298619411847
 20
87.61571359740391
 30
0.0
 10
144.927077320354
 20
87.61571359740391
 30
0.0
  0
SPLINE
  5
2480
330
1F
100
AcDbEntity
  8
0
  6
CONTINUOUS
 62
     7
100
AcDbSpline
210
0.0
220
0.0
230
1.0
 70
    24
 71
     3
 72
    13
 73
     9
 74
     0
 42
0.000000001
 43
0.00000001
 40
0.0
 40
0.0
 40
0.0
 40
0.0
 40
0.2870955078812482
 40
0.4004150635103896
 40
0.4994792759277761
 40
0.5973970800950817
 40
0.7103763896166728
 40
1.0
 40
1.0
 40
1.0
 40
1.0
 10
74.74698251946461
 20
87.61571359740391
 30
0.0
 10
74.74418649492463
 20
87.61571359740391
 30
0.0
 10
74.74028685068424
 20
87.61571359740391
 30
0.0
 10
74.7193112656866
 20
87.61571359740391
 30
0.0
 10
74.69933334772998
 20
87.61571359740391
 30
0.0
 10
74.67178773383478
 20
87.61571359740391
 30
0.0
 10
74.6213871658295
 20
87.61571359740391
 30
0.0
 10
74.5782670265591
 20
87.61571359740391
 30
0.0
 10
74.54724735482222
 20
87.61571359740391
 30
0.0
  0
LINE
  5
2481
330
1F
100
AcDbEntity
  8
1
  6
CONTINUOUS
 62
     7
100
AcDbLine
 10
143.3370284261135
 20
96.36571270335044
 30
0.0
 11
154.0370288761135
 21
96.36571270335044
 31
0.0
  0
ARC
  5
2482
330
1F
100
AcDbEntity
  8
1
  6
CONTINUOUS
 62
     7
100
AcDbCircle
 10
154.6370288697135
 20
96.1657131369504
 30
0.0
 40
0.2000000000000455
100
AcDbArc
 50
0.0
 51
90.0
  0
LINE
  5
2483
102
{ACAD_REACTORS
102
}
330
1F
100
AcDbEntity
  8
1
  6
CONTINUOUS
 62
     7
100
AcDbLine
 10
154.6370289046135
 20
96.36571270335044
 30
0.0
 11
154.0370288761135
 21
96.36571270335044
 31
0.0
  0
LINE
  5
2484
330
1F
100
AcDbEntity
  8
1
  6
CONTINUOUS
 62
     7
100
AcDbLine
 10
154.8370289141135
 20
96.16571676835038
 30
0.0
 11
154.8370289141135
 21
87.61571359745041
 31
0.0
  0
LINE
  5
2485
330
1F
100
AcDbEntity
  8
0
  6
CONTINUOUS
 62
     7
100
AcDbLine
 10
151.0872574047135
 20
87.61571359745041
 30
0.0
 11
151.0320197315135
 21
87.61571359745041
 31
0.0
  0
LINE
  5
2486
330
1F
100
AcDbEntity
  8
0
  6
CONTINUOUS
 62
     7
100
AcDbLine
 10
146.6220378400135
 20
87.61571359745041
 30
0.0
 11
146.5067997099135
 21
87.61571359745041
 31
0.0
  0
LINE
  5
2487
330
1F
100
AcDbEntity
  8
1
  6
CONTINUOUS
 62
     7
100
AcDbLine
 10
65.63703096371353
 20
96.36571270335044
 30
0.0
 11
76.3370258258135
 21
96.36571270335044
 31
0.0
  0
ARC
  5
2488
330
1F
100
AcDbEntity
  8
1
  6
CONTINUOUS
 62
     7
100
AcDbCircle
 10
65.03702886971348
 20
96.1657131369504
 30
0.0
 40
0.2000000000000455
100
AcDbArc
 50
90.0
 51
180.0
  0
LINE
  5
2489
330
1F
100
AcDbEntity
  8
1
  6
CONTINUOUS
 62
     7
100
AcDbLine
 10
65.63703096371353
 20
96.36571270335044
 30
0.0
 11
65.03702825771347
 21
96.36571270335044
 31
0.0
  0
LINE
  5
248A
330
1F
100
AcDbEntity
  8
1
  6
CONTINUOUS
 62
     7
100
AcDbLine
 10
64.83703232271353
 20
87.61571359745041
 30
0.0
 11
64.83703232271353
 21
96.16571676835038
 31
0.0
  0
LINE
  5
248B
330
1F
100
AcDbEntity
  8
1
  6
CONTINUOUS
 62
     7
100
AcDbLine
 10
73.16725826721347
 20
87.61571359745041
 30
0.0
 11
73.05202013711352
 21
87.61571359745041
 31
0.0
  0
LINE
  5
248C
330
1F
100
AcDbEntity
  8
1
  6
CONTINUOUS
 62
     7
100
AcDbLine
 10
68.64203638301353
 20
87.61571359745041
 30
0.0
 11
68.58679777841348
 21
87.61571359745041
 31
0.0
  0
SPLINE
  5
248D
330
1F
100
AcDbEntity
  8
1
  6
CONTINUOUS
 62
     7
100
AcDbSpline
210
0.0
220
0.0
230
1.0
 70
    24
 71
     3
 72
    13
 73
     9
 74
     0
 42
0.000000001
 43
0.00000001
 40
0.0
 40
0.0
 40
0.0
 40
0.0
 40
0.2881574781723225
 40
0.4012298742525334
 40
0.4996380407302947
 40
0.5982009451962893
 40
0.711421044251524
 40
0.9999999999999999
 40
0.9999999999999999
 40
0.9999999999999999
 40
0.9999999999999999
 10
144.6499380738903
 20
87.61571359740391
 30
0.0
 10
144.6471529325821
 20
87.61571359740391
 30
0.0
 10
144.643274907608
 20
87.61571359740391
 30
0.0
 10
144.6223096676548
 20
87.61571359740391
 30
0.0
 10
144.602185745685
 20
87.61571359740391
 30
0.0
 10
144.5745187547941
 20
87.61571359740391
 30
0.0
 10
144.5241616571758
 20
87.61571359740391
 30
0.0
 10
144.4811275238804
 20
87.61571359740391
 30
0.0
 10
144.4502196730543
 20
87.61571359740391
 30
0.0
  0
SPLINE
  5
248E
330
1F
100
AcDbEntity
  8
0
  6
CONTINUOUS
 62
     7
100
AcDbSpline
210
0.0
220
0.0
230
1.0
 70
    24
 71
     3
 72
    13
 73
     9
 74
     0
 42
0.000000001
 43
0.00000001
 40
0.0
 40
0.0
 40
0.0
 40
0.0
 40
0.2881423873853542
 40
0.4012249404444442
 40
0.4996314254736376
 40
0.5981994871914942
 40
0.7114153620240947
 40
1.0
 40
1.0
 40
1.0
 40
1.0
 10
75.22383457882893
 20
87.61571359740391
 30
0.0
 10
75.1929757965467
 20
87.61571359740391
 30
0.0
 10
75.15000637023041
 20
87.61571359740391
 30
0.0
 10
75.09970709263484
 20
87.61571359740391
 30
0.0
 10
75.07202350151641
 20
87.61571359740391
 30
0.0
 10
75.05184012270354
 20
87.61571359740391
 30
0.0
 10
75.03080414945322
 20
87.61571359740391
 30
0.0
 10
75.02691503752192
 20
87.61571359740391
 30
0.0
 10
75.02412176592827
 20
87.61571359740391
 30
0.0
  0
LINE
  5
248F
330
1F
100
AcDbEntity
  8
0
  6
CONTINUOUS
 62
     7
100
AcDbLine
 10
144.4502196730135
 20
87.61571359745041
 30
0.0
 11
143.5370290176135
 21
87.61571359745041
 31
0.0
  0
LINE
  5
2490
330
1F
100
AcDbEntity
  8
1
  6
CONTINUOUS
 62
     7
100
AcDbLine
 10
75.22383457881352
 20
87.61571359745041
 30
0.0
 11
77.36984020931351
 21
87.61571359745041
 31
0.0
  0
LINE
  5
2491
330
1F
100
AcDbEntity
  8
0
  6
CONTINUOUS
 62
     8
100
AcDbLine
 10
102.3870272086135
 20
87.56625664345042
 30
0.0
 11
102.2870292411135
 21
87.56625664345042
 31
0.0
  0
LINE
  5
2492
330
1F
100
AcDbEntity
  8
0
  6
CONTINUOUS
 62
     8
100
AcDbLine
 10
85.79094088541353
 20
82.61571091515039
 30
0.0
 11
85.74724323021348
 21
87.61571359745041
 31
0.0
  0
LINE
  5
2493
330
1F
100
AcDbEntity
  8
0
  6
CONTINUOUS
 62
     8
100
AcDbLine
 10
133.9268119530135
 20
87.61571359745041
 30
0.0
 11
133.8831161605135
 21
82.61571091515039
 31
0.0
  0
LINE
  5
2494
330
1F
100
AcDbEntity
  8
0
  6
CONTINUOUS
 62
     8
100
AcDbLine
 10
74.59093755941353
 20
82.61571091515039
 30
0.0
 11
74.54724735481352
 21
87.61571359745041
 31
0.0
  0
LINE
  5
2495
330
1F
100
AcDbEntity
  8
0
  6
CONTINUOUS
 62
     8
100
AcDbLine
 10
145.1268115537135
 20
87.61571359745041
 30
0.0
 11
145.0831166924135
 21
82.61571091515039
 31
0.0
  0
LINE
  5
2496
330
1F
100
AcDbEntity
  8
0
  6
CONTINUOUS
 62
     8
100
AcDbLine
 10
133.8831161605135
 20
92.61571627965039
 30
0.0
 11
133.9268119530135
 21
87.61571359745041
 31
0.0
  0
LINE
  5
2497
330
1F
100
AcDbEntity
  8
0
  6
CONTINUOUS
 62
     8
100
AcDbLine
 10
85.74724323021348
 20
87.61571359745041
 30
0.0
 11
85.79094088541353
 21
92.61571627965039
 31
0.0
  0
LINE
  5
2498
330
1F
100
AcDbEntity
  8
0
  6
CONTINUOUS
 62
     8
100
AcDbLine
 10
145.0831166924135
 20
92.61571627965039
 30
0.0
 11
145.1268115537135
 21
87.61571359745041
 31
0.0
  0
LINE
  5
2499
330
1F
100
AcDbEntity
  8
0
  6
CONTINUOUS
 62
     8
100
AcDbLine
 10
74.54724735481352
 20
87.61571359745041
 30
0.0
 11
74.59093755941353
 21
92.61571627965039
 31
0.0
  0
LINE
  5
249A
330
1F
100
AcDbEntity
  8
WYMIARY
 62
     6
100
AcDbLine
 10
0.0
 20
0.0
 30
0.0
 11
0.0
 21
297.0
 31
0.0
  0
LINE
  5
249B
330
1F
100
AcDbEntity
  8
WYMIARY
 62
     6
100
AcDbLine
 10
11.63040699999999
 20
292.0
 30
0.0
 11
11.63040699999999
 21
4.999999999999999
 31
0.0
  0
LINE
  5
249C
330
1F
100
AcDbEntity
  8
2
100
AcDbLine
 10
196.630407
 20
4.999999999999999
 30
0.0
 11
196.630407
 21
292.0
 31
0.0
  0
LINE
  5
249D
330
1F
100
AcDbEntity
  8
2
100
AcDbLine
 10
201.630407
 20
0.0
 30
0.0
 11
201.630407
 21
297.0
 31
0.0
  0
LINE
  5
249E
330
1F
100
AcDbEntity
  8
WY
  6
CONTINUOUS
 62
     3
100
AcDbLine
 10
196.630407
 20
19.689837
 30
0.0
 11
11.63040699999999
 21
19.689837
 31
0.0
  0
LINE
  5
249F
330
1F
100
AcDbEntity
  8
2
100
AcDbLine
 10
11.63040699999999
 20
4.999999999999999
 30
0.0
 11
196.630407
 21
4.999999999999999
 31
0.0
  0
LINE
  5
24A0
330
1F
100
AcDbEntity
  8
2
 62
     6
100
AcDbLine
 10
11.63040699999999
 20
0.0
 30
0.0
 11
201.630407
 21
0.0
 31
0.0
  0
LINE
  5
24A1
330
1F
100
AcDbEntity
  8
0
100
AcDbLine
 10
43.65642300000002
 20
11.742481
 30
0.0
 11
42.75401199999999
 21
11.742481
 31
0.0
  0
ELLIPSE
  5
24A2
330
1F
100
AcDbEntity
  8
0
100
AcDbEllipse
 10
43.65642300000002
 20
11.742481
 30
0.0
 11
-1.203215696869327
 21
1.967000000000000E-13
 31
0.0
210
0.0
220
0.0
230
1.0
 40
0.958812
 41
-1.570796326794739
 42
0.0000000000001705
  0
TEXT
  5
24A3
330
1F
100
AcDbEntity
  8
1
100
AcDbText
 10
29.56633399999998
 20
8.797457000000001
 30
0.0
 40
5.0
  1
A4
 51
15.0
  7
ITALIC
100
AcDbText
  0
LINE
  5
24A4
330
1F
100
AcDbEntity
  8
WYMIARY
 62
     6
100
AcDbLine
 10
11.63040699999999
 20
0.0
 30
0.0
 11
0.0
 21
0.0
 31
0.0
  0
TEXT
  5
24A5
330
1F
100
AcDbEntity
  8
WY
100
AcDbText
 10
16.89552099999997
 20
16.373844
 30
0.0
 40
1.999999999999999
  1
Skala
 51
15.0
  7
ITALIC
100
AcDbText
  0
TEXT
  5
24A6
330
1F
100
AcDbEntity
  8
WY
100
AcDbText
 10
29.00097500000004
 20
16.329369
 30
0.0
 40
1.999999999999999
  1
Format
 51
15.0
  7
ITALIC
100
AcDbText
  0
LINE
  5
24A7
330
1F
100
AcDbEntity
  8
0
100
AcDbLine
 10
42.45320800000002
 20
11.742481
 30
0.0
 11
42.75401199999999
 21
11.742481
 31
0.0
  0
LINE
  5
24A8
330
1F
100
AcDbEntity
  8
0
100
AcDbLine
 10
73.84597599999995
 20
17.211264
 30
0.0
 11
73.84597599999995
 21
9.015264000000002
 31
0.0
  0
LINE
  5
24A9
330
1F
100
AcDbEntity
  8
0
100
AcDbLine
 10
64.85197600000004
 20
9.438264
 30
0.0
 11
64.85197600000004
 21
7.416264000000001
 31
0.0
  0
ARC
  5
24AA
330
1F
100
AcDbEntity
  8
0
100
AcDbCircle
 10
65.50155600000005
 20
9.724764
 30
0.0
 40
0.709955
100
AcDbArc
 50
203.8000800000035
 51
272.0519180000003
  0
LINE
  5
24AB
330
1F
100
AcDbEntity
  8
0
100
AcDbLine
 10
63.30697599999996
 20
7.416264000000001
 30
0.0
 11
63.30697599999996
 21
15.612264
 31
0.0
  0
ARC
  5
24AC
330
1F
100
AcDbEntity
  8
0
100
AcDbCircle
 10
65.94088199999999
 20
10.136416
 30
0.0
 40
1.128907
100
AcDbArc
 50
276.7195760000022
 51
2.175193999999967
  0
ARC
  5
24AD
330
1F
100
AcDbEntity
  8
0
100
AcDbCircle
 10
69.20181500000001
 20
10.503572
 30
0.0
 40
1.488419
100
AcDbArc
 50
191.6342679999998
 51
270.699112999999
  0
ARC
  5
24AE
330
1F
100
AcDbEntity
  8
0
100
AcDbCircle
 10
70.168137
 20
10.503572
 30
0.0
 40
1.488419
100
AcDbArc
 50
269.300887000001
 51
348.3657320000001
  0
LINE
  5
24AF
330
1F
100
AcDbEntity
  8
0
100
AcDbLine
 10
72.30097599999999
 20
9.015264000000002
 30
0.0
 11
72.30097599999999
 21
17.211264
 31
0.0
  0
ARC
  5
24B0
330
1F
100
AcDbEntity
  8
0
100
AcDbCircle
 10
59.01534700000002
 20
10.472364
 30
0.0
 40
1.425319
100
AcDbArc
 50
269.7036710000015
 51
350.4651709999989
  0
ARC
  5
24B1
330
1F
100
AcDbEntity
  8
0
100
AcDbCircle
 10
58.16060400000003
 20
10.472364
 30
0.0
 40
1.425319
100
AcDbArc
 50
189.5348290000007
 51
270.2963289999985
  0
LINE
  5
24B2
330
1F
100
AcDbEntity
  8
0
100
AcDbLine
 10
61.10797600000001
 20
9.015264000000002
 30
0.0
 11
61.10797600000001
 21
17.211264
 31
0.0
  0
LINE
  5
24B3
330
1F
100
AcDbEntity
  8
0
100
AcDbLine
 10
62.65297599999997
 20
17.211264
 30
0.0
 11
62.65297599999997
 21
9.015264000000002
 31
0.0
  0
LINE
  5
24B4
330
1F
100
AcDbEntity
  8
0
100
AcDbLine
 10
53.85099200000002
 20
14.361264
 30
0.0
 11
53.86256500000002
 21
9.015264000000002
 31
0.0
  0
LINE
  5
24B5
330
1F
100
AcDbEntity
  8
0
100
AcDbLine
 10
52.32045000000005
 20
9.015264000000002
 30
0.0
 11
52.32045000000005
 21
15.60367
 31
0.0
  0
LINE
  5
24B6
330
1F
100
AcDbEntity
  8
0
100
AcDbLine
 10
43.65642300000002
 20
9.895061000000002
 30
0.0
 11
43.65642300000002
 21
8.185369000000001
 31
0.0
  0
LINE
  5
24B7
330
1F
100
AcDbEntity
  8
0
100
AcDbLine
 10
49.57223399999998
 20
8.185369000000001
 30
0.0
 11
49.57223399999998
 21
11.742481
 31
0.0
  0
LINE
  5
24B8
330
1F
100
AcDbEntity
  8
1
100
AcDbLine
 10
77.42861900000003
 20
4.999999999999999
 30
0.0
 11
77.42861900000003
 21
19.689837
 31
0.0
  0
LINE
  5
24B9
330
1F
100
AcDbEntity
  8
0
100
AcDbLine
 10
44.45856700000002
 20
7.416263
 30
0.0
 11
48.77008999999998
 21
7.416263
 31
0.0
  0
ELLIPSE
  5
24BA
330
1F
100
AcDbEntity
  8
0
100
AcDbEllipse
 10
44.45856700000002
 20
8.185369000000001
 30
0.0
 11
-0.8021437979128705
 21
1.540000000000000E-14
 31
0.0
210
0.0
220
0.0
230
1.0
 40
0.958812
 41
0.00000000000002
 42
1.570796326794914
  0
ELLIPSE
  5
24BB
330
1F
100
AcDbEntity
  8
0
100
AcDbEllipse
 10
48.77008999999998
 20
8.185369000000001
 30
0.0
 11
0.8021437979128704
 21
1.602000000000000E-13
 31
0.0
210
0.0
220
0.0
230
1.0
 40
0.958812
 41
4.712388980384497
 42
6.283185307179378
  0
LINE
  5
24BC
330
1F
100
AcDbEntity
  8
0
100
AcDbLine
 10
53.85099200000002
 20
9.015264000000002
 30
0.0
 11
53.86256500000002
 21
9.022759
 31
0.0
  0
LINE
  5
24BD
330
1F
100
AcDbEntity
  8
0
100
AcDbLine
 10
52.32045000000005
 20
9.015264000000002
 30
0.0
 11
53.86256500000002
 21
9.015264000000002
 31
0.0
  0
LINE
  5
24BE
330
1F
100
AcDbEntity
  8
0
100
AcDbLine
 10
58.153233
 20
9.047064000000002
 30
0.0
 11
59.00797599999999
 21
9.047064000000002
 31
0.0
  0
LINE
  5
24BF
330
1F
100
AcDbEntity
  8
0
100
AcDbLine
 10
64.85197600000004
 20
7.416264000000001
 30
0.0
 11
63.30697599999996
 21
7.416264000000001
 31
0.0
  0
LINE
  5
24C0
330
1F
100
AcDbEntity
  8
0
100
AcDbLine
 10
62.65297599999997
 20
9.015264000000002
 30
0.0
 11
61.10797600000001
 21
9.015264000000002
 31
0.0
  0
LINE
  5
24C1
330
1F
100
AcDbEntity
  8
0
100
AcDbLine
 10
65.53502200000003
 20
9.015264000000002
 30
0.0
 11
66.07297600000004
 21
9.015264000000002
 31
0.0
  0
LINE
  5
24C2
330
1F
100
AcDbEntity
  8
0
100
AcDbLine
 10
69.21997599999997
 20
9.015264000000002
 30
0.0
 11
70.14997600000004
 21
9.015264000000002
 31
0.0
  0
LINE
  5
24C3
330
1F
100
AcDbEntity
  8
0
100
AcDbLine
 10
73.84597599999995
 20
9.015264000000002
 30
0.0
 11
72.30097599999999
 21
9.015264000000002
 31
0.0
  0
ARC
  5
24C4
330
1F
100
AcDbEntity
  8
0
100
AcDbCircle
 10
59.01534700000002
 20
14.17837
 30
0.0
 40
1.425319
100
AcDbArc
 50
9.5348290000009
 51
90.29632899999848
  0
LINE
  5
24C5
330
1F
100
AcDbEntity
  8
0
100
AcDbLine
 10
60.420976
 20
11.81167
 30
0.0
 11
58.29697599999997
 21
11.81167
 31
0.0
  0
LINE
  5
24C6
330
1F
100
AcDbEntity
  8
0
100
AcDbLine
 10
58.97197600000004
 20
11.13667
 30
0.0
 11
60.420976
 21
11.13667
 31
0.0
  0
LINE
  5
24C7
330
1F
100
AcDbEntity
  8
0
100
AcDbLine
 10
43.65642300000002
 20
13.461283
 30
0.0
 11
43.65642300000002
 21
16.260974
 31
0.0
  0
ELLIPSE
  5
24C8
330
1F
100
AcDbEntity
  8
0
100
AcDbEllipse
 10
46.58926199999996
 20
15.17942
 30
0.0
 11
2.983077570132104
 21
2.996000000000000E-13
 31
0.0
210
0.0
220
0.0
230
1.0
 40
0.9588119999999999
 41
-1.562393163247347
 42
0.0084031635475457
  0
ELLIPSE
  5
24C9
330
1F
100
AcDbEntity
  8
0
100
AcDbEllipse
 10
46.54608599999995
 20
15.509539
 30
0.0
 11
-4.072692107280919
 21
9.250000000000000E-14
 31
0.0
210
0.0
220
0.0
230
1.0
 40
0.958812
 41
1.587553347046634
 42
2.408388587343224
  0
LINE
  5
24CA
330
1F
100
AcDbEntity
  8
0
100
AcDbLine
 10
43.65642300000002
 20
11.742481
 30
0.0
 11
43.65642300000002
 21
11.034514
 31
0.0
  0
LINE
  5
24CB
330
1F
100
AcDbEntity
  8
0
100
AcDbLine
 10
43.65642300000002
 20
13.461283
 30
0.0
 11
43.65642300000002
 21
12.896138
 31
0.0
  0
ELLIPSE
  5
24CC
330
1F
100
AcDbEntity
  8
0
100
AcDbEllipse
 10
46.20835399999999
 20
9.872487
 30
0.0
 11
2.960559210508897
 21
0.3570763225581005
 31
0.0
210
0.0
220
0.0
230
1.0
 40
0.820999
 41
1.335209029023201
 42
2.503032872947537
  0
ELLIPSE
  5
24CD
330
1F
100
AcDbEntity
  8
0
100
AcDbEllipse
 10
46.43885999999998
 20
8.937306
 30
0.0
 11
3.015746449176215
 21
0.7746519372140024
 31
0.0
210
0.0
220
0.0
230
1.0
 40
0.8467749999999999
 41
1.29973646820557
 42
2.479974117225238
  0
LINE
  5
24CE
330
1F
100
AcDbEntity
  8
0
100
AcDbLine
 10
50.77544999999998
 20
12.896138
 30
0.0
 11
50.47464600000001
 21
12.896138
 31
0.0
  0
LINE
  5
24CF
330
1F
100
AcDbEntity
  8
0
100
AcDbLine
 10
49.57223399999998
 20
12.896138
 30
0.0
 11
50.47464600000001
 21
12.896138
 31
0.0
  0
ELLIPSE
  5
24D0
330
1F
100
AcDbEntity
  8
0
100
AcDbEllipse
 10
49.57223399999998
 20
12.896138
 30
0.0
 11
1.203215696869352
 21
8.930000000000000E-14
 31
0.0
210
0.0
220
0.0
230
1.0
 40
0.9588119999999999
 41
4.712388980384611
 42
6.283185307179508
  0
LINE
  5
24D1
330
1F
100
AcDbEntity
  8
0
100
AcDbLine
 10
44.45856700000002
 20
17.030079
 30
0.0
 11
48.77008999999998
 21
17.030079
 31
0.0
  0
ELLIPSE
  5
24D2
330
1F
100
AcDbEntity
  8
0
100
AcDbEllipse
 10
44.45856700000002
 20
16.260974
 30
0.0
 11
0.8021437979128704
 21
3.800000000000000E-14
 31
0.0
210
0.0
220
0.0
230
1.0
 40
0.958812
 41
1.570796326794851
 42
3.141592653589743
  0
LINE
  5
24D3
330
1F
100
AcDbEntity
  8
0
100
AcDbLine
 10
49.57223399999998
 20
15.155385
 30
0.0
 11
49.57223399999998
 21
16.260974
 31
0.0
  0
ELLIPSE
  5
24D4
330
1F
100
AcDbEntity
  8
0
100
AcDbEllipse
 10
48.77008999999998
 20
16.260974
 30
0.0
 11
-0.8021437979128705
 21
3.800000000000000E-14
 31
0.0
210
0.0
220
0.0
230
1.0
 40
0.958812
 41
3.141592653589842
 42
4.712388980384734
  0
ARC
  5
24D5
330
1F
100
AcDbEntity
  8
0
100
AcDbCircle
 10
54.75765000000001
 20
14.34127
 30
0.0
 40
1.377457
100
AcDbArc
 50
16.26506099999997
 51
130.5272989999999
  0
ARC
  5
24D6
330
1F
100
AcDbEntity
  8
0
100
AcDbCircle
 10
58.16060400000003
 20
14.17837
 30
0.0
 40
1.425319
100
AcDbArc
 50
89.70367100000153
 51
170.4651709999992
  0
LINE
  5
24D7
330
1F
100
AcDbEntity
  8
0
100
AcDbLine
 10
54.86990300000002
 20
12.93607
 30
0.0
 11
56.07997599999999
 21
12.93607
 31
0.0
  0
LINE
  5
24D8
330
1F
100
AcDbEntity
  8
0
100
AcDbLine
 10
54.53756499999997
 20
12.93607
 30
0.0
 11
56.07997599999999
 21
12.93607
 31
0.0
  0
ARC
  5
24D9
330
1F
100
AcDbEntity
  8
0
100
AcDbCircle
 10
54.188492
 20
14.361264
 30
0.0
 40
0.3375
100
AcDbArc
 50
0.0
 51
180.0
  0
LINE
  5
24DA
330
1F
100
AcDbEntity
  8
0
100
AcDbLine
 10
54.52599199999997
 20
14.361264
 30
0.0
 11
54.53756499999997
 21
12.93607
 31
0.0
  0
ARC
  5
24DB
330
1F
100
AcDbEntity
  8
0
100
AcDbCircle
 10
58.63447599999995
 20
14.361264
 30
0.0
 40
0.3375
100
AcDbArc
 50
0.0
 51
180.0
  0
LINE
  5
24DC
330
1F
100
AcDbEntity
  8
0
100
AcDbLine
 10
58.29697599999997
 20
11.81167
 30
0.0
 11
58.29697599999997
 21
10.236264
 31
0.0
  0
LINE
  5
24DD
330
1F
100
AcDbEntity
  8
0
100
AcDbLine
 10
58.29697599999997
 20
12.71167
 30
0.0
 11
58.97197600000004
 21
12.71167
 31
0.0
  0
LINE
  5
24DE
330
1F
100
AcDbEntity
  8
0
100
AcDbLine
 10
58.97197600000004
 20
11.13667
 30
0.0
 11
58.97197600000004
 21
10.252764
 31
0.0
  0
LINE
  5
24DF
330
1F
100
AcDbEntity
  8
0
100
AcDbLine
 10
58.29697599999997
 20
11.81167
 30
0.0
 11
58.29697599999997
 21
10.252764
 31
0.0
  0
ARC
  5
24E0
330
1F
100
AcDbEntity
  8
0
100
AcDbCircle
 10
58.63447599999995
 20
10.252764
 30
0.0
 40
0.3375
100
AcDbArc
 50
180.0
 51
0.0
  0
LINE
  5
24E1
330
1F
100
AcDbEntity
  8
0
100
AcDbLine
 10
58.97197600000004
 20
14.361264
 30
0.0
 11
58.97197600000004
 21
12.71167
 31
0.0
  0
LINE
  5
24E2
330
1F
100
AcDbEntity
  8
0
100
AcDbLine
 10
58.29697599999997
 20
14.361264
 30
0.0
 11
58.29697599999997
 21
12.71167
 31
0.0
  0
LINE
  5
24E3
330
1F
100
AcDbEntity
  8
0
100
AcDbLine
 10
56.07997599999999
 20
12.93607
 30
0.0
 11
56.07997599999999
 21
14.72707
 31
0.0
  0
LINE
  5
24E4
330
1F
100
AcDbEntity
  8
0
100
AcDbLine
 10
56.75497599999994
 20
10.236264
 30
0.0
 11
56.75497599999994
 21
14.41447
 31
0.0
  0
LINE
  5
24E5
330
1F
100
AcDbEntity
  8
0
100
AcDbLine
 10
53.86256500000002
 20
15.60367
 30
0.0
 11
53.86256500000002
 21
15.38827
 31
0.0
  0
LINE
  5
24E6
330
1F
100
AcDbEntity
  8
0
100
AcDbLine
 10
52.32045000000005
 20
15.60367
 30
0.0
 11
53.86256500000002
 21
15.60367
 31
0.0
  0
LINE
  5
24E7
330
1F
100
AcDbEntity
  8
0
100
AcDbLine
 10
58.153233
 20
15.60367
 30
0.0
 11
59.00797599999999
 21
15.60367
 31
0.0
  0
ARC
  5
24E8
330
1F
100
AcDbEntity
  8
0
100
AcDbCircle
 10
69.20181500000001
 20
14.124104
 30
0.0
 40
1.488419
100
AcDbArc
 50
89.30088700000103
 51
168.3657320000002
  0
ARC
  5
24E9
330
1F
100
AcDbEntity
  8
0
100
AcDbCircle
 10
65.711003
 20
14.207365
 30
0.0
 40
1.409039
100
AcDbArc
 50
15.47254999999875
 51
127.5645399999992
  0
LINE
  5
24EA
330
1F
100
AcDbEntity
  8
0
100
AcDbLine
 10
60.420976
 20
11.13667
 30
0.0
 11
60.420976
 21
10.236264
 31
0.0
  0
LINE
  5
24EB
330
1F
100
AcDbEntity
  8
0
100
AcDbLine
 10
60.420976
 20
11.81167
 30
0.0
 11
60.420976
 21
14.41447
 31
0.0
  0
LINE
  5
24EC
330
1F
100
AcDbEntity
  8
0
100
AcDbLine
 10
67.06897600000002
 20
14.583264
 30
0.0
 11
67.06897600000002
 21
10.179264
 31
0.0
  0
LINE
  5
24ED
330
1F
100
AcDbEntity
  8
0
100
AcDbLine
 10
65.52697599999999
 20
14.361264
 30
0.0
 11
65.52697599999999
 21
10.252764
 31
0.0
  0
LINE
  5
24EE
330
1F
100
AcDbEntity
  8
0
100
AcDbLine
 10
64.85197600000004
 20
14.361264
 30
0.0
 11
64.85197600000004
 21
10.252764
 31
0.0
  0
ARC
  5
24EF
330
1F
100
AcDbEntity
  8
0
100
AcDbCircle
 10
65.18947600000001
 20
10.252764
 30
0.0
 40
0.3375
100
AcDbArc
 50
180.0
 51
0.0
  0
ARC
  5
24F0
330
1F
100
AcDbEntity
  8
0
100
AcDbCircle
 10
65.18947600000001
 20
14.361264
 30
0.0
 40
0.3375
100
AcDbArc
 50
0.0
 51
180.0
  0
LINE
  5
24F1
330
1F
100
AcDbEntity
  8
0
100
AcDbLine
 10
63.30697599999996
 20
15.612264
 30
0.0
 11
64.85197600000004
 21
15.612264
 31
0.0
  0
LINE
  5
24F2
330
1F
100
AcDbEntity
  8
0
100
AcDbLine
 10
61.10797600000001
 20
17.211264
 30
0.0
 11
62.65297599999997
 21
17.211264
 31
0.0
  0
LINE
  5
24F3
330
1F
100
AcDbEntity
  8
0
100
AcDbLine
 10
64.85197600000004
 20
15.612264
 30
0.0
 11
64.85197600000004
 21
15.324264
 31
0.0
  0
ARC
  5
24F4
330
1F
100
AcDbEntity
  8
0
100
AcDbCircle
 10
70.168137
 20
14.124104
 30
0.0
 40
1.488419
100
AcDbArc
 50
11.63426799999984
 51
90.69911299999899
  0
LINE
  5
24F5
330
1F
100
AcDbEntity
  8
0
100
AcDbLine
 10
71.62597600000004
 20
14.424264
 30
0.0
 11
71.62597600000004
 21
10.203412
 31
0.0
  0
ARC
  5
24F6
330
1F
100
AcDbEntity
  8
0
100
AcDbCircle
 10
69.684976
 20
14.361264
 30
0.0
 40
0.3375
100
AcDbArc
 50
0.0
 51
180.0
  0
ARC
  5
24F7
330
1F
100
AcDbEntity
  8
0
100
AcDbCircle
 10
69.684976
 20
10.252764
 30
0.0
 40
0.3375
100
AcDbArc
 50
180.0
 51
0.0
  0
LINE
  5
24F8
330
1F
100
AcDbEntity
  8
0
100
AcDbLine
 10
69.34747600000003
 20
14.361264
 30
0.0
 11
69.34747600000003
 21
10.252764
 31
0.0
  0
LINE
  5
24F9
330
1F
100
AcDbEntity
  8
0
100
AcDbLine
 10
70.02247599999998
 20
14.361264
 30
0.0
 11
70.02247599999998
 21
10.252764
 31
0.0
  0
LINE
  5
24FA
330
1F
100
AcDbEntity
  8
0
100
AcDbLine
 10
67.74397599999998
 20
10.203412
 30
0.0
 11
67.74397599999998
 21
14.424264
 31
0.0
  0
LINE
  5
24FB
330
1F
100
AcDbEntity
  8
0
100
AcDbLine
 10
69.21997599999997
 20
15.612412
 30
0.0
 11
70.14997600000004
 21
15.612412
 31
0.0
  0
LINE
  5
24FC
330
1F
100
AcDbEntity
  8
0
100
AcDbLine
 10
72.30097599999999
 20
17.211264
 30
0.0
 11
73.84597599999995
 21
17.211264
 31
0.0
  0
TEXT
  5
24FD
330
1F
100
AcDbEntity
  8
WY
100
AcDbText
 10
78.37616300000002
 20
11.60401
 30
0.0
 40
1.999999999999998
  1
20-10-2017
 51
15.0
  7
ITALIC
100
AcDbText
  0
TEXT
  5
24FE
330
1F
100
AcDbEntity
  8
WY
100
AcDbText
 10
82.80753200000004
 20
16.149239
 30
0.0
 40
1.999999999999999
  1
Data
 51
15.0
  7
ITALIC
100
AcDbText
  0
TEXT
  5
24FF
330
1F
100
AcDbEntity
  8
1
100
AcDbText
 10
148.7988058368433
 20
9.064009000000002
 30
0.0
 40
5.0
  1
RPC-1MB-A230
 41
0.7
 51
15.0
  7
ITALIC
100
AcDbText
  0
LINE
  5
2500
330
1F
100
AcDbEntity
  8
1
100
AcDbLine
 10
141.35299
 20
4.999999999999999
 30
0.0
 11
141.35299
 21
19.689837
 31
0.0
  0
TEXT
  5
2501
330
1F
100
AcDbEntity
  8
WY
100
AcDbText
 10
143.544188
 20
16.599248
 30
0.0
 40
1.999999999999999
  1
Product type
 51
15.0
  7
ITALIC
100
AcDbText
  0
LINE
  5
2502
330
1F
100
AcDbEntity
  8
2
100
AcDbLine
 10
196.630407
 20
292.0
 30
0.0
 11
11.63040699999999
 21
292.0
 31
0.0
  0
LINE
  5
2503
330
1F
100
AcDbEntity
  8
2
100
AcDbLine
 10
201.630407
 20
297.0
 30
0.0
 11
11.63040699999999
 21
297.0
 31
0.0
  0
LINE
  5
2504
330
1F
100
AcDbEntity
  8
WYMIARY
 62
     6
100
AcDbLine
 10
11.63040699999999
 20
297.0
 30
0.0
 11
0.0
 21
297.0
 31
0.0
  0
TEXT
  5
2505
330
1F
100
AcDbEntity
  8
1
100
AcDbText
 10
14.260741
 20
8.797457000000001
 30
0.0
 40
5.0
  1
1:1
 51
15.0
  7
ITALIC
100
AcDbText
  0
LINE
  5
2506
330
1F
100
AcDbEntity
  8
WYMIARY
 62
     6
100
AcDbLine
 10
201.630407
 20
0.0
 30
0.0
 11
201.630407
 21
297.0
 31
0.0
  0
LINE
  5
2507
330
1F
100
AcDbEntity
  8
WYMIARY
 62
     3
100
AcDbLine
 10
26.63040699999999
 20
19.689837
 30
0.0
 11
26.63040699999999
 21
4.999999999999999
 31
0.0
  0
LINE
  5
2508
330
1F
100
AcDbEntity
  8
WYMIARY
 62
     3
100
AcDbLine
 10
41.63040699999999
 20
19.689837
 30
0.0
 11
41.63040699999999
 21
4.999999999999999
 31
0.0
  0
LINE
  5
2509
330
1F
100
AcDbEntity
  8
WYMIARY
 62
     3
100
AcDbLine
 10
100.331943
 20
19.689837
 30
0.0
 11
100.331943
 21
4.999999999999999
 31
0.0
  0
TEXT
  5
250A
330
1F
100
AcDbEntity
  8
WY
100
AcDbText
 10
101.520952
 20
16.599248
 30
0.0
 40
1.999999999999999
  1
Draw. No.
 51
15.0
  7
ITALIC
100
AcDbText
  0
TEXT
  5
250B
330
1F
100
AcDbEntity
  8
1
100
AcDbText
 10
103.7636957296138
 20
9.064009000000002
 30
0.0
 40
3.999999999999993
  1
RPC-1MB-A230
 41
0.7000000000000012
 51
15.0
  7
ITALIC
100
AcDbText
  0
LINE
  5
250C
330
1F
100
AcDbEntity
  8
WYMIARY
 62
     6
100
AcDbLine
 10
201.630407
 20
0.0
 30
0.0
 11
201.630407
 21
297.0
 31
0.0
  0
LINE
  5
250D
330
1F
100
AcDbEntity
  8
WYMIARY
 62
     6
100
AcDbLine
 10
201.630407
 20
0.0
 30
0.0
 11
201.630407
 21
297.0
 31
0.0
  0
LINE
  5
250E
330
1F
100
AcDbEntity
  8
2
100
AcDbLine
 10
201.630407
 20
0.0
 30
0.0
 11
201.630407
 21
297.0
 31
0.0
  0
LINE
  5
250F
330
1F
100
AcDbEntity
  8
WYMIARY
 62
     6
100
AcDbLine
 10
201.630407
 20
0.0
 30
0.0
 11
201.630407
 21
297.0
 31
0.0
  0
LINE
  5
2510
330
1F
100
AcDbEntity
  8
2
100
AcDbLine
 10
201.630407
 20
0.0
 30
0.0
 11
201.630407
 21
297.0
 31
0.0
  0
TEXT
  5
2511
330
1F
100
AcDbEntity
  8
1
100
AcDbText
 10
78.30623289843578
 20
283.3782121628976
 30
0.0
 40
5.0
  1
RPC-1MB-A230
 41
0.8
 51
15.0
  7
ITALIC
100
AcDbText
  0
LINE
  5
2512
330
1F
100
AcDbEntity
  8
2
100
AcDbLine
 10
201.630407
 20
0.0
 30
0.0
 11
11.63040699999999
 21
0.0
 31
0.0
  0
LINE
  5
2513
330
1F
100
AcDbEntity
  8
WYMIARY
 62
     6
100
AcDbLine
 10
11.63040699999999
 20
0.0
 30
0.0
 11
0.0
 21
0.0
 31
0.0
  0
LINE
  5
2514
330
1F
100
AcDbEntity
  8
WYMIARY
 62
     6
100
AcDbLine
 10
201.630407
 20
0.0
 30
0.0
 11
201.630407
 21
297.0
 31
0.0
  0
LINE
  5
2515
330
1F
100
AcDbEntity
  8
2
100
AcDbLine
 10
201.630407
 20
0.0
 30
0.0
 11
11.63040699999999
 21
0.0
 31
0.0
  0
DIMENSION
  5
251A
102
{ACAD_REACTORS
102
}
102
{ACAD_XDICTIONARY
360
251B
102
}
330
1F
100
AcDbEntity
  8
WY
100
AcDbDimension
  2
*D103
 10
46.80340334846358
 20
145.3516120519776
 30
0.0
 11
43.77940334846357
 21
136.8276120519776
 31
0.0
 70
    32
  3
ISO-25
100
AcDbAlignedDimension
 13
60.44575697641352
 23
148.8516121345776
 33
0.0
 14
65.03702886971348
 24
145.3516120519776
 34
0.0
 50
90.0
100
AcDbRotatedDimension
1001
ACAD
1000
DSTYLE
1002
{
1070
   287
1070
     3
1070
   271
1070
     1
1070
   144
1040
1.0
1070
    41
1040
2.0
1070
    44
1040
1.0
1070
    42
1040
1.0
1070
   147
1040
1.524
1070
    73
1070
     1
1070
   279
1070
     0
1070
    74
1070
     0
1070
   140
1040
3.0
1070
   284
1070
     0
1070
    78
1070
     0
1002
}
  0
DIMENSION
  5
251D
102
{ACAD_XDICTIONARY
360
251E
102
}
330
1F
100
AcDbEntity
  8
WY
100
AcDbDimension
  2
*D104
 10
53.41209586975395
 20
148.8516121345776
 30
0.0
 11
50.38809586975395
 21
160.8516120932777
 31
0.0
 70
    32
  3
ISO-25
100
AcDbAlignedDimension
 13
65.6370288697135
 23
172.8516120519776
 33
0.0
 14
57.88858453770382
 24
148.8516121345776
 34
0.0
 50
90.0
100
AcDbRotatedDimension
1001
ACAD
1000
DSTYLE
1002
{
1070
   287
1070
     3
1070
   174
1070
     0
1070
   271
1070
     0
1070
   144
1040
1.0
1070
    41
1040
2.0
1070
    44
1040
1.0
1070
    42
1040
1.0
1070
   147
1040
1.524
1070
    73
1070
     0
1070
   279
1070
     0
1070
    74
1070
     0
1070
   140
1040
3.0
1070
   284
1070
     0
1070
    78
1070
     0
1002
}
  0
DIMENSION
  5
251F
102
{ACAD_REACTORS
102
}
102
{ACAD_XDICTIONARY
360
2520
102
}
330
1F
100
AcDbEntity
  8
WY
100
AcDbDimension
  2
*D105
 10
46.80340334846358
 20
148.8516121345776
 30
0.0
 11
43.77940334846357
 21
170.8516115497276
 31
0.0
 70
    32
  3
ISO-25
100
AcDbAlignedDimension
 13
76.93702853191348
 23
192.8516109648776
 33
0.0
 14
60.44575697641352
 24
148.8516121345776
 34
0.0
 50
90.0
100
AcDbRotatedDimension
1001
ACAD
1000
DSTYLE
1002
{
1070
   287
1070
     5
1070
   144
1040
1.0
1070
    41
1040
2.0
1070
    44
1040
1.0
1070
    42
1040
1.0
1070
   147
1040
1.524
1070
    77
1070
     3
1070
   279
1070
     2
1070
    74
1070
     1
1070
   140
1040
3.0
1002
}
  0
DIMENSION
  5
2522
102
{ACAD_REACTORS
102
}
102
{ACAD_XDICTIONARY
360
2523
102
}
330
1F
100
AcDbEntity
  8
WY
100
AcDbDimension
  2
*D106
 10
40.85983203714
 20
209.8565519242777
 30
0.0
 11
37.83583203713999
 21
177.6040822082277
 31
0.0
 70
    32
  3
ISO-25
100
AcDbAlignedDimension
 13
65.03702825771347
 23
145.3516124921776
 33
0.0
 14
109.8370288697134
 24
209.8565519242777
 34
0.0
 50
90.0
100
AcDbRotatedDimension
1001
ACAD
1000
DSTYLE
1002
{
1070
   287
1070
     5
1070
   144
1040
1.0
1070
    41
1040
2.0
1070
    44
1040
1.0
1070
    42
1040
1.0
1070
   147
1040
1.524
1070
    77
1070
     3
1070
   279
1070
     2
1070
    74
1070
     1
1070
   140
1040
3.0
1002
}
  0
DIMENSION
  5
2525
102
{ACAD_REACTORS
102
}
102
{ACAD_XDICTIONARY
360
2526
102
}
330
1F
100
AcDbEntity
  8
WY
100
AcDbDimension
  2
*D107
 10
132.3370288697135
 20
219.2968894867662
 30
0.0
 11
109.8370288697135
 21
222.3208894867662
 31
0.0
 70
    32
  3
ISO-25
100
AcDbAlignedDimension
 13
87.33702886971355
 23
208.0825568265777
 33
0.0
 14
132.3370288697135
 24
208.0825568265777
 34
0.0
100
AcDbRotatedDimension
1001
ACAD
1000
DSTYLE
1002
{
1070
   287
1070
     5
1070
   144
1040
1.0
1070
    41
1040
2.0
1070
    44
1040
1.0
1070
    42
1040
1.0
1070
   147
1040
1.524
1070
    77
1070
     3
1070
   279
1070
     2
1070
    74
1070
     1
1070
   140
1040
3.0
1002
}
  0
DIMENSION
  5
2528
102
{ACAD_REACTORS
102
}
102
{ACAD_XDICTIONARY
360
2529
102
}
330
1F
100
AcDbEntity
  8
WY
100
AcDbDimension
  2
*D108
 10
127.5370282577135
 20
131.9245202436588
 30
0.0
 11
109.8370303855635
 21
134.9485202436588
 31
0.0
 70
    32
  3
ISO-25
100
AcDbAlignedDimension
 13
92.13703251341349
 23
145.3516124921776
 33
0.0
 14
127.5370282577135
 24
145.3516124921776
 34
0.0
100
AcDbRotatedDimension
1001
ACAD
1000
DSTYLE
1002
{
1070
   287
1070
     5
1070
   144
1040
1.0
1070
    41
1040
2.0
1070
    44
1040
1.0
1070
    42
1040
1.0
1070
   147
1040
1.524
1070
    77
1070
     3
1070
   279
1070
     2
1070
    74
1070
     1
1070
   140
1040
3.0
1002
}
  0
DIMENSION
  5
252B
102
{ACAD_REACTORS
102
}
102
{ACAD_XDICTIONARY
360
252C
102
}
330
1F
100
AcDbEntity
  8
WY
100
AcDbDimension
  2
*D109
 10
154.8370289141135
 20
125.0135858363881
 30
0.0
 11
109.8370288919135
 21
128.0375858363881
 31
0.0
 70
    32
  3
ISO-25
100
AcDbAlignedDimension
 13
64.83702886971349
 23
145.5516120519776
 33
0.0
 14
154.8370289141135
 24
145.5516121524776
 34
0.0
100
AcDbRotatedDimension
1001
ACAD
1000
DSTYLE
1002
{
1070
   287
1070
     5
1070
   144
1040
1.0
1070
    41
1040
2.0
1070
    44
1040
1.0
1070
    42
1040
1.0
1070
   147
1040
1.524
1070
    77
1070
     3
1070
   279
1070
     2
1070
    74
1070
     1
1070
   140
1040
3.0
1002
}
  0
DIMENSION
  5
252E
102
{ACAD_REACTORS
102
}
102
{ACAD_XDICTIONARY
360
252F
102
}
330
1F
100
AcDbEntity
  8
WY
100
AcDbDimension
  2
*D110
 10
60.44575697641352
 20
118.0747967964593
 30
0.0
 11
109.8370294542135
 21
121.0987967964593
 31
0.0
 70
    32
  3
ISO-25
100
AcDbAlignedDimension
 13
159.2283019320135
 23
148.8516121345776
 33
0.0
 14
60.44575697641352
 24
148.8516121345776
 34
0.0
100
AcDbRotatedDimension
1001
ACAD
1000
DSTYLE
1002
{
1070
   287
1070
     5
1070
   271
1070
     1
1070
   144
1040
1.0
1070
    41
1040
2.0
1070
    44
1040
1.0
1070
    42
1040
1.0
1070
   147
1040
1.524
1070
    77
1070
     3
1070
   279
1070
     2
1070
    74
1070
     1
1070
   140
1040
3.0
1002
}
  0
DIMENSION
  5
2531
102
{ACAD_REACTORS
102
}
102
{ACAD_XDICTIONARY
360
2532
102
}
330
1F
100
AcDbEntity
  8
WY
100
AcDbDimension
  2
*D111
 10
183.5785713095977
 20
96.36571270335044
 30
0.0
 11
180.5545713095977
 21
87.61571359740044
 31
0.0
 70
    32
  3
ISO-25
100
AcDbAlignedDimension
 13
154.6370289046135
 23
78.86571449145045
 33
0.0
 14
154.6370289046135
 24
96.36571270335044
 34
0.0
 50
90.0
100
AcDbRotatedDimension
1001
ACAD
1000
DSTYLE
1002
{
1070
   287
1070
     5
1070
   144
1040
1.0
1070
    41
1040
2.0
1070
    44
1040
1.0
1070
    42
1040
1.0
1070
   147
1040
1.524
1070
    77
1070
     3
1070
   279
1070
     2
1070
    74
1070
     1
1070
   140
1040
3.0
1002
}
  0
LINE
  5
2534
330
1F
100
AcDbEntity
  8
OSIE
 48
0.5
100
AcDbLine
 10
57.14440037951067
 20
87.61571359745041
 30
0.0
 11
162.8737085749191
 21
87.61571359745041
 31
0.0
  0
LINE
  5
2535
330
1F
100
AcDbEntity
  8
OSIE
 48
0.5
100
AcDbLine
 10
109.8370303855635
 20
141.5579822168881
 30
0.0
 11
109.8370303855635
 21
215.9997990883332
 31
0.0
  0
SPLINE
  5
2D96
330
1F
100
AcDbEntity
  8
1
  6
CONTINUOUS
 62
     7
100
AcDbSpline
210
0.0
220
0.0
230
1.0
 70
    11
 71
     3
 72
    26
 73
    22
 74
     0
 42
0.000000001
 43
0.00000001
 40
0.0
 40
0.0
 40
0.0
 40
0.0
 40
0.0537039000299816
 40
0.1074085224667451
 40
0.1611027475102587
 40
0.2147851210107423
 40
0.268458632349411
 40
0.3221290760284496
 40
0.3758015794467622
 40
0.4294798438059813
 40
0.4831697436649712
 40
0.5368729030146222
 40
0.5905866940185267
 40
0.6442998008468991
 40
0.6979974980554201
 40
0.7516725605339065
 40
0.8053305509380401
 40
0.8589883037216515
 40
0.912663566406557
 40
0.9663616748282894
 40
1.0
 40
1.0
 40
1.0
 40
1.0
 10
102.3370300875374
 20
83.61571294175288
 30
0.0
 10
102.533842589383
 20
83.59635904186048
 30
0.0
 10
102.9274702405293
 20
83.55765098173374
 30
0.0
 10
103.4513513328185
 20
83.25587697058195
 30
0.0
 10
103.8495294484198
 20
82.81149161759863
 30
0.0
 10
104.0771106774488
 20
82.25672619675238
 30
0.0
 10
104.1085032009041
 20
81.65896706958934
 30
0.0
 10
103.9402285490398
 20
81.08428859692454
 30
0.0
 10
103.5912901065796
 20
80.59775720723151
 30
0.0
 10
103.1009691580122
 20
80.25410449351826
 30
0.0
 10
102.524497695975
 20
80.09208268525158
 30
0.0
 10
101.9267984613286
 20
80.13000353397543
 30
0.0
 10
101.3752721805374
 20
80.36370096231708
 30
0.0
 10
100.9322155781808
 20
80.76686616734874
 30
0.0
 10
100.6476505724938
 20
81.29390831579526
 30
0.0
 10
100.5536420824407
 20
81.88534602294108
 30
0.0
 10
100.6605967819689
 20
82.47420161711803
 30
0.0
 10
100.9564455575289
 20
82.99523304245527
 30
0.0
 10
101.4076255849874
 20
83.38615009230712
 30
0.0
 10
101.8951866185373
 20
83.58797211810266
 30
0.0
 10
102.2141707866637
 20
83.60799930912385
 30
0.0
 10
102.3370300875374
 20
83.61571294175288
 30
0.0
  0
SPLINE
  5
2D97
330
1F
100
AcDbEntity
  8
1
  6
CONTINUOUS
 62
     7
100
AcDbSpline
210
0.0
220
0.0
230
1.0
 70
    11
 71
     3
 72
    26
 73
    22
 74
     0
 42
0.000000001
 43
0.00000001
 40
0.0
 40
0.0
 40
0.0
 40
0.0
 40
0.0537615776160708
 40
0.1075247611081949
 40
0.1612523915713791
 40
0.2149230836433313
 40
0.2685476289332533
 40
0.3221520683056401
 40
0.3757656933337032
 40
0.4294168175343132
 40
0.483123345974707
 40
0.536883890027842
 40
0.5906728186809617
 40
0.6444455972530084
 40
0.6981584835448277
 40
0.7517933383990426
 40
0.8053734776523085
 40
0.8589546305474797
 40
0.9125903110095875
 40
0.9663034683209875
 40
1.0
 40
1.0
 40
1.0
 40
1.0
 10
94.83702978951413
 20
83.61571294175288
 30
0.0
 10
95.03396442144202
 20
83.59633787742446
 30
0.0
 10
95.42783956779994
 20
83.55758717002796
 30
0.0
 10
95.95202496552491
 20
83.25541249501198
 30
0.0
 10
96.35018790798603
 20
82.81050215819592
 30
0.0
 10
96.57738824281085
 20
82.25544199734709
 30
0.0
 10
96.60833433352917
 20
81.65784245839764
 30
0.0
 10
96.43985644139292
 20
81.083644958584
 30
0.0
 10
96.09104863129954
 20
80.5975912211738
 30
0.0
 10
95.60099649887496
 20
80.2541433730607
 30
0.0
 10
95.02460065938129
 20
80.0920846295207
 30
0.0
 10
94.42663826328061
 20
80.12998582458245
 30
0.0
 10
93.87470836630445
 20
80.36399582565078
 30
0.0
 10
93.43147078479223
 20
80.76772934472588
 30
0.0
 10
93.14718399907423
 20
81.29525466390392
 30
0.0
 10
93.05369901067587
 20
81.88667456062326
 30
0.0
 10
93.16096682285087
 20
82.47500336976732
 30
0.0
 10
93.45668167653929
 20
82.99540360738588
 30
0.0
 10
93.90749051322854
 20
83.38602827442988
 30
0.0
 10
94.39491729704349
 20
83.58792313441923
 30
0.0
 10
94.71401664018248
 20
83.6079807202536
 30
0.0
 10
94.83702978951413
 20
83.61571294175288
 30
0.0
  0
LINE
  5
2D98
330
1F
100
AcDbEntity
  8
1
  6
BYBLOCK
 62
     7
100
AcDbLine
 10
105.1677254484222
 20
88.44279509884878
 30
0.0
 11
105.4966983840988
 21
88.7139887819962
 31
0.0
  0
LINE
  5
2D99
330
1F
100
AcDbEntity
  8
1
  6
BYBLOCK
 62
     7
100
AcDbLine
 10
105.4966983840988
 20
88.7139887819962
 30
0.0
 11
105.6048435614632
 21
88.7035803209023
 31
0.0
  0
LINE
  5
2D9A
330
1F
100
AcDbEntity
  8
1
  6
BYBLOCK
 62
     7
100
AcDbLine
 10
104.146999631934
 20
87.5017644177155
 30
0.0
 11
105.6048435614632
 21
88.7035803209023
 31
0.0
  0
ARC
  5
2D9B
330
1F
100
AcDbEntity
  8
1
  6
BYBLOCK
 62
     7
100
AcDbCircle
 10
105.7370288696604
 20
89.36571313695272
 30
0.0
 40
2.450000000000028
100
AcDbArc
 50
228.4992743674121
 51
229.5343525338709
  0
LINE
  5
2D9C
330
1F
100
AcDbEntity
  8
1
  6
BYBLOCK
 62
     7
100
AcDbLine
 10
104.8233521626518
 20
88.11590832573934
 30
0.0
 11
104.1135875032471
 21
87.53079187972112
 31
0.0
  0
LINE
  5
2D9D
330
1F
100
AcDbEntity
  8
1
  6
BYBLOCK
 62
     7
100
AcDbLine
 10
104.8233521626518
 20
88.11590832573934
 30
0.0
 11
105.1677254484222
 21
88.44279509884878
 31
0.0
  0
LINE
  5
2D9E
330
1F
100
AcDbEntity
  8
1
  6
BYBLOCK
 62
     7
100
AcDbLine
 10
105.9440386937187
 20
88.56437367302938
 30
0.0
 11
106.5763918207214
 21
87.67652523619695
 31
0.0
  0
LINE
  5
2D9F
330
1F
100
AcDbEntity
  8
1
  6
BYBLOCK
 62
     7
100
AcDbLine
 10
105.7404776559399
 20
88.6905269036965
 30
0.0
 11
106.5763918207214
 21
87.67652523619695
 31
0.0
  0
LINE
  5
2DA0
330
1F
100
AcDbEntity
  8
1
  6
BYBLOCK
 62
     7
100
AcDbLine
 10
105.8486228333042
 20
88.680110992022
 30
0.0
 11
105.7404776559399
 21
88.6905269036965
 31
0.0
  0
LINE
  5
2DA1
330
1F
100
AcDbEntity
  8
1
  6
BYBLOCK
 62
     7
100
AcDbLine
 10
105.8486228333042
 20
88.680110992022
 30
0.0
 11
105.9440386937187
 21
88.56437367302938
 31
0.0
  0
LINE
  5
2DA2
330
1F
100
AcDbEntity
  8
1
  6
BYBLOCK
 62
     7
100
AcDbLine
 10
103.6261146412418
 20
88.12211465937658
 30
0.0
 11
104.3358793006466
 21
88.7072311053948
 31
0.0
  0
ARC
  5
2DA3
330
1F
100
AcDbEntity
  8
1
  6
BYBLOCK
 62
     7
100
AcDbCircle
 10
105.7370288696604
 20
89.36571313695272
 30
0.0
 40
2.45000000000002
100
AcDbArc
 50
209.4684443341155
 51
210.5035225005699
  0
LINE
  5
2DA4
330
1F
100
AcDbEntity
  8
1
  6
BYBLOCK
 62
     7
100
AcDbLine
 10
105.061841522269
 20
89.36226379973455
 30
0.0
 11
103.6039938674496
 21
88.16044789654775
 31
0.0
  0
LINE
  5
2DA5
330
1F
100
AcDbEntity
  8
1
  6
BYBLOCK
 62
     7
100
AcDbLine
 10
105.0514293358848
 20
89.2541186223702
 30
0.0
 11
104.7224564002083
 21
88.98291748864217
 31
0.0
  0
LINE
  5
2DA6
330
1F
100
AcDbEntity
  8
1
  6
BYBLOCK
 62
     7
100
AcDbLine
 10
104.3358793006466
 20
88.7072311053948
 30
0.0
 11
104.7224564002083
 21
88.98291748864217
 31
0.0
  0
LINE
  5
2DA7
330
1F
100
AcDbEntity
  8
1
  6
BYBLOCK
 62
     7
100
AcDbLine
 10
105.0514293358848
 20
89.2541186223702
 30
0.0
 11
105.061841522269
 21
89.36226379973455
 31
0.0
  0
LINE
  5
2DA8
330
1F
100
AcDbEntity
  8
1
  6
BYBLOCK
 62
     7
100
AcDbLine
 10
106.4841648088024
 20
89.00964272124334
 30
0.0
 11
107.235079024844
 21
88.21953100068136
 31
0.0
  0
LINE
  5
2DA9
330
1F
100
AcDbEntity
  8
1
  6
BYBLOCK
 62
     7
100
AcDbLine
 10
106.4841648088024
 20
89.00964272124334
 30
0.0
 11
106.3887489483879
 21
89.12538004023595
 31
0.0
  0
LINE
  5
2DAA
330
1F
100
AcDbEntity
  8
1
  6
BYBLOCK
 62
     7
100
AcDbLine
 10
107.235079024844
 20
88.21953100068136
 30
0.0
 11
106.3991611347721
 21
89.2335326681809
 31
0.0
  0
LINE
  5
2DAB
330
1F
100
AcDbEntity
  8
1
  6
BYBLOCK
 62
     7
100
AcDbLine
 10
106.3887489483879
 20
89.12538004023595
 30
0.0
 11
106.3991611347721
 21
89.2335326681809
 31
0.0
  0
LINE
  5
2DAC
330
1F
100
AcDbEntity
  8
1
  6
BYBLOCK
 62
     7
100
AcDbLine
 10
105.9440386937187
 20
88.56437367302938
 30
0.0
 11
106.4841648088024
 21
89.00964272124334
 31
0.0
  0
LINE
  5
2DAD
330
1F
100
AcDbEntity
  8
1
  6
BYBLOCK
 62
     7
100
AcDbLine
 10
106.5763918207214
 20
87.67652523619695
 30
0.0
 11
107.235079024844
 21
88.21953100068136
 31
0.0
  0
LINE
  5
2DAE
330
1F
100
AcDbEntity
  8
1
  6
BYBLOCK
 62
     7
100
AcDbLine
 10
106.4122182772682
 20
89.3691630373673
 30
0.0
 11
107.3876333878563
 21
90.1732743988709
 31
0.0
  0
LINE
  5
2DAF
330
1F
100
AcDbEntity
  8
1
  6
BYBLOCK
 62
     7
100
AcDbLine
 10
107.3876333878563
 20
90.1732743988709
 30
0.0
 11
106.8446276233719
 21
90.83195787770315
 31
0.0
  0
LINE
  5
2DB0
330
1F
100
AcDbEntity
  8
1
  6
BYBLOCK
 62
     7
100
AcDbLine
 10
106.8446276233719
 20
90.83195787770315
 30
0.0
 11
105.8692125127838
 21
90.02784651619955
 31
0.0
  0
LINE
  5
2DB1
330
1F
100
AcDbEntity
  8
1
  6
BYBLOCK
 62
     7
100
AcDbLine
 10
105.7335821435974
 20
90.04089993340536
 30
0.0
 11
104.8976642535255
 21
91.0549016009049
 31
0.0
  0
LINE
  5
2DB2
330
1F
100
AcDbEntity
  8
1
  6
BYBLOCK
 62
     7
100
AcDbLine
 10
104.8976642535255
 20
91.0549016009049
 30
0.0
 11
104.2389807746933
 21
90.51189583642049
 31
0.0
  0
LINE
  5
2DB3
330
1F
100
AcDbEntity
  8
1
  6
BYBLOCK
 62
     7
100
AcDbLine
 10
104.2389807746933
 20
90.51189583642049
 30
0.0
 11
105.0748949394749
 21
89.49789416892095
 31
0.0
  0
ARC
  5
2DB4
330
1F
100
AcDbEntity
  8
1
  6
BYBLOCK
 62
     7
100
AcDbCircle
 10
105.7370288696604
 20
89.36571313695272
 30
0.0
 40
2.45000000000002
100
AcDbArc
 50
229.5343525338879
 51
209.4684443341155
  0
LINE
  5
2DB5
330
1F
100
AcDbEntity
  8
1
  6
BYBLOCK
 62
     7
100
AcDbLine
 10
105.6048435614632
 20
88.7035803209023
 30
0.0
 11
105.7404776559399
 21
88.6905269036965
 31
0.0
  0
LINE
  5
2DB6
330
1F
100
AcDbEntity
  8
1
  6
BYBLOCK
 62
     7
100
AcDbLine
 10
105.8692125127838
 20
90.02784651619955
 30
0.0
 11
105.7335821435974
 21
90.04089993340536
 31
0.0
  0
LINE
  5
2DB7
330
1F
100
AcDbEntity
  8
1
  6
BYBLOCK
 62
     7
100
AcDbLine
 10
106.3991611347721
 20
89.2335326681809
 30
0.0
 11
106.4122182772682
 21
89.3691630373673
 31
0.0
  0
LINE
  5
2DB8
330
1F
100
AcDbEntity
  8
1
  6
BYBLOCK
 62
     7
100
AcDbLine
 10
105.0748949394749
 20
89.49789416892095
 30
0.0
 11
105.061841522269
 21
89.36226379973455
 31
0.0
  0
LINE
  5
2DB9
330
1F
100
AcDbEntity
  8
1
  6
BYBLOCK
 62
     7
100
AcDbLine
 10
106.4997886763142
 20
89.54092127186819
 30
0.0
 11
107.3876333878563
 21
90.1732743988709
 31
0.0
  0
LINE
  5
2DBA
330
1F
100
AcDbEntity
  8
1
  6
BYBLOCK
 62
     7
100
AcDbLine
 10
106.4997886763142
 20
89.54092127186819
 30
0.0
 11
106.0545196281002
 21
90.08104366166158
 31
0.0
  0
LINE
  5
2DBB
330
1F
100
AcDbEntity
  8
1
  6
BYBLOCK
 62
     7
100
AcDbLine
 10
106.0545196281002
 20
90.08104366166158
 30
0.0
 11
106.8446276233719
 21
90.83195787770315
 31
0.0
  0
LINE
  5
2DBC
330
1F
100
AcDbEntity
  8
1
  6
BYBLOCK
 62
     7
100
AcDbLine
 10
106.4226267383621
 20
89.47730821473165
 30
0.0
 11
106.4997886763142
 21
89.54092127186819
 31
0.0
  0
LINE
  5
2DBD
330
1F
100
AcDbEntity
  8
1
  6
BYBLOCK
 62
     7
100
AcDbLine
 10
106.4226267383621
 20
89.47730821473165
 30
0.0
 11
106.4122182772682
 21
89.3691630373673
 31
0.0
  0
LINE
  5
2DBE
330
1F
100
AcDbEntity
  8
1
  6
BYBLOCK
 62
     7
100
AcDbLine
 10
104.9898912654446
 20
89.72178411585851
 30
0.0
 11
104.2389807746933
 21
90.51189583642049
 31
0.0
  0
LINE
  5
2DBF
330
1F
100
AcDbEntity
  8
1
  6
BYBLOCK
 62
     7
100
AcDbLine
 10
104.9898912654446
 20
89.72178411585851
 30
0.0
 11
105.0853071258591
 21
89.6060467968659
 31
0.0
  0
LINE
  5
2DC0
330
1F
100
AcDbEntity
  8
1
  6
BYBLOCK
 62
     7
100
AcDbLine
 10
105.0853071258591
 20
89.6060467968659
 30
0.0
 11
105.0748949394749
 21
89.49789416892095
 31
0.0
  0
LINE
  5
2DC1
330
1F
100
AcDbEntity
  8
1
  6
BYBLOCK
 62
     7
100
AcDbLine
 10
105.5300211058185
 20
90.16705316407247
 30
0.0
 11
104.8976642535255
 21
91.0549016009049
 31
0.0
  0
LINE
  5
2DC2
330
1F
100
AcDbEntity
  8
1
  6
BYBLOCK
 62
     7
100
AcDbLine
 10
105.5300211058185
 20
90.16705316407247
 30
0.0
 11
104.9898912654446
 21
89.72178411585851
 31
0.0
  0
LINE
  5
2DC3
330
1F
100
AcDbEntity
  8
1
  6
BYBLOCK
 62
     7
100
AcDbLine
 10
106.0545196281002
 20
90.08104366166158
 30
0.0
 11
105.9773614154385
 21
90.01743805510564
 31
0.0
  0
LINE
  5
2DC4
330
1F
100
AcDbEntity
  8
1
  6
BYBLOCK
 62
     7
100
AcDbLine
 10
105.9773614154385
 20
90.01743805510564
 30
0.0
 11
105.8692125127838
 21
90.02784651619955
 31
0.0
  0
LINE
  5
2DC5
330
1F
100
AcDbEntity
  8
1
  6
BYBLOCK
 62
     7
100
AcDbLine
 10
105.6254332409428
 20
90.05131584507986
 30
0.0
 11
105.5300211058185
 21
90.16705316407247
 31
0.0
  0
LINE
  5
2DC6
330
1F
100
AcDbEntity
  8
1
  6
BYBLOCK
 62
     7
100
AcDbLine
 10
105.6254332409428
 20
90.05131584507986
 30
0.0
 11
105.7335821435974
 21
90.04089993340536
 31
0.0
  0
LINE
  5
2DC7
330
1F
100
AcDbEntity
  8
1
  6
BYBLOCK
 62
     7
100
AcDbLine
 10
105.1677254484222
 20
88.44279509884878
 30
0.0
 11
104.7224564002083
 21
88.98291748864217
 31
0.0
  0
LINE
  5
2DC8
330
1F
100
AcDbEntity
  8
1
  6
BYBLOCK
 62
     7
100
AcDbLine
 10
104.3358793006466
 20
88.7072311053948
 30
0.0
 11
104.8233521626518
 21
88.11590832573934
 31
0.0
  0
CIRCLE
  5
2DC9
330
1F
100
AcDbEntity
  8
1
  6
BYBLOCK
 62
     7
100
AcDbCircle
 10
105.7370288696604
 20
89.36571313695272
 30
0.0
 40
2.52107938131657
  0
LINE
  5
2DCA
330
1F
100
AcDbEntity
  8
1
  6
CONTINUOUS
 62
     7
100
AcDbLine
 10
125.6308326021954
 20
86.70666080815359
 30
0.0
 11
124.4894092426821
 21
85.20106238228841
 31
0.0
  0
LINE
  5
2DCB
330
1F
100
AcDbEntity
  8
1
  6
CONTINUOUS
 62
     7
100
AcDbLine
 10
125.6456406311318
 20
86.59902972085042
 30
0.0
 11
125.6308326021954
 21
86.70666080815359
 31
0.0
  0
LINE
  5
2DCC
330
1F
100
AcDbEntity
  8
1
  6
CONTINUOUS
 62
     7
100
AcDbLine
 10
125.6456406311318
 20
86.59902972085042
 30
0.0
 11
125.3880703346059
 21
86.2592832456307
 31
0.0
  0
LINE
  5
2DCD
330
1F
100
AcDbEntity
  8
1
  6
CONTINUOUS
 62
     7
100
AcDbLine
 10
125.0754830883071
 20
85.90187889439626
 30
0.0
 11
125.3880703346059
 21
86.2592832456307
 31
0.0
  0
LINE
  5
2DCE
330
1F
100
AcDbEntity
  8
1
  6
CONTINUOUS
 62
     7
100
AcDbLine
 10
125.9008118407056
 20
87.59772044522329
 30
0.0
 11
125.0807655499503
 21
88.315822304316
 31
0.0
  0
LINE
  5
2DCF
330
1F
100
AcDbEntity
  8
1
  6
CONTINUOUS
 62
     7
100
AcDbLine
 10
126.1279781804606
 20
87.52191078764959
 30
0.0
 11
125.0807655499503
 21
88.315822304316
 31
0.0
  0
LINE
  5
2DD0
330
1F
100
AcDbEntity
  8
1
  6
CONTINUOUS
 62
     7
100
AcDbLine
 10
126.0203452305123
 20
87.5070990334229
 30
0.0
 11
126.1279781804606
 21
87.52191078764959
 31
0.0
  0
LINE
  5
2DD1
330
1F
100
AcDbEntity
  8
1
  6
CONTINUOUS
 62
     7
100
AcDbLine
 10
126.0203452305123
 20
87.5070990334229
 30
0.0
 11
125.9008118407056
 21
87.59772044522329
 31
0.0
  0
LINE
  5
2DD2
330
1F
100
AcDbEntity
  8
1
  6
CONTINUOUS
 62
     7
100
AcDbLine
 10
126.6732451961562
 20
86.13370370966955
 30
0.0
 11
127.0961382881924
 21
86.69152122838064
 31
0.0
  0
LINE
  5
2DD3
330
1F
100
AcDbEntity
  8
1
  6
CONTINUOUS
 62
     7
100
AcDbLine
 10
127.0961382881924
 20
86.69152122838064
 30
0.0
 11
128.0090094999596
 21
86.09586966139837
 31
0.0
  0
LINE
  5
2DD4
330
1F
100
AcDbEntity
  8
1
  6
CONTINUOUS
 62
     7
100
AcDbLine
 10
125.9008118407056
 20
87.59772044522329
 30
0.0
 11
125.4779187486693
 21
87.0399029265122
 31
0.0
  0
LINE
  5
2DD5
330
1F
100
AcDbEntity
  8
1
  6
CONTINUOUS
 62
     7
100
AcDbLine
 10
125.4779187486693
 20
87.0399029265122
 30
0.0
 11
124.5650475369021
 21
87.63556194407506
 31
0.0
  0
LINE
  5
2DD6
330
1F
100
AcDbEntity
  8
1
  6
CONTINUOUS
 62
     7
100
AcDbLine
 10
125.0807655499503
 20
88.315822304316
 30
0.0
 11
124.5650475369021
 21
87.63556194407506
 31
0.0
  0
LINE
  5
2DD7
330
1F
100
AcDbEntity
  8
1
  6
CONTINUOUS
 62
     7
100
AcDbLine
 10
126.4460788564011
 20
86.20951336724325
 30
0.0
 11
127.4932914869115
 21
85.41560185057683
 31
0.0
  0
LINE
  5
2DD8
330
1F
100
AcDbEntity
  8
1
  6
CONTINUOUS
 62
     7
100
AcDbLine
 10
126.5537136689946
 20
86.22432512146993
 30
0.0
 11
126.6732451961562
 21
86.13370370966955
 31
0.0
  0
LINE
  5
2DD9
330
1F
100
AcDbEntity
  8
1
  6
CONTINUOUS
 62
     7
100
AcDbLine
 10
126.5537136689946
 20
86.22432512146993
 30
0.0
 11
126.4460788564011
 21
86.20951336724325
 31
0.0
  0
LINE
  5
2DDA
330
1F
100
AcDbEntity
  8
1
  6
CONTINUOUS
 62
     7
100
AcDbLine
 10
127.0961382881924
 20
86.69152122838064
 30
0.0
 11
126.9766048983857
 21
86.78214264018102
 31
0.0
  0
LINE
  5
2DDB
330
1F
100
AcDbEntity
  8
1
  6
CONTINUOUS
 62
     7
100
AcDbLine
 10
128.0090094999596
 20
86.09586966139837
 30
0.0
 11
126.9617968694493
 21
86.88977372748418
 31
0.0
  0
LINE
  5
2DDC
330
1F
100
AcDbEntity
  8
1
  6
CONTINUOUS
 62
     7
100
AcDbLine
 10
126.9766048983857
 20
86.78214264018102
 30
0.0
 11
126.9617968694493
 21
86.88977372748418
 31
0.0
  0
LINE
  5
2DDD
330
1F
100
AcDbEntity
  8
1
  6
CONTINUOUS
 62
     7
100
AcDbLine
 10
125.4779187486693
 20
87.0399029265122
 30
0.0
 11
125.5974521384761
 21
86.94928151471181
 31
0.0
  0
LINE
  5
2DDE
330
1F
100
AcDbEntity
  8
1
  6
CONTINUOUS
 62
     7
100
AcDbLine
 10
124.5650475369021
 20
87.63556194407506
 30
0.0
 11
125.6122601674124
 21
86.84165042740865
 31
0.0
  0
LINE
  5
2DDF
330
1F
100
AcDbEntity
  8
1
  6
CONTINUOUS
 62
     7
100
AcDbLine
 10
125.5974521384761
 20
86.94928151471181
 30
0.0
 11
125.6122601674124
 21
86.84165042740865
 31
0.0
  0
LINE
  5
2DE0
330
1F
100
AcDbEntity
  8
1
  6
CONTINUOUS
 62
     7
100
AcDbLine
 10
126.9888313011452
 20
87.21208584410711
 30
0.0
 11
127.7069294349477
 21
88.03213399750753
 31
0.0
  0
LINE
  5
2DE1
330
1F
100
AcDbEntity
  8
1
  6
CONTINUOUS
 62
     7
100
AcDbLine
 10
126.9432262973115
 20
87.02476334673925
 30
0.0
 11
127.7069294349477
 21
88.03213399750753
 31
0.0
  0
LINE
  5
2DE2
330
1F
100
AcDbEntity
  8
1
  6
CONTINUOUS
 62
     7
100
AcDbLine
 10
126.9284182683751
 20
87.13239443404241
 30
0.0
 11
126.9888313011452
 21
87.21208584410711
 31
0.0
  0
LINE
  5
2DE3
330
1F
100
AcDbEntity
  8
1
  6
CONTINUOUS
 62
     7
100
AcDbLine
 10
126.9284182683751
 20
87.13239443404241
 30
0.0
 11
126.9432262973115
 21
87.02476334673925
 31
0.0
  0
LINE
  5
2DE4
330
1F
100
AcDbEntity
  8
1
  6
CONTINUOUS
 62
     7
100
AcDbLine
 10
126.9888313011452
 20
87.21208584410711
 30
0.0
 11
126.431011919789
 21
87.6349807987885
 31
0.0
  0
LINE
  5
2DE5
330
1F
100
AcDbEntity
  8
1
  6
CONTINUOUS
 62
     7
100
AcDbLine
 10
126.431011919789
 20
87.6349807987885
 30
0.0
 11
127.0266690747067
 21
88.5478482852654
 31
0.0
  0
LINE
  5
2DE6
330
1F
100
AcDbEntity
  8
1
  6
CONTINUOUS
 62
     7
100
AcDbLine
 10
127.7069294349477
 20
88.03213399750753
 30
0.0
 11
127.0266690747067
 21
88.5478482852654
 31
0.0
  0
LINE
  5
2DE7
330
1F
100
AcDbEntity
  8
1
  6
CONTINUOUS
 62
     7
100
AcDbLine
 10
127.0266690747067
 20
88.5478482852654
 30
0.0
 11
126.2629640744254
 21
87.54048508507772
 31
0.0
  0
LINE
  5
2DE8
330
1F
100
AcDbEntity
  8
1
  6
CONTINUOUS
 62
     7
100
AcDbLine
 10
126.2629640744254
 20
87.54048508507772
 30
0.0
 11
126.1279781804606
 21
87.52191078764959
 31
0.0
  0
LINE
  5
2DE9
330
1F
100
AcDbEntity
  8
1
  6
CONTINUOUS
 62
     7
100
AcDbLine
 10
125.6122601674124
 20
86.84165042740865
 30
0.0
 11
125.6308326021954
 21
86.70666080815359
 31
0.0
  0
LINE
  5
2DEA
330
1F
100
AcDbEntity
  8
1
  6
CONTINUOUS
 62
     7
100
AcDbLine
 10
126.9617968694493
 20
86.88977372748418
 30
0.0
 11
126.9432262973115
 21
87.02476334673925
 31
0.0
  0
LINE
  5
2DEB
330
1F
100
AcDbEntity
  8
1
  6
CONTINUOUS
 62
     7
100
AcDbLine
 10
126.3110929624364
 20
86.19094652039571
 30
0.0
 11
126.4460788564011
 21
86.20951336724325
 31
0.0
  0
ARC
  5
2DEC
330
1F
100
AcDbEntity
  8
1
  6
CONTINUOUS
 62
     7
100
AcDbCircle
 10
126.2870288696604
 20
86.86571313695272
 30
0.0
 40
2.450000000000021
100
AcDbArc
 50
242.8665217542559
 51
222.8006135544992
  0
LINE
  5
2DED
330
1F
100
AcDbEntity
  8
1
  6
CONTINUOUS
 62
     7
100
AcDbLine
 10
126.431011919789
 20
87.6349807987885
 30
0.0
 11
126.3705988870188
 21
87.5552893887238
 31
0.0
  0
LINE
  5
2DEE
330
1F
100
AcDbEntity
  8
1
  6
CONTINUOUS
 62
     7
100
AcDbLine
 10
126.3705988870188
 20
87.5552893887238
 30
0.0
 11
126.2629640744254
 21
87.54048508507772
 31
0.0
  0
LINE
  5
2DEF
330
1F
100
AcDbEntity
  8
1
  6
CONTINUOUS
 62
     7
100
AcDbLine
 10
125.9458878533169
 20
85.8363882909493
 30
0.0
 11
125.3880703346059
 21
86.2592832456307
 31
0.0
  0
LINE
  5
2DF0
330
1F
100
AcDbEntity
  8
1
  6
CONTINUOUS
 62
     7
100
AcDbLine
 10
118.8675662026928
 20
89.98826903206869
 30
0.0
 11
118.4107822821663
 21
90.70942562920614
 31
0.0
  0
LINE
  5
2DF1
330
1F
100
AcDbEntity
  8
1
  6
CONTINUOUS
 62
     7
100
AcDbLine
 10
118.4107822821663
 20
90.70942562920614
 30
0.0
 11
117.3006122456119
 21
90.00623983246847
 31
0.0
  0
LINE
  5
2DF2
330
1F
100
AcDbEntity
  8
1
  6
CONTINUOUS
 62
     7
100
AcDbLine
 10
117.3006122456119
 20
90.00623983246847
 30
0.0
 11
117.1676603601501
 21
90.03607940775915
 31
0.0
  0
LINE
  5
2DF3
330
1F
100
AcDbEntity
  8
1
  6
CONTINUOUS
 62
     7
100
AcDbLine
 10
117.1676603601501
 20
90.03607940775915
 30
0.0
 11
116.491229598336
 21
91.10400837761922
 31
0.0
  0
LINE
  5
2DF4
330
1F
100
AcDbEntity
  8
1
  6
CONTINUOUS
 62
     7
100
AcDbLine
 10
116.491229598336
 20
91.10400837761922
 30
0.0
 11
115.7700730011986
 21
90.64722818238302
 31
0.0
  0
LINE
  5
2DF5
330
1F
100
AcDbEntity
  8
1
  6
CONTINUOUS
 62
     7
100
AcDbLine
 10
115.7700730011986
 20
90.64722818238302
 30
0.0
 11
116.4465037630127
 21
89.57929176194234
 31
0.0
  0
LINE
  5
2DF6
330
1F
100
AcDbEntity
  8
1
  6
CONTINUOUS
 62
     7
100
AcDbLine
 10
116.416664187722
 20
89.44634360177083
 30
0.0
 11
115.3064941511677
 21
88.74315780503316
 31
0.0
  0
LINE
  5
2DF7
330
1F
100
AcDbEntity
  8
1
  6
CONTINUOUS
 62
     7
100
AcDbLine
 10
115.3064941511677
 20
88.74315780503316
 30
0.0
 11
115.7632780716942
 21
88.02200120789571
 31
0.0
  0
LINE
  5
2DF8
330
1F
100
AcDbEntity
  8
1
  6
CONTINUOUS
 62
     7
100
AcDbLine
 10
115.7632780716942
 20
88.02200120789571
 30
0.0
 11
116.8734481082485
 21
88.72518700463338
 31
0.0
  0
LINE
  5
2DF9
330
1F
100
AcDbEntity
  8
1
  6
CONTINUOUS
 62
     7
100
AcDbLine
 10
117.00639626842
 20
88.6953474293427
 30
0.0
 11
118.0173841760681
 21
87.0992318998055
 31
0.0
  0
ARC
  5
2DFA
330
1F
100
AcDbEntity
  8
1
  6
CONTINUOUS
 62
     7
100
AcDbCircle
 10
117.0870288696603
 20
89.36571313695272
 30
0.0
 40
2.450000000000028
100
AcDbArc
 50
312.3832510975434
 51
292.3173428977827
  0
LINE
  5
2DFB
330
1F
100
AcDbEntity
  8
1
  6
CONTINUOUS
 62
     7
100
AcDbLine
 10
118.7385407732056
 20
87.55601209504171
 30
0.0
 11
117.7275565908478
 21
89.1521350751595
 31
0.0
  0
LINE
  5
2DFC
330
1F
100
AcDbEntity
  8
1
  6
CONTINUOUS
 62
     7
100
AcDbLine
 10
117.7275565908478
 20
89.1521350751595
 30
0.0
 11
117.7573961661384
 21
89.28508323533102
 31
0.0
  0
LINE
  5
2DFD
330
1F
100
AcDbEntity
  8
1
  6
CONTINUOUS
 62
     7
100
AcDbLine
 10
117.7573961661384
 20
89.28508323533102
 30
0.0
 11
118.8675662026928
 21
89.98826903206869
 31
0.0
  0
LINE
  5
2DFE
330
1F
100
AcDbEntity
  8
1
  6
CONTINUOUS
 62
     7
100
AcDbLine
 10
116.4465037630127
 20
89.57929176194234
 30
0.0
 11
116.416664187722
 21
89.44634360177083
 31
0.0
  0
LINE
  5
2DFF
330
1F
100
AcDbEntity
  8
1
  6
CONTINUOUS
 62
     7
100
AcDbLine
 10
116.8734481082485
 20
88.72518700463338
 30
0.0
 11
117.00639626842
 21
88.6953474293427
 31
0.0
  0
LINE
  5
2E00
330
1F
100
AcDbEntity
  8
1
  6
CONTINUOUS
 62
     7
100
AcDbLine
 10
117.9079053447769
 20
89.47135520083471
 30
0.0
 11
118.8675662026928
 21
89.98826903206869
 31
0.0
  0
LINE
  5
2E01
330
1F
100
AcDbEntity
  8
1
  6
CONTINUOUS
 62
     7
100
AcDbLine
 10
117.9079053447769
 20
89.47135520083471
 30
0.0
 11
117.5333385811375
 21
90.06270778281255
 31
0.0
  0
LINE
  5
2E02
330
1F
100
AcDbEntity
  8
1
  6
CONTINUOUS
 62
     7
100
AcDbLine
 10
117.5333385811375
 20
90.06270778281255
 30
0.0
 11
118.4107822821663
 21
90.70942562920614
 31
0.0
  0
LINE
  5
2E03
330
1F
100
AcDbEntity
  8
1
  6
CONTINUOUS
 62
     7
100
AcDbLine
 10
116.4167871223019
 20
89.76978820664449
 30
0.0
 11
115.7700730011986
 21
90.64722818238302
 31
0.0
  0
LINE
  5
2E04
330
1F
100
AcDbEntity
  8
1
  6
CONTINUOUS
 62
     7
100
AcDbLine
 10
116.4167871223019
 20
89.76978820664449
 30
0.0
 11
116.4702934668587
 21
89.68530607325597
 31
0.0
  0
LINE
  5
2E05
330
1F
100
AcDbEntity
  8
1
  6
CONTINUOUS
 62
     7
100
AcDbLine
 10
116.4702934668587
 20
89.68530607325597
 30
0.0
 11
116.4465037630127
 21
89.57929176194234
 31
0.0
  0
LINE
  5
2E06
330
1F
100
AcDbEntity
  8
1
  6
CONTINUOUS
 62
     7
100
AcDbLine
 10
117.0081397042797
 20
90.14435124499364
 30
0.0
 11
116.491229598336
 21
91.10400837761922
 31
0.0
  0
LINE
  5
2E07
330
1F
100
AcDbEntity
  8
1
  6
CONTINUOUS
 62
     7
100
AcDbLine
 10
117.0081397042797
 20
90.14435124499364
 30
0.0
 11
116.4167871223019
 21
89.76978820664449
 31
0.0
  0
LINE
  5
2E08
330
1F
100
AcDbEntity
  8
1
  6
CONTINUOUS
 62
     7
100
AcDbLine
 10
117.5333385811375
 20
90.06270778281255
 30
0.0
 11
117.4066228316353
 21
89.98245012862249
 31
0.0
  0
LINE
  5
2E09
330
1F
100
AcDbEntity
  8
1
  6
CONTINUOUS
 62
     7
100
AcDbLine
 10
117.4066228316353
 20
89.98245012862249
 30
0.0
 11
117.3006122456119
 21
90.00623983246847
 31
0.0
  0
LINE
  5
2E0A
330
1F
100
AcDbEntity
  8
1
  6
CONTINUOUS
 62
     7
100
AcDbLine
 10
116.6407180474327
 20
88.6687116037087
 30
0.0
 11
115.7632780716942
 21
88.02200120789571
 31
0.0
  0
LINE
  5
2E0B
330
1F
100
AcDbEntity
  8
1
  6
CONTINUOUS
 62
     7
100
AcDbLine
 10
116.6407180474327
 20
88.6687116037087
 30
0.0
 11
116.7674375222252
 21
88.74897670847936
 31
0.0
  0
LINE
  5
2E0C
330
1F
100
AcDbEntity
  8
1
  6
CONTINUOUS
 62
     7
100
AcDbLine
 10
116.7674375222252
 20
88.74897670847936
 30
0.0
 11
116.8734481082485
 21
88.72518700463338
 31
0.0
  0
LINE
  5
2E0D
330
1F
100
AcDbEntity
  8
1
  6
CONTINUOUS
 62
     7
100
AcDbLine
 10
116.2661512837932
 20
89.26007163626714
 30
0.0
 11
115.3064941511677
 21
88.74315780503316
 31
0.0
  0
LINE
  5
2E0E
330
1F
100
AcDbEntity
  8
1
  6
CONTINUOUS
 62
     7
100
AcDbLine
 10
116.2661512837932
 20
89.26007163626714
 30
0.0
 11
116.6407180474327
 21
88.6687116037087
 31
0.0
  0
LINE
  5
2E0F
330
1F
100
AcDbEntity
  8
1
  6
CONTINUOUS
 62
     7
100
AcDbLine
 10
116.3928707585857
 20
89.3403367410378
 30
0.0
 11
116.2661512837932
 21
89.26007163626714
 31
0.0
  0
LINE
  5
2E10
330
1F
100
AcDbEntity
  8
1
  6
CONTINUOUS
 62
     7
100
AcDbLine
 10
116.3928707585857
 20
89.3403367410378
 30
0.0
 11
116.416664187722
 21
89.44634360177083
 31
0.0
  0
LINE
  5
2E11
330
1F
100
AcDbEntity
  8
1
  6
CONTINUOUS
 62
     7
100
AcDbLine
 10
117.0616497741268
 20
90.05986911160512
 30
0.0
 11
117.1676603601501
 21
90.03607940775915
 31
0.0
  0
LINE
  5
2E12
330
1F
100
AcDbEntity
  8
1
  6
CONTINUOUS
 62
     7
100
AcDbLine
 10
117.0616497741268
 20
90.05986911160512
 30
0.0
 11
117.0081397042797
 21
90.14435124499364
 31
0.0
  0
LINE
  5
2E13
330
1F
100
AcDbEntity
  8
1
  6
CONTINUOUS
 62
     7
100
AcDbLine
 10
117.9318999395893
 20
88.68594479662939
 30
0.0
 11
117.7037631617115
 21
89.04612076384588
 31
0.0
  0
LINE
  5
2E14
330
1F
100
AcDbEntity
  8
1
  6
CONTINUOUS
 62
     7
100
AcDbLine
 10
118.2133716986702
 20
88.30355864865346
 30
0.0
 11
118.7055794046448
 21
87.5264779935555
 31
0.0
  0
LINE
  5
2E15
330
1F
100
AcDbEntity
  8
1
  6
CONTINUOUS
 62
     7
100
AcDbLine
 10
118.2133716986702
 20
88.30355864865346
 30
0.0
 11
117.9318999395893
 21
88.68594479662939
 31
0.0
  0
LINE
  5
2E16
330
1F
100
AcDbEntity
  8
1
  6
CONTINUOUS
 62
     7
100
AcDbLine
 10
117.7037631617115
 20
89.04612076384588
 30
0.0
 11
117.7275565908478
 21
89.1521350751595
 31
0.0
  0
ARC
  5
2E17
330
1F
100
AcDbEntity
  8
1
  6
CONTINUOUS
 62
     7
100
AcDbCircle
 10
117.0870288696603
 20
89.36571313695272
 30
0.0
 40
2.450000000000028
100
AcDbArc
 50
311.3481729310815
 51
312.3832510975434
  0
LINE
  5
2E18
330
1F
100
AcDbEntity
  8
1
  6
CONTINUOUS
 62
     7
100
AcDbLine
 10
117.7811858699844
 20
89.39109009606405
 30
0.0
 11
117.9079053447769
 21
89.47135520083471
 31
0.0
  0
LINE
  5
2E19
330
1F
100
AcDbEntity
  8
1
  6
CONTINUOUS
 62
     7
100
AcDbLine
 10
117.7811858699844
 20
89.39109009606405
 30
0.0
 11
117.7573961661384
 21
89.28508323533102
 31
0.0
  0
LINE
  5
2E1A
330
1F
100
AcDbEntity
  8
1
  6
CONTINUOUS
 62
     7
100
AcDbLine
 10
118.058172379546
 20
87.11640548808141
 30
0.0
 11
117.5659683988617
 21
87.89349359375997
 31
0.0
  0
LINE
  5
2E1B
330
1F
100
AcDbEntity
  8
1
  6
CONTINUOUS
 62
     7
100
AcDbLine
 10
117.1124068544433
 20
88.67155772549673
 30
0.0
 11
117.3405436323212
 21
88.31138175828023
 31
0.0
  0
LINE
  5
2E1C
330
1F
100
AcDbEntity
  8
1
  6
CONTINUOUS
 62
     7
100
AcDbLine
 10
117.5659683988617
 20
87.89349359375997
 30
0.0
 11
117.3405436323212
 21
88.31138175828023
 31
0.0
  0
ARC
  5
2E1D
330
1F
100
AcDbEntity
  8
1
  6
CONTINUOUS
 62
     7
100
AcDbCircle
 10
117.0870288696603
 20
89.36571313695272
 30
0.0
 40
2.449999999999991
100
AcDbArc
 50
292.3173428977774
 51
293.352421064239
  0
LINE
  5
2E1E
330
1F
100
AcDbEntity
  8
1
  6
CONTINUOUS
 62
     7
100
AcDbLine
 10
117.1124068544433
 20
88.67155772549673
 30
0.0
 11
117.00639626842
 21
88.6953474293427
 31
0.0
  0
LINE
  5
2E1F
330
1F
100
AcDbEntity
  8
1
  6
CONTINUOUS
 62
     7
100
AcDbLine
 10
117.5659683988617
 20
87.89349359375997
 30
0.0
 11
118.2133716986702
 21
88.30355864865346
 31
0.0
  0
LINE
  5
2E20
330
1F
100
AcDbEntity
  8
1
  6
CONTINUOUS
 62
     7
100
AcDbLine
 10
117.9318999395893
 20
88.68594479662939
 30
0.0
 11
117.3405436323212
 21
88.31138175828023
 31
0.0
  0
LINE
  5
2E21
330
1F
100
AcDbEntity
  8
1
  6
CONTINUOUS
 62
     7
100
AcDbLine
 10
124.5197740839049
 20
85.16886097294851
 30
0.0
 11
125.0754830883071
 21
85.90187889439626
 31
0.0
  0
ARC
  5
2E22
330
1F
100
AcDbEntity
  8
1
  6
CONTINUOUS
 62
     7
100
AcDbCircle
 10
126.2870288696604
 20
86.86571313695272
 30
0.0
 40
2.449999999999989
100
AcDbArc
 50
222.8006135545025
 51
223.8356917209493
  0
LINE
  5
2E23
330
1F
100
AcDbEntity
  8
1
  6
CONTINUOUS
 62
     7
100
AcDbLine
 10
126.6732451961562
 20
86.13370370966955
 30
0.0
 11
127.4932914869115
 21
85.41560185057683
 31
0.0
  0
LINE
  5
2E24
330
1F
100
AcDbEntity
  8
1
  6
CONTINUOUS
 62
     7
100
AcDbLine
 10
127.4932914869115
 20
85.41560185057683
 30
0.0
 11
128.0090094999596
 21
86.09586966139837
 31
0.0
  0
LINE
  5
2E25
330
1F
100
AcDbEntity
  8
1
  6
CONTINUOUS
 62
     7
100
AcDbLine
 10
125.9458878533169
 20
85.8363882909493
 30
0.0
 11
126.2034581498429
 21
86.17613476616903
 31
0.0
  0
LINE
  5
2E26
330
1F
100
AcDbEntity
  8
1
  6
CONTINUOUS
 62
     7
100
AcDbLine
 10
125.1696696029231
 20
84.68534064394994
 30
0.0
 11
126.3110929624364
 21
86.19094652039571
 31
0.0
  0
LINE
  5
2E27
330
1F
100
AcDbEntity
  8
1
  6
CONTINUOUS
 62
     7
100
AcDbLine
 10
125.6861755148694
 20
85.43889981610342
 30
0.0
 11
125.1304646478221
 21
84.70588189465566
 31
0.0
  0
LINE
  5
2E28
330
1F
100
AcDbEntity
  8
1
  6
CONTINUOUS
 62
     7
100
AcDbLine
 10
125.6861755148694
 20
85.43889981610342
 30
0.0
 11
125.9458878533169
 21
85.8363882909493
 31
0.0
  0
LINE
  5
2E29
330
1F
100
AcDbEntity
  8
1
  6
CONTINUOUS
 62
     7
100
AcDbLine
 10
126.2034581498429
 20
86.17613476616903
 30
0.0
 11
126.3110929624364
 21
86.19094652039571
 31
0.0
  0
ARC
  5
2E2A
330
1F
100
AcDbEntity
  8
1
  6
CONTINUOUS
 62
     7
100
AcDbCircle
 10
126.2870288696604
 20
86.86571313695272
 30
0.0
 40
2.450000000000036
100
AcDbArc
 50
241.8314435878036
 51
242.8665217542561
  0
LINE
  5
2E2B
330
1F
100
AcDbEntity
  8
1
  6
CONTINUOUS
 62
     7
100
AcDbLine
 10
125.0754830883071
 20
85.90187889439626
 30
0.0
 11
125.6861755148694
 21
85.43889981610342
 31
0.0
  0
CIRCLE
  5
2E2C
330
1F
100
AcDbEntity
  8
1
 62
     7
100
AcDbCircle
 10
117.0870288696603
 20
89.36571313695272
 30
0.0
 40
2.52107938131657
  0
CIRCLE
  5
2E2D
330
1F
100
AcDbEntity
  8
1
 62
     7
100
AcDbCircle
 10
126.2870288696604
 20
86.86571313695272
 30
0.0
 40
2.52107938131657
  0
ARC
  5
2E2E
330
1F
100
AcDbEntity
  8
1
  6
CONTINUOUS
 62
     7
100
AcDbCircle
 10
70.80441112356368
 20
82.6157131370501
 30
0.0
 40
1.925000000000021
100
AcDbArc
 50
20.47568169639914
 51
179.5243183035956
  0
SPLINE
  5
2E2F
330
1F
100
AcDbEntity
  8
1
  6
CONTINUOUS
 62
     7
100
AcDbSpline
210
0.0
220
0.0
230
1.0
 70
     8
 71
     3
 72
    12
 73
     8
 74
     0
 42
0.000000001
 43
0.00000001
 40
0.0
 40
0.0
 40
0.0
 40
0.0
 40
0.2093177146531092
 40
0.4190873356804861
 40
0.6302857314824128
 40
0.8448686085559983
 40
1.0
 40
1.0
 40
1.0
 40
1.0
 10
72.60779263406323
 20
83.28909438963048
 30
0.0
 10
72.60510387801753
 20
83.28862308398494
 30
0.0
 10
72.59972056103709
 20
83.28767945516849
 30
0.0
 10
72.55778475356021
 20
83.2802759865399
 30
0.0
 10
72.49575592956364
 20
83.26933763015724
 30
0.0
 10
72.42492908672068
 20
83.2568561745734
 30
0.0
 10
72.37691974854363
 20
83.2483902334102
 30
0.0
 10
72.35677512317227
 20
83.24483794088475
 30
0.0
  0
SPLINE
  5
2E30
330
1F
100
AcDbEntity
  8
1
  6
CONTINUOUS
 62
     7
100
AcDbSpline
210
0.0
220
0.0
230
1.0
 70
     8
 71
     3
 72
    12
 73
     8
 74
     0
 42
0.000000001
 43
0.00000001
 40
0.0
 40
0.0
 40
0.0
 40
0.0
 40
0.2093123953662675
 40
0.4190888045103331
 40
0.6302711642033074
 40
0.8448517876403836
 40
1.0
 40
1.0
 40
1.0
 40
1.0
 10
72.72934140592145
 20
82.5997294199001
 30
0.0
 10
72.72665643757557
 20
82.59925804276556
 30
0.0
 10
72.72128054871644
 20
82.5983142435248
 30
0.0
 10
72.67933148304462
 20
82.59091166256214
 30
0.0
 10
72.6173126026232
 20
82.57997224148995
 30
0.0
 10
72.54648276530963
 20
82.56749036325984
 30
0.0
 10
72.4984709502645
 20
82.55902518763834
 30
0.0
 10
72.47832389503048
 20
82.55547297115437
 30
0.0
  0
ARC
  5
2E31
330
1F
100
AcDbEntity
  8
1
  6
CONTINUOUS
 62
     7
100
AcDbCircle
 10
70.80441112356368
 20
82.6157131370501
 30
0.0
 40
1.925000000000001
100
AcDbArc
 50
200.4756816963997
 51
359.5243183036092
  0
ARC
  5
2E32
330
1F
100
AcDbEntity
  8
1
  6
CONTINUOUS
 62
     7
100
AcDbCircle
 10
71.29110686876368
 20
83.31078669545015
 30
0.0
 40
0.2500000000000081
100
AcDbArc
 50
189.9999999999526
 51
280.0000000000051
  0
LINE
  5
2E33
330
1F
100
AcDbEntity
  8
1
  6
CONTINUOUS
 62
     7
100
AcDbLine
 10
70.95807762766356
 20
83.75977736825008
 30
0.0
 11
71.04490669396375
 21
83.26737594715043
 31
0.0
  0
LINE
  5
2E34
330
1F
100
AcDbEntity
  8
1
  6
CONTINUOUS
 62
     7
100
AcDbLine
 10
70.26871265796365
 20
83.63822114585038
 30
0.0
 11
70.95807762766356
 21
83.75977736825008
 31
0.0
  0
LINE
  5
2E35
330
1F
100
AcDbEntity
  8
1
  6
CONTINUOUS
 62
     7
100
AcDbLine
 10
70.35554172426384
 20
83.14581972475027
 30
0.0
 11
70.26871265796365
 21
83.63822114585038
 31
0.0
  0
ARC
  5
2E36
330
1F
100
AcDbEntity
  8
1
  6
CONTINUOUS
 62
     7
100
AcDbCircle
 10
70.10933756516363
 20
83.10240888225009
 30
0.0
 40
0.2500000000000312
100
AcDbArc
 50
280.0000000000569
 51
10.00000000005747
  0
LINE
  5
2E37
330
1F
100
AcDbEntity
  8
1
  6
CONTINUOUS
 62
     7
100
AcDbLine
 10
72.35677512316363
 20
83.24483794085019
 30
0.0
 11
71.3345182123636
 21
83.06458604455021
 31
0.0
  0
LINE
  5
2E38
330
1F
100
AcDbEntity
  8
1
  6
CONTINUOUS
 62
     7
100
AcDbLine
 10
70.15275182156358
 20
82.85620820635042
 30
0.0
 11
69.13049491076356
 21
82.6759563099504
 31
0.0
  0
ARC
  5
2E39
330
1F
100
AcDbEntity
  8
1
  6
CONTINUOUS
 62
     7
100
AcDbCircle
 10
70.31771537836369
 20
81.92063957865004
 30
0.0
 40
0.2499999999999752
100
AcDbArc
 50
10.00000000005973
 51
99.99999999995315
  0
LINE
  5
2E3A
330
1F
100
AcDbEntity
  8
1
  6
CONTINUOUS
 62
     7
100
AcDbLine
 10
70.65074117806364
 20
81.47164446235003
 30
0.0
 11
70.5639195623636
 21
81.96405333395025
 31
0.0
  0
LINE
  5
2E3B
330
1F
100
AcDbEntity
  8
1
  6
CONTINUOUS
 62
     7
100
AcDbLine
 10
71.25328453216355
 20
82.0856021058503
 30
0.0
 11
71.3401061478636
 21
81.59320068475019
 31
0.0
  0
ARC
  5
2E3C
330
1F
100
AcDbEntity
  8
1
  6
CONTINUOUS
 62
     7
100
AcDbCircle
 10
71.49948468196374
 20
82.1290173918501
 30
0.0
 40
0.2500000000000032
100
AcDbArc
 50
100.000000000005
 51
189.9999999999526
  0
LINE
  5
2E3D
330
1F
100
AcDbEntity
  8
1
  6
CONTINUOUS
 62
     7
100
AcDbLine
 10
72.47832389506368
 20
82.55547297115028
 30
0.0
 11
71.45607443476376
 21
82.37522107475026
 31
0.0
  0
LINE
  5
2E3E
330
1F
100
AcDbEntity
  8
1
  6
CONTINUOUS
 62
     7
100
AcDbLine
 10
70.27430059346364
 20
82.16684323665005
 30
0.0
 11
69.25205113316372
 21
81.98659134025003
 31
0.0
  0
LINE
  5
2E3F
330
1F
100
AcDbEntity
  8
1
  6
CONTINUOUS
 62
     7
100
AcDbLine
 10
71.58072264816371
 20
83.10799312705014
 30
0.0
 11
71.70227142006354
 21
82.41862815735023
 31
0.0
  0
ARC
  5
2E40
330
1F
100
AcDbEntity
  8
1
  6
CONTINUOUS
 62
     7
100
AcDbCircle
 10
70.80441112356368
 20
82.6157131370501
 30
0.0
 40
1.925000000000001
100
AcDbArc
 50
359.5243183036092
 51
20.47568169640053
  0
LINE
  5
2E41
330
1F
100
AcDbEntity
  8
1
  6
CONTINUOUS
 62
     7
100
AcDbLine
 10
71.20986999896388
 20
82.33180654165018
 30
0.0
 11
71.29469485906372
 21
82.27241051315015
 31
0.0
  0
LINE
  5
2E42
330
1F
100
AcDbEntity
  8
1
  6
CONTINUOUS
 62
     7
100
AcDbLine
 10
71.08831377656372
 20
83.02117151135009
 30
0.0
 11
71.20986999896388
 21
82.33180654165018
 31
0.0
  0
LINE
  5
2E43
330
1F
100
AcDbEntity
  8
1
  6
CONTINUOUS
 62
     7
100
AcDbLine
 10
71.08831377656372
 20
83.02117151135009
 30
0.0
 11
71.14770980506376
 21
83.10599637145016
 31
0.0
  0
LINE
  5
2E44
330
1F
100
AcDbEntity
  8
1
  6
CONTINUOUS
 62
     7
100
AcDbLine
 10
71.00149216086368
 20
83.5135729324502
 30
0.0
 11
70.31212719116377
 21
83.39202416055015
 31
0.0
  0
LINE
  5
2E45
330
1F
100
AcDbEntity
  8
1
  6
CONTINUOUS
 62
     7
100
AcDbLine
 10
70.52050502926375
 20
82.21025031914998
 30
0.0
 11
70.46110900076371
 21
82.12542545905036
 31
0.0
  0
LINE
  5
2E46
330
1F
100
AcDbEntity
  8
1
  6
CONTINUOUS
 62
     7
100
AcDbLine
 10
71.20986999896388
 20
82.33180654165018
 30
0.0
 11
70.52050502926375
 21
82.21025031914998
 31
0.0
  0
LINE
  5
2E47
330
1F
100
AcDbEntity
  8
1
  6
CONTINUOUS
 62
     7
100
AcDbLine
 10
70.02810360816386
 20
82.12342870345039
 30
0.0
 11
69.9065473857637
 21
82.81279367325034
 31
0.0
  0
LINE
  5
2E48
330
1F
100
AcDbEntity
  8
1
  6
CONTINUOUS
 62
     7
100
AcDbLine
 10
71.08831377656372
 20
83.02117151135009
 30
0.0
 11
70.39894880686381
 21
82.89961528895039
 31
0.0
  0
LINE
  5
2E49
330
1F
100
AcDbEntity
  8
1
  6
CONTINUOUS
 62
     7
100
AcDbLine
 10
70.39894880686381
 20
82.89961528895039
 30
0.0
 11
70.31412394676374
 21
82.95901131745042
 31
0.0
  0
LINE
  5
2E4A
330
1F
100
AcDbEntity
  8
1
  6
CONTINUOUS
 62
     7
100
AcDbLine
 10
70.52050502926375
 20
82.21025031914998
 30
0.0
 11
70.39894880686381
 21
82.89961528895039
 31
0.0
  0
LINE
  5
2E4B
330
1F
100
AcDbEntity
  8
1
  6
CONTINUOUS
 62
     7
100
AcDbLine
 10
71.3401061478636
 20
81.59320068475019
 30
0.0
 11
70.65074117806364
 21
81.47164446235003
 31
0.0
  0
LINE
  5
2E4C
330
1F
100
AcDbEntity
  8
1
  6
CONTINUOUS
 62
     7
100
AcDbLine
 10
71.2966916146637
 20
81.83940512055007
 30
0.0
 11
70.60732664496356
 21
81.71784889815036
 31
0.0
  0
SPLINE
  5
2E4D
330
1F
100
AcDbEntity
  8
1
  6
CONTINUOUS
 62
     7
100
AcDbSpline
210
0.0
220
0.0
230
1.0
 70
     8
 71
     3
 72
    13
 73
     9
 74
     0
 42
0.000000001
 43
0.00000001
 40
0.0
 40
0.0
 40
0.0
 40
0.0
 40
0.0619255964755553
 40
0.2843670344938834
 40
0.5046378734365987
 40
0.7209770371376174
 40
0.9334202213497128
 40
1.0
 40
1.0
 40
1.0
 40
1.0
 10
69.13049491076993
 20
82.67595630998723
 30
0.0
 10
69.12246795939893
 20
82.6745419633444
 30
0.0
 10
69.08560759006502
 20
82.66804717631841
 30
0.0
 10
69.0210532075613
 20
82.6566584699731
 30
0.0
 10
68.94936743584833
 20
82.64401182603662
 30
0.0
 10
68.89956626353353
 20
82.6352403390206
 30
0.0
 10
68.88096073297868
 20
82.63195662358068
 30
0.0
 10
68.87976316147035
 20
82.6317433108293
 30
0.0
 10
68.87947739987897
 20
82.6316924106609
 30
0.0
  0
ARC
  5
2E4E
102
{ACAD_REACTORS
102
}
330
1F
100
AcDbEntity
  8
1
  6
CONTINUOUS
 62
     7
100
AcDbCircle
 10
70.80441112356368
 20
82.6157131370501
 30
0.0
 40
1.925000000000021
100
AcDbArc
 50
179.5243183035956
 51
200.4756816963991
  0
SPLINE
  5
2E4F
330
1F
100
AcDbEntity
  8
1
  6
CONTINUOUS
 62
     7
100
AcDbSpline
210
0.0
220
0.0
230
1.0
 70
     8
 71
     3
 72
    13
 73
     9
 74
     0
 42
0.000000001
 43
0.00000001
 40
0.0
 40
0.0
 40
0.0
 40
0.0
 40
0.0619252427413735
 40
0.284365410119699
 40
0.5046349908214054
 40
0.7209837301607352
 40
0.9334206016697237
 40
1.0
 40
1.0
 40
1.0
 40
1.0
 10
69.25205113320874
 20
81.98659134025685
 30
0.0
 10
69.24402418992952
 20
81.98517699318155
 30
0.0
 10
69.20716385775165
 20
81.97868220416878
 30
0.0
 10
69.14260863281208
 20
81.96729354286028
 30
0.0
 10
69.07092530711918
 20
81.95464649783027
 30
0.0
 10
69.02111115343212
 20
81.94587572290267
 30
0.0
 10
69.0025176536127
 20
81.94259162603932
 30
0.0
 10
69.00131952263371
 20
81.94237833649233
 30
0.0
 10
69.00103362231778
 20
81.94232744093053
 30
0.0
  0
LINE
  5
2E50
330
1F
100
AcDbEntity
  8
1
  6
CONTINUOUS
 62
     7
100
AcDbLine
 10
73.1772569463136
 20
87.61571359745041
 30
0.0
 11
73.06201881621371
 21
87.61571359745041
 31
0.0
  0
LINE
  5
2E51
330
1F
100
AcDbEntity
  8
1
  6
CONTINUOUS
 62
     7
100
AcDbLine
 10
68.65203506211344
 20
87.61571359745041
 30
0.0
 11
68.5967964575135
 21
87.61571359745041
 31
0.0
  0
LINE
  5
2E52
330
1F
100
AcDbEntity
  8
1
  6
CONTINUOUS
 62
     7
100
AcDbLine
 10
68.5967964575135
 20
87.61571359745041
 30
0.0
 11
68.65203506211344
 21
87.61571359745041
 31
0.0
  0
LINE
  5
2E53
330
1F
100
AcDbEntity
  8
1
  6
CONTINUOUS
 62
     7
100
AcDbLine
 10
73.06201881621371
 20
87.61571359745041
 30
0.0
 11
73.1772569463136
 21
87.61571359745041
 31
0.0
  0
CIRCLE
  5
2E54
330
1F
100
AcDbEntity
  8
1
  6
CONTINUOUS
 62
     7
100
AcDbCircle
 10
70.80441112356368
 20
87.6157131370501
 30
0.0
 40
2.0
  0
ARC
  5
2E55
330
1F
100
AcDbEntity
  8
1
  6
CONTINUOUS
 62
     7
100
AcDbCircle
 10
71.49948468197056
 20
87.12901739184328
 30
0.0
 40
0.2499999999998913
100
AcDbArc
 50
99.99999999985108
 51
190.000000000062
  0
LINE
  5
2E56
330
1F
100
AcDbEntity
  8
1
  6
CONTINUOUS
 62
     7
100
AcDbLine
 10
71.94847486009223
 20
87.46204095199711
 30
0.0
 11
71.45607343902213
 21
87.37521933630116
 31
0.0
  0
LINE
  5
2E57
330
1F
100
AcDbEntity
  8
1
  6
CONTINUOUS
 62
     7
100
AcDbLine
 10
71.33451721658332
 20
88.06458430603153
 30
0.0
 11
71.82692608823402
 21
88.15140592172749
 31
0.0
  0
ARC
  5
2E58
330
1F
100
AcDbEntity
  8
1
  6
CONTINUOUS
 62
     7
100
AcDbCircle
 10
71.2911068687705
 20
88.31078669545742
 30
0.0
 40
0.2500000000000196
100
AcDbArc
 50
189.9999999999471
 51
280.0000000000575
  0
LINE
  5
2E59
330
1F
100
AcDbEntity
  8
1
  6
CONTINUOUS
 62
     7
100
AcDbLine
 10
70.80715694201638
 20
89.61571125216962
 30
0.0
 11
71.0449056982003
 21
88.2673742087186
 31
0.0
  0
ARC
  5
2E5A
330
1F
100
AcDbEntity
  8
1
  6
CONTINUOUS
 62
     7
100
AcDbCircle
 10
70.1093375651568
 20
88.10240888225736
 30
0.0
 40
0.2500000000002567
100
AcDbArc
 50
279.9999999998229
 51
10.00000000004842
  0
LINE
  5
2E5B
330
1F
100
AcDbEntity
  8
1
  6
CONTINUOUS
 62
     7
100
AcDbLine
 10
69.66034940471275
 20
87.76938485220082
 30
0.0
 11
70.15275082578285
 21
87.85620646789677
 31
0.0
  0
LINE
  5
2E5C
330
1F
100
AcDbEntity
  8
1
  6
CONTINUOUS
 62
     7
100
AcDbLine
 10
70.27430704822166
 20
87.16684149816639
 30
0.0
 11
69.78189817657096
 21
87.08001988247044
 31
0.0
  0
ARC
  5
2E5D
330
1F
100
AcDbEntity
  8
1
  6
CONTINUOUS
 62
     7
100
AcDbCircle
 10
70.31771537835687
 20
86.92063957864322
 30
0.0
 40
0.2500000000008314
100
AcDbArc
 50
9.99999999991864
 51
100.0000000001301
  0
LINE
  5
2E5E
330
1F
100
AcDbEntity
  8
1
  6
CONTINUOUS
 62
     7
100
AcDbLine
 10
70.35554072846992
 20
88.1458179862798
 30
0.0
 11
70.11779152267752
 21
89.49415757958197
 31
0.0
  0
SPLINE
  5
2E5F
330
1F
100
AcDbEntity
  8
1
  6
CONTINUOUS
 62
     7
100
AcDbSpline
210
0.0
220
0.0
230
1.0
 70
     8
 71
     3
 72
    12
 73
     8
 74
     0
 42
0.000000001
 43
0.00000001
 40
0.0
 40
0.0
 40
0.0
 40
0.0
 40
0.2098216549734074
 40
0.4196005315510885
 40
0.6307869578605262
 40
0.8453991424402562
 40
1.0
 40
1.0
 40
1.0
 40
1.0
 10
70.13102493276222
 20
89.41909240797169
 30
0.0
 10
70.13150418125008
 20
89.41639431063005
 30
0.0
 10
70.13246258051652
 20
89.41099866603419
 30
0.0
 10
70.1398620903957
 20
89.36895223466128
 30
0.0
 10
70.1508108755637
 20
89.3068866075878
 30
0.0
 10
70.16329845664279
 20
89.23609429791397
 30
0.0
 10
70.1717499372113
 20
89.18815045770545
 30
0.0
 10
70.17528883208854
 20
89.16807489708073
 30
0.0
  0
LINE
  5
2E60
330
1F
100
AcDbEntity
  8
1
  6
CONTINUOUS
 62
     7
100
AcDbLine
 10
69.9065463899575
 20
87.8127919347585
 30
0.0
 11
70.02810261239631
 21
87.12342696502812
 31
0.0
  0
LINE
  5
2E61
330
1F
100
AcDbEntity
  8
1
  6
CONTINUOUS
 62
     7
100
AcDbLine
 10
71.70227787484748
 20
87.41863386943943
 30
0.0
 11
71.58072165240867
 21
88.10799883916981
 31
0.0
  0
LINE
  5
2E62
330
1F
100
AcDbEntity
  8
1
  6
CONTINUOUS
 62
     7
100
AcDbLine
 10
70.31412295093162
 20
87.95901702955372
 30
0.0
 11
70.3989552616082
 21
87.89962100103504
 31
0.0
  0
LINE
  5
2E63
330
1F
100
AcDbEntity
  8
1
  6
CONTINUOUS
 62
     7
100
AcDbLine
 10
70.3989552616082
 20
87.89962100103504
 30
0.0
 11
70.52050403346641
 21
87.21025603130467
 31
0.0
  0
LINE
  5
2E64
330
1F
100
AcDbEntity
  8
1
  6
CONTINUOUS
 62
     7
100
AcDbLine
 10
70.52050403346641
 20
87.21025603130467
 30
0.0
 11
70.46110800494773
 21
87.12543117120869
 31
0.0
  0
LINE
  5
2E65
330
1F
100
AcDbEntity
  8
1
  6
CONTINUOUS
 62
     7
100
AcDbLine
 10
71.29469386329276
 20
87.2724087746442
 30
0.0
 11
71.20986900319679
 21
87.33180480316288
 31
0.0
  0
LINE
  5
2E66
330
1F
100
AcDbEntity
  8
1
  6
CONTINUOUS
 62
     7
100
AcDbLine
 10
71.08832023133857
 20
88.02116977289326
 30
0.0
 11
71.20986900319679
 21
87.33180480316288
 31
0.0
  0
LINE
  5
2E67
330
1F
100
AcDbEntity
  8
1
  6
CONTINUOUS
 62
     7
100
AcDbLine
 10
71.08832023133857
 20
88.02116977289326
 30
0.0
 11
71.14771625985725
 21
88.10600208356983
 31
0.0
  0
LINE
  5
2E68
330
1F
100
AcDbEntity
  8
1
  6
CONTINUOUS
 62
     7
100
AcDbLine
 10
71.20986900319679
 20
87.33180480316288
 30
0.0
 11
70.52050403346641
 21
87.21025603130467
 31
0.0
  0
LINE
  5
2E69
330
1F
100
AcDbEntity
  8
1
  6
CONTINUOUS
 62
     7
100
AcDbLine
 10
70.31212619533164
 20
88.39202242210514
 30
0.0
 11
71.00149116506202
 21
88.51357864454395
 31
0.0
  0
LINE
  5
2E6A
330
1F
100
AcDbEntity
  8
1
  6
CONTINUOUS
 62
     7
100
AcDbLine
 10
70.3989552616082
 20
87.89962100103504
 30
0.0
 11
71.08832023133857
 21
88.02116977289326
 31
0.0
  0
LINE
  5
2E6B
330
1F
100
AcDbEntity
  8
1
  6
CONTINUOUS
 62
     7
100
AcDbLine
 10
71.82692608823402
 20
88.15140592172749
 30
0.0
 11
71.94847486009223
 21
87.46204095199711
 31
0.0
  0
LINE
  5
2E6C
330
1F
100
AcDbEntity
  8
1
  6
CONTINUOUS
 62
     7
100
AcDbLine
 10
71.25328353633506
 20
87.08560781791813
 30
0.0
 11
71.49103254211798
 21
85.73726935892365
 31
0.0
  0
LINE
  5
2E6D
330
1F
100
AcDbEntity
  8
1
  6
CONTINUOUS
 62
     7
100
AcDbLine
 10
69.78189817657096
 20
87.08001988247044
 30
0.0
 11
69.66034940471275
 21
87.76938485220082
 31
0.0
  0
LINE
  5
2E6E
330
1F
100
AcDbEntity
  8
1
  6
CONTINUOUS
 62
     7
100
AcDbLine
 10
70.56391856660468
 20
86.96405159547932
 30
0.0
 11
70.8016672404002
 21
85.61571501927484
 31
0.0
  0
LINE
  5
2E6F
330
1F
100
AcDbEntity
  8
1
  6
CONTINUOUS
 62
     7
100
AcDbLine
 10
71.29669806947334
 20
86.83940338209278
 30
0.0
 11
70.60732564916236
 21
86.71784715965397
 31
0.0
  0
SPLINE
  5
2E70
330
1F
100
AcDbEntity
  8
1
  6
CONTINUOUS
 62
     7
100
AcDbSpline
210
0.0
220
0.0
230
1.0
 70
     8
 71
     3
 72
    12
 73
     8
 74
     0
 42
0.000000001
 43
0.00000001
 40
0.0
 40
0.0
 40
0.0
 40
0.0
 40
0.220244017030651
 40
0.4405790460194884
 40
0.6581572009265503
 40
0.8716754303157345
 40
1.0
 40
1.0
 40
1.0
 40
1.0
 10
71.43353543271644
 20
86.0633509071172
 30
0.0
 10
71.4385907465936
 20
86.03467360958122
 30
0.0
 10
71.44870346336722
 20
85.97730716412072
 30
0.0
 10
71.462138408339
 20
85.90109746014515
 30
0.0
 10
71.4721271530758
 20
85.84449802365272
 30
0.0
 10
71.47713541227779
 20
85.81609580383794
 30
0.0
 10
71.47761270882859
 20
85.81336028445777
 30
0.0
 10
71.47779188146217
 20
85.81233339622624
 30
0.0
  0
SPLINE
  5
2E71
330
1F
100
AcDbEntity
  8
1
  6
CONTINUOUS
 62
     7
100
AcDbSpline
210
0.0
220
0.0
230
1.0
 70
     8
 71
     3
 72
    12
 73
     8
 74
     0
 42
0.000000001
 43
0.00000001
 40
0.0
 40
0.0
 40
0.0
 40
0.0
 40
0.2098265696431332
 40
0.4196003662356225
 40
0.6308029739486368
 40
0.8453974196830538
 40
1.0
 40
1.0
 40
1.0
 40
1.0
 10
70.78842691173179
 20
85.69077717378742
 30
0.0
 10
70.78795167203918
 20
85.69347911247588
 30
0.0
 10
70.78700131218113
 20
85.69888231029337
 30
0.0
 10
70.77958647223943
 20
85.74091507538698
 30
0.0
 10
70.76864051289533
 20
85.80298890933638
 30
0.0
 10
70.7561616389645
 20
85.87377741723141
 30
0.0
 10
70.74770973014995
 20
85.92171898220433
 30
0.0
 10
70.74417046298606
 20
85.94179468467838
 30
0.0
  0
SPLINE
  5
2E72
330
1F
100
AcDbEntity
  8
1
  6
CONTINUOUS
 62
     7
100
AcDbSpline
210
0.0
220
0.0
230
1.0
 70
     8
 71
     3
 72
    12
 73
     8
 74
     0
 42
0.000000001
 43
0.00000001
 40
0.0
 40
0.0
 40
0.0
 40
0.0
 40
0.2098267057637504
 40
0.4195984992487051
 40
0.6308006882366747
 40
0.84539772619429
 40
1.0
 40
1.0
 40
1.0
 40
1.0
 10
70.8203899024926
 20
89.5406486304105
 30
0.0
 10
70.82086906684492
 20
89.53794673454605
 30
0.0
 10
70.82182727015027
 20
89.53254364991064
 30
0.0
 10
70.82922785516541
 20
89.49051059366822
 30
0.0
 10
70.84017456584354
 20
89.42843620673877
 30
0.0
 10
70.85266411049963
 20
89.35764902076927
 30
0.0
 10
70.86111499324863
 20
89.3097068934053
 30
0.0
 10
70.86465380181892
 20
89.28963111951954
 30
0.0
  0
SPLINE
  5
2E73
330
1F
100
AcDbEntity
  8
1
  6
CONTINUOUS
 62
     7
100
AcDbSpline
210
0.0
220
0.0
230
1.0
 70
     8
 71
     3
 72
    13
 73
     9
 74
     0
 42
0.000000001
 43
0.00000001
 40
0.0
 40
0.0
 40
0.0
 40
0.0
 40
0.061914364577025
 40
0.2843564167231151
 40
0.5046381287603324
 40
0.7209777905014423
 40
0.9334201858800846
 40
1.0
 40
1.0
 40
1.0
 40
1.0
 10
69.398663658195
 20
93.5264827024471
 30
0.0
 10
69.39290138027138
 20
93.53224500480566
 30
0.0
 10
69.36643675104062
 20
93.5587097462576
 30
0.0
 10
69.32008428813208
 20
93.60505966430902
 30
0.0
 10
69.2686147465239
 20
93.65654014754865
 30
0.0
 10
69.232859534775
 20
93.69229942852509
 30
0.0
 10
69.21949086927555
 20
93.70564770741886
 30
0.0
 10
69.21863769627373
 20
93.70651318003549
 30
0.0
 10
69.21843411355542
 20
93.70671969766728
 30
0.0
  0
SPLINE
  5
2E74
330
1F
100
AcDbEntity
  8
1
  6
CONTINUOUS
 62
     7
100
AcDbSpline
210
0.0
220
0.0
230
1.0
 70
     8
 71
     3
 72
    12
 73
     8
 74
     0
 42
0.000000001
 43
0.00000001
 40
0.0
 40
0.0
 40
0.0
 40
0.0
 40
0.2093160190199715
 40
0.4190868294988201
 40
0.6302697094471587
 40
0.8448632698421173
 40
1.0
 40
1.0
 40
1.0
 40
1.0
 10
71.89541282086896
 20
91.02973353977315
 30
0.0
 10
71.89348334179715
 20
91.0316630374423
 30
0.0
 10
71.88962019137728
 20
91.0355262250978
 30
0.0
 10
71.85950597996009
 20
91.06564015615596
 30
0.0
 10
71.81497387604361
 20
91.11017333862948
 30
0.0
 10
71.76411568731658
 20
91.16102780889061
 30
0.0
 10
71.72964639537247
 20
91.19550436700594
 30
0.0
 10
71.71518327622937
 20
91.20997053499333
 30
0.0
  0
ARC
  5
2E75
330
1F
100
AcDbEntity
  8
1
  6
CONTINUOUS
 62
     7
100
AcDbCircle
 10
70.80441112356368
 20
92.6157131370501
 30
0.0
 40
1.925000000000032
100
AcDbArc
 50
145.4756816964003
 51
304.5243183036019
  0
SPLINE
  5
2E76
330
1F
100
AcDbEntity
  8
1
  6
CONTINUOUS
 62
     7
100
AcDbSpline
210
0.0
220
0.0
230
1.0
 70
     8
 71
     3
 72
    13
 73
     9
 74
     0
 42
0.000000001
 43
0.00000001
 40
0.0
 40
0.0
 40
0.0
 40
0.0
 40
0.0619273629538652
 40
0.2843682341316168
 40
0.5046378107643609
 40
0.7209763239353673
 40
0.9334212530455448
 40
1.0
 40
1.0
 40
1.0
 40
1.0
 10
69.89364298015164
 20
94.02146202440373
 30
0.0
 10
69.88787805600407
 20
94.0272241627563
 30
0.0
 10
69.86140573066189
 20
94.05368369582904
 30
0.0
 10
69.8150596232291
 20
94.1000410341526
 30
0.0
 10
69.76358464504858
 20
94.15151209492616
 30
0.0
 10
69.7278314901215
 20
94.18726628264587
 30
0.0
 10
69.71446278507358
 20
94.20063475486451
 30
0.0
 10
69.71360957270929
 20
94.20148797856156
 30
0.0
 10
69.71340598493146
 20
94.20169156904332
 30
0.0
  0
ARC
  5
2E77
102
{ACAD_REACTORS
102
}
330
1F
100
AcDbEntity
  8
1
  6
CONTINUOUS
 62
     7
100
AcDbCircle
 10
70.80441112356368
 20
92.6157131370501
 30
0.0
 40
1.925000000000009
100
AcDbArc
 50
325.475681696401
 51
124.524318303592
  0
SPLINE
  5
2E78
330
1F
100
AcDbEntity
  8
1
  6
CONTINUOUS
 62
     7
100
AcDbSpline
210
0.0
220
0.0
230
1.0
 70
     8
 71
     3
 72
    12
 73
     8
 74
     0
 42
0.000000001
 43
0.00000001
 40
0.0
 40
0.0
 40
0.0
 40
0.0
 40
0.2093144363951233
 40
0.4190836608104751
 40
0.6302847873358363
 40
0.8448644428208754
 40
1.0
 40
1.0
 40
1.0
 40
1.0
 10
72.39039214282559
 20
91.52470541114918
 30
0.0
 10
72.3884625232962
 20
91.5266349523031
 30
0.0
 10
72.38459909165579
 20
91.53049822702134
 30
0.0
 10
72.35448604959686
 20
91.5606124506394
 30
0.0
 10
72.30994460174236
 20
91.60514935278844
 30
0.0
 10
72.2590979974915
 20
91.65601162727764
 30
0.0
 10
72.22462169071298
 20
91.69047943115085
 30
0.0
 10
72.2101551476054
 20
91.70494240636937
 30
0.0
  0
ARC
  5
2E79
330
1F
100
AcDbEntity
  8
1
  6
CONTINUOUS
 62
     7
100
AcDbCircle
 10
69.9558829861636
 20
92.6157131370501
 30
0.0
 40
0.250000000000002
100
AcDbArc
 50
314.9999999999908
 51
45.00000000000922
  0
LINE
  5
2E7A
330
1F
100
AcDbEntity
  8
1
  6
CONTINUOUS
 62
     7
100
AcDbLine
 10
69.77910520466378
 20
92.08538395285042
 30
0.0
 11
70.13265760566367
 21
92.43893635385031
 31
0.0
  0
LINE
  5
2E7B
330
1F
100
AcDbEntity
  8
1
  6
CONTINUOUS
 62
     7
100
AcDbLine
 10
70.27408452656357
 20
91.59040463085013
 30
0.0
 11
69.77910520466378
 21
92.08538395285042
 31
0.0
  0
LINE
  5
2E7C
330
1F
100
AcDbEntity
  8
1
  6
CONTINUOUS
 62
     7
100
AcDbLine
 10
70.62763692766373
 20
91.94396448245017
 30
0.0
 11
70.27408452656357
 21
91.59040463085013
 31
0.0
  0
ARC
  5
2E7D
330
1F
100
AcDbEntity
  8
1
  6
CONTINUOUS
 62
     7
100
AcDbCircle
 10
70.80441112356368
 20
91.76718499965001
 30
0.0
 40
0.2500000000000221
100
AcDbArc
 50
44.9999999999954
 51
135.0000000000046
  0
LINE
  5
2E7E
330
1F
100
AcDbEntity
  8
1
  6
CONTINUOUS
 62
     7
100
AcDbLine
 10
71.7151832762637
 20
91.20997053495013
 30
0.0
 11
70.98118932876389
 21
91.94396448245017
 31
0.0
  0
LINE
  5
2E7F
330
1F
100
AcDbEntity
  8
1
  6
CONTINUOUS
 62
     7
100
AcDbLine
 10
70.13265760566367
 20
92.79248875495024
 30
0.0
 11
69.39866365816363
 21
93.52648270245028
 31
0.0
  0
LINE
  5
2E80
330
1F
100
AcDbEntity
  8
1
  6
CONTINUOUS
 62
     7
100
AcDbLine
 10
70.98118932876389
 20
93.28746807685003
 30
0.0
 11
71.33474172976378
 21
93.64102047795042
 31
0.0
  0
ARC
  5
2E81
330
1F
100
AcDbEntity
  8
1
  6
CONTINUOUS
 62
     7
100
AcDbCircle
 10
70.80441112356368
 20
93.46424127455022
 30
0.0
 40
0.250000000000002
100
AcDbArc
 50
224.9999999999908
 51
314.9999999999908
  0
LINE
  5
2E82
330
1F
100
AcDbEntity
  8
1
  6
CONTINUOUS
 62
     7
100
AcDbLine
 10
71.33474172976378
 20
93.64102047795042
 30
0.0
 11
71.82971360116369
 21
93.14604115605017
 31
0.0
  0
ARC
  5
2E83
330
1F
100
AcDbEntity
  8
1
  6
CONTINUOUS
 62
     7
100
AcDbCircle
 10
71.65293926096376
 20
92.6157131370501
 30
0.0
 40
0.250000000000002
100
AcDbArc
 50
135.0000000000092
 51
224.9999999999908
  0
LINE
  5
2E84
330
1F
100
AcDbEntity
  8
1
  6
CONTINUOUS
 62
     7
100
AcDbLine
 10
71.82971360116369
 20
93.14604115605017
 30
0.0
 11
71.47616120006353
 21
92.79248875495024
 31
0.0
  0
LINE
  5
2E85
330
1F
100
AcDbEntity
  8
1
  6
CONTINUOUS
 62
     7
100
AcDbLine
 10
72.21015514756357
 20
91.70494240635027
 30
0.0
 11
71.47616120006353
 21
92.43893635385031
 31
0.0
  0
LINE
  5
2E86
330
1F
100
AcDbEntity
  8
1
  6
CONTINUOUS
 62
     7
100
AcDbLine
 10
70.62763692766373
 20
93.28746807685003
 30
0.0
 11
69.89364298016369
 21
94.02146202445012
 31
0.0
  0
LINE
  5
2E87
330
1F
100
AcDbEntity
  8
1
  6
CONTINUOUS
 62
     7
100
AcDbLine
 10
71.29938872486366
 20
92.61571627965033
 30
0.0
 11
71.40293689396378
 21
92.61571627965033
 31
0.0
  0
LINE
  5
2E88
330
1F
100
AcDbEntity
  8
1
  6
CONTINUOUS
 62
     7
100
AcDbLine
 10
71.29938872486366
 20
92.61571627965033
 30
0.0
 11
70.80440940286383
 21
93.11068815105001
 31
0.0
  0
LINE
  5
2E89
330
1F
100
AcDbEntity
  8
1
  6
CONTINUOUS
 62
     7
100
AcDbLine
 10
70.80440940286383
 20
93.11068815105001
 30
0.0
 11
70.80440940286383
 21
93.21424377075029
 31
0.0
  0
LINE
  5
2E8A
330
1F
100
AcDbEntity
  8
1
  6
CONTINUOUS
 62
     7
100
AcDbLine
 10
71.6529411259636
 20
92.96926868075026
 30
0.0
 11
71.15796180396376
 21
93.4642405521504
 31
0.0
  0
LINE
  5
2E8B
330
1F
100
AcDbEntity
  8
1
  6
CONTINUOUS
 62
     7
100
AcDbLine
 10
69.9558851304638
 20
92.96926868075026
 30
0.0
 11
70.45085700186371
 21
93.4642405521504
 31
0.0
  0
LINE
  5
2E8C
330
1F
100
AcDbEntity
  8
1
  6
CONTINUOUS
 62
     7
100
AcDbLine
 10
70.30943753156373
 20
92.61571627965033
 30
0.0
 11
70.80440940286383
 21
93.11068815105001
 31
0.0
  0
LINE
  5
2E8D
330
1F
100
AcDbEntity
  8
1
  6
CONTINUOUS
 62
     7
100
AcDbLine
 10
70.30943753156373
 20
92.61571627965033
 30
0.0
 11
70.20588191176387
 21
92.61571627965033
 31
0.0
  0
LINE
  5
2E8E
330
1F
100
AcDbEntity
  8
1
  6
CONTINUOUS
 62
     7
100
AcDbLine
 10
71.6529411259636
 20
92.26215642805029
 30
0.0
 11
71.15796180396376
 21
91.76718455665015
 31
0.0
  0
ARC
  5
2E8F
330
1F
100
AcDbEntity
  8
1
  6
CONTINUOUS
 62
     7
100
AcDbCircle
 10
70.80441112356368
 20
92.6157131370501
 30
0.0
 40
1.925000000000009
100
AcDbArc
 50
304.5243183036023
 51
325.475681696401
  0
LINE
  5
2E90
330
1F
100
AcDbEntity
  8
1
  6
CONTINUOUS
 62
     7
100
AcDbLine
 10
70.45085700186371
 20
91.76718455665015
 30
0.0
 11
69.9558851304638
 21
92.26215642805029
 31
0.0
  0
LINE
  5
2E91
330
1F
100
AcDbEntity
  8
1
  6
CONTINUOUS
 62
     7
100
AcDbLine
 10
70.80440940286383
 20
92.12073695775008
 30
0.0
 11
70.30943753156373
 21
92.61571627965033
 31
0.0
  0
LINE
  5
2E92
330
1F
100
AcDbEntity
  8
1
  6
CONTINUOUS
 62
     7
100
AcDbLine
 10
70.80440940286383
 20
92.12073695775008
 30
0.0
 11
70.80440940286383
 21
92.01718133805026
 31
0.0
  0
LINE
  5
2E93
330
1F
100
AcDbEntity
  8
1
  6
CONTINUOUS
 62
     7
100
AcDbLine
 10
71.29938872486366
 20
92.61571627965033
 30
0.0
 11
70.80440940286383
 21
92.12073695775008
 31
0.0
  0
ARC
  5
2E94
330
1F
100
AcDbEntity
  8
1
  6
CONTINUOUS
 62
     7
100
AcDbCircle
 10
70.80441112356368
 20
92.6157131370501
 30
0.0
 40
1.925000000000009
100
AcDbArc
 50
124.524318303592
 51
145.475681696401
  0
SPLINE
  5
2E95
330
1F
100
AcDbEntity
  8
1
  6
CONTINUOUS
 62
     7
100
AcDbSpline
210
0.0
220
0.0
230
1.0
 70
     8
 71
     3
 72
    13
 73
     9
 74
     0
 42
0.000000001
 43
0.00000001
 40
0.0
 40
0.0
 40
0.0
 40
0.0
 40
0.061914364577025
 40
0.2843564167231151
 40
0.5046381287603324
 40
0.7209777905014423
 40
0.9334201858800846
 40
1.0
 40
1.0
 40
1.0
 40
1.0
 10
147.4439013395949
 20
93.5264827024471
 30
0.0
 10
147.4381390616713
 20
93.53224500480566
 30
0.0
 10
147.4116744324405
 20
93.5587097462576
 30
0.0
 10
147.365321969532
 20
93.60505966430902
 30
0.0
 10
147.3138524279238
 20
93.65654014754865
 30
0.0
 10
147.2780972161749
 20
93.69229942852509
 30
0.0
 10
147.2647285506754
 20
93.70564770741886
 30
0.0
 10
147.2638753776736
 20
93.70651318003549
 30
0.0
 10
147.2636717949553
 20
93.70671969766728
 30
0.0
  0
SPLINE
  5
2E96
330
1F
100
AcDbEntity
  8
1
  6
CONTINUOUS
 62
     7
100
AcDbSpline
210
0.0
220
0.0
230
1.0
 70
     8
 71
     3
 72
    12
 73
     8
 74
     0
 42
0.000000001
 43
0.00000001
 40
0.0
 40
0.0
 40
0.0
 40
0.0
 40
0.2093160190199715
 40
0.4190868294988201
 40
0.6302697094471587
 40
0.8448632698421173
 40
1.0
 40
1.0
 40
1.0
 40
1.0
 10
149.9406505022689
 20
91.02973353977315
 30
0.0
 10
149.938721023197
 20
91.0316630374423
 30
0.0
 10
149.9348578727772
 20
91.0355262250978
 30
0.0
 10
149.90474366136
 20
91.06564015615596
 30
0.0
 10
149.8602115574435
 20
91.11017333862948
 30
0.0
 10
149.8093533687165
 20
91.16102780889061
 30
0.0
 10
149.7748840767724
 20
91.19550436700594
 30
0.0
 10
149.7604209576293
 20
91.20997053499333
 30
0.0
  0
ARC
  5
2E97
102
{ACAD_REACTORS
102
}
330
1F
100
AcDbEntity
  8
1
  6
CONTINUOUS
 62
     7
100
AcDbCircle
 10
148.8496488049636
 20
92.6157131370501
 30
0.0
 40
1.925000000000032
100
AcDbArc
 50
145.4756816964003
 51
304.5243183036039
  0
SPLINE
  5
2E98
330
1F
100
AcDbEntity
  8
1
  6
CONTINUOUS
 62
     7
100
AcDbSpline
210
0.0
220
0.0
230
1.0
 70
     8
 71
     3
 72
    13
 73
     9
 74
     0
 42
0.000000001
 43
0.00000001
 40
0.0
 40
0.0
 40
0.0
 40
0.0
 40
0.0619273629538652
 40
0.2843682341316168
 40
0.5046378107643609
 40
0.7209763239353673
 40
0.9334212530455448
 40
1.0
 40
1.0
 40
1.0
 40
1.0
 10
147.9388806615515
 20
94.02146202440373
 30
0.0
 10
147.933115737404
 20
94.0272241627563
 30
0.0
 10
147.9066434120618
 20
94.05368369582904
 30
0.0
 10
147.860297304629
 20
94.1000410341526
 30
0.0
 10
147.8088223264485
 20
94.15151209492616
 30
0.0
 10
147.7730691715214
 20
94.18726628264587
 30
0.0
 10
147.7597004664735
 20
94.20063475486451
 30
0.0
 10
147.7588472541092
 20
94.20148797856156
 30
0.0
 10
147.7586436663314
 20
94.20169156904332
 30
0.0
  0
ARC
  5
2E99
330
1F
100
AcDbEntity
  8
1
  6
CONTINUOUS
 62
     7
100
AcDbCircle
 10
148.8496488049636
 20
92.6157131370501
 30
0.0
 40
1.925000000000009
100
AcDbArc
 50
325.475681696401
 51
124.524318303588
  0
SPLINE
  5
2E9A
330
1F
100
AcDbEntity
  8
1
  6
CONTINUOUS
 62
     7
100
AcDbSpline
210
0.0
220
0.0
230
1.0
 70
     8
 71
     3
 72
    12
 73
     8
 74
     0
 42
0.000000001
 43
0.00000001
 40
0.0
 40
0.0
 40
0.0
 40
0.0
 40
0.2093144363951233
 40
0.4190836608104751
 40
0.6302847873358363
 40
0.8448644428208754
 40
1.0
 40
1.0
 40
1.0
 40
1.0
 10
150.4356298242255
 20
91.52470541114918
 30
0.0
 10
150.4337002046961
 20
91.5266349523031
 30
0.0
 10
150.4298367730557
 20
91.53049822702134
 30
0.0
 10
150.3997237309968
 20
91.5606124506394
 30
0.0
 10
150.3551822831423
 20
91.60514935278844
 30
0.0
 10
150.3043356788914
 20
91.65601162727764
 30
0.0
 10
150.2698593721129
 20
91.69047943115085
 30
0.0
 10
150.2553928290053
 20
91.70494240636937
 30
0.0
  0
ARC
  5
2E9B
330
1F
100
AcDbEntity
  8
1
  6
CONTINUOUS
 62
     7
100
AcDbCircle
 10
148.0011206675635
 20
92.6157131370501
 30
0.0
 40
0.250000000000002
100
AcDbArc
 50
315.0000000000092
 51
44.99999999999078
  0
LINE
  5
2E9C
330
1F
100
AcDbEntity
  8
1
  6
CONTINUOUS
 62
     7
100
AcDbLine
 10
147.8243428860637
 20
92.08538395285042
 30
0.0
 11
148.1778952870636
 21
92.43893635385031
 31
0.0
  0
LINE
  5
2E9D
330
1F
100
AcDbEntity
  8
1
  6
CONTINUOUS
 62
     7
100
AcDbLine
 10
148.3193222079635
 20
91.59040463085013
 30
0.0
 11
147.8243428860637
 21
92.08538395285042
 31
0.0
  0
LINE
  5
2E9E
330
1F
100
AcDbEntity
  8
1
  6
CONTINUOUS
 62
     7
100
AcDbLine
 10
148.6728746090636
 20
91.94396448245017
 30
0.0
 11
148.3193222079635
 21
91.59040463085013
 31
0.0
  0
ARC
  5
2E9F
330
1F
100
AcDbEntity
  8
1
  6
CONTINUOUS
 62
     7
100
AcDbCircle
 10
148.8496488049636
 20
91.76718499965001
 30
0.0
 40
0.2500000000000221
100
AcDbArc
 50
44.9999999999954
 51
134.9999999999701
  0
LINE
  5
2EA0
330
1F
100
AcDbEntity
  8
1
  6
CONTINUOUS
 62
     7
100
AcDbLine
 10
149.7604209576636
 20
91.20997053495013
 30
0.0
 11
149.0264270101638
 21
91.94396448245017
 31
0.0
  0
LINE
  5
2EA1
330
1F
100
AcDbEntity
  8
1
  6
CONTINUOUS
 62
     7
100
AcDbLine
 10
148.1778952870636
 20
92.79248875495024
 30
0.0
 11
147.4439013395635
 21
93.52648270245028
 31
0.0
  0
LINE
  5
2EA2
330
1F
100
AcDbEntity
  8
1
  6
CONTINUOUS
 62
     7
100
AcDbLine
 10
149.0264270101638
 20
93.28746807685003
 30
0.0
 11
149.3799794111637
 21
93.64102047795042
 31
0.0
  0
ARC
  5
2EA3
330
1F
100
AcDbEntity
  8
1
  6
CONTINUOUS
 62
     7
100
AcDbCircle
 10
148.8496488049636
 20
93.46424127455022
 30
0.0
 40
0.250000000000002
100
AcDbArc
 50
225.0000000000253
 51
315.0000000000092
  0
LINE
  5
2EA4
330
1F
100
AcDbEntity
  8
1
  6
CONTINUOUS
 62
     7
100
AcDbLine
 10
149.3799794111637
 20
93.64102047795042
 30
0.0
 11
149.8749512825636
 21
93.14604115605017
 31
0.0
  0
ARC
  5
2EA5
330
1F
100
AcDbEntity
  8
1
  6
CONTINUOUS
 62
     7
100
AcDbCircle
 10
149.6981769423637
 20
92.6157131370501
 30
0.0
 40
0.250000000000002
100
AcDbArc
 50
134.9999999999747
 51
225.0000000000253
  0
LINE
  5
2EA6
330
1F
100
AcDbEntity
  8
1
  6
CONTINUOUS
 62
     7
100
AcDbLine
 10
149.8749512825636
 20
93.14604115605017
 30
0.0
 11
149.5213988814634
 21
92.79248875495024
 31
0.0
  0
LINE
  5
2EA7
330
1F
100
AcDbEntity
  8
1
  6
CONTINUOUS
 62
     7
100
AcDbLine
 10
150.2553928289635
 20
91.70494240635027
 30
0.0
 11
149.5213988814634
 21
92.43893635385031
 31
0.0
  0
LINE
  5
2EA8
330
1F
100
AcDbEntity
  8
1
  6
CONTINUOUS
 62
     7
100
AcDbLine
 10
148.6728746090636
 20
93.28746807685003
 30
0.0
 11
147.9388806615636
 21
94.02146202445012
 31
0.0
  0
LINE
  5
2EA9
330
1F
100
AcDbEntity
  8
1
  6
CONTINUOUS
 62
     7
100
AcDbLine
 10
149.3446264062636
 20
92.61571627965033
 30
0.0
 11
149.4481745753637
 21
92.61571627965033
 31
0.0
  0
LINE
  5
2EAA
330
1F
100
AcDbEntity
  8
1
  6
CONTINUOUS
 62
     7
100
AcDbLine
 10
149.3446264062636
 20
92.61571627965033
 30
0.0
 11
148.8496470842637
 21
93.11068815105001
 31
0.0
  0
LINE
  5
2EAB
330
1F
100
AcDbEntity
  8
1
  6
CONTINUOUS
 62
     7
100
AcDbLine
 10
148.8496470842637
 20
93.11068815105001
 30
0.0
 11
148.8496470842637
 21
93.21424377075029
 31
0.0
  0
LINE
  5
2EAC
330
1F
100
AcDbEntity
  8
1
  6
CONTINUOUS
 62
     7
100
AcDbLine
 10
149.6981788073635
 20
92.96926868075026
 30
0.0
 11
149.2031994853637
 21
93.4642405521504
 31
0.0
  0
LINE
  5
2EAD
330
1F
100
AcDbEntity
  8
1
  6
CONTINUOUS
 62
     7
100
AcDbLine
 10
148.0011228118637
 20
92.96926868075026
 30
0.0
 11
148.4960946832636
 21
93.4642405521504
 31
0.0
  0
LINE
  5
2EAE
330
1F
100
AcDbEntity
  8
1
  6
CONTINUOUS
 62
     7
100
AcDbLine
 10
148.3546752129636
 20
92.61571627965033
 30
0.0
 11
148.8496470842637
 21
93.11068815105001
 31
0.0
  0
LINE
  5
2EAF
330
1F
100
AcDbEntity
  8
1
  6
CONTINUOUS
 62
     7
100
AcDbLine
 10
148.3546752129636
 20
92.61571627965033
 30
0.0
 11
148.2511195931638
 21
92.61571627965033
 31
0.0
  0
LINE
  5
2EB0
330
1F
100
AcDbEntity
  8
1
  6
CONTINUOUS
 62
     7
100
AcDbLine
 10
149.6981788073635
 20
92.26215642805029
 30
0.0
 11
149.2031994853637
 21
91.76718455665015
 31
0.0
  0
ARC
  5
2EB1
330
1F
100
AcDbEntity
  8
1
  6
CONTINUOUS
 62
     7
100
AcDbCircle
 10
148.8496488049636
 20
92.6157131370501
 30
0.0
 40
1.925000000000009
100
AcDbArc
 50
304.5243183036042
 51
325.475681696401
  0
LINE
  5
2EB2
330
1F
100
AcDbEntity
  8
1
  6
CONTINUOUS
 62
     7
100
AcDbLine
 10
148.4960946832636
 20
91.76718455665015
 30
0.0
 11
148.0011228118637
 21
92.26215642805029
 31
0.0
  0
LINE
  5
2EB3
330
1F
100
AcDbEntity
  8
1
  6
CONTINUOUS
 62
     7
100
AcDbLine
 10
148.8496470842637
 20
92.12073695775008
 30
0.0
 11
148.3546752129636
 21
92.61571627965033
 31
0.0
  0
LINE
  5
2EB4
330
1F
100
AcDbEntity
  8
1
  6
CONTINUOUS
 62
     7
100
AcDbLine
 10
148.8496470842637
 20
92.12073695775008
 30
0.0
 11
148.8496470842637
 21
92.01718133805026
 31
0.0
  0
LINE
  5
2EB5
330
1F
100
AcDbEntity
  8
1
  6
CONTINUOUS
 62
     7
100
AcDbLine
 10
149.3446264062636
 20
92.61571627965033
 30
0.0
 11
148.8496470842637
 21
92.12073695775008
 31
0.0
  0
ARC
  5
2EB6
330
1F
100
AcDbEntity
  8
1
  6
CONTINUOUS
 62
     7
100
AcDbCircle
 10
148.8496488049636
 20
92.6157131370501
 30
0.0
 40
1.925000000000009
100
AcDbArc
 50
124.524318303588
 51
145.4756816963979
  0
LINE
  5
2EB7
330
1F
100
AcDbEntity
  8
1
  6
CONTINUOUS
 62
     7
100
AcDbLine
 10
151.0772577943137
 20
87.61571359745041
 30
0.0
 11
151.0220201210138
 21
87.61571359745041
 31
0.0
  0
LINE
  5
2EB8
330
1F
100
AcDbEntity
  8
1
  6
CONTINUOUS
 62
     7
100
AcDbLine
 10
151.0220201210138
 20
87.61571359745041
 30
0.0
 11
151.0772577943137
 21
87.61571359745041
 31
0.0
  0
CIRCLE
  5
2EB9
330
1F
100
AcDbEntity
  8
1
  6
CONTINUOUS
 62
     7
100
AcDbCircle
 10
148.8496488049636
 20
87.6157131370501
 30
0.0
 40
2.0
  0
ARC
  5
2EBA
330
1F
100
AcDbEntity
  8
1
  6
CONTINUOUS
 62
     7
100
AcDbCircle
 10
149.5447223633705
 20
87.12901739184328
 30
0.0
 40
0.2499999999998913
100
AcDbArc
 50
99.99999999985108
 51
190.000000000062
  0
LINE
  5
2EBB
330
1F
100
AcDbEntity
  8
1
  6
CONTINUOUS
 62
     7
100
AcDbLine
 10
149.9937125414921
 20
87.46204095199711
 30
0.0
 11
149.501311120422
 21
87.37521933630116
 31
0.0
  0
LINE
  5
2EBC
330
1F
100
AcDbEntity
  8
1
  6
CONTINUOUS
 62
     7
100
AcDbLine
 10
149.3797548979832
 20
88.06458430603153
 30
0.0
 11
149.8721637696339
 21
88.15140592172749
 31
0.0
  0
ARC
  5
2EBD
330
1F
100
AcDbEntity
  8
1
  6
CONTINUOUS
 62
     7
100
AcDbCircle
 10
149.3363445501704
 20
88.31078669545742
 30
0.0
 40
0.2500000000000196
100
AcDbArc
 50
189.9999999999526
 51
280.0000000000575
  0
LINE
  5
2EBE
330
1F
100
AcDbEntity
  8
1
  6
CONTINUOUS
 62
     7
100
AcDbLine
 10
148.8523946234163
 20
89.61571125216962
 30
0.0
 11
149.0901433796002
 21
88.2673742087186
 31
0.0
  0
ARC
  5
2EBF
330
1F
100
AcDbEntity
  8
1
  6
CONTINUOUS
 62
     7
100
AcDbCircle
 10
148.1545752465567
 20
88.10240888225736
 30
0.0
 40
0.2500000000002567
100
AcDbArc
 50
279.9999999998358
 51
10.00000000005163
  0
LINE
  5
2EC0
330
1F
100
AcDbEntity
  8
1
  6
CONTINUOUS
 62
     7
100
AcDbLine
 10
147.7055870861126
 20
87.76938485220082
 30
0.0
 11
148.1979885071827
 21
87.85620646789677
 31
0.0
  0
LINE
  5
2EC1
330
1F
100
AcDbEntity
  8
1
  6
CONTINUOUS
 62
     7
100
AcDbLine
 10
148.3195447296216
 20
87.16684149816639
 30
0.0
 11
147.8271358579709
 21
87.08001988247044
 31
0.0
  0
ARC
  5
2EC2
330
1F
100
AcDbEntity
  8
1
  6
CONTINUOUS
 62
     7
100
AcDbCircle
 10
148.3629530597568
 20
86.92063957864322
 30
0.0
 40
0.2500000000008314
100
AcDbArc
 50
9.999999999925054
 51
100.0000000001301
  0
LINE
  5
2EC3
330
1F
100
AcDbEntity
  8
1
  6
CONTINUOUS
 62
     7
100
AcDbLine
 10
148.4007784098698
 20
88.1458179862798
 30
0.0
 11
148.1630292040774
 21
89.49415757958197
 31
0.0
  0
SPLINE
  5
2EC4
330
1F
100
AcDbEntity
  8
1
  6
CONTINUOUS
 62
     7
100
AcDbSpline
210
0.0
220
0.0
230
1.0
 70
     8
 71
     3
 72
    12
 73
     8
 74
     0
 42
0.000000001
 43
0.00000001
 40
0.0
 40
0.0
 40
0.0
 40
0.0
 40
0.2098216549734074
 40
0.4196005315510885
 40
0.6307869578605262
 40
0.8453991424402562
 40
1.0
 40
1.0
 40
1.0
 40
1.0
 10
148.1762626141621
 20
89.41909240797169
 30
0.0
 10
148.17674186265
 20
89.41639431063005
 30
0.0
 10
148.1777002619164
 20
89.41099866603419
 30
0.0
 10
148.1850997717956
 20
89.36895223466128
 30
0.0
 10
148.1960485569636
 20
89.3068866075878
 30
0.0
 10
148.2085361380427
 20
89.23609429791397
 30
0.0
 10
148.2169876186112
 20
89.18815045770545
 30
0.0
 10
148.2205265134884
 20
89.16807489708073
 30
0.0
  0
LINE
  5
2EC5
330
1F
100
AcDbEntity
  8
1
  6
CONTINUOUS
 62
     7
100
AcDbLine
 10
147.9517840713574
 20
87.8127919347585
 30
0.0
 11
148.0733402937962
 21
87.12342696502812
 31
0.0
  0
LINE
  5
2EC6
330
1F
100
AcDbEntity
  8
1
  6
CONTINUOUS
 62
     7
100
AcDbLine
 10
149.7475155562474
 20
87.41863386943943
 30
0.0
 11
149.6259593338086
 21
88.10799883916981
 31
0.0
  0
LINE
  5
2EC7
330
1F
100
AcDbEntity
  8
1
  6
CONTINUOUS
 62
     7
100
AcDbLine
 10
148.3593606323315
 20
87.95901702955372
 30
0.0
 11
148.4441929430081
 21
87.89962100103504
 31
0.0
  0
LINE
  5
2EC8
330
1F
100
AcDbEntity
  8
1
  6
CONTINUOUS
 62
     7
100
AcDbLine
 10
148.4441929430081
 20
87.89962100103504
 30
0.0
 11
148.5657417148663
 21
87.21025603130467
 31
0.0
  0
LINE
  5
2EC9
330
1F
100
AcDbEntity
  8
1
  6
CONTINUOUS
 62
     7
100
AcDbLine
 10
148.5657417148663
 20
87.21025603130467
 30
0.0
 11
148.5063456863476
 21
87.12543117120869
 31
0.0
  0
LINE
  5
2ECA
330
1F
100
AcDbEntity
  8
1
  6
CONTINUOUS
 62
     7
100
AcDbLine
 10
149.3399315446927
 20
87.2724087746442
 30
0.0
 11
149.2551066845967
 21
87.33180480316288
 31
0.0
  0
LINE
  5
2ECB
330
1F
100
AcDbEntity
  8
1
  6
CONTINUOUS
 62
     7
100
AcDbLine
 10
149.1335579127385
 20
88.02116977289326
 30
0.0
 11
149.2551066845967
 21
87.33180480316288
 31
0.0
  0
LINE
  5
2ECC
330
1F
100
AcDbEntity
  8
1
  6
CONTINUOUS
 62
     7
100
AcDbLine
 10
149.1335579127385
 20
88.02116977289326
 30
0.0
 11
149.1929539412571
 21
88.10600208356983
 31
0.0
  0
LINE
  5
2ECD
330
1F
100
AcDbEntity
  8
1
  6
CONTINUOUS
 62
     7
100
AcDbLine
 10
149.2551066845967
 20
87.33180480316288
 30
0.0
 11
148.5657417148663
 21
87.21025603130467
 31
0.0
  0
LINE
  5
2ECE
330
1F
100
AcDbEntity
  8
1
  6
CONTINUOUS
 62
     7
100
AcDbLine
 10
148.3573638767315
 20
88.39202242210514
 30
0.0
 11
149.0467288464619
 21
88.51357864454395
 31
0.0
  0
LINE
  5
2ECF
330
1F
100
AcDbEntity
  8
1
  6
CONTINUOUS
 62
     7
100
AcDbLine
 10
148.4441929430081
 20
87.89962100103504
 30
0.0
 11
149.1335579127385
 21
88.02116977289326
 31
0.0
  0
LINE
  5
2ED0
330
1F
100
AcDbEntity
  8
1
  6
CONTINUOUS
 62
     7
100
AcDbLine
 10
149.8721637696339
 20
88.15140592172749
 30
0.0
 11
149.9937125414921
 21
87.46204095199711
 31
0.0
  0
LINE
  5
2ED1
330
1F
100
AcDbEntity
  8
1
  6
CONTINUOUS
 62
     7
100
AcDbLine
 10
149.298521217735
 20
87.08560781791813
 30
0.0
 11
149.5362702235179
 21
85.73726935892365
 31
0.0
  0
LINE
  5
2ED2
330
1F
100
AcDbEntity
  8
1
  6
CONTINUOUS
 62
     7
100
AcDbLine
 10
147.8271358579709
 20
87.08001988247044
 30
0.0
 11
147.7055870861126
 21
87.76938485220082
 31
0.0
  0
LINE
  5
2ED3
330
1F
100
AcDbEntity
  8
1
  6
CONTINUOUS
 62
     7
100
AcDbLine
 10
148.6091562480046
 20
86.96405159547932
 30
0.0
 11
148.8469049218001
 21
85.61571501927484
 31
0.0
  0
LINE
  5
2ED4
330
1F
100
AcDbEntity
  8
1
  6
CONTINUOUS
 62
     7
100
AcDbLine
 10
149.3419357508732
 20
86.83940338209278
 30
0.0
 11
148.6525633305623
 21
86.71784715965397
 31
0.0
  0
SPLINE
  5
2ED5
330
1F
100
AcDbEntity
  8
1
  6
CONTINUOUS
 62
     7
100
AcDbSpline
210
0.0
220
0.0
230
1.0
 70
     8
 71
     3
 72
    12
 73
     8
 74
     0
 42
0.000000001
 43
0.00000001
 40
0.0
 40
0.0
 40
0.0
 40
0.0
 40
0.220244017030651
 40
0.4405790460194884
 40
0.6581572009265503
 40
0.8716754303157345
 40
1.0
 40
1.0
 40
1.0
 40
1.0
 10
149.4787731141163
 20
86.0633509071172
 30
0.0
 10
149.4838284279935
 20
86.03467360958122
 30
0.0
 10
149.4939411447671
 20
85.97730716412072
 30
0.0
 10
149.5073760897389
 20
85.90109746014515
 30
0.0
 10
149.5173648344757
 20
85.84449802365272
 30
0.0
 10
149.5223730936777
 20
85.81609580383794
 30
0.0
 10
149.5228503902285
 20
85.81336028445777
 30
0.0
 10
149.5230295628621
 20
85.81233339622624
 30
0.0
  0
SPLINE
  5
2ED6
330
1F
100
AcDbEntity
  8
1
  6
CONTINUOUS
 62
     7
100
AcDbSpline
210
0.0
220
0.0
230
1.0
 70
     8
 71
     3
 72
    12
 73
     8
 74
     0
 42
0.000000001
 43
0.00000001
 40
0.0
 40
0.0
 40
0.0
 40
0.0
 40
0.2098265696431332
 40
0.4196003662356225
 40
0.6308029739486368
 40
0.8453974196830538
 40
1.0
 40
1.0
 40
1.0
 40
1.0
 10
148.8336645931317
 20
85.69077717378742
 30
0.0
 10
148.8331893534391
 20
85.69347911247588
 30
0.0
 10
148.832238993581
 20
85.69888231029337
 30
0.0
 10
148.8248241536393
 20
85.74091507538698
 30
0.0
 10
148.8138781942952
 20
85.80298890933638
 30
0.0
 10
148.8013993203644
 20
85.87377741723141
 30
0.0
 10
148.7929474115498
 20
85.92171898220433
 30
0.0
 10
148.789408144386
 20
85.94179468467838
 30
0.0
  0
SPLINE
  5
2ED7
330
1F
100
AcDbEntity
  8
1
  6
CONTINUOUS
 62
     7
100
AcDbSpline
210
0.0
220
0.0
230
1.0
 70
     8
 71
     3
 72
    12
 73
     8
 74
     0
 42
0.000000001
 43
0.00000001
 40
0.0
 40
0.0
 40
0.0
 40
0.0
 40
0.2098267057637504
 40
0.4195984992487051
 40
0.6308006882366747
 40
0.84539772619429
 40
1.0
 40
1.0
 40
1.0
 40
1.0
 10
148.8656275838925
 20
89.5406486304105
 30
0.0
 10
148.8661067482448
 20
89.53794673454605
 30
0.0
 10
148.8670649515502
 20
89.53254364991064
 30
0.0
 10
148.8744655365653
 20
89.49051059366822
 30
0.0
 10
148.8854122472434
 20
89.42843620673877
 30
0.0
 10
148.8979017918995
 20
89.35764902076927
 30
0.0
 10
148.9063526746485
 20
89.3097068934053
 30
0.0
 10
148.9098914832188
 20
89.28963111951954
 30
0.0
  0
ARC
  5
2ED8
330
1F
100
AcDbEntity
  8
1
  6
CONTINUOUS
 62
     7
100
AcDbCircle
 10
148.8496488049636
 20
82.6157131370501
 30
0.0
 40
1.925000000000021
100
AcDbArc
 50
20.47568169640132
 51
179.5243183035956
  0
SPLINE
  5
2ED9
330
1F
100
AcDbEntity
  8
1
  6
CONTINUOUS
 62
     7
100
AcDbSpline
210
0.0
220
0.0
230
1.0
 70
     8
 71
     3
 72
    12
 73
     8
 74
     0
 42
0.000000001
 43
0.00000001
 40
0.0
 40
0.0
 40
0.0
 40
0.0
 40
0.2093177146531092
 40
0.4190873356804861
 40
0.6302857314824128
 40
0.8448686085559983
 40
1.0
 40
1.0
 40
1.0
 40
1.0
 10
150.6530303154631
 20
83.28909438963048
 30
0.0
 10
150.6503415594174
 20
83.28862308398494
 30
0.0
 10
150.644958242437
 20
83.28767945516849
 30
0.0
 10
150.6030224349601
 20
83.2802759865399
 30
0.0
 10
150.5409936109635
 20
83.26933763015724
 30
0.0
 10
150.4701667681206
 20
83.2568561745734
 30
0.0
 10
150.4221574299435
 20
83.2483902334102
 30
0.0
 10
150.4020128045722
 20
83.24483794088475
 30
0.0
  0
SPLINE
  5
2EDA
330
1F
100
AcDbEntity
  8
1
  6
CONTINUOUS
 62
     7
100
AcDbSpline
210
0.0
220
0.0
230
1.0
 70
     8
 71
     3
 72
    12
 73
     8
 74
     0
 42
0.000000001
 43
0.00000001
 40
0.0
 40
0.0
 40
0.0
 40
0.0
 40
0.2093123953662675
 40
0.4190888045103331
 40
0.6302711642033074
 40
0.8448517876403836
 40
1.0
 40
1.0
 40
1.0
 40
1.0
 10
150.7745790873213
 20
82.5997294199001
 30
0.0
 10
150.7718941189755
 20
82.59925804276556
 30
0.0
 10
150.7665182301163
 20
82.5983142435248
 30
0.0
 10
150.7245691644445
 20
82.59091166256214
 30
0.0
 10
150.6625502840231
 20
82.57997224148995
 30
0.0
 10
150.5917204467095
 20
82.56749036325984
 30
0.0
 10
150.5437086316644
 20
82.55902518763834
 30
0.0
 10
150.5235615764304
 20
82.55547297115437
 30
0.0
  0
ARC
  5
2EDB
330
1F
100
AcDbEntity
  8
1
  6
CONTINUOUS
 62
     7
100
AcDbCircle
 10
148.8496488049636
 20
82.6157131370501
 30
0.0
 40
1.925000000000001
100
AcDbArc
 50
200.4756816964005
 51
359.5243183036092
  0
ARC
  5
2EDC
330
1F
100
AcDbEntity
  8
1
  6
CONTINUOUS
 62
     7
100
AcDbCircle
 10
149.3363445501636
 20
83.31078669545015
 30
0.0
 40
0.2500000000000081
100
AcDbArc
 50
189.9999999999526
 51
280.0000000000051
  0
LINE
  5
2EDD
330
1F
100
AcDbEntity
  8
1
  6
CONTINUOUS
 62
     7
100
AcDbLine
 10
149.0033153090635
 20
83.75977736825008
 30
0.0
 11
149.0901443753636
 21
83.26737594715043
 31
0.0
  0
LINE
  5
2EDE
330
1F
100
AcDbEntity
  8
1
  6
CONTINUOUS
 62
     7
100
AcDbLine
 10
148.3139503393635
 20
83.63822114585038
 30
0.0
 11
149.0033153090635
 21
83.75977736825008
 31
0.0
  0
LINE
  5
2EDF
330
1F
100
AcDbEntity
  8
1
  6
CONTINUOUS
 62
     7
100
AcDbLine
 10
148.4007794056637
 20
83.14581972475027
 30
0.0
 11
148.3139503393635
 21
83.63822114585038
 31
0.0
  0
ARC
  5
2EE0
330
1F
100
AcDbEntity
  8
1
  6
CONTINUOUS
 62
     7
100
AcDbCircle
 10
148.1545752465635
 20
83.10240888225009
 30
0.0
 40
0.2500000000000312
100
AcDbArc
 50
280.0000000000569
 51
10.00000000005747
  0
LINE
  5
2EE1
330
1F
100
AcDbEntity
  8
1
  6
CONTINUOUS
 62
     7
100
AcDbLine
 10
150.4020128045635
 20
83.24483794085019
 30
0.0
 11
149.3797558937635
 21
83.06458604455021
 31
0.0
  0
LINE
  5
2EE2
330
1F
100
AcDbEntity
  8
1
  6
CONTINUOUS
 62
     7
100
AcDbLine
 10
148.1979895029635
 20
82.85620820635042
 30
0.0
 11
147.1757325921635
 21
82.6759563099504
 31
0.0
  0
ARC
  5
2EE3
330
1F
100
AcDbEntity
  8
1
  6
CONTINUOUS
 62
     7
100
AcDbCircle
 10
148.3629530597636
 20
81.92063957865004
 30
0.0
 40
0.2499999999999752
100
AcDbArc
 50
10.00000000005973
 51
99.99999999995315
  0
LINE
  5
2EE4
330
1F
100
AcDbEntity
  8
1
  6
CONTINUOUS
 62
     7
100
AcDbLine
 10
148.6959788594635
 20
81.47164446235003
 30
0.0
 11
148.6091572437635
 21
81.96405333395025
 31
0.0
  0
LINE
  5
2EE5
330
1F
100
AcDbEntity
  8
1
  6
CONTINUOUS
 62
     7
100
AcDbLine
 10
149.2985222135634
 20
82.0856021058503
 30
0.0
 11
149.3853438292635
 21
81.59320068475019
 31
0.0
  0
ARC
  5
2EE6
330
1F
100
AcDbEntity
  8
1
  6
CONTINUOUS
 62
     7
100
AcDbCircle
 10
149.5447223633636
 20
82.1290173918501
 30
0.0
 40
0.2500000000000032
100
AcDbArc
 50
100.000000000005
 51
189.9999999999526
  0
LINE
  5
2EE7
330
1F
100
AcDbEntity
  8
1
  6
CONTINUOUS
 62
     7
100
AcDbLine
 10
150.5235615764636
 20
82.55547297115028
 30
0.0
 11
149.5013121161637
 21
82.37522107475026
 31
0.0
  0
LINE
  5
2EE8
330
1F
100
AcDbEntity
  8
1
  6
CONTINUOUS
 62
     7
100
AcDbLine
 10
148.3195382748635
 20
82.16684323665005
 30
0.0
 11
147.2972888145636
 21
81.98659134025003
 31
0.0
  0
LINE
  5
2EE9
330
1F
100
AcDbEntity
  8
1
  6
CONTINUOUS
 62
     7
100
AcDbLine
 10
149.6259603295636
 20
83.10799312705014
 30
0.0
 11
149.7475091014634
 21
82.41862815735023
 31
0.0
  0
ARC
  5
2EEA
330
1F
100
AcDbEntity
  8
1
  6
CONTINUOUS
 62
     7
100
AcDbCircle
 10
148.8496488049636
 20
82.6157131370501
 30
0.0
 40
1.925000000000001
100
AcDbArc
 50
359.5243183036092
 51
20.47568169640053
  0
LINE
  5
2EEB
330
1F
100
AcDbEntity
  8
1
  6
CONTINUOUS
 62
     7
100
AcDbLine
 10
149.2551076803638
 20
82.33180654165018
 30
0.0
 11
149.3399325404636
 21
82.27241051315015
 31
0.0
  0
LINE
  5
2EEC
330
1F
100
AcDbEntity
  8
1
  6
CONTINUOUS
 62
     7
100
AcDbLine
 10
149.1335514579636
 20
83.02117151135009
 30
0.0
 11
149.2551076803638
 21
82.33180654165018
 31
0.0
  0
LINE
  5
2EED
330
1F
100
AcDbEntity
  8
1
  6
CONTINUOUS
 62
     7
100
AcDbLine
 10
149.1335514579636
 20
83.02117151135009
 30
0.0
 11
149.1929474864637
 21
83.10599637145016
 31
0.0
  0
LINE
  5
2EEE
330
1F
100
AcDbEntity
  8
1
  6
CONTINUOUS
 62
     7
100
AcDbLine
 10
149.0467298422636
 20
83.5135729324502
 30
0.0
 11
148.3573648725637
 21
83.39202416055015
 31
0.0
  0
LINE
  5
2EEF
330
1F
100
AcDbEntity
  8
1
  6
CONTINUOUS
 62
     7
100
AcDbLine
 10
148.5657427106636
 20
82.21025031914998
 30
0.0
 11
148.5063466821636
 21
82.12542545905036
 31
0.0
  0
LINE
  5
2EF0
330
1F
100
AcDbEntity
  8
1
  6
CONTINUOUS
 62
     7
100
AcDbLine
 10
149.2551076803638
 20
82.33180654165018
 30
0.0
 11
148.5657427106636
 21
82.21025031914998
 31
0.0
  0
LINE
  5
2EF1
330
1F
100
AcDbEntity
  8
1
  6
CONTINUOUS
 62
     7
100
AcDbLine
 10
148.0733412895638
 20
82.12342870345039
 30
0.0
 11
147.9517850671636
 21
82.81279367325034
 31
0.0
  0
LINE
  5
2EF2
330
1F
100
AcDbEntity
  8
1
  6
CONTINUOUS
 62
     7
100
AcDbLine
 10
149.1335514579636
 20
83.02117151135009
 30
0.0
 11
148.4441864882637
 21
82.89961528895039
 31
0.0
  0
LINE
  5
2EF3
330
1F
100
AcDbEntity
  8
1
  6
CONTINUOUS
 62
     7
100
AcDbLine
 10
148.4441864882637
 20
82.89961528895039
 30
0.0
 11
148.3593616281636
 21
82.95901131745042
 31
0.0
  0
LINE
  5
2EF4
330
1F
100
AcDbEntity
  8
1
  6
CONTINUOUS
 62
     7
100
AcDbLine
 10
148.5657427106636
 20
82.21025031914998
 30
0.0
 11
148.4441864882637
 21
82.89961528895039
 31
0.0
  0
LINE
  5
2EF5
330
1F
100
AcDbEntity
  8
1
  6
CONTINUOUS
 62
     7
100
AcDbLine
 10
149.3853438292635
 20
81.59320068475019
 30
0.0
 11
148.6959788594635
 21
81.47164446235003
 31
0.0
  0
LINE
  5
2EF6
330
1F
100
AcDbEntity
  8
1
  6
CONTINUOUS
 62
     7
100
AcDbLine
 10
149.3419292960636
 20
81.83940512055007
 30
0.0
 11
148.6525643263635
 21
81.71784889815036
 31
0.0
  0
SPLINE
  5
2EF7
330
1F
100
AcDbEntity
  8
1
  6
CONTINUOUS
 62
     7
100
AcDbSpline
210
0.0
220
0.0
230
1.0
 70
     8
 71
     3
 72
    13
 73
     9
 74
     0
 42
0.000000001
 43
0.00000001
 40
0.0
 40
0.0
 40
0.0
 40
0.0
 40
0.0619255964755553
 40
0.2843670344938834
 40
0.5046378734365987
 40
0.7209770371376174
 40
0.9334202213497128
 40
1.0
 40
1.0
 40
1.0
 40
1.0
 10
147.1757325921698
 20
82.67595630998723
 30
0.0
 10
147.1677056407988
 20
82.6745419633444
 30
0.0
 10
147.1308452714649
 20
82.66804717631841
 30
0.0
 10
147.0662908889612
 20
82.6566584699731
 30
0.0
 10
146.9946051172482
 20
82.64401182603662
 30
0.0
 10
146.9448039449334
 20
82.6352403390206
 30
0.0
 10
146.9261984143786
 20
82.63195662358068
 30
0.0
 10
146.9250008428702
 20
82.6317433108293
 30
0.0
 10
146.9247150812789
 20
82.6316924106609
 30
0.0
  0
ARC
  5
2EF8
330
1F
100
AcDbEntity
  8
1
  6
CONTINUOUS
 62
     7
100
AcDbCircle
 10
148.8496488049636
 20
82.6157131370501
 30
0.0
 40
1.925000000000021
100
AcDbArc
 50
179.5243183035956
 51
200.4756816964013
  0
SPLINE
  5
2EF9
330
1F
100
AcDbEntity
  8
1
  6
CONTINUOUS
 62
     7
100
AcDbSpline
210
0.0
220
0.0
230
1.0
 70
     8
 71
     3
 72
    13
 73
     9
 74
     0
 42
0.000000001
 43
0.00000001
 40
0.0
 40
0.0
 40
0.0
 40
0.0
 40
0.0619252427413735
 40
0.284365410119699
 40
0.5046349908214054
 40
0.7209837301607352
 40
0.9334206016697237
 40
1.0
 40
1.0
 40
1.0
 40
1.0
 10
147.2972888146086
 20
81.98659134025685
 30
0.0
 10
147.2892618713294
 20
81.98517699318155
 30
0.0
 10
147.2524015391515
 20
81.97868220416878
 30
0.0
 10
147.187846314212
 20
81.96729354286028
 30
0.0
 10
147.1161629885191
 20
81.95464649783027
 30
0.0
 10
147.066348834832
 20
81.94587572290267
 30
0.0
 10
147.0477553350126
 20
81.94259162603932
 30
0.0
 10
147.0465572040336
 20
81.94237833649233
 30
0.0
 10
147.0462713037177
 20
81.94232744093053
 30
0.0
  0
DIMENSION
  5
88A5
102
{ACAD_XDICTIONARY
360
88A6
102
}
330
1F
100
AcDbEntity
  8
WY
100
AcDbDimension
  2
*D273
 10
117.0870288697027
 20
68.85098664161292
 30
0.0
 11
111.4120288697028
 21
71.87498664161292
 31
0.0
 70
    32
  3
ISO-25
100
AcDbAlignedDimension
 13
105.7370288697028
 23
86.73581204737242
 33
0.0
 14
117.0870288697027
 24
86.73581204737242
 34
0.0
100
AcDbRotatedDimension
1001
ACAD
1000
DSTYLE
1002
{
1070
   287
1070
     3
1070
   271
1070
     1
1070
   144
1040
1.0
1070
    41
1040
2.0
1070
    44
1040
1.0
1070
    42
1040
1.0
1070
   147
1040
1.524
1070
    77
1070
     3
1070
   279
1070
     0
1070
    74
1070
     0
1070
   140
1040
3.0
1002
}
  0
DIMENSION
  5
88CF
102
{ACAD_XDICTIONARY
360
88D0
102
}
330
1F
100
AcDbEntity
  8
WY
100
AcDbDimension
  2
*D275
 10
105.7370288697028
 20
62.9248584870255
 30
0.0
 11
116.0120288696816
 21
65.9488584870255
 31
0.0
 70
    32
  3
ISO-25
100
AcDbAlignedDimension
 13
126.2870288696604
 23
84.34463375563615
 33
0.0
 14
105.7370288697028
 24
85.73581204737242
 34
0.0
100
AcDbRotatedDimension
1001
ACAD
1000
DSTYLE
1002
{
1070
   287
1070
     5
1070
   271
1070
     1
1070
   144
1040
1.0
1070
    41
1040
2.0
1070
    44
1040
1.0
1070
    42
1040
1.0
1070
   147
1040
1.524
1070
    77
1070
     3
1070
   279
1070
     2
1070
    74
1070
     1
1070
   140
1040
3.0
1002
}
  0
DIMENSION
  5
88ED
102
{ACAD_REACTORS
102
}
102
{ACAD_XDICTIONARY
360
88EE
102
}
330
1F
100
AcDbEntity
  8
WY
100
AcDbDimension
  2
*D276
 10
105.7370288697028
 20
62.9248584870255
 30
0.0
 11
85.28703059620818
 21
65.9488584870255
 31
0.0
 70
    32
  3
ISO-25
100
AcDbAlignedDimension
 13
64.83703232271353
 23
79.0657104264504
 33
0.0
 14
105.7370288697028
 24
85.73581204737242
 34
0.0
100
AcDbRotatedDimension
1001
ACAD
1000
DSTYLE
1002
{
1070
   287
1070
     5
1070
   144
1040
1.0
1070
    41
1040
2.0
1070
    44
1040
1.0
1070
    42
1040
1.0
1070
   147
1040
1.524
1070
    77
1070
     3
1070
   279
1070
     2
1070
    74
1070
     1
1070
   140
1040
3.0
1002
}
  0
DIMENSION
  5
88FC
102
{ACAD_XDICTIONARY
360
88FD
102
}
330
1F
100
AcDbEntity
  8
WY
100
AcDbDimension
  2
*D277
 10
168.5670867981597
 20
78.86571449145013
 30
0.0
 11
165.5430867981597
 21
82.86571381418968
 31
0.0
 70
    32
  3
ISO-25
100
AcDbAlignedDimension
 13
128.9169299592599
 23
86.86571313692922
 33
0.0
 14
154.6370289046135
 24
78.86571449145013
 34
0.0
 50
90.0
100
AcDbRotatedDimension
1001
ACAD
1000
DSTYLE
1002
{
1070
   287
1070
     3
1070
   271
1070
     1
1070
   144
1040
1.0
1070
    41
1040
2.0
1070
    44
1040
1.0
1070
    42
1040
1.0
1070
   147
1040
1.524
1070
    77
1070
     3
1070
   279
1070
     0
1070
    74
1070
     0
1070
   140
1040
3.0
1002
}
  0
DIMENSION
  5
88FF
102
{ACAD_XDICTIONARY
360
8900
102
}
330
1F
100
AcDbEntity
  8
WY
100
AcDbDimension
  2
*D278
 10
175.8194785826906
 20
78.86571449145013
 30
0.0
 11
175.8194785826906
 21
84.11571381418968
 31
0.0
 70
   160
  3
ISO-25
100
AcDbAlignedDimension
 13
119.7169299592596
 23
89.36571313692922
 33
0.0
 14
154.3370288903634
 24
78.86571449145013
 34
0.0
 50
90.0
100
AcDbRotatedDimension
1001
ACAD
1000
DSTYLE
1002
{
1070
   287
1070
     3
1070
   271
1070
     1
1070
   144
1040
1.0
1070
    41
1040
2.0
1070
    44
1040
1.0
1070
    42
1040
1.0
1070
   147
1040
1.524
1070
    77
1070
     3
1070
   279
1070
     0
1070
    74
1070
     0
1070
   140
1040
3.0
1002
}
  0
DIMENSION
  5
891A
102
{ACAD_REACTORS
102
}
102
{ACAD_XDICTIONARY
360
891B
102
}
330
1F
100
AcDbEntity
  8
WY
100
AcDbDimension
  2
*D279
 10
51.45941868387052
 20
92.6157131370501
 30
0.0
 11
48.43541868387052
 21
87.6157131370501
 31
0.0
 70
    32
  3
ISO-25
100
AcDbAlignedDimension
 13
70.80441112356368
 23
82.6157131370501
 33
0.0
 14
70.80441112356368
 24
92.6157131370501
 34
0.0
 50
90.0
100
AcDbRotatedDimension
1001
ACAD
1000
DSTYLE
1002
{
1070
   287
1070
     5
1070
   144
1040
1.0
1070
    41
1040
2.0
1070
    44
1040
1.0
1070
    42
1040
1.0
1070
   147
1040
1.524
1070
    77
1070
     3
1070
   279
1070
     2
1070
    74
1070
     1
1070
   140
1040
3.0
1002
}
  0
DIMENSION
  5
8936
102
{ACAD_REACTORS
102
}
102
{ACAD_XDICTIONARY
360
8937
102
}
330
1F
100
AcDbEntity
  8
WY
100
AcDbDimension
  2
*D281
 10
70.80441112356368
 20
104.4742253303806
 30
0.0
 11
109.8270299642636
 21
107.4982253303806
 31
0.0
 70
    32
  3
ISO-25
100
AcDbAlignedDimension
 13
148.8496488049636
 23
92.6157131370501
 33
0.0
 14
70.80441112356368
 24
92.6157131370501
 34
0.0
100
AcDbRotatedDimension
1001
ACAD
1000
DSTYLE
1002
{
1070
   287
1070
     5
1070
   271
1070
     1
1070
   144
1040
1.0
1070
    41
1040
2.0
1070
    44
1040
1.0
1070
    42
1040
1.0
1070
   147
1040
1.524
1070
    77
1070
     3
1070
   279
1070
     2
1070
    74
1070
     1
1070
   140
1040
3.0
1002
}
  0
TEXT
  5
8972
330
1F
100
AcDbEntity
  8
1
100
AcDbText
 10
26.54858257126614
 20
270.604838025609
 30
0.0
 40
5.0
  1
Przekaźnik czasowy, do montażu na szynie 35mm
 41
0.8
 51
15.0
  7
ITALIC
100
AcDbText
  0
TEXT
  5
8973
330
1F
100
AcDbEntity
  8
1
100
AcDbText
 10
77.59950247242296
 20
262.1751556437671
 30
0.0
 40
5.0
  1
wg PN-EN 60715. 
 41
0.8
 51
15.0
  7
ITALIC
100
AcDbText
  0
TEXT
  5
8974
330
1F
100
AcDbEntity
  8
1
100
AcDbText
 10
26.5986144438362
 20
251.893633917854
 30
0.0
 40
5.0
  1
Time relay, direct mounting on 35mm rail mount
 41
0.8
 51
15.0
  7
ITALIC
100
AcDbText
  0
TEXT
  5
8975
330
1F
100
AcDbEntity
  8
1
100
AcDbText
 10
67.07503745966375
 20
243.4639515360122
 30
0.0
 40
5.0
  1
acc. to PN-EN 60715.
 41
0.8
 51
15.0
  7
ITALIC
100
AcDbText
  0
TEXT
  5
8976
330
1F
100
AcDbEntity
  8
1
100
AcDbText
 10
45.28065528560808
 20
231.3403744029987
 30
0.0
 40
5.0
  1
Wymiary zewnętrzne/General dimensions
 41
0.8
 51
15.0
  7
ITALIC
100
AcDbText
  0
LINE
  5
8978
330
1F
100
AcDbEntity
  8
OSIE
 48
0.5
100
AcDbLine
 10
70.80441112356368
 20
95.94524750020106
 30
0.0
 11
70.80441112356368
 21
79.28617969469974
 31
0.0
  0
LINE
  5
8979
330
1F
100
AcDbEntity
  8
OSIE
 48
0.5
100
AcDbLine
 10
148.8496488049636
 20
95.94524703980076
 30
0.0
 11
148.8496488049636
 21
79.28617923429944
 31
0.0
  0
LINE
  5
897A
330
1F
100
AcDbEntity
  8
OSIE
 48
0.5
100
AcDbLine
 10
151.9969546127947
 20
82.6157131370501
 30
0.0
 11
145.7023429971325
 21
82.6157131370501
 31
0.0
  0
LINE
  5
897B
330
1F
100
AcDbEntity
  8
OSIE
 48
0.5
100
AcDbLine
 10
151.9969546127947
 20
92.6157131370501
 30
0.0
 11
145.7023429971325
 21
92.6157131370501
 31
0.0
  0
LINE
  5
897C
330
1F
100
AcDbEntity
  8
OSIE
 48
0.5
100
AcDbLine
 10
73.95171693139477
 20
92.6157131370501
 30
0.0
 11
67.6571053157326
 21
92.6157131370501
 31
0.0
  0
LINE
  5
897D
330
1F
100
AcDbEntity
  8
OSIE
 48
0.5
100
AcDbLine
 10
73.95171693139477
 20
82.6157131370501
 30
0.0
 11
67.6571053157326
 21
82.6157131370501
 31
0.0
  0
LINE
  5
897E
330
1F
100
AcDbEntity
  8
OSIE
 48
0.5
100
AcDbLine
 10
108.8843346774915
 20
89.36571313695272
 30
0.0
 11
102.5897230618293
 21
89.36571313695272
 31
0.0
  0
LINE
  5
89A7
330
1F
100
AcDbEntity
  8
OSIE
 48
0.5
100
AcDbLine
 10
105.7370288696604
 20
92.51301894478381
 30
0.0
 11
105.7370288696604
 21
86.21840732912163
 31
0.0
  0
LINE
  5
89A8
330
1F
100
AcDbEntity
  8
OSIE
 48
0.5
100
AcDbLine
 10
120.2343346774914
 20
89.36571313695272
 30
0.0
 11
113.9397230618292
 21
89.36571313695272
 31
0.0
  0
LINE
  5
89A9
330
1F
100
AcDbEntity
  8
OSIE
 48
0.5
100
AcDbLine
 10
117.0870288696603
 20
92.51301894478381
 30
0.0
 11
117.0870288696603
 21
86.21840732912163
 31
0.0
  0
LINE
  5
89AA
330
1F
100
AcDbEntity
  8
OSIE
 48
0.5
100
AcDbLine
 10
129.4343346774915
 20
86.86571313695272
 30
0.0
 11
123.1397230618294
 21
86.86571313695272
 31
0.0
  0
LINE
  5
89AB
330
1F
100
AcDbEntity
  8
OSIE
 48
0.5
100
AcDbLine
 10
126.2870288696604
 20
90.01301894478381
 30
0.0
 11
126.2870288696604
 21
83.71840732912163
 31
0.0
  0
ENDSEC
  0
SECTION
  2
OBJECTS
  0
DICTIONARY
  5
C
330
0
100
AcDbDictionary
  3
ACAD_DETAILVIEWSTYLE
350
4C4
  3
ACAD_GROUP
350
D
  3
ACAD_IMAGE_VARS
350
4BE
  3
ACAD_MLINESTYLE
350
17
  3
ACAD_SCALELIST
350
476
  3
ACAD_SECTIONVIEWSTYLE
350
4C5
  3
ACDBVARIABLEDICTIONARY
350
4BF
  3
APPDATA
350
4BC
  3
CENTERLINE
350
995
  3
DIMOFFSETDICTIONARY
350
990
  3
DWGPROPS
350
89AC
  0
DICTIONARY
  5
724
330
2
100
AcDbDictionary
280
     1
  3
ACAD_LAYERSTATES
360
725
  0
DICTIONARY
  5
251B
330
251A
100
AcDbDictionary
280
     1
  0
DICTIONARY
  5
251E
330
251D
100
AcDbDictionary
280
     1
  0
DICTIONARY
  5
2520
330
251F
100
AcDbDictionary
280
     1
  0
DICTIONARY
  5
2523
330
2522
100
AcDbDictionary
280
     1
  0
DICTIONARY
  5
2526
330
2525
100
AcDbDictionary
280
     1
  0
DICTIONARY
  5
2529
330
2528
100
AcDbDictionary
280
     1
  0
DICTIONARY
  5
252C
330
252B
100
AcDbDictionary
280
     1
  0
DICTIONARY
  5
252F
330
252E
100
AcDbDictionary
280
     1
  0
DICTIONARY
  5
2532
330
2531
100
AcDbDictionary
280
     1
  0
DICTIONARY
  5
88A6
330
88A5
100
AcDbDictionary
280
     1
  0
DICTIONARY
  5
88D0
330
88CF
100
AcDbDictionary
280
     1
  0
DICTIONARY
  5
88EE
330
88ED
100
AcDbDictionary
280
     1
  0
DICTIONARY
  5
88FD
330
88FC
100
AcDbDictionary
280
     1
  0
DICTIONARY
  5
8900
330
88FF
100
AcDbDictionary
280
     1
  0
DICTIONARY
  5
891B
330
891A
100
AcDbDictionary
280
     1
  0
DICTIONARY
  5
8937
330
8936
100
AcDbDictionary
280
     1
  0
DICTIONARY
  5
4C4
102
{ACAD_REACTORS
330
C
102
}
330
C
100
AcDbDictionary
  0
DICTIONARY
  5
D
102
{ACAD_REACTORS
330
C
102
}
330
C
100
AcDbDictionary
  0
RASTERVARIABLES
  5
4BE
102
{ACAD_REACTORS
330
C
102
}
330
C
100
AcDbRasterVariables
 90
        0
 70
     1
 71
     1
 72
     0
  0
DICTIONARY
  5
17
102
{ACAD_REACTORS
330
C
102
}
330
C
100
AcDbDictionary
  3
STANDARD
350
18
  0
DICTIONARY
  5
476
102
{ACAD_REACTORS
330
C
102
}
330
C
100
AcDbDictionary
  0
DICTIONARY
  5
4C5
102
{ACAD_REACTORS
330
C
102
}
330
C
100
AcDbDictionary
  0
DICTIONARY
  5
4BF
102
{ACAD_REACTORS
330
C
102
}
330
C
100
AcDbDictionary
  0
DICTIONARY
  5
4BC
102
{ACAD_REACTORS
330
C
102
}
330
C
100
AcDbDictionary
  0
DICTIONARY
  5
995
102
{ACAD_REACTORS
330
C
102
}
330
C
100
AcDbDictionary
  3
CLEXTENSION
350
996
  0
DICTIONARY
  5
990
102
{ACAD_REACTORS
330
C
102
}
330
C
100
AcDbDictionary
  3
DIMRAILANGLE
350
993
  3
DIMRAILFIRSTOFFSET
350
991
  3
DIMRAILOFFSET
350
992
  3
DIMRAILSENABLED
350
994
  0
XRECORD
  5
89AC
102
{ACAD_REACTORS
330
C
102
}
330
C
100
AcDbXrecord
  1
DWGPROPS COOKIE
  2

  3

  4

  6

  7

  8
pikusl
  9

300
=
301
=
302
=
303
=
304
=
305
=
306
=
307
=
308
=
309
=
 40
0.0
 41
2457799.320847188
 42
2458047.267165706
  1

 90
        0
  0
DICTIONARY
  5
725
102
{ACAD_REACTORS
330
724
102
}
330
724
100
AcDbDictionary
  0
MLINESTYLE
  5
18
102
{ACAD_REACTORS
330
17
102
}
330
17
100
AcDbMlineStyle
  2
Standard
 70
     0
  3

 62
   256
 51
90.0
 52
90.0
 71
     2
 49
0.5
 62
   256
  6
BYLAYER
 49
-0.5
 62
   256
  6
BYLAYER
  0
DICTIONARYVAR
  5
996
102
{ACAD_REACTORS
330
995
102
}
330
995
100
DictionaryVariables
280
     0
  1
0.250000
  0
DICTIONARYVAR
  5
993
102
{ACAD_REACTORS
330
990
102
}
330
990
100
DictionaryVariables
280
     0
  1
0.261799
  0
DICTIONARYVAR
  5
991
102
{ACAD_REACTORS
330
990
102
}
330
990
100
DictionaryVariables
280
     0
  1
0.400000
  0
DICTIONARYVAR
  5
992
102
{ACAD_REACTORS
330
990
102
}
330
990
100
DictionaryVariables
280
     0
  1
0.250000
  0
DICTIONARYVAR
  5
994
102
{ACAD_REACTORS
330
990
102
}
330
990
100
DictionaryVariables
280
     0
  1
0
  0
ENDSEC
  0
EOF
