  0
SECTION
  2
HEADER
  9
$ACADVER
  1
AC1014
  9
$ACADMAINTVER
 70
     9
  9
$DWGCODEPAGE
  3
ANSI_1250
  9
$INSBASE
 10
0.0
 20
0.0
 30
0.0
  9
$EXTMIN
 10
486.041244
 20
0.0
 30
0.0
  9
$EXTMAX
 10
687.671651
 20
297.0
 30
0.0
  9
$LIMMIN
 10
0.0
 20
0.0
  9
$LIMMAX
 10
420.0
 20
297.0
  9
$ORTHOMODE
 70
     0
  9
$REGENMODE
 70
     1
  9
$FILLMODE
 70
     1
  9
$QTEXTMODE
 70
     0
  9
$MIRRTEXT
 70
     1
  9
$DRAGMODE
 70
     2
  9
$LTSCALE
 40
6.0
  9
$OSMODE
 70
 13247
  9
$ATTMODE
 70
     1
  9
$TEXTSIZE
 40
0.2
  9
$TRACEWID
 40
0.05
  9
$TEXTSTYLE
  7
ITALIC
  9
$CLAYER
  8
1
  9
$CELTYPE
  6
BYLAYER
  9
$CECOLOR
 62
     7
  9
$CELTSCALE
 40
1.0
  9
$DELOBJ
 70
     1
  9
$DISPSILH
 70
     0
  9
$DIMSCALE
 40
1.0
  9
$DIMASZ
 40
2.5
  9
$DIMEXO
 40
1.5
  9
$DIMDLI
 40
7.0
  9
$DIMRND
 40
0.0
  9
$DIMDLE
 40
0.0
  9
$DIMEXE
 40
1.5
  9
$DIMTP
 40
0.1
  9
$DIMTM
 40
0.0
  9
$DIMTXT
 40
1.5
  9
$DIMCEN
 40
-1.0
  9
$DIMTSZ
 40
0.0
  9
$DIMTOL
 70
     0
  9
$DIMLIM
 70
     0
  9
$DIMTIH
 70
     0
  9
$DIMTOH
 70
     1
  9
$DIMSE1
 70
     0
  9
$DIMSE2
 70
     0
  9
$DIMTAD
 70
     1
  9
$DIMZIN
 70
     8
  9
$DIMBLK
  1

  9
$DIMASO
 70
     1
  9
$DIMSHO
 70
     0
  9
$DIMPOST
  1

  9
$DIMAPOST
  1

  9
$DIMALT
 70
     0
  9
$DIMALTD
 70
     2
  9
$DIMALTF
 40
25.4
  9
$DIMLFAC
 40
1.0
  9
$DIMTOFL
 70
     0
  9
$DIMTVP
 40
0.0
  9
$DIMTIX
 70
     1
  9
$DIMSOXD
 70
     0
  9
$DIMSAH
 70
     0
  9
$DIMBLK1
  1

  9
$DIMBLK2
  1

  9
$DIMSTYLE
  2
STANDARD
  9
$DIMCLRD
 70
     0
  9
$DIMCLRE
 70
     0
  9
$DIMCLRT
 70
     0
  9
$DIMTFAC
 40
1.0
  9
$DIMGAP
 40
0.75
  9
$DIMJUST
 70
     0
  9
$DIMSD1
 70
     0
  9
$DIMSD2
 70
     0
  9
$DIMTOLJ
 70
     1
  9
$DIMTZIN
 70
     8
  9
$DIMALTZ
 70
     0
  9
$DIMALTTZ
 70
     0
  9
$DIMFIT
 70
     4
  9
$DIMUPT
 70
     0
  9
$DIMUNIT
 70
     2
  9
$DIMDEC
 70
     2
  9
$DIMTDEC
 70
     4
  9
$DIMALTU
 70
     2
  9
$DIMALTTD
 70
     2
  9
$DIMTXSTY
  7
STANDARD
  9
$DIMAUNIT
 70
     0
  9
$LUNITS
 70
     2
  9
$LUPREC
 70
     2
  9
$SKETCHINC
 40
0.1
  9
$FILLETRAD
 40
0.1
  9
$AUNITS
 70
     0
  9
$AUPREC
 70
     2
  9
$MENU
  1
ACAD
  9
$ELEVATION
 40
0.0
  9
$PELEVATION
 40
0.0
  9
$THICKNESS
 40
0.0
  9
$LIMCHECK
 70
     0
  9
$CHAMFERA
 40
0.0
  9
$CHAMFERB
 40
0.0
  9
$CHAMFERC
 40
0.0
  9
$CHAMFERD
 40
0.0
  9
$SKPOLY
 70
     0
  9
$TDCREATE
 40
2448721.39913669
  9
$TDUPDATE
 40
2457540.527803658
  9
$TDINDWG
 40
1.5866401505
  9
$TDUSRTIMER
 40
2457540.441812812
  9
$USRTIMER
 70
     1
  9
$ANGBASE
 50
0.0
  9
$ANGDIR
 70
     0
  9
$PDMODE
 70
     0
  9
$PDSIZE
 40
0.0
  9
$PLINEWID
 40
0.5
  9
$COORDS
 70
     1
  9
$SPLFRAME
 70
     0
  9
$SPLINETYPE
 70
     6
  9
$SPLINESEGS
 70
     8
  9
$ATTDIA
 70
     0
  9
$ATTREQ
 70
     1
  9
$HANDLING
 70
     1
  9
$HANDSEED
  5
1F0BA
  9
$SURFTAB1
 70
     6
  9
$SURFTAB2
 70
     6
  9
$SURFTYPE
 70
     6
  9
$SURFU
 70
     6
  9
$SURFV
 70
     6
  9
$UCSNAME
  2

  9
$UCSORG
 10
0.0
 20
0.0
 30
0.0
  9
$UCSXDIR
 10
1.0
 20
0.0
 30
0.0
  9
$UCSYDIR
 10
0.0
 20
1.0
 30
0.0
  9
$PUCSNAME
  2

  9
$PUCSORG
 10
0.0
 20
0.0
 30
0.0
  9
$PUCSXDIR
 10
1.0
 20
0.0
 30
0.0
  9
$PUCSYDIR
 10
0.0
 20
1.0
 30
0.0
  9
$USERI1
 70
     0
  9
$USERI2
 70
     0
  9
$USERI3
 70
     0
  9
$USERI4
 70
     0
  9
$USERI5
 70
     0
  9
$USERR1
 40
0.0
  9
$USERR2
 40
0.0
  9
$USERR3
 40
0.0
  9
$USERR4
 40
0.0
  9
$USERR5
 40
0.0
  9
$WORLDVIEW
 70
     1
  9
$SHADEDGE
 70
     3
  9
$SHADEDIF
 70
    70
  9
$TILEMODE
 70
     1
  9
$MAXACTVP
 70
    16
  9
$PINSBASE
 10
0.0
 20
0.0
 30
0.0
  9
$PLIMCHECK
 70
     0
  9
$PEXTMIN
 10
1.000000000000000E+20
 20
1.000000000000000E+20
 30
1.000000000000000E+20
  9
$PEXTMAX
 10
-1.000000000000000E+20
 20
-1.000000000000000E+20
 30
-1.000000000000000E+20
  9
$PLIMMIN
 10
0.0
 20
0.0
  9
$PLIMMAX
 10
0.0
 20
0.0
  9
$UNITMODE
 70
     0
  9
$VISRETAIN
 70
     0
  9
$PLINEGEN
 70
     0
  9
$PSLTSCALE
 70
     0
  9
$TREEDEPTH
 70
  3020
  9
$PICKSTYLE
 70
     1
  9
$CMLSTYLE
  2
STANDARD
  9
$CMLJUST
 70
     0
  9
$CMLSCALE
 40
1.0
  9
$PROXYGRAPHICS
 70
     1
  9
$MEASUREMENT
 70
     0
  0
ENDSEC
  0
SECTION
  2
CLASSES
  0
CLASS
  1
HATCH
  2
AcDbHatch
  3
ObjectDBX Classes
 90
        0
280
     0
281
     1
  0
CLASS
  1
LWPOLYLINE
  2
AcDbPolyline
  3
ObjectDBX Classes
 90
        0
280
     0
281
     1
  0
CLASS
  1
DICTIONARYVAR
  2
AcDbDictionaryVar
  3
ObjectDBX Classes
 90
        0
280
     0
281
     0
  0
CLASS
  1
XRECORD
  2
AcDbXrecord
  3
ObjectDBX Classes
 90
        0
280
     0
281
     0
  0
CLASS
  1
SCALE
  2
AcDbScale
  3
ObjectDBX Classes
 90
     1153
280
     0
281
     0
  0
CLASS
  1
VISUALSTYLE
  2
AcDbVisualStyle
  3
ObjectDBX Classes
 90
     4095
280
     0
281
     0
  0
CLASS
  1
MATERIAL
  2
AcDbMaterial
  3
ObjectDBX Classes
 90
     1153
280
     0
281
     0
  0
CLASS
  1
TABLESTYLE
  2
AcDbTableStyle
  3
ObjectDBX Classes
 90
     4095
280
     0
281
     0
  0
CLASS
  1
MLEADERSTYLE
  2
AcDbMLeaderStyle
  3
ACDB_MLEADERSTYLE_CLASS
 90
     4095
280
     0
281
     0
  0
CLASS
  1
SUN
  2
AcDbSun
  3
SCENEOE
 90
     1153
280
     0
281
     0
  0
CLASS
  1
RASTERVARIABLES
  2
AcDbRasterVariables
  3
ISM
 90
        0
280
     0
281
     0
  0
CLASS
  1
DIMASSOC
  2
AcDbDimAssoc
  3
"AcDbDimAssoc|Product Desc:     AcDim ARX App For Dimension|Company:          Autodesk, Inc.|WEB Address:      www.autodesk.com"
 90
        0
280
     0
281
     0
  0
CLASS
  1
ACDBDICTIONARYWDFLT
  2
AcDbDictionaryWithDefault
  3
ObjectDBX Classes
 90
        0
280
     0
281
     0
  0
ENDSEC
  0
SECTION
  2
TABLES
  0
TABLE
  2
VPORT
  5
8
330
0
100
AcDbSymbolTable
 70
     1
  0
VPORT
  5
F0F7
330
8
100
AcDbSymbolTableRecord
100
AcDbViewportTableRecord
  2
*ACTIVE
 70
     0
 10
0.0
 20
0.0
 11
1.0
 21
1.0
 12
395.7850931426333
 22
503.3540253583417
 13
0.0
 23
0.0
 14
1.0
 24
1.0
 15
5.0
 25
5.0
 16
0.0
 26
0.0
 36
1.0
 17
191.0713543573668
 27
-354.8540253583417
 37
0.0
 40
302.94
 41
2.811127379209371
 42
50.0
 43
0.0
 44
0.0
 50
0.0
 51
0.0
 71
    16
 72
   200
 73
     1
 74
     0
 75
     0
 76
     0
 77
     0
 78
     0
  0
ENDTAB
  0
TABLE
  2
LTYPE
  5
5
330
0
100
AcDbSymbolTable
 70
     5
  0
LTYPE
  5
12
330
5
100
AcDbSymbolTableRecord
100
AcDbLinetypeTableRecord
  2
BYBLOCK
 70
     0
  3

 72
    65
 73
     0
 40
0.0
  0
LTYPE
  5
13
330
5
100
AcDbSymbolTableRecord
100
AcDbLinetypeTableRecord
  2
BYLAYER
 70
     0
  3

 72
    65
 73
     0
 40
0.0
  0
LTYPE
  5
14
330
5
100
AcDbSymbolTableRecord
100
AcDbLinetypeTableRecord
  2
CONTINUOUS
 70
     0
  3
Solid line
 72
    65
 73
     0
 40
0.0
  0
LTYPE
  5
1D
330
5
100
AcDbSymbolTableRecord
100
AcDbLinetypeTableRecord
  2
CENTER
 70
     0
  3
____ _ ____ _ ____ _ ____ _ ____ _ ____ _ ____
 72
    65
 73
     4
 40
2.0
 49
1.25
 74
     0
 49
-0.25
 74
     0
 49
0.25
 74
     0
 49
-0.25
 74
     0
  0
LTYPE
  5
1E
330
5
100
AcDbSymbolTableRecord
100
AcDbLinetypeTableRecord
  2
HIDDEN
 70
     0
  3
_ _ _ _ _ _ _ _ _ _ _ _ _ _ _ _ _ _ _ _ _ _ _
 72
    65
 73
     2
 40
0.375
 49
0.25
 74
     0
 49
-0.125
 74
     0
  0
LTYPE
  5
8093
330
5
100
AcDbSymbolTableRecord
100
AcDbLinetypeTableRecord
  2
PHANTOM
 70
     0
  3
Phantom ______  __  __  ______  __  __  ______
 72
    65
 73
     6
 40
12.7
 49
6.35
 74
     0
 49
-1.27
 74
     0
 49
1.27
 74
     0
 49
-1.27
 74
     0
 49
1.27
 74
     0
 49
-1.27
 74
     0
  0
LTYPE
  5
1187C
330
5
100
AcDbSymbolTableRecord
100
AcDbLinetypeTableRecord
  2
CENTERX2
 70
     0
  3
Center (2x) ________  __  ________  __  _____
 72
    65
 73
     4
 40
20.32
 49
12.7
 74
     0
 49
-2.54
 74
     0
 49
2.54
 74
     0
 49
-2.54
 74
     0
  0
ENDTAB
  0
TABLE
  2
LAYER
  5
2
102
{ACAD_XDICTIONARY
360
13241
102
}
330
0
100
AcDbSymbolTable
 70
     8
  0
LAYER
  5
F
330
2
100
AcDbSymbolTableRecord
100
AcDbLayerTableRecord
  2
0
 70
     0
 62
     7
  6
CONTINUOUS
  0
LAYER
  5
21
330
2
100
AcDbSymbolTableRecord
100
AcDbLayerTableRecord
  2
1
 70
     0
 62
     3
  6
CONTINUOUS
  0
LAYER
  5
22
330
2
100
AcDbSymbolTableRecord
100
AcDbLayerTableRecord
  2
2
 70
     0
 62
     6
  6
CONTINUOUS
  0
LAYER
  5
23
330
2
100
AcDbSymbolTableRecord
100
AcDbLayerTableRecord
  2
3
 70
     0
 62
     4
  6
HIDDEN
  0
LAYER
  5
24
330
2
100
AcDbSymbolTableRecord
100
AcDbLayerTableRecord
  2
OSIE
 70
     0
 62
     2
  6
CENTER
  0
LAYER
  5
25
330
2
100
AcDbSymbolTableRecord
100
AcDbLayerTableRecord
  2
WY
 70
     0
 62
     1
  6
CONTINUOUS
  0
LAYER
  5
26
330
2
100
AcDbSymbolTableRecord
100
AcDbLayerTableRecord
  2
DEFPOINTS
 70
     0
 62
     7
  6
CONTINUOUS
  0
LAYER
  5
464
330
2
100
AcDbSymbolTableRecord
100
AcDbLayerTableRecord
  2
WYMIARY
 70
     0
 62
     1
  6
CONTINUOUS
  0
ENDTAB
  0
TABLE
  2
STYLE
  5
3
330
0
100
AcDbSymbolTable
 70
     4
  0
STYLE
  5
10
330
3
100
AcDbSymbolTableRecord
100
AcDbTextStyleTableRecord
  2
STANDARD
 70
     0
 40
0.0
 41
1.0
 50
0.0
 71
     0
 42
6.0
  3
txt
  4

  0
STYLE
  5
1C
330
3
100
AcDbSymbolTableRecord
100
AcDbTextStyleTableRecord
  2
ITALIC
 70
     0
 40
0.0
 41
1.0
 50
15.0
 71
     0
 42
0.2
  3
simplex
  4

  0
STYLE
  5
C512
330
3
100
AcDbSymbolTableRecord
100
AcDbTextStyleTableRecord
  2
SLDTEXTSTYLE2
 70
     0
 40
0.0
 41
0.7
 50
0.0
 71
     0
 42
0.2
  3
TXT
  4

  0
STYLE
  5
C513
330
3
100
AcDbSymbolTableRecord
100
AcDbTextStyleTableRecord
  2
SLDTEXTSTYLE6
 70
     0
 40
0.0
 41
0.605
 50
0.0
 71
     0
 42
0.2
  3
TXT
  4

  0
ENDTAB
  0
TABLE
  2
VIEW
  5
6
330
0
100
AcDbSymbolTable
 70
     0
  0
ENDTAB
  0
TABLE
  2
UCS
  5
7
330
0
100
AcDbSymbolTable
 70
     0
  0
ENDTAB
  0
TABLE
  2
APPID
  5
9
330
0
100
AcDbSymbolTable
 70
     7
  0
APPID
  5
11
330
9
100
AcDbSymbolTableRecord
100
AcDbRegAppTableRecord
  2
ACAD
 70
     0
  0
APPID
  5
14E88
330
9
100
AcDbSymbolTableRecord
100
AcDbRegAppTableRecord
  2
ACAD_DSTYLE_DIMRADIAL_EXTE
 70
     0
  0
APPID
  5
17475
330
9
100
AcDbSymbolTableRecord
100
AcDbRegAppTableRecord
  2
ACAD_DSTYLE_DIMRADIAL_EXT0
 70
     0
  0
APPID
  5
1C4D0
330
9
100
AcDbSymbolTableRecord
100
AcDbRegAppTableRecord
  2
ACAD_DSTYLE_DIMRADIAL_EXT1
 70
     0
  0
APPID
  5
1D830
330
9
100
AcDbSymbolTableRecord
100
AcDbRegAppTableRecord
  2
ACAD_DSTYLE_DIMRADIAL_EXT2
 70
     0
  0
APPID
  5
1DF7B
330
9
100
AcDbSymbolTableRecord
100
AcDbRegAppTableRecord
  2
ACAD_DSTYLE_DIMRADIAL_EXT3
 70
     0
  0
APPID
  5
1E554
330
9
100
AcDbSymbolTableRecord
100
AcDbRegAppTableRecord
  2
ACAD_DSTYLE_DIMRADIAL_EXT4
 70
     0
  0
ENDTAB
  0
TABLE
  2
DIMSTYLE
  5
A
330
0
100
AcDbSymbolTable
 70
     2
  0
DIMSTYLE
105
3B
102
{ACAD_REACTORS
330
1EEFE
330
1EF0E
330
1EF1E
330
1EF3A
330
1EF5A
330
1EF69
330
1EF78
330
1EF87
330
1EF97
330
1EFA6
330
1EFB6
330
1EFCC
330
1EFDD
330
1EFEC
102
}
330
A
100
AcDbSymbolTableRecord
100
AcDbDimStyleTableRecord
  2
STANDARD
 70
     0
  3

  4

  5

  6

  7

 40
1.0
 41
3.5
 42
1.5
 43
7.0
 44
1.5
 45
0.0
 46
0.0
 47
0.1
 48
0.0
140
3.6
141
-1.0
142
0.0
143
25.4
144
1.0
145
0.0
146
1.0
147
1.5
 71
     0
 72
     0
 73
     0
 74
     0
 75
     0
 76
     0
 77
     1
 78
     0
170
     0
171
     2
172
     0
173
     0
174
     0
175
     0
176
     0
177
     0
178
     0
270
     2
271
     2
272
     4
273
     2
274
     2
340
10
275
     0
280
     0
281
     0
282
     0
283
     1
284
     0
285
     0
286
     0
287
     3
288
     0
  0
DIMSTYLE
105
1187D
330
A
100
AcDbSymbolTableRecord
100
AcDbDimStyleTableRecord
  2
ISO-25
 70
     0
  3

  4

  5

  6

  7

 40
1.0
 41
2.5
 42
0.625
 43
3.75
 44
1.25
 45
0.0
 46
0.0
 47
0.0
 48
0.0
140
2.5
141
2.5
142
0.0
143
0.03937007874016
144
1.0
145
0.0
146
1.0
147
0.625
 71
     0
 72
     0
 73
     0
 74
     0
 75
     0
 76
     0
 77
     1
 78
     8
170
     0
171
     3
172
     1
173
     0
174
     0
175
     0
176
     0
177
     0
178
     0
270
     2
271
     2
272
     2
273
     2
274
     3
340
10
275
     0
280
     0
281
     0
282
     0
283
     0
284
     8
285
     0
286
     0
287
     3
288
     0
  0
ENDTAB
  0
TABLE
  2
BLOCK_RECORD
  5
1
330
0
100
AcDbSymbolTable
 70
   215
  0
BLOCK_RECORD
  5
18
330
1
100
AcDbSymbolTableRecord
100
AcDbBlockTableRecord
  2
*MODEL_SPACE
  0
BLOCK_RECORD
  5
15
330
1
100
AcDbSymbolTableRecord
100
AcDbBlockTableRecord
  2
*PAPER_SPACE
  0
BLOCK_RECORD
  5
7EA0
330
1
100
AcDbSymbolTableRecord
100
AcDbBlockTableRecord
  2
A$C312173AA
  0
BLOCK_RECORD
  5
C4F7
330
1
100
AcDbSymbolTableRecord
100
AcDbBlockTableRecord
  2
_DOT
  0
BLOCK_RECORD
  5
13341
330
1
100
AcDbSymbolTableRecord
100
AcDbBlockTableRecord
  2
_NONE
  0
BLOCK_RECORD
  5
13346
330
1
100
AcDbSymbolTableRecord
100
AcDbBlockTableRecord
  2
_OBLIQUE
  0
BLOCK_RECORD
  5
1357A
330
1
100
AcDbSymbolTableRecord
100
AcDbBlockTableRecord
  2
SW_CENTERMARKSYMBOL_0
  0
BLOCK_RECORD
  5
13586
330
1
100
AcDbSymbolTableRecord
100
AcDbBlockTableRecord
  2
SW_CENTERMARKSYMBOL_1
  0
BLOCK_RECORD
  5
13592
330
1
100
AcDbSymbolTableRecord
100
AcDbBlockTableRecord
  2
SW_CENTERMARKSYMBOL_2
  0
BLOCK_RECORD
  5
140D3
330
1
100
AcDbSymbolTableRecord
100
AcDbBlockTableRecord
  2
SW_CENTERMARKSYMBOL_3
  0
BLOCK_RECORD
  5
140DF
330
1
100
AcDbSymbolTableRecord
100
AcDbBlockTableRecord
  2
SW_CENTERMARKSYMBOL_4
  0
BLOCK_RECORD
  5
140EB
330
1
100
AcDbSymbolTableRecord
100
AcDbBlockTableRecord
  2
SW_CENTERMARKSYMBOL_5
  0
BLOCK_RECORD
  5
140F7
330
1
100
AcDbSymbolTableRecord
100
AcDbBlockTableRecord
  2
SW_CENTERMARKSYMBOL_6
  0
BLOCK_RECORD
  5
14103
330
1
100
AcDbSymbolTableRecord
100
AcDbBlockTableRecord
  2
SW_CENTERMARKSYMBOL_7
  0
BLOCK_RECORD
  5
1410F
330
1
100
AcDbSymbolTableRecord
100
AcDbBlockTableRecord
  2
SW_CENTERMARKSYMBOL_8
  0
BLOCK_RECORD
  5
1411B
330
1
100
AcDbSymbolTableRecord
100
AcDbBlockTableRecord
  2
SW_CENTERMARKSYMBOL_9
  0
BLOCK_RECORD
  5
17418
330
1
100
AcDbSymbolTableRecord
100
AcDbBlockTableRecord
  2
_ARCHTICK
  0
BLOCK_RECORD
  5
1741C
330
1
100
AcDbSymbolTableRecord
100
AcDbBlockTableRecord
  2
_INTEGRAL
  0
BLOCK_RECORD
  5
1EF01
330
1
100
AcDbSymbolTableRecord
100
AcDbBlockTableRecord
  2
*D200
  0
BLOCK_RECORD
  5
1EF11
330
1
100
AcDbSymbolTableRecord
100
AcDbBlockTableRecord
  2
*D201
  0
BLOCK_RECORD
  5
1EF21
330
1
100
AcDbSymbolTableRecord
100
AcDbBlockTableRecord
  2
*D202
  0
BLOCK_RECORD
  5
1EF3D
330
1
100
AcDbSymbolTableRecord
100
AcDbBlockTableRecord
  2
*D203
  0
BLOCK_RECORD
  5
1EF4C
330
1
100
AcDbSymbolTableRecord
100
AcDbBlockTableRecord
  2
*D204
  0
BLOCK_RECORD
  5
1EF5D
330
1
100
AcDbSymbolTableRecord
100
AcDbBlockTableRecord
  2
*D205
  0
BLOCK_RECORD
  5
1EF6C
330
1
100
AcDbSymbolTableRecord
100
AcDbBlockTableRecord
  2
*D206
  0
BLOCK_RECORD
  5
1EF7B
330
1
100
AcDbSymbolTableRecord
100
AcDbBlockTableRecord
  2
*D207
  0
BLOCK_RECORD
  5
1EF8A
330
1
100
AcDbSymbolTableRecord
100
AcDbBlockTableRecord
  2
*D208
  0
BLOCK_RECORD
  5
1EF9A
330
1
100
AcDbSymbolTableRecord
100
AcDbBlockTableRecord
  2
*D209
  0
BLOCK_RECORD
  5
1EFA9
330
1
100
AcDbSymbolTableRecord
100
AcDbBlockTableRecord
  2
*D210
  0
BLOCK_RECORD
  5
1EFB9
330
1
100
AcDbSymbolTableRecord
100
AcDbBlockTableRecord
  2
*D211
  0
BLOCK_RECORD
  5
1EFCF
330
1
100
AcDbSymbolTableRecord
100
AcDbBlockTableRecord
  2
*D212
  0
BLOCK_RECORD
  5
1EFE0
330
1
100
AcDbSymbolTableRecord
100
AcDbBlockTableRecord
  2
*D213
  0
BLOCK_RECORD
  5
1EFEF
330
1
100
AcDbSymbolTableRecord
100
AcDbBlockTableRecord
  2
*D214
  0
ENDTAB
  0
ENDSEC
  0
SECTION
  2
BLOCKS
  0
BLOCK
  5
29
330
18
100
AcDbEntity
  8
0
100
AcDbBlockBegin
  2
*MODEL_SPACE
 70
     0
 10
0.0
 20
0.0
 30
0.0
  3
*MODEL_SPACE
  1

  0
ENDBLK
  5
2A
330
18
100
AcDbEntity
  8
0
100
AcDbBlockEnd
  0
BLOCK
  5
27
330
15
100
AcDbEntity
 67
     1
  8
0
100
AcDbBlockBegin
  2
*PAPER_SPACE
 70
     0
 10
0.0
 20
0.0
 30
0.0
  3
*PAPER_SPACE
  1

  0
ENDBLK
  5
28
330
15
100
AcDbEntity
 67
     1
  8
0
100
AcDbBlockEnd
  0
BLOCK
  5
7EAF
330
7EA0
100
AcDbEntity
  8
0
100
AcDbBlockBegin
  2
A$C312173AA
 70
     0
 10
0.0
 20
0.0
 30
0.0
  3
A$C312173AA
  1
A$C312173AA
  0
HATCH
  5
7EA1
330
7EA0
100
AcDbEntity
  8
1
100
AcDbHatch
 10
0.0
 20
0.0
 30
0.0
210
0.0
220
0.0
230
1.0
  2
SOLID
 70
     1
 71
     1
 91
        1
 92
        7
 72
     0
 73
     1
 93
        4
 10
2.724690422176706
 20
5.013136352600668
 10
5.058157912552363
 20
1.095673373491763
 10
5.076413282682712
 20
1.095673373491763
 10
7.382430158279476
 20
5.013136352600668
 97
        4
330
7EA6
330
7EAA
330
7EA5
330
7EA8
 75
     0
 76
     1
 47
0.057765
 98
        1
 10
5.461965
 20
4.283681
  0
HATCH
  5
7EA2
330
7EA0
100
AcDbEntity
  8
1
100
AcDbHatch
 10
0.0
 20
0.0
 30
0.0
210
0.0
220
0.0
230
1.0
  2
SOLID
 70
     1
 71
     1
 91
        1
 92
        7
 72
     0
 73
     1
 93
        4
 10
2.724690422176706
 20
5.013136352600668
 10
5.058157912552363
 20
1.095673373491763
 10
5.076413282682712
 20
1.095673373491763
 10
7.382430158279476
 20
5.013136352600668
 97
        4
330
7EA4
330
7EA9
330
7EA3
330
7EA7
 75
     0
 76
     1
 47
0.057765
 98
        1
 10
5.461965
 20
4.283681
  0
LINE
  5
7EA3
102
{ACAD_REACTORS
330
7EA2
102
}
330
7EA0
100
AcDbEntity
  8
1
100
AcDbLine
 10
7.376974
 20
1.095673
 30
0.0
 11
2.719445
 21
1.095673
 31
0.0
  0
LINE
  5
7EA4
102
{ACAD_REACTORS
330
7EA2
102
}
330
7EA0
100
AcDbEntity
  8
1
100
AcDbLine
 10
2.716507
 20
5.013136
 30
0.0
 11
7.38243
 21
5.013136
 31
0.0
  0
LINE
  5
7EA5
102
{ACAD_REACTORS
330
7EA1
102
}
330
7EA0
100
AcDbEntity
  8
1
100
AcDbLine
 10
7.376974
 20
1.095673
 30
0.0
 11
2.719445
 21
1.095673
 31
0.0
  0
LINE
  5
7EA6
102
{ACAD_REACTORS
330
7EA1
102
}
330
7EA0
100
AcDbEntity
  8
1
100
AcDbLine
 10
2.716507
 20
5.013136
 30
0.0
 11
7.38243
 21
5.013136
 31
0.0
  0
LINE
  5
7EA7
102
{ACAD_REACTORS
330
7EA2
102
}
330
7EA0
100
AcDbEntity
  8
1
100
AcDbLine
 10
7.38243
 20
5.013136
 30
0.0
 11
5.049469
 21
1.0499
 31
0.0
  0
LINE
  5
7EA8
102
{ACAD_REACTORS
330
7EA1
102
}
330
7EA0
100
AcDbEntity
  8
1
100
AcDbLine
 10
7.38243
 20
5.013136
 30
0.0
 11
5.049469
 21
1.0499
 31
0.0
  0
LINE
  5
7EA9
102
{ACAD_REACTORS
330
7EA2
102
}
330
7EA0
100
AcDbEntity
  8
1
100
AcDbLine
 10
5.048209
 20
1.112376
 30
0.0
 11
2.719445
 21
5.021942
 31
0.0
  0
LINE
  5
7EAA
102
{ACAD_REACTORS
330
7EA1
102
}
330
7EA0
100
AcDbEntity
  8
1
100
AcDbLine
 10
5.048209
 20
1.112376
 30
0.0
 11
2.719445
 21
5.021942
 31
0.0
  0
LINE
  5
7EAB
330
7EA0
100
AcDbEntity
  8
1
100
AcDbLine
 10
3.176777
 20
2.240563
 30
0.0
 11
1.859991
 21
0.714974
 31
0.0
  0
LINE
  5
7EAC
330
7EA0
100
AcDbEntity
  8
1
100
AcDbLine
 10
1.935572
 20
2.29404
 30
0.0
 11
0.618786
 21
0.768452
 31
0.0
  0
HATCH
  5
7EAD
330
7EA0
100
AcDbEntity
  8
1
100
AcDbHatch
 10
0.0
 20
0.0
 30
0.0
210
0.0
220
0.0
230
1.0
  2
SOLID
 70
     1
 71
     0
 91
        1
 92
        7
 72
     0
 73
     1
 93
        3
 10
2.13435432304297
 20
0.5079866047149438
 10
1.594971700028992
 20
0.9149117569309055
 10
1.241204476589189
 20
0.0000001052034975
 97
        0
 75
     0
 76
     1
 47
0.009825
 98
        1
 10
1.617082
 20
0.370646
  0
HATCH
  5
7EAE
330
7EA0
100
AcDbEntity
  8
1
100
AcDbHatch
 10
0.0
 20
0.0
 30
0.0
210
0.0
220
0.0
230
1.0
  2
SOLID
 70
     1
 71
     0
 91
        1
 92
        7
 72
     0
 73
     1
 93
        3
 10
0.8931496793437361
 20
0.5614642425206
 10
0.3537670563297865
 20
0.9683893947365334
 10
-0.0000001671100733
 20
0.0534777430091538
 97
        0
 75
     0
 76
     1
 47
0.009825
 98
        1
 10
0.375878
 20
0.424123
  0
ENDBLK
  5
7EB0
330
7EA0
100
AcDbEntity
  8
0
100
AcDbBlockEnd
  0
BLOCK
  5
C4FC
330
C4F7
100
AcDbEntity
  8
0
100
AcDbBlockBegin
  2
_DOT
 70
     0
 10
0.0
 20
0.0
 30
0.0
  3
_DOT
  1
_DOT
  0
LWPOLYLINE
  5
C4F8
330
C4F7
100
AcDbEntity
  8
0
  6
BYBLOCK
 62
     0
100
AcDbPolyline
 90
        2
 70
     1
 43
0.5
 10
-0.25
 20
0.0
 42
1.0
 10
0.25
 20
0.0
 42
1.0
  0
LINE
  5
C4F9
330
C4F7
100
AcDbEntity
  8
0
  6
BYBLOCK
 62
     0
100
AcDbLine
 10
-0.5
 20
0.0
 30
0.0
 11
-1.0
 21
0.0
 31
0.0
  0
ENDBLK
  5
C4FD
330
C4F7
100
AcDbEntity
  8
0
100
AcDbBlockEnd
  0
BLOCK
  5
13342
330
13341
100
AcDbEntity
  8
0
100
AcDbBlockBegin
  2
_NONE
 70
     0
 10
0.0
 20
0.0
 30
0.0
  3
_NONE
  1
_NONE
  0
ENDBLK
  5
13343
330
13341
100
AcDbEntity
  8
0
100
AcDbBlockEnd
  0
BLOCK
  5
13347
330
13346
100
AcDbEntity
  8
0
100
AcDbBlockBegin
  2
_OBLIQUE
 70
     0
 10
0.0
 20
0.0
 30
0.0
  3
_OBLIQUE
  1
_OBLIQUE
  0
LINE
  5
13349
330
13346
100
AcDbEntity
  8
0
  6
BYBLOCK
 62
     0
100
AcDbLine
 10
-0.5
 20
-0.5
 30
0.0
 11
0.5
 21
0.5
 31
0.0
  0
ENDBLK
  5
13348
330
13346
100
AcDbEntity
  8
0
100
AcDbBlockEnd
  0
BLOCK
  5
1357B
330
1357A
100
AcDbEntity
  8
0
100
AcDbBlockBegin
  2
SW_CENTERMARKSYMBOL_0
 70
     0
 10
0.0
 20
0.0
 30
0.0
  3
SW_CENTERMARKSYMBOL_0
  1
SW_CENTERMARKSYMBOL_0
  0
LINE
  5
1357C
330
1357A
100
AcDbEntity
  8
0
  6
CONTINUOUS
 62
     0
100
AcDbLine
 10
0.0
 20
0.0
 30
0.0
 11
0.0
 21
2.500000000000002
 31
0.0
  0
LINE
  5
1357D
330
1357A
100
AcDbEntity
  8
0
  6
CONTINUOUS
 62
     0
100
AcDbLine
 10
0.0
 20
0.0
 30
0.0
 11
-2.500000000000002
 21
0.0
 31
0.0
  0
LINE
  5
1357E
330
1357A
100
AcDbEntity
  8
0
  6
CONTINUOUS
 62
     0
100
AcDbLine
 10
0.0
 20
0.0
 30
0.0
 11
0.0
 21
-2.500000000000002
 31
0.0
  0
LINE
  5
1357F
330
1357A
100
AcDbEntity
  8
0
  6
CONTINUOUS
 62
     0
100
AcDbLine
 10
0.0
 20
0.0
 30
0.0
 11
2.500000000000002
 21
0.0
 31
0.0
  0
LINE
  5
13580
330
1357A
100
AcDbEntity
  8
0
  6
CONTINUOUS
 62
     0
100
AcDbLine
 10
0.0
 20
2.500000000000002
 30
0.0
 11
0.0
 21
3.099999999999992
 31
0.0
  0
LINE
  5
13581
330
1357A
100
AcDbEntity
  8
0
  6
CONTINUOUS
 62
     0
100
AcDbLine
 10
-2.500000000000002
 20
0.0
 30
0.0
 11
-3.100000000000005
 21
0.0
 31
0.0
  0
LINE
  5
13582
330
1357A
100
AcDbEntity
  8
0
  6
CONTINUOUS
 62
     0
100
AcDbLine
 10
0.0
 20
-2.500000000000002
 30
0.0
 11
0.0
 21
-3.099999999999992
 31
0.0
  0
LINE
  5
13583
330
1357A
100
AcDbEntity
  8
0
  6
CONTINUOUS
 62
     0
100
AcDbLine
 10
2.500000000000002
 20
0.0
 30
0.0
 11
3.099999999999992
 21
0.0
 31
0.0
  0
ENDBLK
  5
13584
330
1357A
100
AcDbEntity
  8
0
100
AcDbBlockEnd
  0
BLOCK
  5
13587
330
13586
100
AcDbEntity
  8
0
100
AcDbBlockBegin
  2
SW_CENTERMARKSYMBOL_1
 70
     0
 10
0.0
 20
0.0
 30
0.0
  3
SW_CENTERMARKSYMBOL_1
  1
SW_CENTERMARKSYMBOL_1
  0
LINE
  5
13588
330
13586
100
AcDbEntity
  8
0
  6
CONTINUOUS
 62
     0
100
AcDbLine
 10
0.0
 20
0.0
 30
0.0
 11
0.0
 21
2.500000000000002
 31
0.0
  0
LINE
  5
13589
330
13586
100
AcDbEntity
  8
0
  6
CONTINUOUS
 62
     0
100
AcDbLine
 10
0.0
 20
0.0
 30
0.0
 11
-2.500000000000002
 21
0.0
 31
0.0
  0
LINE
  5
1358A
330
13586
100
AcDbEntity
  8
0
  6
CONTINUOUS
 62
     0
100
AcDbLine
 10
0.0
 20
0.0
 30
0.0
 11
0.0
 21
-2.500000000000002
 31
0.0
  0
LINE
  5
1358B
330
13586
100
AcDbEntity
  8
0
  6
CONTINUOUS
 62
     0
100
AcDbLine
 10
0.0
 20
0.0
 30
0.0
 11
2.500000000000002
 21
0.0
 31
0.0
  0
LINE
  5
1358C
330
13586
100
AcDbEntity
  8
0
  6
CONTINUOUS
 62
     0
100
AcDbLine
 10
0.0
 20
2.500000000000002
 30
0.0
 11
0.0
 21
3.099999999999992
 31
0.0
  0
LINE
  5
1358D
330
13586
100
AcDbEntity
  8
0
  6
CONTINUOUS
 62
     0
100
AcDbLine
 10
-2.500000000000002
 20
0.0
 30
0.0
 11
-3.100000000000005
 21
0.0
 31
0.0
  0
LINE
  5
1358E
330
13586
100
AcDbEntity
  8
0
  6
CONTINUOUS
 62
     0
100
AcDbLine
 10
0.0
 20
-2.500000000000002
 30
0.0
 11
0.0
 21
-3.099999999999992
 31
0.0
  0
LINE
  5
1358F
330
13586
100
AcDbEntity
  8
0
  6
CONTINUOUS
 62
     0
100
AcDbLine
 10
2.500000000000002
 20
0.0
 30
0.0
 11
3.099999999999992
 21
0.0
 31
0.0
  0
ENDBLK
  5
13590
330
13586
100
AcDbEntity
  8
0
100
AcDbBlockEnd
  0
BLOCK
  5
13593
330
13592
100
AcDbEntity
  8
0
100
AcDbBlockBegin
  2
SW_CENTERMARKSYMBOL_2
 70
     0
 10
0.0
 20
0.0
 30
0.0
  3
SW_CENTERMARKSYMBOL_2
  1
SW_CENTERMARKSYMBOL_2
  0
LINE
  5
13594
330
13592
100
AcDbEntity
  8
0
  6
CONTINUOUS
 62
     0
100
AcDbLine
 10
0.0
 20
0.0
 30
0.0
 11
0.0
 21
2.500000000000002
 31
0.0
  0
LINE
  5
13595
330
13592
100
AcDbEntity
  8
0
  6
CONTINUOUS
 62
     0
100
AcDbLine
 10
0.0
 20
0.0
 30
0.0
 11
-2.500000000000002
 21
0.0
 31
0.0
  0
LINE
  5
13596
330
13592
100
AcDbEntity
  8
0
  6
CONTINUOUS
 62
     0
100
AcDbLine
 10
0.0
 20
0.0
 30
0.0
 11
0.0
 21
-2.500000000000002
 31
0.0
  0
LINE
  5
13597
330
13592
100
AcDbEntity
  8
0
  6
CONTINUOUS
 62
     0
100
AcDbLine
 10
0.0
 20
0.0
 30
0.0
 11
2.500000000000002
 21
0.0
 31
0.0
  0
LINE
  5
13598
330
13592
100
AcDbEntity
  8
0
  6
CONTINUOUS
 62
     0
100
AcDbLine
 10
0.0
 20
2.500000000000002
 30
0.0
 11
0.0
 21
3.049999999999997
 31
0.0
  0
LINE
  5
13599
330
13592
100
AcDbEntity
  8
0
  6
CONTINUOUS
 62
     0
100
AcDbLine
 10
-2.500000000000002
 20
0.0
 30
0.0
 11
-3.050000000000011
 21
0.0
 31
0.0
  0
LINE
  5
1359A
330
13592
100
AcDbEntity
  8
0
  6
CONTINUOUS
 62
     0
100
AcDbLine
 10
0.0
 20
-2.500000000000002
 30
0.0
 11
0.0
 21
-3.049999999999997
 31
0.0
  0
LINE
  5
1359B
330
13592
100
AcDbEntity
  8
0
  6
CONTINUOUS
 62
     0
100
AcDbLine
 10
2.500000000000002
 20
0.0
 30
0.0
 11
3.049999999999997
 21
0.0
 31
0.0
  0
ENDBLK
  5
1359C
330
13592
100
AcDbEntity
  8
0
100
AcDbBlockEnd
  0
BLOCK
  5
140D4
330
140D3
100
AcDbEntity
  8
0
100
AcDbBlockBegin
  2
SW_CENTERMARKSYMBOL_3
 70
     0
 10
0.0
 20
0.0
 30
0.0
  3
SW_CENTERMARKSYMBOL_3
  1
SW_CENTERMARKSYMBOL_3
  0
LINE
  5
140D5
330
140D3
100
AcDbEntity
  8
0
  6
CONTINUOUS
 62
     0
100
AcDbLine
 10
0.0
 20
0.0
 30
0.0
 11
0.0
 21
2.500000000000002
 31
0.0
  0
LINE
  5
140D6
330
140D3
100
AcDbEntity
  8
0
  6
CONTINUOUS
 62
     0
100
AcDbLine
 10
0.0
 20
0.0
 30
0.0
 11
-2.500000000000002
 21
0.0
 31
0.0
  0
LINE
  5
140D7
330
140D3
100
AcDbEntity
  8
0
  6
CONTINUOUS
 62
     0
100
AcDbLine
 10
0.0
 20
0.0
 30
0.0
 11
0.0
 21
-2.500000000000002
 31
0.0
  0
LINE
  5
140D8
330
140D3
100
AcDbEntity
  8
0
  6
CONTINUOUS
 62
     0
100
AcDbLine
 10
0.0
 20
0.0
 30
0.0
 11
2.500000000000002
 21
0.0
 31
0.0
  0
LINE
  5
140D9
330
140D3
100
AcDbEntity
  8
0
  6
CONTINUOUS
 62
     0
100
AcDbLine
 10
0.0
 20
2.500000000000002
 30
0.0
 11
0.0
 21
4.994484940947341
 31
0.0
  0
LINE
  5
140DA
330
140D3
100
AcDbEntity
  8
0
  6
CONTINUOUS
 62
     0
100
AcDbLine
 10
-2.500000000000002
 20
0.0
 30
0.0
 11
-4.994484940947341
 21
0.0
 31
0.0
  0
LINE
  5
140DB
330
140D3
100
AcDbEntity
  8
0
  6
CONTINUOUS
 62
     0
100
AcDbLine
 10
0.0
 20
-2.500000000000002
 30
0.0
 11
0.0
 21
-4.994484940947369
 31
0.0
  0
LINE
  5
140DC
330
140D3
100
AcDbEntity
  8
0
  6
CONTINUOUS
 62
     0
100
AcDbLine
 10
2.500000000000002
 20
0.0
 30
0.0
 11
4.994484940947369
 21
0.0
 31
0.0
  0
ENDBLK
  5
140DD
330
140D3
100
AcDbEntity
  8
0
100
AcDbBlockEnd
  0
BLOCK
  5
140E0
330
140DF
100
AcDbEntity
  8
0
100
AcDbBlockBegin
  2
SW_CENTERMARKSYMBOL_4
 70
     0
 10
0.0
 20
0.0
 30
0.0
  3
SW_CENTERMARKSYMBOL_4
  1
SW_CENTERMARKSYMBOL_4
  0
LINE
  5
140E1
330
140DF
100
AcDbEntity
  8
0
  6
CONTINUOUS
 62
     0
100
AcDbLine
 10
0.0
 20
0.0
 30
0.0
 11
0.0
 21
2.500000000000002
 31
0.0
  0
LINE
  5
140E2
330
140DF
100
AcDbEntity
  8
0
  6
CONTINUOUS
 62
     0
100
AcDbLine
 10
0.0
 20
0.0
 30
0.0
 11
-2.500000000000002
 21
0.0
 31
0.0
  0
LINE
  5
140E3
330
140DF
100
AcDbEntity
  8
0
  6
CONTINUOUS
 62
     0
100
AcDbLine
 10
0.0
 20
0.0
 30
0.0
 11
0.0
 21
-2.500000000000002
 31
0.0
  0
LINE
  5
140E4
330
140DF
100
AcDbEntity
  8
0
  6
CONTINUOUS
 62
     0
100
AcDbLine
 10
0.0
 20
0.0
 30
0.0
 11
2.500000000000002
 21
0.0
 31
0.0
  0
LINE
  5
140E5
330
140DF
100
AcDbEntity
  8
0
  6
CONTINUOUS
 62
     0
100
AcDbLine
 10
0.0
 20
5.000000000000004
 30
0.0
 11
0.0
 21
5.148285779730477
 31
0.0
  0
LINE
  5
140E6
330
140DF
100
AcDbEntity
  8
0
  6
CONTINUOUS
 62
     0
100
AcDbLine
 10
-5.000000000000004
 20
0.0
 30
0.0
 11
-5.14828577973045
 21
0.0
 31
0.0
  0
LINE
  5
140E7
330
140DF
100
AcDbEntity
  8
0
  6
CONTINUOUS
 62
     0
100
AcDbLine
 10
0.0
 20
-4.999999999999977
 30
0.0
 11
0.0
 21
-5.14828577973045
 31
0.0
  0
LINE
  5
140E8
330
140DF
100
AcDbEntity
  8
0
  6
CONTINUOUS
 62
     0
100
AcDbLine
 10
5.000000000000004
 20
0.0
 30
0.0
 11
5.148285779730477
 21
0.0
 31
0.0
  0
ENDBLK
  5
140E9
330
140DF
100
AcDbEntity
  8
0
100
AcDbBlockEnd
  0
BLOCK
  5
140EC
330
140EB
100
AcDbEntity
  8
0
100
AcDbBlockBegin
  2
SW_CENTERMARKSYMBOL_5
 70
     0
 10
0.0
 20
0.0
 30
0.0
  3
SW_CENTERMARKSYMBOL_5
  1
SW_CENTERMARKSYMBOL_5
  0
LINE
  5
140ED
330
140EB
100
AcDbEntity
  8
0
  6
CONTINUOUS
 62
     0
100
AcDbLine
 10
0.0
 20
0.0
 30
0.0
 11
0.0
 21
2.500000000000002
 31
0.0
  0
LINE
  5
140EE
330
140EB
100
AcDbEntity
  8
0
  6
CONTINUOUS
 62
     0
100
AcDbLine
 10
0.0
 20
0.0
 30
0.0
 11
-2.500000000000002
 21
0.0
 31
0.0
  0
LINE
  5
140EF
330
140EB
100
AcDbEntity
  8
0
  6
CONTINUOUS
 62
     0
100
AcDbLine
 10
0.0
 20
0.0
 30
0.0
 11
0.0
 21
-2.499999999999974
 31
0.0
  0
LINE
  5
140F0
330
140EB
100
AcDbEntity
  8
0
  6
CONTINUOUS
 62
     0
100
AcDbLine
 10
0.0
 20
0.0
 30
0.0
 11
2.500000000000002
 21
0.0
 31
0.0
  0
LINE
  5
140F1
330
140EB
100
AcDbEntity
  8
0
  6
CONTINUOUS
 62
     0
100
AcDbLine
 10
0.0
 20
2.500000000000002
 30
0.0
 11
0.0
 21
4.994484940947369
 31
0.0
  0
LINE
  5
140F2
330
140EB
100
AcDbEntity
  8
0
  6
CONTINUOUS
 62
     0
100
AcDbLine
 10
-2.500000000000002
 20
0.0
 30
0.0
 11
-4.994484940947341
 21
0.0
 31
0.0
  0
LINE
  5
140F3
330
140EB
100
AcDbEntity
  8
0
  6
CONTINUOUS
 62
     0
100
AcDbLine
 10
0.0
 20
-2.499999999999974
 30
0.0
 11
0.0
 21
-4.994484940947341
 31
0.0
  0
LINE
  5
140F4
330
140EB
100
AcDbEntity
  8
0
  6
CONTINUOUS
 62
     0
100
AcDbLine
 10
2.500000000000002
 20
0.0
 30
0.0
 11
4.994484940947369
 21
0.0
 31
0.0
  0
ENDBLK
  5
140F5
330
140EB
100
AcDbEntity
  8
0
100
AcDbBlockEnd
  0
BLOCK
  5
140F8
330
140F7
100
AcDbEntity
  8
0
100
AcDbBlockBegin
  2
SW_CENTERMARKSYMBOL_6
 70
     0
 10
0.0
 20
0.0
 30
0.0
  3
SW_CENTERMARKSYMBOL_6
  1
SW_CENTERMARKSYMBOL_6
  0
LINE
  5
140F9
330
140F7
100
AcDbEntity
  8
0
  6
CONTINUOUS
 62
     0
100
AcDbLine
 10
0.0
 20
0.0
 30
0.0
 11
0.0
 21
2.500000000000002
 31
0.0
  0
LINE
  5
140FA
330
140F7
100
AcDbEntity
  8
0
  6
CONTINUOUS
 62
     0
100
AcDbLine
 10
0.0
 20
0.0
 30
0.0
 11
-2.500000000000002
 21
0.0
 31
0.0
  0
LINE
  5
140FB
330
140F7
100
AcDbEntity
  8
0
  6
CONTINUOUS
 62
     0
100
AcDbLine
 10
0.0
 20
0.0
 30
0.0
 11
0.0
 21
-2.500000000000002
 31
0.0
  0
LINE
  5
140FC
330
140F7
100
AcDbEntity
  8
0
  6
CONTINUOUS
 62
     0
100
AcDbLine
 10
0.0
 20
0.0
 30
0.0
 11
2.500000000000002
 21
0.0
 31
0.0
  0
LINE
  5
140FD
330
140F7
100
AcDbEntity
  8
0
  6
CONTINUOUS
 62
     0
100
AcDbLine
 10
0.0
 20
5.000000000000004
 30
0.0
 11
0.0
 21
5.148285779730005
 31
0.0
  0
LINE
  5
140FE
330
140F7
100
AcDbEntity
  8
0
  6
CONTINUOUS
 62
     0
100
AcDbLine
 10
-5.000000000000004
 20
0.0
 30
0.0
 11
-5.148285779730005
 21
0.0
 31
0.0
  0
LINE
  5
140FF
330
140F7
100
AcDbEntity
  8
0
  6
CONTINUOUS
 62
     0
100
AcDbLine
 10
0.0
 20
-5.000000000000004
 30
0.0
 11
0.0
 21
-5.148285779730005
 31
0.0
  0
LINE
  5
14100
330
140F7
100
AcDbEntity
  8
0
  6
CONTINUOUS
 62
     0
100
AcDbLine
 10
5.000000000000004
 20
0.0
 30
0.0
 11
5.148285779730005
 21
0.0
 31
0.0
  0
ENDBLK
  5
14101
330
140F7
100
AcDbEntity
  8
0
100
AcDbBlockEnd
  0
BLOCK
  5
14104
330
14103
100
AcDbEntity
  8
0
100
AcDbBlockBegin
  2
SW_CENTERMARKSYMBOL_7
 70
     0
 10
0.0
 20
0.0
 30
0.0
  3
SW_CENTERMARKSYMBOL_7
  1
SW_CENTERMARKSYMBOL_7
  0
LINE
  5
14105
330
14103
100
AcDbEntity
  8
0
  6
CONTINUOUS
 62
     0
100
AcDbLine
 10
0.0
 20
0.0
 30
0.0
 11
0.0
 21
2.500000000000002
 31
0.0
  0
LINE
  5
14106
330
14103
100
AcDbEntity
  8
0
  6
CONTINUOUS
 62
     0
100
AcDbLine
 10
0.0
 20
0.0
 30
0.0
 11
-2.500000000000002
 21
0.0
 31
0.0
  0
LINE
  5
14107
330
14103
100
AcDbEntity
  8
0
  6
CONTINUOUS
 62
     0
100
AcDbLine
 10
0.0
 20
0.0
 30
0.0
 11
0.0
 21
-2.500000000000002
 31
0.0
  0
LINE
  5
14108
330
14103
100
AcDbEntity
  8
0
  6
CONTINUOUS
 62
     0
100
AcDbLine
 10
0.0
 20
0.0
 30
0.0
 11
2.500000000000002
 21
0.0
 31
0.0
  0
LINE
  5
14109
330
14103
100
AcDbEntity
  8
0
  6
CONTINUOUS
 62
     0
100
AcDbLine
 10
0.0
 20
2.500000000000002
 30
0.0
 11
0.0
 21
4.396509385747454
 31
0.0
  0
LINE
  5
1410A
330
14103
100
AcDbEntity
  8
0
  6
CONTINUOUS
 62
     0
100
AcDbLine
 10
-2.500000000000002
 20
0.0
 30
0.0
 11
-4.396509385747454
 21
0.0
 31
0.0
  0
LINE
  5
1410B
330
14103
100
AcDbEntity
  8
0
  6
CONTINUOUS
 62
     0
100
AcDbLine
 10
0.0
 20
-2.500000000000002
 30
0.0
 11
0.0
 21
-4.396509385747454
 31
0.0
  0
LINE
  5
1410C
330
14103
100
AcDbEntity
  8
0
  6
CONTINUOUS
 62
     0
100
AcDbLine
 10
2.500000000000002
 20
0.0
 30
0.0
 11
4.396509385747454
 21
0.0
 31
0.0
  0
ENDBLK
  5
1410D
330
14103
100
AcDbEntity
  8
0
100
AcDbBlockEnd
  0
BLOCK
  5
14110
330
1410F
100
AcDbEntity
  8
0
100
AcDbBlockBegin
  2
SW_CENTERMARKSYMBOL_8
 70
     0
 10
0.0
 20
0.0
 30
0.0
  3
SW_CENTERMARKSYMBOL_8
  1
SW_CENTERMARKSYMBOL_8
  0
LINE
  5
14111
330
1410F
100
AcDbEntity
  8
0
  6
CONTINUOUS
 62
     0
100
AcDbLine
 10
0.0
 20
0.0
 30
0.0
 11
0.0
 21
2.500000000000002
 31
0.0
  0
LINE
  5
14112
330
1410F
100
AcDbEntity
  8
0
  6
CONTINUOUS
 62
     0
100
AcDbLine
 10
0.0
 20
0.0
 30
0.0
 11
-2.499999999999988
 21
0.0
 31
0.0
  0
LINE
  5
14113
330
1410F
100
AcDbEntity
  8
0
  6
CONTINUOUS
 62
     0
100
AcDbLine
 10
0.0
 20
0.0
 30
0.0
 11
0.0
 21
-2.499999999999974
 31
0.0
  0
LINE
  5
14114
330
1410F
100
AcDbEntity
  8
0
  6
CONTINUOUS
 62
     0
100
AcDbLine
 10
0.0
 20
0.0
 30
0.0
 11
2.500000000000002
 21
0.0
 31
0.0
  0
LINE
  5
14115
330
1410F
100
AcDbEntity
  8
0
  6
CONTINUOUS
 62
     0
100
AcDbLine
 10
0.0
 20
2.500000000000002
 30
0.0
 11
0.0
 21
4.396509385855424
 31
0.0
  0
LINE
  5
14116
330
1410F
100
AcDbEntity
  8
0
  6
CONTINUOUS
 62
     0
100
AcDbLine
 10
-2.499999999999988
 20
0.0
 30
0.0
 11
-4.39650938585541
 21
0.0
 31
0.0
  0
LINE
  5
14117
330
1410F
100
AcDbEntity
  8
0
  6
CONTINUOUS
 62
     0
100
AcDbLine
 10
0.0
 20
-2.499999999999974
 30
0.0
 11
0.0
 21
-4.396509385855396
 31
0.0
  0
LINE
  5
14118
330
1410F
100
AcDbEntity
  8
0
  6
CONTINUOUS
 62
     0
100
AcDbLine
 10
2.500000000000002
 20
0.0
 30
0.0
 11
4.39650938585541
 21
0.0
 31
0.0
  0
ENDBLK
  5
14119
330
1410F
100
AcDbEntity
  8
0
100
AcDbBlockEnd
  0
BLOCK
  5
1411C
330
1411B
100
AcDbEntity
  8
0
100
AcDbBlockBegin
  2
SW_CENTERMARKSYMBOL_9
 70
     0
 10
0.0
 20
0.0
 30
0.0
  3
SW_CENTERMARKSYMBOL_9
  1
SW_CENTERMARKSYMBOL_9
  0
LINE
  5
1411D
330
1411B
100
AcDbEntity
  8
0
  6
CONTINUOUS
 62
     0
100
AcDbLine
 10
0.0
 20
0.0
 30
0.0
 11
0.0
 21
2.500000000000002
 31
0.0
  0
LINE
  5
1411E
330
1411B
100
AcDbEntity
  8
0
  6
CONTINUOUS
 62
     0
100
AcDbLine
 10
0.0
 20
0.0
 30
0.0
 11
-2.500000000000002
 21
0.0
 31
0.0
  0
LINE
  5
1411F
330
1411B
100
AcDbEntity
  8
0
  6
CONTINUOUS
 62
     0
100
AcDbLine
 10
0.0
 20
0.0
 30
0.0
 11
0.0
 21
-2.500000000000002
 31
0.0
  0
LINE
  5
14120
330
1411B
100
AcDbEntity
  8
0
  6
CONTINUOUS
 62
     0
100
AcDbLine
 10
0.0
 20
0.0
 30
0.0
 11
2.500000000000002
 21
0.0
 31
0.0
  0
LINE
  5
14121
330
1411B
100
AcDbEntity
  8
0
  6
CONTINUOUS
 62
     0
100
AcDbLine
 10
0.0
 20
2.500000000000002
 30
0.0
 11
0.0
 21
4.700000000000787
 31
0.0
  0
LINE
  5
14122
330
1411B
100
AcDbEntity
  8
0
  6
CONTINUOUS
 62
     0
100
AcDbLine
 10
-2.500000000000002
 20
0.0
 30
0.0
 11
-4.7000000000008
 21
0.0
 31
0.0
  0
LINE
  5
14123
330
1411B
100
AcDbEntity
  8
0
  6
CONTINUOUS
 62
     0
100
AcDbLine
 10
0.0
 20
-2.500000000000002
 30
0.0
 11
0.0
 21
-4.700000000000815
 31
0.0
  0
LINE
  5
14124
330
1411B
100
AcDbEntity
  8
0
  6
CONTINUOUS
 62
     0
100
AcDbLine
 10
2.500000000000002
 20
0.0
 30
0.0
 11
4.7000000000008
 21
0.0
 31
0.0
  0
ENDBLK
  5
14125
330
1411B
100
AcDbEntity
  8
0
100
AcDbBlockEnd
  0
BLOCK
  5
17419
330
17418
100
AcDbEntity
  8
0
100
AcDbBlockBegin
  2
_ARCHTICK
 70
     0
 10
0.0
 20
0.0
 30
0.0
  3
_ARCHTICK
  1
_ARCHTICK
  0
LWPOLYLINE
  5
1741B
330
17418
100
AcDbEntity
  8
0
  6
BYBLOCK
 62
     0
100
AcDbPolyline
 90
        2
 70
     0
 43
0.15
 10
-0.5
 20
-0.5
 10
0.5
 20
0.5
  0
ENDBLK
  5
1741A
330
17418
100
AcDbEntity
  8
0
100
AcDbBlockEnd
  0
BLOCK
  5
1741D
330
1741C
100
AcDbEntity
  8
0
100
AcDbBlockBegin
  2
_INTEGRAL
 70
     0
 10
0.0
 20
0.0
 30
0.0
  3
_INTEGRAL
  1
_INTEGRAL
  0
ARC
  5
1741F
330
1741C
100
AcDbEntity
  8
0
  6
BYBLOCK
 62
     0
100
AcDbCircle
 10
0.444888
 20
-0.091335
 30
0.0
 40
0.4541666700000001
100
AcDbArc
 50
102.0
 51
168.0
  0
ARC
  5
17420
330
1741C
100
AcDbEntity
  8
0
  6
BYBLOCK
 62
     0
100
AcDbCircle
 10
-0.444888
 20
0.091335
 30
0.0
 40
0.4541666700000001
100
AcDbArc
 50
281.9999999999999
 51
348.0
  0
ENDBLK
  5
1741E
330
1741C
100
AcDbEntity
  8
0
100
AcDbBlockEnd
  0
BLOCK
  5
1EF02
330
1EF01
100
AcDbEntity
  8
0
100
AcDbBlockBegin
  2
*D200
 70
     1
 10
0.0
 20
0.0
 30
0.0
  3
*D200
  1
*D200
  0
LINE
  5
1EF04
330
1EF01
100
AcDbEntity
  8
WY
 62
     0
100
AcDbLine
 10
631.7739948070821
 20
165.8825218500708
 30
0.0
 11
641.6335574284982
 21
165.8825218500708
 31
0.0
  0
LINE
  5
1EF05
330
1EF01
100
AcDbEntity
  8
WY
 62
     0
100
AcDbLine
 10
631.7739948070821
 20
161.782521364293
 30
0.0
 11
641.6335574284982
 21
161.782521364293
 31
0.0
  0
LINE
  5
1EF06
330
1EF01
100
AcDbEntity
  8
WY
 62
     0
100
AcDbLine
 10
640.1335574284982
 20
165.8825218500708
 30
0.0
 11
640.1335574284982
 21
161.782521364293
 31
0.0
  0
LINE
  5
1EF07
330
1EF01
100
AcDbEntity
  8
WY
 62
     0
100
AcDbLine
 10
640.1335574284982
 20
167.8825218500708
 30
0.0
 11
640.1335574284982
 21
169.8825218500708
 31
0.0
  0
SOLID
  5
1EF08
330
1EF01
100
AcDbEntity
  8
WY
 62
     0
100
AcDbTrace
 10
639.8002240951648
 20
167.8825218500708
 30
0.0
 11
640.4668907618316
 21
167.8825218500708
 31
0.0
 12
640.1335574284982
 22
165.8825218500708
 32
0.0
 13
640.1335574284982
 23
165.8825218500708
 33
0.0
  0
INSERT
  5
1EF09
330
1EF01
100
AcDbEntity
  8
WY
 62
     0
100
AcDbBlockReference
  2
_OBLIQUE
 10
640.1335574284982
 20
161.782521364293
 30
0.0
 41
2.0
 42
2.0
 43
2.0
 50
180.0
  0
MTEXT
  5
1EF0A
330
1EF01
100
AcDbEntity
  8
WY
 62
     0
100
AcDbMText
 10
638.6335574284982
 20
163.8325216071819
 30
0.0
 40
1.5
 41
0.0
 71
     5
 72
     1
  1
\A1;4.1
 11
0.0
 21
1.0
 31
0.0
  0
POINT
  5
1EF0B
330
1EF01
100
AcDbEntity
  8
DEFPOINTS
 62
     0
100
AcDbPoint
 10
630.2739948070821
 20
165.8825218500708
 30
0.0
  0
POINT
  5
1EF0C
330
1EF01
100
AcDbEntity
  8
DEFPOINTS
 62
     0
100
AcDbPoint
 10
630.2739948070821
 20
161.782521364293
 30
0.0
  0
POINT
  5
1EF39
330
1EF01
100
AcDbEntity
  8
DEFPOINTS
 62
     0
100
AcDbPoint
 10
640.1335574284982
 20
161.782521364293
 30
0.0
  0
ENDBLK
  5
1EF03
330
1EF01
100
AcDbEntity
  8
0
100
AcDbBlockEnd
  0
BLOCK
  5
1EF12
330
1EF11
100
AcDbEntity
  8
0
100
AcDbBlockBegin
  2
*D201
 70
     1
 10
0.0
 20
0.0
 30
0.0
  3
*D201
  1
*D201
  0
LINE
  5
1EF14
330
1EF11
100
AcDbEntity
  8
WY
 62
     0
100
AcDbLine
 10
631.7739948070821
 20
155.4825218217586
 30
0.0
 11
641.6335574284982
 21
155.4825218217586
 31
0.0
  0
LINE
  5
1EF15
330
1EF11
100
AcDbEntity
  8
WY
 62
     0
100
AcDbLine
 10
631.7739948070821
 20
161.782521364293
 30
0.0
 11
641.6335574284982
 21
161.782521364293
 31
0.0
  0
LINE
  5
1EF16
330
1EF11
100
AcDbEntity
  8
WY
 62
     0
100
AcDbLine
 10
640.1335574284982
 20
155.4825218217586
 30
0.0
 11
640.1335574284982
 21
161.782521364293
 31
0.0
  0
MTEXT
  5
1EF17
330
1EF11
100
AcDbEntity
  8
WY
 62
     0
100
AcDbMText
 10
638.6335574284982
 20
158.6325215930258
 30
0.0
 40
1.5
 41
0.0
 71
     5
 72
     1
  1
\A1;6.3
 11
0.0
 21
1.0
 31
0.0
  0
POINT
  5
1EF18
330
1EF11
100
AcDbEntity
  8
DEFPOINTS
 62
     0
100
AcDbPoint
 10
630.2739948070821
 20
155.4825218217586
 30
0.0
  0
POINT
  5
1EF19
330
1EF11
100
AcDbEntity
  8
DEFPOINTS
 62
     0
100
AcDbPoint
 10
630.2739948070821
 20
161.782521364293
 30
0.0
  0
POINT
  5
1EF1A
330
1EF11
100
AcDbEntity
  8
DEFPOINTS
 62
     0
100
AcDbPoint
 10
640.1335574284982
 20
161.782521364293
 30
0.0
  0
ENDBLK
  5
1EF13
330
1EF11
100
AcDbEntity
  8
0
100
AcDbBlockEnd
  0
BLOCK
  5
1EF22
330
1EF21
100
AcDbEntity
  8
0
100
AcDbBlockBegin
  2
*D202
 70
     1
 10
0.0
 20
0.0
 30
0.0
  3
*D202
  1
*D202
  0
LINE
  5
1EF24
330
1EF21
100
AcDbEntity
  8
WY
 62
     0
100
AcDbLine
 10
631.4364572033375
 20
149.182521813563
 30
0.0
 11
641.6335574284982
 21
149.182521813563
 31
0.0
  0
LINE
  5
1EF25
330
1EF21
100
AcDbEntity
  8
WY
 62
     0
100
AcDbLine
 10
631.7739948070821
 20
155.4825218217586
 30
0.0
 11
641.6335574284982
 21
155.4825218217586
 31
0.0
  0
LINE
  5
1EF26
330
1EF21
100
AcDbEntity
  8
WY
 62
     0
100
AcDbLine
 10
640.1335574284982
 20
149.182521813563
 30
0.0
 11
640.1335574284982
 21
155.4825218217586
 31
0.0
  0
LINE
  5
1EF27
330
1EF21
100
AcDbEntity
  8
WY
 62
     0
100
AcDbLine
 10
640.1335574284982
 20
147.182521813563
 30
0.0
 11
640.1335574284982
 21
145.182521813563
 31
0.0
  0
SOLID
  5
1EF28
330
1EF21
100
AcDbEntity
  8
WY
 62
     0
100
AcDbTrace
 10
640.4668907618316
 20
147.182521813563
 30
0.0
 11
639.8002240951648
 21
147.182521813563
 31
0.0
 12
640.1335574284982
 22
149.182521813563
 32
0.0
 13
640.1335574284982
 23
149.182521813563
 33
0.0
  0
INSERT
  5
1EF29
330
1EF21
100
AcDbEntity
  8
WY
 62
     0
100
AcDbBlockReference
  2
_OBLIQUE
 10
640.1335574284982
 20
155.4825218217586
 30
0.0
 41
2.0
 42
2.0
 43
2.0
 50
360.0
  0
MTEXT
  5
1EF2A
330
1EF21
100
AcDbEntity
  8
WY
 62
     0
100
AcDbMText
 10
638.6335574284982
 20
152.3325218176608
 30
0.0
 40
1.5
 41
0.0
 71
     5
 72
     1
  1
\A1;6.3
 11
0.0
 21
1.0
 31
0.0
  0
POINT
  5
1EF2B
330
1EF21
100
AcDbEntity
  8
DEFPOINTS
 62
     0
100
AcDbPoint
 10
629.9364572033375
 20
149.182521813563
 30
0.0
  0
POINT
  5
1EF2C
330
1EF21
100
AcDbEntity
  8
DEFPOINTS
 62
     0
100
AcDbPoint
 10
630.2739948070821
 20
155.4825218217586
 30
0.0
  0
POINT
  5
1EF36
330
1EF21
100
AcDbEntity
  8
DEFPOINTS
 62
     0
100
AcDbPoint
 10
640.1335574284982
 20
155.4825218217586
 30
0.0
  0
ENDBLK
  5
1EF23
330
1EF21
100
AcDbEntity
  8
0
100
AcDbBlockEnd
  0
BLOCK
  5
1EF3E
330
1EF3D
100
AcDbEntity
  8
0
100
AcDbBlockBegin
  2
*D203
 70
     1
 10
0.0
 20
0.0
 30
0.0
  3
*D203
  1
*D203
  0
LINE
  5
1EF40
330
1EF3D
100
AcDbEntity
  8
WY
 62
     0
100
AcDbLine
 10
614.7092651311879
 20
144.9907249067828
 30
0.0
 11
614.7092651311879
 21
127.2806753725957
 31
0.0
  0
LINE
  5
1EF41
330
1EF3D
100
AcDbEntity
  8
WY
 62
     0
100
AcDbLine
 10
627.9092648268316
 20
144.9907249067828
 30
0.0
 11
627.9092648268316
 21
127.2806753725957
 31
0.0
  0
LINE
  5
1EF42
330
1EF3D
100
AcDbEntity
  8
WY
 62
     0
100
AcDbLine
 10
616.7092651311879
 20
128.7806753725957
 30
0.0
 11
625.9092648268316
 21
128.7806753725957
 31
0.0
  0
SOLID
  5
1EF43
330
1EF3D
100
AcDbEntity
  8
WY
 62
     0
100
AcDbTrace
 10
616.7092651311879
 20
129.1140087059291
 30
0.0
 11
616.7092651311879
 21
128.4473420392624
 31
0.0
 12
614.7092651311879
 22
128.7806753725957
 32
0.0
 13
614.7092651311879
 23
128.7806753725957
 33
0.0
  0
SOLID
  5
1EF44
330
1EF3D
100
AcDbEntity
  8
WY
 62
     0
100
AcDbTrace
 10
625.9092648268316
 20
128.4473420392624
 30
0.0
 11
625.9092648268316
 21
129.1140087059291
 31
0.0
 12
627.9092648268316
 22
128.7806753725957
 32
0.0
 13
627.9092648268316
 23
128.7806753725957
 33
0.0
  0
MTEXT
  5
1EF45
330
1EF3D
100
AcDbEntity
  8
WY
 62
     0
100
AcDbMText
 10
621.3092649790098
 20
130.2806753725957
 30
0.0
 40
1.5
 41
0.0
 71
     5
 72
     1
  1
\A1;13.2
  0
POINT
  5
1EF46
330
1EF3D
100
AcDbEntity
  8
DEFPOINTS
 62
     0
100
AcDbPoint
 10
614.7092651311879
 20
146.4907249067828
 30
0.0
  0
POINT
  5
1EF47
330
1EF3D
100
AcDbEntity
  8
DEFPOINTS
 62
     0
100
AcDbPoint
 10
627.9092648268316
 20
146.4907249067828
 30
0.0
  0
POINT
  5
1EF48
330
1EF3D
100
AcDbEntity
  8
DEFPOINTS
 62
     0
100
AcDbPoint
 10
627.9092648268316
 20
128.7806753725957
 30
0.0
  0
ENDBLK
  5
1EF3F
330
1EF3D
100
AcDbEntity
  8
0
100
AcDbBlockEnd
  0
BLOCK
  5
1EF4D
330
1EF4C
100
AcDbEntity
  8
0
100
AcDbBlockBegin
  2
*D204
 70
     1
 10
0.0
 20
0.0
 30
0.0
  3
*D204
  1
*D204
  0
LINE
  5
1EF4F
330
1EF4C
100
AcDbEntity
  8
WY
 62
     0
100
AcDbLine
 10
619.109265107346
 20
151.5741884132426
 30
0.0
 11
619.109265107346
 21
131.38973026255
 31
0.0
  0
LINE
  5
1EF50
330
1EF4C
100
AcDbEntity
  8
WY
 62
     0
100
AcDbLine
 10
623.5092650835041
 20
151.5741884132426
 30
0.0
 11
623.5092650835041
 21
131.38973026255
 31
0.0
  0
LINE
  5
1EF51
330
1EF4C
100
AcDbEntity
  8
WY
 62
     0
100
AcDbLine
 10
619.109265107346
 20
132.88973026255
 30
0.0
 11
623.5092650835041
 21
132.88973026255
 31
0.0
  0
LINE
  5
1EF52
330
1EF4C
100
AcDbEntity
  8
WY
 62
     0
100
AcDbLine
 10
617.109265107346
 20
132.88973026255
 30
0.0
 11
615.109265107346
 21
132.88973026255
 31
0.0
  0
LINE
  5
1EF53
330
1EF4C
100
AcDbEntity
  8
WY
 62
     0
100
AcDbLine
 10
625.5092650835041
 20
132.88973026255
 30
0.0
 11
627.5092650835041
 21
132.88973026255
 31
0.0
  0
SOLID
  5
1EF54
330
1EF4C
100
AcDbEntity
  8
WY
 62
     0
100
AcDbTrace
 10
617.109265107346
 20
132.5563969292166
 30
0.0
 11
617.109265107346
 21
133.2230635958833
 31
0.0
 12
619.109265107346
 22
132.88973026255
 32
0.0
 13
619.109265107346
 23
132.88973026255
 33
0.0
  0
SOLID
  5
1EF55
330
1EF4C
100
AcDbEntity
  8
WY
 62
     0
100
AcDbTrace
 10
625.5092650835041
 20
133.2230635958833
 30
0.0
 11
625.5092650835041
 21
132.5563969292166
 31
0.0
 12
623.5092650835041
 22
132.88973026255
 32
0.0
 13
623.5092650835041
 23
132.88973026255
 33
0.0
  0
MTEXT
  5
1EF56
330
1EF4C
100
AcDbEntity
  8
WY
 62
     0
100
AcDbMText
 10
621.3092650954251
 20
134.38973026255
 30
0.0
 40
1.5
 41
0.0
 71
     5
 72
     1
  1
\A1;4.4
  0
POINT
  5
1EF57
330
1EF4C
100
AcDbEntity
  8
DEFPOINTS
 62
     0
100
AcDbPoint
 10
619.109265107346
 20
153.0741884132426
 30
0.0
  0
POINT
  5
1EF58
330
1EF4C
100
AcDbEntity
  8
DEFPOINTS
 62
     0
100
AcDbPoint
 10
623.5092650835041
 20
153.0741884132426
 30
0.0
  0
POINT
  5
1EF59
330
1EF4C
100
AcDbEntity
  8
DEFPOINTS
 62
     0
100
AcDbPoint
 10
623.5092650835041
 20
132.88973026255
 30
0.0
  0
ENDBLK
  5
1EF4E
330
1EF4C
100
AcDbEntity
  8
0
100
AcDbBlockEnd
  0
BLOCK
  5
1EF5E
330
1EF5D
100
AcDbEntity
  8
0
100
AcDbBlockBegin
  2
*D205
 70
     1
 10
0.0
 20
0.0
 30
0.0
  3
*D205
  1
*D205
  0
LINE
  5
1EF60
330
1EF5D
100
AcDbEntity
  8
WY
 62
     0
100
AcDbLine
 10
632.6579362752863
 20
139.6200218079159
 30
0.0
 11
647.3983720070336
 21
139.6200218079159
 31
0.0
  0
LINE
  5
1EF61
330
1EF5D
100
AcDbEntity
  8
WY
 62
     0
100
AcDbLine
 10
617.6579362752863
 20
173.6200218079159
 30
0.0
 11
647.3983720070336
 21
173.6200218079159
 31
0.0
  0
LINE
  5
1EF62
330
1EF5D
100
AcDbEntity
  8
WY
 62
     0
100
AcDbLine
 10
645.8983720070336
 20
142.1200218079159
 30
0.0
 11
645.8983720070336
 21
171.1200218079159
 31
0.0
  0
SOLID
  5
1EF63
330
1EF5D
100
AcDbEntity
  8
WY
 62
     0
100
AcDbTrace
 10
645.481705340367
 20
142.1200218079159
 30
0.0
 11
646.3150386737002
 21
142.1200218079159
 31
0.0
 12
645.8983720070336
 22
139.6200218079159
 32
0.0
 13
645.8983720070336
 23
139.6200218079159
 33
0.0
  0
SOLID
  5
1EF64
330
1EF5D
100
AcDbEntity
  8
WY
 62
     0
100
AcDbTrace
 10
646.3150386737002
 20
171.1200218079159
 30
0.0
 11
645.481705340367
 21
171.1200218079159
 31
0.0
 12
645.8983720070336
 22
173.6200218079159
 32
0.0
 13
645.8983720070336
 23
173.6200218079159
 33
0.0
  0
MTEXT
  5
1EF65
330
1EF5D
100
AcDbEntity
  8
WY
 62
     0
100
AcDbMText
 10
644.3983720070336
 20
156.6200218079159
 30
0.0
 40
1.5
 41
0.0
 71
     5
 72
     1
  1
\A1;34%%p0.1
 11
0.0
 21
1.0
 31
0.0
  0
POINT
  5
1EF66
330
1EF5D
100
AcDbEntity
  8
DEFPOINTS
 62
     0
100
AcDbPoint
 10
631.1579362752863
 20
139.6200218079159
 30
0.0
  0
POINT
  5
1EF67
330
1EF5D
100
AcDbEntity
  8
DEFPOINTS
 62
     0
100
AcDbPoint
 10
616.1579362752863
 20
173.6200218079159
 30
0.0
  0
POINT
  5
1EF68
330
1EF5D
100
AcDbEntity
  8
DEFPOINTS
 62
     0
100
AcDbPoint
 10
645.8983720070336
 20
173.6200218079159
 30
0.0
  0
ENDBLK
  5
1EF5F
330
1EF5D
100
AcDbEntity
  8
0
100
AcDbBlockEnd
  0
BLOCK
  5
1EF6D
330
1EF6C
100
AcDbEntity
  8
0
100
AcDbBlockBegin
  2
*D206
 70
     1
 10
0.0
 20
0.0
 30
0.0
  3
*D206
  1
*D206
  0
LINE
  5
1EF6F
330
1EF6C
100
AcDbEntity
  8
WY
 62
     0
100
AcDbLine
 10
628.8092650762688
 20
135.7713506088985
 30
0.0
 11
628.8092650762688
 21
122.8777868616842
 31
0.0
  0
LINE
  5
1EF70
330
1EF6C
100
AcDbEntity
  8
WY
 62
     0
100
AcDbLine
 10
613.8092650762688
 20
169.7713506088985
 30
0.0
 11
613.8092650762688
 21
122.8777868616842
 31
0.0
  0
LINE
  5
1EF71
330
1EF6C
100
AcDbEntity
  8
WY
 62
     0
100
AcDbLine
 10
626.3092650762688
 20
124.3777868616842
 30
0.0
 11
616.3092650762688
 21
124.3777868616842
 31
0.0
  0
SOLID
  5
1EF72
330
1EF6C
100
AcDbEntity
  8
WY
 62
     0
100
AcDbTrace
 10
626.3092650762688
 20
123.9611201950176
 30
0.0
 11
626.3092650762688
 21
124.7944535283509
 31
0.0
 12
628.8092650762688
 22
124.3777868616842
 32
0.0
 13
628.8092650762688
 23
124.3777868616842
 33
0.0
  0
SOLID
  5
1EF73
330
1EF6C
100
AcDbEntity
  8
WY
 62
     0
100
AcDbTrace
 10
616.3092650762688
 20
124.7944535283509
 30
0.0
 11
616.3092650762688
 21
123.9611201950176
 31
0.0
 12
613.8092650762688
 22
124.3777868616842
 32
0.0
 13
613.8092650762688
 23
124.3777868616842
 33
0.0
  0
MTEXT
  5
1EF74
330
1EF6C
100
AcDbEntity
  8
WY
 62
     0
100
AcDbMText
 10
621.3092650762688
 20
125.8777868616842
 30
0.0
 40
1.5
 41
0.0
 71
     5
 72
     1
  1
\A1;15%%p0.1
  0
POINT
  5
1EF75
330
1EF6C
100
AcDbEntity
  8
DEFPOINTS
 62
     0
100
AcDbPoint
 10
628.8092650762688
 20
137.2713506088985
 30
0.0
  0
POINT
  5
1EF76
330
1EF6C
100
AcDbEntity
  8
DEFPOINTS
 62
     0
100
AcDbPoint
 10
613.8092650762688
 20
171.2713506088985
 30
0.0
  0
POINT
  5
1EF77
330
1EF6C
100
AcDbEntity
  8
DEFPOINTS
 62
     0
100
AcDbPoint
 10
613.8092650762688
 20
124.3777868616842
 30
0.0
  0
ENDBLK
  5
1EF6E
330
1EF6C
100
AcDbEntity
  8
0
100
AcDbBlockEnd
  0
BLOCK
  5
1EF7C
330
1EF7B
100
AcDbEntity
  8
0
100
AcDbBlockBegin
  2
*D207
 70
     1
 10
0.0
 20
0.0
 30
0.0
  3
*D207
  1
*D207
  0
LINE
  5
1EF7E
330
1EF7B
100
AcDbEntity
  8
WY
 62
     0
100
AcDbLine
 10
542.0983026865338
 20
176.8700215788697
 30
0.0
 11
532.6320822345502
 21
176.8700215788697
 31
0.0
  0
LINE
  5
1EF7F
330
1EF7B
100
AcDbEntity
  8
WY
 62
     0
100
AcDbLine
 10
542.0983026865338
 20
136.3700214596604
 30
0.0
 11
532.6320822345502
 21
136.3700214596604
 31
0.0
  0
LINE
  5
1EF80
330
1EF7B
100
AcDbEntity
  8
WY
 62
     0
100
AcDbLine
 10
534.1320822345502
 20
174.8700215788697
 30
0.0
 11
534.1320822345502
 21
138.3700214596604
 31
0.0
  0
SOLID
  5
1EF81
330
1EF7B
100
AcDbEntity
  8
WY
 62
     0
100
AcDbTrace
 10
534.4654155678836
 20
174.8700215788697
 30
0.0
 11
533.7987489012169
 21
174.8700215788697
 31
0.0
 12
534.1320822345502
 22
176.8700215788697
 32
0.0
 13
534.1320822345502
 23
176.8700215788697
 33
0.0
  0
SOLID
  5
1EF82
330
1EF7B
100
AcDbEntity
  8
WY
 62
     0
100
AcDbTrace
 10
533.7987489012169
 20
138.3700214596604
 30
0.0
 11
534.4654155678836
 21
138.3700214596604
 31
0.0
 12
534.1320822345502
 22
136.3700214596604
 32
0.0
 13
534.1320822345502
 23
136.3700214596604
 33
0.0
  0
MTEXT
  5
1EF83
330
1EF7B
100
AcDbEntity
  8
WY
 62
     0
100
AcDbMText
 10
532.6320822345502
 20
156.6200215192651
 30
0.0
 40
1.5
 41
0.0
 71
     5
 72
     1
  1
\A1;40.5
 11
0.0
 21
1.0
 31
0.0
  0
POINT
  5
1EF84
330
1EF7B
100
AcDbEntity
  8
DEFPOINTS
 62
     0
100
AcDbPoint
 10
543.5983026865338
 20
176.8700215788697
 30
0.0
  0
POINT
  5
1EF85
330
1EF7B
100
AcDbEntity
  8
DEFPOINTS
 62
     0
100
AcDbPoint
 10
543.5983026865338
 20
136.3700214596604
 30
0.0
  0
POINT
  5
1EF86
330
1EF7B
100
AcDbEntity
  8
DEFPOINTS
 62
     0
100
AcDbPoint
 10
534.1320822345502
 20
136.3700214596604
 30
0.0
  0
ENDBLK
  5
1EF7D
330
1EF7B
100
AcDbEntity
  8
0
100
AcDbBlockEnd
  0
BLOCK
  5
1EF8B
330
1EF8A
100
AcDbEntity
  8
0
100
AcDbBlockBegin
  2
*D208
 70
     1
 10
0.0
 20
0.0
 30
0.0
  3
*D208
  1
*D208
  0
LINE
  5
1EF8D
330
1EF8A
100
AcDbEntity
  8
WY
 62
     0
100
AcDbLine
 10
543.5983026865338
 20
134.8700214596604
 30
0.0
 11
543.5983026865338
 21
127.1415670866688
 31
0.0
  0
LINE
  5
1EF8E
330
1EF8A
100
AcDbEntity
  8
WY
 62
     0
100
AcDbLine
 10
546.5983027126108
 20
134.8700214596604
 30
0.0
 11
546.5983027126108
 21
127.1415670866688
 31
0.0
  0
LINE
  5
1EF8F
330
1EF8A
100
AcDbEntity
  8
WY
 62
     0
100
AcDbLine
 10
543.5983026865338
 20
128.6415670866688
 30
0.0
 11
546.5983027126108
 21
128.6415670866688
 31
0.0
  0
LINE
  5
1EF90
330
1EF8A
100
AcDbEntity
  8
WY
 62
     0
100
AcDbLine
 10
541.5983026865338
 20
128.6415670866688
 30
0.0
 11
539.5983026865338
 21
128.6415670866688
 31
0.0
  0
LINE
  5
1EF91
330
1EF8A
100
AcDbEntity
  8
WY
 62
     0
100
AcDbLine
 10
548.5983027126108
 20
128.6415670866688
 30
0.0
 11
550.5983027126108
 21
128.6415670866688
 31
0.0
  0
SOLID
  5
1EF92
330
1EF8A
100
AcDbEntity
  8
WY
 62
     0
100
AcDbTrace
 10
541.5983026865338
 20
128.3082337533355
 30
0.0
 11
541.5983026865338
 21
128.9749004200021
 31
0.0
 12
543.5983026865338
 22
128.6415670866688
 32
0.0
 13
543.5983026865338
 23
128.6415670866688
 33
0.0
  0
SOLID
  5
1EF93
330
1EF8A
100
AcDbEntity
  8
WY
 62
     0
100
AcDbTrace
 10
548.5983027126108
 20
128.9749004200021
 30
0.0
 11
548.5983027126108
 21
128.3082337533355
 31
0.0
 12
546.5983027126108
 22
128.6415670866688
 32
0.0
 13
546.5983027126108
 23
128.6415670866688
 33
0.0
  0
MTEXT
  5
1EF94
330
1EF8A
100
AcDbEntity
  8
WY
 62
     0
100
AcDbMText
 10
545.0983026995723
 20
130.1415670866688
 30
0.0
 40
1.5
 41
0.0
 71
     5
 72
     1
  1
\A1;3
  0
POINT
  5
1EF95
330
1EF8A
100
AcDbEntity
  8
DEFPOINTS
 62
     0
100
AcDbPoint
 10
543.5983026865338
 20
136.3700214596604
 30
0.0
  0
POINT
  5
1EF96
330
1EF8A
100
AcDbEntity
  8
DEFPOINTS
 62
     0
100
AcDbPoint
 10
546.5983027126108
 20
136.3700214596604
 30
0.0
  0
POINT
  5
1EFB5
330
1EF8A
100
AcDbEntity
  8
DEFPOINTS
 62
     0
100
AcDbPoint
 10
546.5983027126108
 20
128.6415670866688
 30
0.0
  0
ENDBLK
  5
1EF8C
330
1EF8A
100
AcDbEntity
  8
0
100
AcDbBlockEnd
  0
BLOCK
  5
1EF9B
330
1EF9A
100
AcDbEntity
  8
0
100
AcDbBlockBegin
  2
*D209
 70
     1
 10
0.0
 20
0.0
 30
0.0
  3
*D209
  1
*D209
  0
LINE
  5
1EF9D
330
1EF9A
100
AcDbEntity
  8
WY
 62
     0
100
AcDbLine
 10
543.5983026865338
 20
134.8700214596604
 30
0.0
 11
543.5983026865338
 21
122.9868374295975
 31
0.0
  0
LINE
  5
1EF9E
330
1EF9A
100
AcDbEntity
  8
WY
 62
     0
100
AcDbLine
 10
554.5983027914504
 20
143.8200218079159
 30
0.0
 11
554.5983027914504
 21
122.9868374295975
 31
0.0
  0
LINE
  5
1EF9F
330
1EF9A
100
AcDbEntity
  8
WY
 62
     0
100
AcDbLine
 10
545.5983026865338
 20
124.4868374295975
 30
0.0
 11
552.5983027914504
 21
124.4868374295975
 31
0.0
  0
SOLID
  5
1EFA0
330
1EF9A
100
AcDbEntity
  8
WY
 62
     0
100
AcDbTrace
 10
545.5983026865338
 20
124.8201707629308
 30
0.0
 11
545.5983026865338
 21
124.1535040962641
 31
0.0
 12
543.5983026865338
 22
124.4868374295975
 32
0.0
 13
543.5983026865338
 23
124.4868374295975
 33
0.0
  0
SOLID
  5
1EFA1
330
1EF9A
100
AcDbEntity
  8
WY
 62
     0
100
AcDbTrace
 10
552.5983027914504
 20
124.1535040962641
 30
0.0
 11
552.5983027914504
 21
124.8201707629308
 31
0.0
 12
554.5983027914504
 22
124.4868374295975
 32
0.0
 13
554.5983027914504
 23
124.4868374295975
 33
0.0
  0
MTEXT
  5
1EFA2
330
1EF9A
100
AcDbEntity
  8
WY
 62
     0
100
AcDbMText
 10
549.0983027389921
 20
125.9868374295975
 30
0.0
 40
1.5
 41
0.0
 71
     5
 72
     1
  1
\A1;11
  0
POINT
  5
1EFA3
330
1EF9A
100
AcDbEntity
  8
DEFPOINTS
 62
     0
100
AcDbPoint
 10
543.5983026865338
 20
136.3700214596604
 30
0.0
  0
POINT
  5
1EFA4
330
1EF9A
100
AcDbEntity
  8
DEFPOINTS
 62
     0
100
AcDbPoint
 10
554.5983027914504
 20
145.3200218079159
 30
0.0
  0
POINT
  5
1EFA5
330
1EF9A
100
AcDbEntity
  8
DEFPOINTS
 62
     0
100
AcDbPoint
 10
554.5983027914504
 20
124.4868374295975
 30
0.0
  0
ENDBLK
  5
1EF9C
330
1EF9A
100
AcDbEntity
  8
0
100
AcDbBlockEnd
  0
BLOCK
  5
1EFAA
330
1EFA9
100
AcDbEntity
  8
0
100
AcDbBlockBegin
  2
*D210
 70
     1
 10
0.0
 20
0.0
 30
0.0
  3
*D210
  1
*D210
  0
LINE
  5
1EFAC
330
1EFA9
100
AcDbEntity
  8
WY
 62
     0
100
AcDbLine
 10
543.5983026865338
 20
134.8700214596604
 30
0.0
 11
543.5983026865338
 21
117.9446897875206
 31
0.0
  0
LINE
  5
1EFAD
330
1EFA9
100
AcDbEntity
  8
WY
 62
     0
100
AcDbLine
 10
561.9483031797622
 20
146.4700217778002
 30
0.0
 11
561.9483031797622
 21
117.9446897875206
 31
0.0
  0
LINE
  5
1EFAE
330
1EFA9
100
AcDbEntity
  8
WY
 62
     0
100
AcDbLine
 10
545.5983026865338
 20
119.4446897875206
 30
0.0
 11
559.9483031797622
 21
119.4446897875206
 31
0.0
  0
SOLID
  5
1EFAF
330
1EFA9
100
AcDbEntity
  8
WY
 62
     0
100
AcDbTrace
 10
545.5983026865338
 20
119.7780231208539
 30
0.0
 11
545.5983026865338
 21
119.1113564541873
 31
0.0
 12
543.5983026865338
 22
119.4446897875206
 32
0.0
 13
543.5983026865338
 23
119.4446897875206
 33
0.0
  0
SOLID
  5
1EFB0
330
1EFA9
100
AcDbEntity
  8
WY
 62
     0
100
AcDbTrace
 10
559.9483031797622
 20
119.1113564541873
 30
0.0
 11
559.9483031797622
 21
119.7780231208539
 31
0.0
 12
561.9483031797622
 22
119.4446897875206
 32
0.0
 13
561.9483031797622
 23
119.4446897875206
 33
0.0
  0
MTEXT
  5
1EFB1
330
1EFA9
100
AcDbEntity
  8
WY
 62
     0
100
AcDbMText
 10
552.773302933148
 20
120.9446897875206
 30
0.0
 40
1.5
 41
0.0
 71
     5
 72
     1
  1
\A1;18.35%%p0.25
  0
POINT
  5
1EFB2
330
1EFA9
100
AcDbEntity
  8
DEFPOINTS
 62
     0
100
AcDbPoint
 10
543.5983026865338
 20
136.3700214596604
 30
0.0
  0
POINT
  5
1EFB3
330
1EFA9
100
AcDbEntity
  8
DEFPOINTS
 62
     0
100
AcDbPoint
 10
561.9483031797622
 20
147.9700217778002
 30
0.0
  0
POINT
  5
1EFB4
330
1EFA9
100
AcDbEntity
  8
DEFPOINTS
 62
     0
100
AcDbPoint
 10
561.9483031797622
 20
119.4446897875206
 30
0.0
  0
ENDBLK
  5
1EFAB
330
1EFA9
100
AcDbEntity
  8
0
100
AcDbBlockEnd
  0
BLOCK
  5
1EFBA
330
1EFB9
100
AcDbEntity
  8
0
100
AcDbBlockBegin
  2
*D211
 70
     1
 10
0.0
 20
0.0
 30
0.0
  3
*D211
  1
*D211
  0
LINE
  5
1EFBC
330
1EFB9
100
AcDbEntity
  8
WY
 62
     0
100
AcDbLine
 10
610.5592656616692
 20
227.2594114546518
 30
0.0
 11
610.5592656616692
 21
207.5538186593026
 31
0.0
  0
LINE
  5
1EFBD
330
1EFB9
100
AcDbEntity
  8
WY
 62
     0
100
AcDbLine
 10
632.0592649948422
 20
227.2594114546518
 30
0.0
 11
632.0592649948422
 21
207.5538186593026
 31
0.0
  0
LINE
  5
1EFBE
330
1EFB9
100
AcDbEntity
  8
WY
 62
     0
100
AcDbLine
 10
612.5592656616692
 20
209.0538186593026
 30
0.0
 11
630.0592649948422
 21
209.0538186593026
 31
0.0
  0
SOLID
  5
1EFBF
330
1EFB9
100
AcDbEntity
  8
WY
 62
     0
100
AcDbTrace
 10
612.5592656616692
 20
209.387151992636
 30
0.0
 11
612.5592656616692
 21
208.7204853259693
 31
0.0
 12
610.5592656616692
 22
209.0538186593026
 32
0.0
 13
610.5592656616692
 23
209.0538186593026
 33
0.0
  0
SOLID
  5
1EFC0
330
1EFB9
100
AcDbEntity
  8
WY
 62
     0
100
AcDbTrace
 10
630.0592649948422
 20
208.7204853259693
 30
0.0
 11
630.0592649948422
 21
209.387151992636
 31
0.0
 12
632.0592649948422
 22
209.0538186593026
 32
0.0
 13
632.0592649948422
 23
209.0538186593026
 33
0.0
  0
MTEXT
  5
1EFC1
330
1EFB9
100
AcDbEntity
  8
WY
 62
     0
100
AcDbMText
 10
621.3092653282557
 20
210.5538186593026
 30
0.0
 40
1.5
 41
0.0
 71
     5
 72
     1
  1
\A1;21.5
  0
POINT
  5
1EFC2
330
1EFB9
100
AcDbEntity
  8
DEFPOINTS
 62
     0
100
AcDbPoint
 10
610.5592656616692
 20
228.7594114546518
 30
0.0
  0
POINT
  5
1EFC3
330
1EFB9
100
AcDbEntity
  8
DEFPOINTS
 62
     0
100
AcDbPoint
 10
632.0592649948422
 20
228.7594114546518
 30
0.0
  0
POINT
  5
1EFC4
330
1EFB9
100
AcDbEntity
  8
DEFPOINTS
 62
     0
100
AcDbPoint
 10
632.0592649948422
 20
209.0538186593026
 30
0.0
  0
ENDBLK
  5
1EFBB
330
1EFB9
100
AcDbEntity
  8
0
100
AcDbBlockEnd
  0
BLOCK
  5
1EFD0
330
1EFCF
100
AcDbEntity
  8
0
100
AcDbBlockBegin
  2
*D212
 70
     1
 10
0.0
 20
0.0
 30
0.0
  3
*D212
  1
*D212
  0
LINE
  5
1EFD2
330
1EFCF
100
AcDbEntity
  8
WY
 62
     0
100
AcDbLine
 10
615.8342650762688
 20
219.5344115099227
 30
0.0
 11
615.8342650762688
 21
210.7807871277305
 31
0.0
  0
LINE
  5
1EFD3
330
1EFCF
100
AcDbEntity
  8
WY
 62
     0
100
AcDbLine
 10
613.5842647139553
 20
219.5344115388433
 30
0.0
 11
613.5842647139553
 21
210.7807871277305
 31
0.0
  0
LINE
  5
1EFD4
330
1EFCF
100
AcDbEntity
  8
WY
 62
     0
100
AcDbLine
 10
615.8342650762688
 20
212.2807871277305
 30
0.0
 11
628.5842650762688
 21
212.2807871277305
 31
0.0
  0
LINE
  5
1EFD5
330
1EFCF
100
AcDbEntity
  8
WY
 62
     0
100
AcDbLine
 10
615.8342650762688
 20
212.2807871277305
 30
0.0
 11
613.5842647139553
 21
212.2807871277305
 31
0.0
  0
LINE
  5
1EFD6
330
1EFCF
100
AcDbEntity
  8
WY
 62
     0
100
AcDbLine
 10
617.8342650762688
 20
212.2807871277305
 30
0.0
 11
619.8342650762688
 21
212.2807871277305
 31
0.0
  0
LINE
  5
1EFD7
330
1EFCF
100
AcDbEntity
  8
WY
 62
     0
100
AcDbLine
 10
611.5842647139553
 20
212.2807871277305
 30
0.0
 11
609.5842647139553
 21
212.2807871277305
 31
0.0
  0
SOLID
  5
1EFD8
330
1EFCF
100
AcDbEntity
  8
WY
 62
     0
100
AcDbTrace
 10
617.8342650762688
 20
212.6141204610638
 30
0.0
 11
617.8342650762688
 21
211.9474537943971
 31
0.0
 12
615.8342650762688
 22
212.2807871277305
 32
0.0
 13
615.8342650762688
 23
212.2807871277305
 33
0.0
  0
SOLID
  5
1EFD9
330
1EFCF
100
AcDbEntity
  8
WY
 62
     0
100
AcDbTrace
 10
611.5842647139553
 20
211.9474537943971
 30
0.0
 11
611.5842647139553
 21
212.6141204610638
 31
0.0
 12
613.5842647139553
 22
212.2807871277305
 32
0.0
 13
613.5842647139553
 23
212.2807871277305
 33
0.0
  0
MTEXT
  5
1EFDA
330
1EFCF
100
AcDbEntity
  8
WY
 62
     0
100
AcDbMText
 10
624.2092650762688
 20
213.7807871277305
 30
0.0
 40
1.5
 41
0.0
 71
     5
 72
     1
  1
\A1;2.3-0.1
  0
POINT
  5
1EFDB
330
1EFCF
100
AcDbEntity
  8
DEFPOINTS
 62
     0
100
AcDbPoint
 10
615.8342650762688
 20
221.0344115099227
 30
0.0
  0
POINT
  5
1EFDC
330
1EFCF
100
AcDbEntity
  8
DEFPOINTS
 62
     0
100
AcDbPoint
 10
613.5842647139553
 20
221.0344115388433
 30
0.0
  0
POINT
  5
1F003
330
1EFCF
100
AcDbEntity
  8
DEFPOINTS
 62
     0
100
AcDbPoint
 10
613.5842647139553
 20
212.2807871277305
 30
0.0
  0
ENDBLK
  5
1EFD1
330
1EFCF
100
AcDbEntity
  8
0
100
AcDbBlockEnd
  0
BLOCK
  5
1EFE1
330
1EFE0
100
AcDbEntity
  8
0
100
AcDbBlockBegin
  2
*D213
 70
     1
 10
0.0
 20
0.0
 30
0.0
  3
*D213
  1
*D213
  0
LINE
  5
1EFE3
330
1EFE0
100
AcDbEntity
  8
WY
 62
     0
100
AcDbLine
 10
554.5983028467213
 20
169.3200222971057
 30
0.0
 11
572.9351342033165
 21
169.3200222971057
 31
0.0
  0
LINE
  5
1EFE4
330
1EFE0
100
AcDbEntity
  8
WY
 62
     0
100
AcDbLine
 10
554.5983028467213
 20
143.9200217891623
 30
0.0
 11
572.9351342033165
 21
143.9200217891623
 31
0.0
  0
LINE
  5
1EFE5
330
1EFE0
100
AcDbEntity
  8
WY
 62
     0
100
AcDbLine
 10
571.4351342033165
 20
167.3200222971057
 30
0.0
 11
571.4351342033165
 21
145.9200217891623
 31
0.0
  0
SOLID
  5
1EFE6
330
1EFE0
100
AcDbEntity
  8
WY
 62
     0
100
AcDbTrace
 10
571.7684675366498
 20
167.3200222971057
 30
0.0
 11
571.1018008699831
 21
167.3200222971057
 31
0.0
 12
571.4351342033165
 22
169.3200222971057
 32
0.0
 13
571.4351342033165
 23
169.3200222971057
 33
0.0
  0
SOLID
  5
1EFE7
330
1EFE0
100
AcDbEntity
  8
WY
 62
     0
100
AcDbTrace
 10
571.1018008699831
 20
145.9200217891623
 30
0.0
 11
571.7684675366498
 21
145.9200217891623
 31
0.0
 12
571.4351342033165
 22
143.9200217891623
 32
0.0
 13
571.4351342033165
 23
143.9200217891623
 33
0.0
  0
MTEXT
  5
1EFE8
330
1EFE0
100
AcDbEntity
  8
WY
 62
     0
100
AcDbMText
 10
569.9351342033165
 20
156.620022043134
 30
0.0
 40
1.5
 41
0.0
 71
     5
 72
     1
  1
\A1;25.4
 11
0.0
 21
1.0
 31
0.0
  0
POINT
  5
1EFE9
330
1EFE0
100
AcDbEntity
  8
DEFPOINTS
 62
     0
100
AcDbPoint
 10
553.0983028467213
 20
169.3200222971057
 30
0.0
  0
POINT
  5
1EFEA
330
1EFE0
100
AcDbEntity
  8
DEFPOINTS
 62
     0
100
AcDbPoint
 10
553.0983028467213
 20
143.9200217891623
 30
0.0
  0
POINT
  5
1EFEB
330
1EFE0
100
AcDbEntity
  8
DEFPOINTS
 62
     0
100
AcDbPoint
 10
571.4351342033165
 20
143.9200217891623
 30
0.0
  0
ENDBLK
  5
1EFE2
330
1EFE0
100
AcDbEntity
  8
0
100
AcDbBlockEnd
  0
BLOCK
  5
1EFF0
330
1EFEF
100
AcDbEntity
  8
0
100
AcDbBlockBegin
  2
*D214
 70
     1
 10
0.0
 20
0.0
 30
0.0
  3
*D214
  1
*D214
  0
LINE
  5
1EFF2
330
1EFEF
100
AcDbEntity
  8
WY
 62
     0
100
AcDbLine
 10
563.4483031797622
 20
164.9200223209475
 30
0.0
 11
568.2172210696931
 21
164.9200223209475
 31
0.0
  0
LINE
  5
1EFF3
330
1EFEF
100
AcDbEntity
  8
WY
 62
     0
100
AcDbLine
 10
563.4483031797622
 20
164.6700218143081
 30
0.0
 11
568.2172210696931
 21
164.6700218143081
 31
0.0
  0
LINE
  5
1EFF4
330
1EFEF
100
AcDbEntity
  8
WY
 62
     0
100
AcDbLine
 10
566.7172210696931
 20
164.6700218143081
 30
0.0
 11
566.7172210696931
 21
153.9200218143081
 31
0.0
  0
LINE
  5
1EFF5
330
1EFEF
100
AcDbEntity
  8
WY
 62
     0
100
AcDbLine
 10
566.7172210696931
 20
164.9200223209475
 30
0.0
 11
566.7172210696931
 21
164.6700218143081
 31
0.0
  0
LINE
  5
1EFF6
330
1EFEF
100
AcDbEntity
  8
WY
 62
     0
100
AcDbLine
 10
566.7172210696931
 20
166.9200223209475
 30
0.0
 11
566.7172210696931
 21
168.9200223209475
 31
0.0
  0
LINE
  5
1EFF7
330
1EFEF
100
AcDbEntity
  8
WY
 62
     0
100
AcDbLine
 10
566.7172210696931
 20
162.6700218143081
 30
0.0
 11
566.7172210696931
 21
160.6700218143081
 31
0.0
  0
SOLID
  5
1EFF8
330
1EFEF
100
AcDbEntity
  8
WY
 62
     0
100
AcDbTrace
 10
566.3838877363597
 20
166.9200223209475
 30
0.0
 11
567.0505544030265
 21
166.9200223209475
 31
0.0
 12
566.7172210696931
 22
164.9200223209475
 32
0.0
 13
566.7172210696931
 23
164.9200223209475
 33
0.0
  0
SOLID
  5
1EFF9
330
1EFEF
100
AcDbEntity
  8
WY
 62
     0
100
AcDbTrace
 10
567.0505544030265
 20
162.6700218143081
 30
0.0
 11
566.3838877363597
 21
162.6700218143081
 31
0.0
 12
566.7172210696931
 22
164.6700218143081
 32
0.0
 13
566.7172210696931
 23
164.6700218143081
 33
0.0
  0
MTEXT
  5
1EFFA
330
1EFEF
100
AcDbEntity
  8
WY
 62
     0
100
AcDbMText
 10
565.2172210696931
 20
156.7950218143081
 30
0.0
 40
1.5
 41
0.0
 71
     5
 72
     1
  1
\A1;0.25
 11
0.0
 21
1.0
 31
0.0
  0
POINT
  5
1EFFB
330
1EFEF
100
AcDbEntity
  8
DEFPOINTS
 62
     0
100
AcDbPoint
 10
561.9483031797622
 20
164.9200223209475
 30
0.0
  0
POINT
  5
1EFFC
330
1EFEF
100
AcDbEntity
  8
DEFPOINTS
 62
     0
100
AcDbPoint
 10
561.9483031797622
 20
164.6700218143081
 30
0.0
  0
POINT
  5
1EFFD
330
1EFEF
100
AcDbEntity
  8
DEFPOINTS
 62
     0
100
AcDbPoint
 10
566.7172210696931
 20
164.6700218143081
 30
0.0
  0
ENDBLK
  5
1EFF1
330
1EFEF
100
AcDbEntity
  8
0
100
AcDbBlockEnd
  0
ENDSEC
  0
SECTION
  2
ENTITIES
  0
LINE
  5
2D2D
330
18
100
AcDbEntity
  8
WYMIARY
 62
     6
100
AcDbLine
 10
486.041244
 20
0.0
 30
0.0
 11
486.041244
 21
297.0
 31
0.0
  0
LINE
  5
2D2E
330
18
100
AcDbEntity
  8
WYMIARY
 62
     6
100
AcDbLine
 10
497.671651
 20
292.0
 30
0.0
 11
497.671651
 21
5.0
 31
0.0
  0
LINE
  5
2D34
330
18
100
AcDbEntity
  8
2
100
AcDbLine
 10
682.671651
 20
5.0
 30
0.0
 11
682.671651
 21
292.0
 31
0.0
  0
LINE
  5
2D35
330
18
100
AcDbEntity
  8
2
100
AcDbLine
 10
687.671651
 20
0.0
 30
0.0
 11
687.671651
 21
297.0
 31
0.0
  0
LINE
  5
2D36
330
18
100
AcDbEntity
  8
WY
  6
CONTINUOUS
 62
     3
100
AcDbLine
 10
682.671651
 20
19.689837
 30
0.0
 11
497.671651
 21
19.689837
 31
0.0
  0
LINE
  5
2D38
330
18
100
AcDbEntity
  8
2
100
AcDbLine
 10
497.671651
 20
5.0
 30
0.0
 11
682.671651
 21
5.0
 31
0.0
  0
LINE
  5
2D39
330
18
100
AcDbEntity
  8
2
 62
     6
100
AcDbLine
 10
497.671651
 20
0.0
 30
0.0
 11
687.671651
 21
0.0
 31
0.0
  0
LINE
  5
2D3A
330
18
100
AcDbEntity
  8
0
100
AcDbLine
 10
529.697667
 20
11.742481
 30
0.0
 11
528.795256
 21
11.742481
 31
0.0
  0
ELLIPSE
  5
2D3B
330
18
100
AcDbEntity
  8
0
100
AcDbEllipse
 10
529.697667
 20
11.742481
 30
0.0
 11
-1.203215696869327
 21
1.967000000000000E-13
 31
0.0
210
0.0
220
0.0
230
1.0
 40
0.958812
 41
-1.570796326794739
 42
0.0000000000001705
  0
TEXT
  5
2D3D
330
18
100
AcDbEntity
  8
1
100
AcDbText
 10
515.607578
 20
8.797457
 30
0.0
 40
5.0
  1
A4
 51
15.0
  7
ITALIC
100
AcDbText
  0
LINE
  5
2D40
330
18
100
AcDbEntity
  8
WYMIARY
 62
     6
100
AcDbLine
 10
497.671651
 20
0.0
 30
0.0
 11
486.041244
 21
0.0
 31
0.0
  0
TEXT
  5
2D42
330
18
100
AcDbEntity
  8
WY
100
AcDbText
 10
502.936765
 20
16.373844
 30
0.0
 40
2.0
  1
Skala
 51
15.0
  7
ITALIC
100
AcDbText
  0
TEXT
  5
2D43
330
18
100
AcDbEntity
  8
WY
100
AcDbText
 10
515.042219
 20
16.329369
 30
0.0
 40
2.0
  1
Format
 51
15.0
  7
ITALIC
100
AcDbText
  0
LINE
  5
2D44
330
18
100
AcDbEntity
  8
0
100
AcDbLine
 10
528.494452
 20
11.742481
 30
0.0
 11
528.795256
 21
11.742481
 31
0.0
  0
LINE
  5
2D45
330
18
100
AcDbEntity
  8
0
100
AcDbLine
 10
559.88722
 20
17.211264
 30
0.0
 11
559.88722
 21
9.015264
 31
0.0
  0
LINE
  5
2D46
330
18
100
AcDbEntity
  8
0
100
AcDbLine
 10
550.89322
 20
9.438264
 30
0.0
 11
550.89322
 21
7.416264
 31
0.0
  0
ARC
  5
2D47
330
18
100
AcDbEntity
  8
0
100
AcDbCircle
 10
551.5428
 20
9.724764
 30
0.0
 40
0.709955
100
AcDbArc
 50
203.80008
 51
272.051918
  0
LINE
  5
2D48
330
18
100
AcDbEntity
  8
0
100
AcDbLine
 10
549.34822
 20
7.416264
 30
0.0
 11
549.34822
 21
15.612264
 31
0.0
  0
ARC
  5
2D49
330
18
100
AcDbEntity
  8
0
100
AcDbCircle
 10
551.982126
 20
10.136416
 30
0.0
 40
1.128907
100
AcDbArc
 50
276.719576
 51
2.175194
  0
ARC
  5
2D4A
330
18
100
AcDbEntity
  8
0
100
AcDbCircle
 10
555.243059
 20
10.503572
 30
0.0
 40
1.488419
100
AcDbArc
 50
191.634268
 51
270.699113
  0
ARC
  5
2D4B
330
18
100
AcDbEntity
  8
0
100
AcDbCircle
 10
556.209381
 20
10.503572
 30
0.0
 40
1.488419
100
AcDbArc
 50
269.300887
 51
348.365732
  0
LINE
  5
2D4C
330
18
100
AcDbEntity
  8
0
100
AcDbLine
 10
558.34222
 20
9.015264
 30
0.0
 11
558.34222
 21
17.211264
 31
0.0
  0
ARC
  5
2D4D
330
18
100
AcDbEntity
  8
0
100
AcDbCircle
 10
545.056591
 20
10.472364
 30
0.0
 40
1.425319
100
AcDbArc
 50
269.703671
 51
350.465171
  0
ARC
  5
2D4E
330
18
100
AcDbEntity
  8
0
100
AcDbCircle
 10
544.201848
 20
10.472364
 30
0.0
 40
1.425319
100
AcDbArc
 50
189.534829
 51
270.2963290000001
  0
LINE
  5
2D4F
330
18
100
AcDbEntity
  8
0
100
AcDbLine
 10
547.14922
 20
9.015264
 30
0.0
 11
547.14922
 21
17.211264
 31
0.0
  0
LINE
  5
2D50
330
18
100
AcDbEntity
  8
0
100
AcDbLine
 10
548.69422
 20
17.211264
 30
0.0
 11
548.69422
 21
9.015264
 31
0.0
  0
LINE
  5
2D51
330
18
100
AcDbEntity
  8
0
100
AcDbLine
 10
539.892236
 20
14.361264
 30
0.0
 11
539.903809
 21
9.015264
 31
0.0
  0
LINE
  5
2D52
330
18
100
AcDbEntity
  8
0
100
AcDbLine
 10
538.361694
 20
9.015264
 30
0.0
 11
538.361694
 21
15.60367
 31
0.0
  0
LINE
  5
2D53
330
18
100
AcDbEntity
  8
0
100
AcDbLine
 10
529.697667
 20
9.895061
 30
0.0
 11
529.697667
 21
8.185369
 31
0.0
  0
LINE
  5
2D54
330
18
100
AcDbEntity
  8
0
100
AcDbLine
 10
535.613478
 20
8.185369
 30
0.0
 11
535.613478
 21
11.742481
 31
0.0
  0
LINE
  5
2D55
330
18
100
AcDbEntity
  8
1
100
AcDbLine
 10
563.469863
 20
5.0
 30
0.0
 11
563.469863
 21
19.689837
 31
0.0
  0
LINE
  5
2D56
330
18
100
AcDbEntity
  8
0
100
AcDbLine
 10
530.499811
 20
7.416263
 30
0.0
 11
534.811334
 21
7.416263
 31
0.0
  0
ELLIPSE
  5
2D57
330
18
100
AcDbEntity
  8
0
100
AcDbEllipse
 10
530.499811
 20
8.185369
 30
0.0
 11
-0.8021437979128705
 21
1.540000000000000E-14
 31
0.0
210
0.0
220
0.0
230
1.0
 40
0.958812
 41
0.00000000000002
 42
1.570796326794914
  0
ELLIPSE
  5
2D58
330
18
100
AcDbEntity
  8
0
100
AcDbEllipse
 10
534.811334
 20
8.185369
 30
0.0
 11
0.8021437979128704
 21
1.602000000000000E-13
 31
0.0
210
0.0
220
0.0
230
1.0
 40
0.958812
 41
4.712388980384497
 42
6.283185307179378
  0
LINE
  5
2D59
330
18
100
AcDbEntity
  8
0
100
AcDbLine
 10
539.892236
 20
9.015264
 30
0.0
 11
539.903809
 21
9.022759
 31
0.0
  0
LINE
  5
2D5A
330
18
100
AcDbEntity
  8
0
100
AcDbLine
 10
538.361694
 20
9.015264
 30
0.0
 11
539.903809
 21
9.015264
 31
0.0
  0
LINE
  5
2D5B
330
18
100
AcDbEntity
  8
0
100
AcDbLine
 10
544.194477
 20
9.047064
 30
0.0
 11
545.04922
 21
9.047064
 31
0.0
  0
LINE
  5
2D5C
330
18
100
AcDbEntity
  8
0
100
AcDbLine
 10
550.89322
 20
7.416264
 30
0.0
 11
549.34822
 21
7.416264
 31
0.0
  0
LINE
  5
2D5D
330
18
100
AcDbEntity
  8
0
100
AcDbLine
 10
548.69422
 20
9.015264
 30
0.0
 11
547.14922
 21
9.015264
 31
0.0
  0
LINE
  5
2D5E
330
18
100
AcDbEntity
  8
0
100
AcDbLine
 10
551.576266
 20
9.015264
 30
0.0
 11
552.11422
 21
9.015264
 31
0.0
  0
LINE
  5
2D5F
330
18
100
AcDbEntity
  8
0
100
AcDbLine
 10
555.26122
 20
9.015264
 30
0.0
 11
556.19122
 21
9.015264
 31
0.0
  0
LINE
  5
2D60
330
18
100
AcDbEntity
  8
0
100
AcDbLine
 10
559.88722
 20
9.015264
 30
0.0
 11
558.34222
 21
9.015264
 31
0.0
  0
ARC
  5
2D61
330
18
100
AcDbEntity
  8
0
100
AcDbCircle
 10
545.056591
 20
14.17837
 30
0.0
 40
1.425319
100
AcDbArc
 50
9.534829000000002
 51
90.296329
  0
LINE
  5
2D62
330
18
100
AcDbEntity
  8
0
100
AcDbLine
 10
546.46222
 20
11.81167
 30
0.0
 11
544.33822
 21
11.81167
 31
0.0
  0
LINE
  5
2D63
330
18
100
AcDbEntity
  8
0
100
AcDbLine
 10
545.01322
 20
11.13667
 30
0.0
 11
546.46222
 21
11.13667
 31
0.0
  0
LINE
  5
2D64
330
18
100
AcDbEntity
  8
0
100
AcDbLine
 10
529.697667
 20
13.461283
 30
0.0
 11
529.697667
 21
16.260974
 31
0.0
  0
ELLIPSE
  5
2D65
330
18
100
AcDbEntity
  8
0
100
AcDbEllipse
 10
532.630506
 20
15.17942
 30
0.0
 11
2.983077570132104
 21
2.996000000000000E-13
 31
0.0
210
0.0
220
0.0
230
1.0
 40
0.9588119999999999
 41
-1.562393163247347
 42
0.0084031635475457
  0
ELLIPSE
  5
2D66
330
18
100
AcDbEntity
  8
0
100
AcDbEllipse
 10
532.58733
 20
15.509539
 30
0.0
 11
-4.072692107280919
 21
9.250000000000000E-14
 31
0.0
210
0.0
220
0.0
230
1.0
 40
0.958812
 41
1.587553347046634
 42
2.408388587343224
  0
LINE
  5
2D67
330
18
100
AcDbEntity
  8
0
100
AcDbLine
 10
529.697667
 20
11.742481
 30
0.0
 11
529.697667
 21
11.034514
 31
0.0
  0
LINE
  5
2D68
330
18
100
AcDbEntity
  8
0
100
AcDbLine
 10
529.697667
 20
13.461283
 30
0.0
 11
529.697667
 21
12.896138
 31
0.0
  0
ELLIPSE
  5
2D69
330
18
100
AcDbEntity
  8
0
100
AcDbEllipse
 10
532.249598
 20
9.872487
 30
0.0
 11
2.960559210508897
 21
0.3570763225581005
 31
0.0
210
0.0
220
0.0
230
1.0
 40
0.820999
 41
1.335209029023201
 42
2.503032872947537
  0
ELLIPSE
  5
2D6A
330
18
100
AcDbEntity
  8
0
100
AcDbEllipse
 10
532.480104
 20
8.937306
 30
0.0
 11
3.015746449176215
 21
0.7746519372140024
 31
0.0
210
0.0
220
0.0
230
1.0
 40
0.8467750000000003
 41
1.29973646820557
 42
2.479974117225238
  0
LINE
  5
2D6B
330
18
100
AcDbEntity
  8
0
100
AcDbLine
 10
536.816694
 20
12.896138
 30
0.0
 11
536.51589
 21
12.896138
 31
0.0
  0
LINE
  5
2D6C
330
18
100
AcDbEntity
  8
0
100
AcDbLine
 10
535.613478
 20
12.896138
 30
0.0
 11
536.51589
 21
12.896138
 31
0.0
  0
ELLIPSE
  5
2D6D
330
18
100
AcDbEntity
  8
0
100
AcDbEllipse
 10
535.613478
 20
12.896138
 30
0.0
 11
1.203215696869352
 21
8.930000000000000E-14
 31
0.0
210
0.0
220
0.0
230
1.0
 40
0.9588119999999999
 41
4.712388980384611
 42
6.283185307179508
  0
LINE
  5
2D6E
330
18
100
AcDbEntity
  8
0
100
AcDbLine
 10
530.499811
 20
17.030079
 30
0.0
 11
534.811334
 21
17.030079
 31
0.0
  0
ELLIPSE
  5
2D6F
330
18
100
AcDbEntity
  8
0
100
AcDbEllipse
 10
530.499811
 20
16.260974
 30
0.0
 11
0.8021437979128704
 21
3.800000000000000E-14
 31
0.0
210
0.0
220
0.0
230
1.0
 40
0.958812
 41
1.570796326794851
 42
3.141592653589743
  0
LINE
  5
2D70
330
18
100
AcDbEntity
  8
0
100
AcDbLine
 10
535.613478
 20
15.155385
 30
0.0
 11
535.613478
 21
16.260974
 31
0.0
  0
ELLIPSE
  5
2D71
330
18
100
AcDbEntity
  8
0
100
AcDbEllipse
 10
534.811334
 20
16.260974
 30
0.0
 11
-0.8021437979128705
 21
3.800000000000000E-14
 31
0.0
210
0.0
220
0.0
230
1.0
 40
0.958812
 41
3.141592653589842
 42
4.712388980384734
  0
ARC
  5
2D72
330
18
100
AcDbEntity
  8
0
100
AcDbCircle
 10
540.798894
 20
14.34127
 30
0.0
 40
1.377457
100
AcDbArc
 50
16.265061
 51
130.527299
  0
ARC
  5
2D73
330
18
100
AcDbEntity
  8
0
100
AcDbCircle
 10
544.201848
 20
14.17837
 30
0.0
 40
1.425319
100
AcDbArc
 50
89.703671
 51
170.465171
  0
LINE
  5
2D74
330
18
100
AcDbEntity
  8
0
100
AcDbLine
 10
540.911147
 20
12.93607
 30
0.0
 11
542.12122
 21
12.93607
 31
0.0
  0
LINE
  5
2D75
330
18
100
AcDbEntity
  8
0
100
AcDbLine
 10
540.578809
 20
12.93607
 30
0.0
 11
542.12122
 21
12.93607
 31
0.0
  0
ARC
  5
2D76
330
18
100
AcDbEntity
  8
0
100
AcDbCircle
 10
540.229736
 20
14.361264
 30
0.0
 40
0.3375
100
AcDbArc
 50
360.0
 51
180.0
  0
LINE
  5
2D77
330
18
100
AcDbEntity
  8
0
100
AcDbLine
 10
540.567236
 20
14.361264
 30
0.0
 11
540.578809
 21
12.93607
 31
0.0
  0
ARC
  5
2D78
330
18
100
AcDbEntity
  8
0
100
AcDbCircle
 10
544.67572
 20
14.361264
 30
0.0
 40
0.3375
100
AcDbArc
 50
360.0
 51
180.0
  0
LINE
  5
2D79
330
18
100
AcDbEntity
  8
0
100
AcDbLine
 10
544.33822
 20
11.81167
 30
0.0
 11
544.33822
 21
10.236264
 31
0.0
  0
LINE
  5
2D7A
330
18
100
AcDbEntity
  8
0
100
AcDbLine
 10
544.33822
 20
12.71167
 30
0.0
 11
545.01322
 21
12.71167
 31
0.0
  0
LINE
  5
2D7B
330
18
100
AcDbEntity
  8
0
100
AcDbLine
 10
545.01322
 20
11.13667
 30
0.0
 11
545.01322
 21
10.252764
 31
0.0
  0
LINE
  5
2D7C
330
18
100
AcDbEntity
  8
0
100
AcDbLine
 10
544.33822
 20
11.81167
 30
0.0
 11
544.33822
 21
10.252764
 31
0.0
  0
ARC
  5
2D7D
330
18
100
AcDbEntity
  8
0
100
AcDbCircle
 10
544.67572
 20
10.252764
 30
0.0
 40
0.3375
100
AcDbArc
 50
180.0
 51
0.0
  0
LINE
  5
2D7E
330
18
100
AcDbEntity
  8
0
100
AcDbLine
 10
545.01322
 20
14.361264
 30
0.0
 11
545.01322
 21
12.71167
 31
0.0
  0
LINE
  5
2D7F
330
18
100
AcDbEntity
  8
0
100
AcDbLine
 10
544.33822
 20
14.361264
 30
0.0
 11
544.33822
 21
12.71167
 31
0.0
  0
LINE
  5
2D80
330
18
100
AcDbEntity
  8
0
100
AcDbLine
 10
542.12122
 20
12.93607
 30
0.0
 11
542.12122
 21
14.72707
 31
0.0
  0
LINE
  5
2D81
330
18
100
AcDbEntity
  8
0
100
AcDbLine
 10
542.79622
 20
10.236264
 30
0.0
 11
542.79622
 21
14.41447
 31
0.0
  0
LINE
  5
2D82
330
18
100
AcDbEntity
  8
0
100
AcDbLine
 10
539.903809
 20
15.60367
 30
0.0
 11
539.903809
 21
15.38827
 31
0.0
  0
LINE
  5
2D83
330
18
100
AcDbEntity
  8
0
100
AcDbLine
 10
538.361694
 20
15.60367
 30
0.0
 11
539.903809
 21
15.60367
 31
0.0
  0
LINE
  5
2D84
330
18
100
AcDbEntity
  8
0
100
AcDbLine
 10
544.194477
 20
15.60367
 30
0.0
 11
545.04922
 21
15.60367
 31
0.0
  0
ARC
  5
2D85
330
18
100
AcDbEntity
  8
0
100
AcDbCircle
 10
555.243059
 20
14.124104
 30
0.0
 40
1.488419
100
AcDbArc
 50
89.300887
 51
168.365732
  0
ARC
  5
2D86
330
18
100
AcDbEntity
  8
0
100
AcDbCircle
 10
551.752247
 20
14.207365
 30
0.0
 40
1.409039
100
AcDbArc
 50
15.47255
 51
127.56454
  0
LINE
  5
2D87
330
18
100
AcDbEntity
  8
0
100
AcDbLine
 10
546.46222
 20
11.13667
 30
0.0
 11
546.46222
 21
10.236264
 31
0.0
  0
LINE
  5
2D88
330
18
100
AcDbEntity
  8
0
100
AcDbLine
 10
546.46222
 20
11.81167
 30
0.0
 11
546.46222
 21
14.41447
 31
0.0
  0
LINE
  5
2D89
330
18
100
AcDbEntity
  8
0
100
AcDbLine
 10
553.11022
 20
14.583264
 30
0.0
 11
553.11022
 21
10.179264
 31
0.0
  0
LINE
  5
2D8A
330
18
100
AcDbEntity
  8
0
100
AcDbLine
 10
551.56822
 20
14.361264
 30
0.0
 11
551.56822
 21
10.252764
 31
0.0
  0
LINE
  5
2D8B
330
18
100
AcDbEntity
  8
0
100
AcDbLine
 10
550.89322
 20
14.361264
 30
0.0
 11
550.89322
 21
10.252764
 31
0.0
  0
ARC
  5
2D8C
330
18
100
AcDbEntity
  8
0
100
AcDbCircle
 10
551.23072
 20
10.252764
 30
0.0
 40
0.3375
100
AcDbArc
 50
180.0
 51
0.0
  0
ARC
  5
2D8D
330
18
100
AcDbEntity
  8
0
100
AcDbCircle
 10
551.23072
 20
14.361264
 30
0.0
 40
0.3375
100
AcDbArc
 50
360.0
 51
180.0
  0
LINE
  5
2D8E
330
18
100
AcDbEntity
  8
0
100
AcDbLine
 10
549.34822
 20
15.612264
 30
0.0
 11
550.89322
 21
15.612264
 31
0.0
  0
LINE
  5
2D8F
330
18
100
AcDbEntity
  8
0
100
AcDbLine
 10
547.14922
 20
17.211264
 30
0.0
 11
548.69422
 21
17.211264
 31
0.0
  0
LINE
  5
2D90
330
18
100
AcDbEntity
  8
0
100
AcDbLine
 10
550.89322
 20
15.612264
 30
0.0
 11
550.89322
 21
15.324264
 31
0.0
  0
ARC
  5
2D91
330
18
100
AcDbEntity
  8
0
100
AcDbCircle
 10
556.209381
 20
14.124104
 30
0.0
 40
1.488419
100
AcDbArc
 50
11.634268
 51
90.699113
  0
LINE
  5
2D92
330
18
100
AcDbEntity
  8
0
100
AcDbLine
 10
557.66722
 20
14.424264
 30
0.0
 11
557.66722
 21
10.203412
 31
0.0
  0
ARC
  5
2D93
330
18
100
AcDbEntity
  8
0
100
AcDbCircle
 10
555.72622
 20
14.361264
 30
0.0
 40
0.3375
100
AcDbArc
 50
360.0
 51
180.0
  0
ARC
  5
2D94
330
18
100
AcDbEntity
  8
0
100
AcDbCircle
 10
555.72622
 20
10.252764
 30
0.0
 40
0.3375
100
AcDbArc
 50
180.0
 51
0.0
  0
LINE
  5
2D95
330
18
100
AcDbEntity
  8
0
100
AcDbLine
 10
555.38872
 20
14.361264
 30
0.0
 11
555.38872
 21
10.252764
 31
0.0
  0
LINE
  5
2D96
330
18
100
AcDbEntity
  8
0
100
AcDbLine
 10
556.06372
 20
14.361264
 30
0.0
 11
556.06372
 21
10.252764
 31
0.0
  0
LINE
  5
2D97
330
18
100
AcDbEntity
  8
0
100
AcDbLine
 10
553.78522
 20
10.203412
 30
0.0
 11
553.78522
 21
14.424264
 31
0.0
  0
LINE
  5
2D98
330
18
100
AcDbEntity
  8
0
100
AcDbLine
 10
555.26122
 20
15.612412
 30
0.0
 11
556.19122
 21
15.612412
 31
0.0
  0
LINE
  5
2D99
330
18
100
AcDbEntity
  8
0
100
AcDbLine
 10
558.34222
 20
17.211264
 30
0.0
 11
559.88722
 21
17.211264
 31
0.0
  0
TEXT
  5
2D9A
330
18
100
AcDbEntity
  8
WY
100
AcDbText
 10
564.417407
 20
11.60401
 30
0.0
 40
1.999999999999999
  1
31-05-2016
 41
1.000000000000001
 51
15.0
  7
ITALIC
100
AcDbText
  0
TEXT
  5
2D9B
330
18
100
AcDbEntity
  8
WY
100
AcDbText
 10
568.848776
 20
16.149239
 30
0.0
 40
2.0
  1
Data
 51
15.0
  7
ITALIC
100
AcDbText
  0
TEXT
  5
2D9D
330
18
100
AcDbEntity
  8
1
100
AcDbText
 10
637.422754
 20
9.064009
 30
0.0
 40
5.0
  1
G4/2
 41
0.8
 51
15.0
  7
ITALIC
100
AcDbText
  0
LINE
  5
2D9E
330
18
100
AcDbEntity
  8
1
100
AcDbLine
 10
627.394234
 20
5.0
 30
0.0
 11
627.394234
 21
19.689837
 31
0.0
  0
TEXT
  5
2D9F
330
18
100
AcDbEntity
  8
WY
100
AcDbText
 10
629.585432
 20
16.599248
 30
0.0
 40
2.0
  1
Product type
 51
15.0
  7
ITALIC
100
AcDbText
  0
LINE
  5
2DF2
330
18
100
AcDbEntity
  8
2
100
AcDbLine
 10
682.671651
 20
292.0
 30
0.0
 11
497.671651
 21
292.0
 31
0.0
  0
LINE
  5
2DF3
330
18
100
AcDbEntity
  8
2
100
AcDbLine
 10
687.671651
 20
297.0
 30
0.0
 11
497.671651
 21
297.0
 31
0.0
  0
LINE
  5
2E74
330
18
100
AcDbEntity
  8
WYMIARY
 62
     6
100
AcDbLine
 10
497.671651
 20
297.0
 30
0.0
 11
486.041244
 21
297.0
 31
0.0
  0
MTEXT
  5
31F2
330
18
100
AcDbEntity
  8
WYMIARY
100
AcDbMText
 10
780.543201
 20
224.476865
 30
0.0
 40
3.5
 41
15.6
 71
     1
 72
     5
  1

  7
ITALIC
  0
TEXT
  5
478E
330
18
100
AcDbEntity
  8
1
100
AcDbText
 10
500.301985
 20
8.797457
 30
0.0
 40
5.0
  1
1:1
 51
15.0
  7
ITALIC
100
AcDbText
  0
LINE
  5
482F
330
18
100
AcDbEntity
  8
WYMIARY
 62
     6
100
AcDbLine
 10
687.671651
 20
0.0
 30
0.0
 11
687.671651
 21
297.0
 31
0.0
  0
LINE
  5
4AD7
330
18
100
AcDbEntity
  8
WYMIARY
 62
     3
100
AcDbLine
 10
512.671651
 20
19.689837
 30
0.0
 11
512.671651
 21
5.0
 31
0.0
  0
LINE
  5
4AD9
330
18
100
AcDbEntity
  8
WYMIARY
 62
     3
100
AcDbLine
 10
527.671651
 20
19.689837
 30
0.0
 11
527.671651
 21
5.0
 31
0.0
  0
LINE
  5
4ADA
330
18
100
AcDbEntity
  8
WYMIARY
 62
     3
100
AcDbLine
 10
586.373187
 20
19.689837
 30
0.0
 11
586.373187
 21
5.0
 31
0.0
  0
TEXT
  5
4ADB
330
18
100
AcDbEntity
  8
WY
100
AcDbText
 10
587.562196
 20
16.599248
 30
0.0
 40
2.0
  1
Draw. No.
 51
15.0
  7
ITALIC
100
AcDbText
  0
TEXT
  5
4ADF
330
18
100
AcDbEntity
  8
1
100
AcDbText
 10
591.935141
 20
9.064009
 30
0.0
 40
3.999999999999995
  1
G4/2-01A
 41
0.7000000000000008
 51
15.0
  7
ITALIC
100
AcDbText
  0
LINE
  5
4AE9
330
18
100
AcDbEntity
  8
WYMIARY
 62
     6
100
AcDbLine
 10
687.671651
 20
0.0
 30
0.0
 11
687.671651
 21
297.0
 31
0.0
  0
LINE
  5
6488
330
18
100
AcDbEntity
  8
WYMIARY
 62
     6
100
AcDbLine
 10
687.671651
 20
0.0
 30
0.0
 11
687.671651
 21
297.0
 31
0.0
  0
LINE
  5
648E
330
18
100
AcDbEntity
  8
2
100
AcDbLine
 10
687.671651
 20
0.0
 30
0.0
 11
687.671651
 21
297.0
 31
0.0
  0
LINE
  5
6CB6
330
18
100
AcDbEntity
  8
WYMIARY
 62
     6
100
AcDbLine
 10
687.671651
 20
0.0
 30
0.0
 11
687.671651
 21
297.0
 31
0.0
  0
LINE
  5
6CB8
330
18
100
AcDbEntity
  8
2
100
AcDbLine
 10
687.671651
 20
0.0
 30
0.0
 11
687.671651
 21
297.0
 31
0.0
  0
TEXT
  5
B62D
330
18
100
AcDbEntity
  8
1
100
AcDbText
 10
588.628792682284
 20
275.1245812869693
 30
0.0
 40
5.0
  1
G4/2
 41
0.8
 51
15.0
  7
ITALIC
100
AcDbText
  0
LINE
  5
1EBEB
330
18
100
AcDbEntity
  8
1
  6
CONTINUOUS
 62
     7
100
AcDbLine
 10
613.1717651818518
 20
155.5825216518854
 30
0.0
 11
616.2467650805239
 21
155.5825216518854
 31
0.0
  0
LINE
  5
1EBEC
330
18
100
AcDbEntity
  8
1
  6
CONTINUOUS
 62
     7
100
AcDbLine
 10
616.2467650805239
 20
155.3825219916319
 30
0.0
 11
613.1717651818518
 21
155.3825219916319
 31
0.0
  0
LINE
  5
1EBED
330
18
100
AcDbEntity
  8
1
  6
CONTINUOUS
 62
     7
100
AcDbLine
 10
626.3717651103262
 20
155.5825216518854
 30
0.0
 11
629.4467650089983
 21
155.5825216518854
 31
0.0
  0
LINE
  5
1EBEE
330
18
100
AcDbEntity
  8
1
  6
CONTINUOUS
 62
     7
100
AcDbLine
 10
629.4467650089983
 20
155.3825219916319
 30
0.0
 11
626.3717651103262
 21
155.3825219916319
 31
0.0
  0
LINE
  5
1EBF3
330
18
100
AcDbEntity
  8
1
  6
CONTINUOUS
 62
     7
100
AcDbLine
 10
626.3717651103262
 20
161.8825211944198
 30
0.0
 11
629.4467650089983
 21
161.8825211944198
 31
0.0
  0
LINE
  5
1EBF4
330
18
100
AcDbEntity
  8
1
  6
CONTINUOUS
 62
     7
100
AcDbLine
 10
629.4467650089983
 20
161.6825215341662
 30
0.0
 11
626.3717651103262
 21
161.6825215341662
 31
0.0
  0
LINE
  5
1EBF7
330
18
100
AcDbEntity
  8
1
  6
CONTINUOUS
 62
     7
100
AcDbLine
 10
613.1717651818518
 20
149.2825216436898
 30
0.0
 11
616.2467650805239
 21
149.2825216436898
 31
0.0
  0
LINE
  5
1EBF8
330
18
100
AcDbEntity
  8
1
  6
CONTINUOUS
 62
     7
100
AcDbLine
 10
616.2467650805239
 20
149.0825219834362
 30
0.0
 11
613.1717651818518
 21
149.0825219834362
 31
0.0
  0
LINE
  5
1EBF9
330
18
100
AcDbEntity
  8
1
  6
CONTINUOUS
 62
     7
100
AcDbLine
 10
626.3717651103262
 20
165.9825216801976
 30
0.0
 11
629.4467650089983
 21
165.9825216801976
 31
0.0
  0
LINE
  5
1EBFA
330
18
100
AcDbEntity
  8
1
  6
CONTINUOUS
 62
     7
100
AcDbLine
 10
629.4467650089983
 20
165.7825220199441
 30
0.0
 11
626.3717651103262
 21
165.7825220199441
 31
0.0
  0
LINE
  5
1EBFD
330
18
100
AcDbEntity
  8
1
  6
CONTINUOUS
 62
     7
100
AcDbLine
 10
613.1717651818518
 20
161.8825211944198
 30
0.0
 11
616.2467650805239
 21
161.8825211944198
 31
0.0
  0
LINE
  5
1EBFE
330
18
100
AcDbEntity
  8
1
  6
CONTINUOUS
 62
     7
100
AcDbLine
 10
616.2467650805239
 20
161.6825215341662
 30
0.0
 11
613.1717651818518
 21
161.6825215341662
 31
0.0
  0
LINE
  5
1EC01
330
18
100
AcDbEntity
  8
1
  6
CONTINUOUS
 62
     7
100
AcDbLine
 10
613.1717651818518
 20
165.9825216801976
 30
0.0
 11
616.2467650805239
 21
165.9825216801976
 31
0.0
  0
LINE
  5
1EC02
330
18
100
AcDbEntity
  8
1
  6
CONTINUOUS
 62
     7
100
AcDbLine
 10
616.2467650805239
 20
165.7825220199441
 30
0.0
 11
613.1717651818518
 21
165.7825220199441
 31
0.0
  0
LINE
  5
1EC05
330
18
100
AcDbEntity
  8
1
  6
CONTINUOUS
 62
     7
100
AcDbLine
 10
626.3717651103262
 20
149.2825216436898
 30
0.0
 11
629.4467650089983
 21
149.2825216436898
 31
0.0
  0
LINE
  5
1EC06
330
18
100
AcDbEntity
  8
1
  6
CONTINUOUS
 62
     7
100
AcDbLine
 10
629.4467650089983
 20
149.0825219834362
 30
0.0
 11
626.3717651103262
 21
149.0825219834362
 31
0.0
  0
LINE
  5
1EC07
330
18
100
AcDbEntity
  8
1
  6
CONTINUOUS
 62
     7
100
AcDbLine
 10
613.1717651818518
 20
156.4450213508819
 30
0.0
 11
616.2467650805239
 21
156.4450213508819
 31
0.0
  0
LINE
  5
1EC08
330
18
100
AcDbEntity
  8
1
  6
CONTINUOUS
 62
     7
100
AcDbLine
 10
613.1717651818518
 20
156.4450213508819
 30
0.0
 11
613.1717651818518
 21
156.6950218575214
 31
0.0
  0
LINE
  5
1EC09
330
18
100
AcDbEntity
  8
1
  6
CONTINUOUS
 62
     7
100
AcDbLine
 10
613.1717651818518
 20
156.6950218575214
 30
0.0
 11
616.2467650805239
 21
156.6950218575214
 31
0.0
  0
LINE
  5
1EC0A
330
18
100
AcDbEntity
  8
1
  6
CONTINUOUS
 62
     7
100
AcDbLine
 10
616.2467650805239
 20
156.4450213508819
 30
0.0
 11
616.2467650805239
 21
156.6950218575214
 31
0.0
  0
LINE
  5
1EC0B
330
18
100
AcDbEntity
  8
1
  6
CONTINUOUS
 62
     7
100
AcDbLine
 10
613.1717651818518
 20
154.2700217859959
 30
0.0
 11
616.2467650805239
 21
154.2700217859959
 31
0.0
  0
LINE
  5
1EC0C
330
18
100
AcDbEntity
  8
1
  6
CONTINUOUS
 62
     7
100
AcDbLine
 10
616.2467650805239
 20
154.2700217859959
 30
0.0
 11
616.2467650805239
 21
154.5200213613128
 31
0.0
  0
LINE
  5
1EC0D
330
18
100
AcDbEntity
  8
1
  6
CONTINUOUS
 62
     7
100
AcDbLine
 10
613.1717651818518
 20
154.2700217859959
 30
0.0
 11
613.1717651818518
 21
154.5200213613128
 31
0.0
  0
LINE
  5
1EC0E
330
18
100
AcDbEntity
  8
1
  6
CONTINUOUS
 62
     7
100
AcDbLine
 10
613.1717651818518
 20
154.5200213613128
 30
0.0
 11
616.2467650805239
 21
154.5200213613128
 31
0.0
  0
LINE
  5
1EC0F
330
18
100
AcDbEntity
  8
1
  6
CONTINUOUS
 62
     7
100
AcDbLine
 10
616.2467650805239
 20
154.5200213613128
 30
0.0
 11
616.2467650805239
 21
154.5520858662342
 31
0.0
  0
LINE
  5
1EC10
330
18
100
AcDbEntity
  8
1
  6
CONTINUOUS
 62
     7
100
AcDbLine
 10
613.1717651818518
 20
154.5200213613128
 30
0.0
 11
613.1717651818518
 21
154.5520858662342
 31
0.0
  0
LINE
  5
1EC11
330
18
100
AcDbEntity
  8
1
  6
CONTINUOUS
 62
     7
100
AcDbLine
 10
616.2467650805239
 20
156.4129577772831
 30
0.0
 11
616.2467650805239
 21
156.4450213508819
 31
0.0
  0
LINE
  5
1EC12
330
18
100
AcDbEntity
  8
1
  6
CONTINUOUS
 62
     7
100
AcDbLine
 10
613.1717651818518
 20
156.4129577772831
 30
0.0
 11
613.1717651818518
 21
156.4450213508819
 31
0.0
  0
LINE
  5
1EC13
330
18
100
AcDbEntity
  8
1
  6
CONTINUOUS
 62
     7
100
AcDbLine
 10
616.2467650805239
 20
154.5520858662342
 30
0.0
 11
616.2467650805239
 21
155.318392981789
 31
0.0
  0
LINE
  5
1EC14
330
18
100
AcDbEntity
  8
1
  6
CONTINUOUS
 62
     7
100
AcDbLine
 10
613.1717651818518
 20
154.5520858662342
 30
0.0
 11
613.1717651818518
 21
155.318392981789
 31
0.0
  0
LINE
  5
1EC15
330
18
100
AcDbEntity
  8
1
  6
CONTINUOUS
 62
     7
100
AcDbLine
 10
616.2467650805239
 20
155.6466506617283
 30
0.0
 11
616.2467650805239
 21
156.4129577772831
 31
0.0
  0
LINE
  5
1EC16
330
18
100
AcDbEntity
  8
1
  6
CONTINUOUS
 62
     7
100
AcDbLine
 10
613.1717651818518
 20
155.6466506617283
 30
0.0
 11
613.1717651818518
 21
156.4129577772831
 31
0.0
  0
LINE
  5
1EC17
330
18
100
AcDbEntity
  8
1
  6
CONTINUOUS
 62
     7
100
AcDbLine
 10
616.2467650805239
 20
155.5825216518854
 30
0.0
 11
616.2467650805239
 21
155.6466506617283
 31
0.0
  0
LINE
  5
1EC18
330
18
100
AcDbEntity
  8
1
  6
CONTINUOUS
 62
     7
100
AcDbLine
 10
613.1717651818518
 20
155.5825216518854
 30
0.0
 11
613.1717651818518
 21
155.6466506617283
 31
0.0
  0
LINE
  5
1EC19
330
18
100
AcDbEntity
  8
1
  6
CONTINUOUS
 62
     7
100
AcDbLine
 10
616.2467650805239
 20
155.318392981789
 30
0.0
 11
616.2467650805239
 21
155.3825219916319
 31
0.0
  0
LINE
  5
1EC1A
330
18
100
AcDbEntity
  8
1
  6
CONTINUOUS
 62
     7
100
AcDbLine
 10
613.1717651818518
 20
155.318392981789
 30
0.0
 11
613.1717651818518
 21
155.3825219916319
 31
0.0
  0
LINE
  5
1EC1B
330
18
100
AcDbEntity
  8
1
  6
CONTINUOUS
 62
     7
100
AcDbLine
 10
615.9967645738844
 20
155.5825216518854
 30
0.0
 11
615.9967645738844
 21
155.3825219916319
 31
0.0
  0
LINE
  5
1EC1C
330
18
100
AcDbEntity
  8
1
  6
CONTINUOUS
 62
     7
100
AcDbLine
 10
616.2467650805239
 20
155.5825216518854
 30
0.0
 11
616.2467650805239
 21
155.3825219916319
 31
0.0
  0
ARC
  5
1EC1D
330
18
100
AcDbEntity
  8
1
  6
CONTINUOUS
 62
     7
100
AcDbCircle
 10
614.6655207832888
 20
155.1035518170259
 30
0.0
 40
0.8925411616741542
100
AcDbArc
 50
249.048610621188
 51
272.8092497257351
  0
LINE
  5
1EC1E
330
18
100
AcDbEntity
  8
1
  6
CONTINUOUS
 62
     7
100
AcDbLine
 10
614.3092658106808
 20
154.1950214477395
 30
0.0
 11
614.3092658106808
 21
154.2700217859959
 31
0.0
  0
ARC
  5
1EC1F
330
18
100
AcDbEntity
  8
1
  6
CONTINUOUS
 62
     7
100
AcDbCircle
 10
614.7530094790869
 20
155.1035518170258
 30
0.0
 40
0.8925411616740988
100
AcDbArc
 50
267.1907502742647
 51
290.9513893788134
  0
LINE
  5
1EC20
330
18
100
AcDbEntity
  8
1
  6
CONTINUOUS
 62
     7
100
AcDbLine
 10
615.1092644516949
 20
154.2700217859959
 30
0.0
 11
615.1092644516949
 21
154.1950214477395
 31
0.0
  0
LINE
  5
1EC21
330
18
100
AcDbEntity
  8
1
  6
CONTINUOUS
 62
     7
100
AcDbLine
 10
629.4467650089983
 20
156.4450213508819
 30
0.0
 11
629.4467650089983
 21
156.6950218575214
 31
0.0
  0
LINE
  5
1EC22
330
18
100
AcDbEntity
  8
1
  6
CONTINUOUS
 62
     7
100
AcDbLine
 10
626.3717651103262
 20
156.6950218575214
 30
0.0
 11
629.4467650089983
 21
156.6950218575214
 31
0.0
  0
LINE
  5
1EC23
330
18
100
AcDbEntity
  8
1
  6
CONTINUOUS
 62
     7
100
AcDbLine
 10
626.3717651103262
 20
156.4450213508819
 30
0.0
 11
626.3717651103262
 21
156.6950218575214
 31
0.0
  0
LINE
  5
1EC24
330
18
100
AcDbEntity
  8
1
  6
CONTINUOUS
 62
     7
100
AcDbLine
 10
626.3717651103262
 20
156.4450213508819
 30
0.0
 11
629.4467650089983
 21
156.4450213508819
 31
0.0
  0
LINE
  5
1EC25
330
18
100
AcDbEntity
  8
1
  6
CONTINUOUS
 62
     7
100
AcDbLine
 10
626.3717651103262
 20
154.2700217859959
 30
0.0
 11
626.3717651103262
 21
154.5200213613128
 31
0.0
  0
LINE
  5
1EC26
330
18
100
AcDbEntity
  8
1
  6
CONTINUOUS
 62
     7
100
AcDbLine
 10
626.3717651103262
 20
154.2700217859959
 30
0.0
 11
629.4467650089983
 21
154.2700217859959
 31
0.0
  0
LINE
  5
1EC27
330
18
100
AcDbEntity
  8
1
  6
CONTINUOUS
 62
     7
100
AcDbLine
 10
626.3717651103262
 20
154.5200213613128
 30
0.0
 11
629.4467650089983
 21
154.5200213613128
 31
0.0
  0
LINE
  5
1EC28
330
18
100
AcDbEntity
  8
1
  6
CONTINUOUS
 62
     7
100
AcDbLine
 10
629.4467650089983
 20
154.2700217859959
 30
0.0
 11
629.4467650089983
 21
154.5200213613128
 31
0.0
  0
LINE
  5
1EC29
330
18
100
AcDbEntity
  8
1
  6
CONTINUOUS
 62
     7
100
AcDbLine
 10
629.4467650089983
 20
156.4129577772831
 30
0.0
 11
629.4467650089983
 21
156.4450213508819
 31
0.0
  0
LINE
  5
1EC2A
330
18
100
AcDbEntity
  8
1
  6
CONTINUOUS
 62
     7
100
AcDbLine
 10
626.3717651103262
 20
156.4129577772831
 30
0.0
 11
626.3717651103262
 21
156.4450213508819
 31
0.0
  0
LINE
  5
1EC2B
330
18
100
AcDbEntity
  8
1
  6
CONTINUOUS
 62
     7
100
AcDbLine
 10
626.3717651103262
 20
154.5200213613128
 30
0.0
 11
626.3717651103262
 21
154.5520858662342
 31
0.0
  0
LINE
  5
1EC2C
330
18
100
AcDbEntity
  8
1
  6
CONTINUOUS
 62
     7
100
AcDbLine
 10
629.4467650089983
 20
154.5200213613128
 30
0.0
 11
629.4467650089983
 21
154.5520858662342
 31
0.0
  0
LINE
  5
1EC2D
330
18
100
AcDbEntity
  8
1
  6
CONTINUOUS
 62
     7
100
AcDbLine
 10
626.3717651103262
 20
154.5520858662342
 30
0.0
 11
626.3717651103262
 21
155.318392981789
 31
0.0
  0
LINE
  5
1EC2E
330
18
100
AcDbEntity
  8
1
  6
CONTINUOUS
 62
     7
100
AcDbLine
 10
629.4467650089983
 20
154.5520858662342
 30
0.0
 11
629.4467650089983
 21
155.318392981789
 31
0.0
  0
LINE
  5
1EC2F
330
18
100
AcDbEntity
  8
1
  6
CONTINUOUS
 62
     7
100
AcDbLine
 10
629.4467650089983
 20
155.6466506617283
 30
0.0
 11
629.4467650089983
 21
156.4129577772831
 31
0.0
  0
LINE
  5
1EC30
330
18
100
AcDbEntity
  8
1
  6
CONTINUOUS
 62
     7
100
AcDbLine
 10
626.3717651103262
 20
155.6466506617283
 30
0.0
 11
626.3717651103262
 21
156.4129577772831
 31
0.0
  0
LINE
  5
1EC31
330
18
100
AcDbEntity
  8
1
  6
CONTINUOUS
 62
     7
100
AcDbLine
 10
629.4467650089983
 20
155.5825216518854
 30
0.0
 11
629.4467650089983
 21
155.6466506617283
 31
0.0
  0
LINE
  5
1EC32
330
18
100
AcDbEntity
  8
1
  6
CONTINUOUS
 62
     7
100
AcDbLine
 10
626.3717651103262
 20
155.5825216518854
 30
0.0
 11
626.3717651103262
 21
155.6466506617283
 31
0.0
  0
LINE
  5
1EC33
330
18
100
AcDbEntity
  8
1
  6
CONTINUOUS
 62
     7
100
AcDbLine
 10
626.3717651103262
 20
155.318392981789
 30
0.0
 11
626.3717651103262
 21
155.3825219916319
 31
0.0
  0
LINE
  5
1EC34
330
18
100
AcDbEntity
  8
1
  6
CONTINUOUS
 62
     7
100
AcDbLine
 10
629.4467650089983
 20
155.318392981789
 30
0.0
 11
629.4467650089983
 21
155.3825219916319
 31
0.0
  0
LINE
  5
1EC35
330
18
100
AcDbEntity
  8
1
  6
CONTINUOUS
 62
     7
100
AcDbLine
 10
629.1967649680201
 20
155.5825216518854
 30
0.0
 11
629.1967649680201
 21
155.3825219916319
 31
0.0
  0
LINE
  5
1EC36
330
18
100
AcDbEntity
  8
1
  6
CONTINUOUS
 62
     7
100
AcDbLine
 10
629.4467650089983
 20
155.5825216518854
 30
0.0
 11
629.4467650089983
 21
155.3825219916319
 31
0.0
  0
ARC
  5
1EC37
330
18
100
AcDbEntity
  8
1
  6
CONTINUOUS
 62
     7
100
AcDbCircle
 10
627.8655215277169
 20
155.103559492795
 30
0.0
 40
0.8925487882289171
100
AcDbArc
 50
249.0487099791
 51
272.8091732604141
  0
LINE
  5
1EC38
330
18
100
AcDbEntity
  8
1
  6
CONTINUOUS
 62
     7
100
AcDbLine
 10
627.509265273494
 20
154.1950214477395
 30
0.0
 11
627.509265273494
 21
154.2700217859959
 31
0.0
  0
ARC
  5
1EC39
330
18
100
AcDbEntity
  8
1
  6
CONTINUOUS
 62
     7
100
AcDbCircle
 10
627.9530085916077
 20
155.103559492795
 30
0.0
 40
0.8925487882289171
100
AcDbArc
 50
267.1908267395859
 51
290.9512900209
  0
LINE
  5
1EC3A
330
18
100
AcDbEntity
  8
1
  6
CONTINUOUS
 62
     7
100
AcDbLine
 10
628.3092648458306
 20
154.2700217859959
 30
0.0
 11
628.3092648458306
 21
154.1950214477395
 31
0.0
  0
LINE
  5
1EC6F
330
18
100
AcDbEntity
  8
1
  6
CONTINUOUS
 62
     7
100
AcDbLine
 10
626.3717651103262
 20
162.9950214000558
 30
0.0
 11
629.4467650089983
 21
162.9950214000558
 31
0.0
  0
LINE
  5
1EC70
330
18
100
AcDbEntity
  8
1
  6
CONTINUOUS
 62
     7
100
AcDbLine
 10
629.4467650089983
 20
162.7450208934163
 30
0.0
 11
629.4467650089983
 21
162.9950214000558
 31
0.0
  0
LINE
  5
1EC71
330
18
100
AcDbEntity
  8
1
  6
CONTINUOUS
 62
     7
100
AcDbLine
 10
626.3717651103262
 20
162.7450208934163
 30
0.0
 11
626.3717651103262
 21
162.9950214000558
 31
0.0
  0
LINE
  5
1EC72
330
18
100
AcDbEntity
  8
1
  6
CONTINUOUS
 62
     7
100
AcDbLine
 10
626.3717651103262
 20
162.7450208934163
 30
0.0
 11
629.4467650089983
 21
162.7450208934163
 31
0.0
  0
LINE
  5
1EC73
330
18
100
AcDbEntity
  8
1
  6
CONTINUOUS
 62
     7
100
AcDbLine
 10
629.4467650089983
 20
160.5700213285302
 30
0.0
 11
629.4467650089983
 21
160.8200218351697
 31
0.0
  0
LINE
  5
1EC74
330
18
100
AcDbEntity
  8
1
  6
CONTINUOUS
 62
     7
100
AcDbLine
 10
626.3717651103262
 20
160.5700213285302
 30
0.0
 11
626.3717651103262
 21
160.8200218351697
 31
0.0
  0
LINE
  5
1EC75
330
18
100
AcDbEntity
  8
1
  6
CONTINUOUS
 62
     7
100
AcDbLine
 10
626.3717651103262
 20
160.5700213285302
 30
0.0
 11
629.4467650089983
 21
160.5700213285302
 31
0.0
  0
LINE
  5
1EC76
330
18
100
AcDbEntity
  8
1
  6
CONTINUOUS
 62
     7
100
AcDbLine
 10
626.3717651103262
 20
160.8200218351697
 30
0.0
 11
629.4467650089983
 21
160.8200218351697
 31
0.0
  0
LINE
  5
1EC77
330
18
100
AcDbEntity
  8
1
  6
CONTINUOUS
 62
     7
100
AcDbLine
 10
629.4467650089983
 20
162.7129573198174
 30
0.0
 11
629.4467650089983
 21
162.7450208934163
 31
0.0
  0
LINE
  5
1EC78
330
18
100
AcDbEntity
  8
1
  6
CONTINUOUS
 62
     7
100
AcDbLine
 10
626.3717651103262
 20
162.7129573198174
 30
0.0
 11
626.3717651103262
 21
162.7450208934163
 31
0.0
  0
LINE
  5
1EC79
330
18
100
AcDbEntity
  8
1
  6
CONTINUOUS
 62
     7
100
AcDbLine
 10
629.4467650089983
 20
160.8200218351697
 30
0.0
 11
629.4467650089983
 21
160.8520854087685
 31
0.0
  0
LINE
  5
1EC7A
330
18
100
AcDbEntity
  8
1
  6
CONTINUOUS
 62
     7
100
AcDbLine
 10
626.3717651103262
 20
160.8200218351697
 30
0.0
 11
626.3717651103262
 21
160.8520854087685
 31
0.0
  0
LINE
  5
1EC7B
330
18
100
AcDbEntity
  8
1
  6
CONTINUOUS
 62
     7
100
AcDbLine
 10
629.4467650089983
 20
160.8520854087685
 30
0.0
 11
629.4467650089983
 21
161.6183925243234
 31
0.0
  0
LINE
  5
1EC7C
330
18
100
AcDbEntity
  8
1
  6
CONTINUOUS
 62
     7
100
AcDbLine
 10
626.3717651103262
 20
160.8520854087685
 30
0.0
 11
626.3717651103262
 21
161.6183925243234
 31
0.0
  0
LINE
  5
1EC7D
330
18
100
AcDbEntity
  8
1
  6
CONTINUOUS
 62
     7
100
AcDbLine
 10
629.4467650089983
 20
161.9466502042626
 30
0.0
 11
629.4467650089983
 21
162.7129573198174
 31
0.0
  0
LINE
  5
1EC7E
330
18
100
AcDbEntity
  8
1
  6
CONTINUOUS
 62
     7
100
AcDbLine
 10
626.3717651103262
 20
161.9466502042626
 30
0.0
 11
626.3717651103262
 21
162.7129573198174
 31
0.0
  0
LINE
  5
1EC7F
330
18
100
AcDbEntity
  8
1
  6
CONTINUOUS
 62
     7
100
AcDbLine
 10
629.4467650089983
 20
161.8825211944198
 30
0.0
 11
629.4467650089983
 21
161.9466502042626
 31
0.0
  0
LINE
  5
1EC80
330
18
100
AcDbEntity
  8
1
  6
CONTINUOUS
 62
     7
100
AcDbLine
 10
626.3717651103262
 20
161.8825211944198
 30
0.0
 11
626.3717651103262
 21
161.9466502042626
 31
0.0
  0
LINE
  5
1EC81
330
18
100
AcDbEntity
  8
1
  6
CONTINUOUS
 62
     7
100
AcDbLine
 10
629.4467650089983
 20
161.6183925243234
 30
0.0
 11
629.4467650089983
 21
161.6825215341662
 31
0.0
  0
LINE
  5
1EC82
330
18
100
AcDbEntity
  8
1
  6
CONTINUOUS
 62
     7
100
AcDbLine
 10
626.3717651103262
 20
161.6183925243234
 30
0.0
 11
626.3717651103262
 21
161.6825215341662
 31
0.0
  0
LINE
  5
1EC83
330
18
100
AcDbEntity
  8
1
  6
CONTINUOUS
 62
     7
100
AcDbLine
 10
629.1967649680201
 20
161.8825211944198
 30
0.0
 11
629.1967649680201
 21
161.6825215341662
 31
0.0
  0
LINE
  5
1EC84
330
18
100
AcDbEntity
  8
1
  6
CONTINUOUS
 62
     7
100
AcDbLine
 10
629.4467650089983
 20
161.8825211944198
 30
0.0
 11
629.4467650089983
 21
161.6825215341662
 31
0.0
  0
ARC
  5
1EC85
330
18
100
AcDbEntity
  8
1
  6
CONTINUOUS
 62
     7
100
AcDbCircle
 10
627.9530111500028
 20
161.4035573407543
 30
0.0
 40
0.8925462908769879
100
AcDbArc
 50
267.1906544429368
 51
290.9511755437751
  0
LINE
  5
1EC86
330
18
100
AcDbEntity
  8
1
  6
CONTINUOUS
 62
     7
100
AcDbLine
 10
628.3092648458306
 20
160.5700213285302
 30
0.0
 11
628.3092648458306
 21
160.4950219215964
 31
0.0
  0
ARC
  5
1EC87
330
18
100
AcDbEntity
  8
1
  6
CONTINUOUS
 62
     7
100
AcDbCircle
 10
627.8655189693218
 20
161.4035573407543
 30
0.0
 40
0.8925462908769963
100
AcDbArc
 50
249.0488244562249
 51
272.8093455570632
  0
LINE
  5
1EC88
330
18
100
AcDbEntity
  8
1
  6
CONTINUOUS
 62
     7
100
AcDbLine
 10
627.509265273494
 20
160.4950219215964
 30
0.0
 11
627.509265273494
 21
160.5700213285302
 31
0.0
  0
LINE
  5
1ECA3
330
18
100
AcDbEntity
  8
1
  6
CONTINUOUS
 62
     7
100
AcDbLine
 10
613.1717651818518
 20
147.9700217778002
 30
0.0
 11
616.2467650805239
 21
147.9700217778002
 31
0.0
  0
LINE
  5
1ECA4
330
18
100
AcDbEntity
  8
1
  6
CONTINUOUS
 62
     7
100
AcDbLine
 10
613.1717651818518
 20
147.9700217778002
 30
0.0
 11
613.1717651818518
 21
148.2200218187784
 31
0.0
  0
LINE
  5
1ECA5
330
18
100
AcDbEntity
  8
1
  6
CONTINUOUS
 62
     7
100
AcDbLine
 10
613.1717651818518
 20
148.2200218187784
 30
0.0
 11
616.2467650805239
 21
148.2200218187784
 31
0.0
  0
LINE
  5
1ECA6
330
18
100
AcDbEntity
  8
1
  6
CONTINUOUS
 62
     7
100
AcDbLine
 10
616.2467650805239
 20
147.9700217778002
 30
0.0
 11
616.2467650805239
 21
148.2200218187784
 31
0.0
  0
LINE
  5
1ECA7
330
18
100
AcDbEntity
  8
1
  6
CONTINUOUS
 62
     7
100
AcDbLine
 10
613.1717651818518
 20
150.1450218083476
 30
0.0
 11
613.1717651818518
 21
150.3950218493258
 31
0.0
  0
LINE
  5
1ECA8
330
18
100
AcDbEntity
  8
1
  6
CONTINUOUS
 62
     7
100
AcDbLine
 10
613.1717651818518
 20
150.3950218493258
 30
0.0
 11
616.2467650805239
 21
150.3950218493258
 31
0.0
  0
LINE
  5
1ECA9
330
18
100
AcDbEntity
  8
1
  6
CONTINUOUS
 62
     7
100
AcDbLine
 10
616.2467650805239
 20
150.1450218083476
 30
0.0
 11
616.2467650805239
 21
150.3950218493258
 31
0.0
  0
LINE
  5
1ECAA
330
18
100
AcDbEntity
  8
1
  6
CONTINUOUS
 62
     7
100
AcDbLine
 10
613.1717651818518
 20
150.1450218083476
 30
0.0
 11
616.2467650805239
 21
150.1450218083476
 31
0.0
  0
LINE
  5
1ECAB
330
18
100
AcDbEntity
  8
1
  6
CONTINUOUS
 62
     7
100
AcDbLine
 10
616.2467650805239
 20
150.1129573034262
 30
0.0
 11
616.2467650805239
 21
150.1450218083476
 31
0.0
  0
LINE
  5
1ECAC
330
18
100
AcDbEntity
  8
1
  6
CONTINUOUS
 62
     7
100
AcDbLine
 10
613.1717651818518
 20
150.1129573034262
 30
0.0
 11
613.1717651818518
 21
150.1450218083476
 31
0.0
  0
LINE
  5
1ECAD
330
18
100
AcDbEntity
  8
1
  6
CONTINUOUS
 62
     7
100
AcDbLine
 10
616.2467650805239
 20
148.2200218187784
 30
0.0
 11
616.2467650805239
 21
148.2520860908692
 31
0.0
  0
LINE
  5
1ECAE
330
18
100
AcDbEntity
  8
1
  6
CONTINUOUS
 62
     7
100
AcDbLine
 10
613.1717651818518
 20
148.2200218187784
 30
0.0
 11
613.1717651818518
 21
148.2520860908692
 31
0.0
  0
LINE
  5
1ECAF
330
18
100
AcDbEntity
  8
1
  6
CONTINUOUS
 62
     7
100
AcDbLine
 10
616.2467650805239
 20
148.2520860908692
 30
0.0
 11
616.2467650805239
 21
149.0183929735934
 31
0.0
  0
LINE
  5
1ECB0
330
18
100
AcDbEntity
  8
1
  6
CONTINUOUS
 62
     7
100
AcDbLine
 10
613.1717651818518
 20
148.2520860908692
 30
0.0
 11
613.1717651818518
 21
149.0183929735934
 31
0.0
  0
LINE
  5
1ECB1
330
18
100
AcDbEntity
  8
1
  6
CONTINUOUS
 62
     7
100
AcDbLine
 10
616.2467650805239
 20
149.3466506535326
 30
0.0
 11
616.2467650805239
 21
150.1129573034262
 31
0.0
  0
LINE
  5
1ECB2
330
18
100
AcDbEntity
  8
1
  6
CONTINUOUS
 62
     7
100
AcDbLine
 10
613.1717651818518
 20
149.3466506535326
 30
0.0
 11
613.1717651818518
 21
150.1129573034262
 31
0.0
  0
LINE
  5
1ECB3
330
18
100
AcDbEntity
  8
1
  6
CONTINUOUS
 62
     7
100
AcDbLine
 10
616.2467650805239
 20
149.2825216436898
 30
0.0
 11
616.2467650805239
 21
149.3466506535326
 31
0.0
  0
LINE
  5
1ECB4
330
18
100
AcDbEntity
  8
1
  6
CONTINUOUS
 62
     7
100
AcDbLine
 10
613.1717651818518
 20
149.2825216436898
 30
0.0
 11
613.1717651818518
 21
149.3466506535326
 31
0.0
  0
LINE
  5
1ECB5
330
18
100
AcDbEntity
  8
1
  6
CONTINUOUS
 62
     7
100
AcDbLine
 10
616.2467650805239
 20
149.0183929735934
 30
0.0
 11
616.2467650805239
 21
149.0825219834362
 31
0.0
  0
LINE
  5
1ECB6
330
18
100
AcDbEntity
  8
1
  6
CONTINUOUS
 62
     7
100
AcDbLine
 10
613.1717651818518
 20
149.0183929735934
 30
0.0
 11
613.1717651818518
 21
149.0825219834362
 31
0.0
  0
LINE
  5
1ECB7
330
18
100
AcDbEntity
  8
1
  6
CONTINUOUS
 62
     7
100
AcDbLine
 10
615.9967645738844
 20
149.2825216436898
 30
0.0
 11
615.9967645738844
 21
149.0825219834362
 31
0.0
  0
LINE
  5
1ECB8
330
18
100
AcDbEntity
  8
1
  6
CONTINUOUS
 62
     7
100
AcDbLine
 10
616.2467650805239
 20
149.2825216436898
 30
0.0
 11
616.2467650805239
 21
149.0825219834362
 31
0.0
  0
ARC
  5
1ECB9
330
18
100
AcDbEntity
  8
1
  6
CONTINUOUS
 62
     7
100
AcDbCircle
 10
614.7530067564636
 20
148.8035688618676
 30
0.0
 40
0.8925580607863253
100
AcDbArc
 50
267.190978488444
 51
290.9511611646358
  0
LINE
  5
1ECBA
330
18
100
AcDbEntity
  8
1
  6
CONTINUOUS
 62
     7
100
AcDbLine
 10
615.1092644516949
 20
147.9700217778002
 30
0.0
 11
615.1092644516949
 21
147.8950219052051
 31
0.0
  0
ARC
  5
1ECBB
330
18
100
AcDbEntity
  8
1
  6
CONTINUOUS
 62
     7
100
AcDbCircle
 10
614.6655235059121
 20
148.8035688618676
 30
0.0
 40
0.8925580607863282
100
AcDbArc
 50
249.0488388353642
 51
272.809021511556
  0
LINE
  5
1ECBC
330
18
100
AcDbEntity
  8
1
  6
CONTINUOUS
 62
     7
100
AcDbLine
 10
614.3092658106808
 20
147.8950219052051
 30
0.0
 11
614.3092658106808
 21
147.9700217778002
 31
0.0
  0
LINE
  5
1ECBD
330
18
100
AcDbEntity
  8
1
  6
CONTINUOUS
 62
     7
100
AcDbLine
 10
626.3717651103262
 20
164.6700218143081
 30
0.0
 11
626.3717651103262
 21
164.9200223209475
 31
0.0
  0
LINE
  5
1ECBE
330
18
100
AcDbEntity
  8
1
  6
CONTINUOUS
 62
     7
100
AcDbLine
 10
626.3717651103262
 20
164.9200223209475
 30
0.0
 11
629.4467650089983
 21
164.9200223209475
 31
0.0
  0
LINE
  5
1ECBF
330
18
100
AcDbEntity
  8
1
  6
CONTINUOUS
 62
     7
100
AcDbLine
 10
629.4467650089983
 20
164.6700218143081
 30
0.0
 11
629.4467650089983
 21
164.9200223209475
 31
0.0
  0
LINE
  5
1ECC0
330
18
100
AcDbEntity
  8
1
  6
CONTINUOUS
 62
     7
100
AcDbLine
 10
626.3717651103262
 20
164.6700218143081
 30
0.0
 11
629.4467650089983
 21
164.6700218143081
 31
0.0
  0
LINE
  5
1ECC1
330
18
100
AcDbEntity
  8
1
  6
CONTINUOUS
 62
     7
100
AcDbLine
 10
626.3717651103262
 20
166.8450213791942
 30
0.0
 11
626.3717651103262
 21
167.0950218858336
 31
0.0
  0
LINE
  5
1ECC2
330
18
100
AcDbEntity
  8
1
  6
CONTINUOUS
 62
     7
100
AcDbLine
 10
629.4467650089983
 20
166.8450213791942
 30
0.0
 11
629.4467650089983
 21
167.0950218858336
 31
0.0
  0
LINE
  5
1ECC3
330
18
100
AcDbEntity
  8
1
  6
CONTINUOUS
 62
     7
100
AcDbLine
 10
626.3717651103262
 20
166.8450213791942
 30
0.0
 11
629.4467650089983
 21
166.8450213791942
 31
0.0
  0
LINE
  5
1ECC4
330
18
100
AcDbEntity
  8
1
  6
CONTINUOUS
 62
     7
100
AcDbLine
 10
626.3717651103262
 20
167.0950218858336
 30
0.0
 11
629.4467650089983
 21
167.0950218858336
 31
0.0
  0
LINE
  5
1ECC5
330
18
100
AcDbEntity
  8
1
  6
CONTINUOUS
 62
     7
100
AcDbLine
 10
626.3717651103262
 20
166.8129578055953
 30
0.0
 11
626.3717651103262
 21
166.8450213791942
 31
0.0
  0
LINE
  5
1ECC6
330
18
100
AcDbEntity
  8
1
  6
CONTINUOUS
 62
     7
100
AcDbLine
 10
629.4467650089983
 20
166.8129578055953
 30
0.0
 11
629.4467650089983
 21
166.8450213791942
 31
0.0
  0
LINE
  5
1ECC7
330
18
100
AcDbEntity
  8
1
  6
CONTINUOUS
 62
     7
100
AcDbLine
 10
629.4467650089983
 20
164.9200223209475
 30
0.0
 11
629.4467650089983
 21
164.9520858945464
 31
0.0
  0
LINE
  5
1ECC8
330
18
100
AcDbEntity
  8
1
  6
CONTINUOUS
 62
     7
100
AcDbLine
 10
626.3717651103262
 20
164.9200223209475
 30
0.0
 11
626.3717651103262
 21
164.9520858945464
 31
0.0
  0
LINE
  5
1ECC9
330
18
100
AcDbEntity
  8
1
  6
CONTINUOUS
 62
     7
100
AcDbLine
 10
629.4467650089983
 20
164.9520858945464
 30
0.0
 11
629.4467650089983
 21
165.7183930101012
 31
0.0
  0
LINE
  5
1ECCA
330
18
100
AcDbEntity
  8
1
  6
CONTINUOUS
 62
     7
100
AcDbLine
 10
626.3717651103262
 20
164.9520858945464
 30
0.0
 11
626.3717651103262
 21
165.7183930101012
 31
0.0
  0
LINE
  5
1ECCB
330
18
100
AcDbEntity
  8
1
  6
CONTINUOUS
 62
     7
100
AcDbLine
 10
626.3717651103262
 20
166.0466506900405
 30
0.0
 11
626.3717651103262
 21
166.8129578055953
 31
0.0
  0
LINE
  5
1ECCC
330
18
100
AcDbEntity
  8
1
  6
CONTINUOUS
 62
     7
100
AcDbLine
 10
629.4467650089983
 20
166.0466506900405
 30
0.0
 11
629.4467650089983
 21
166.8129578055953
 31
0.0
  0
LINE
  5
1ECCD
330
18
100
AcDbEntity
  8
1
  6
CONTINUOUS
 62
     7
100
AcDbLine
 10
626.3717651103262
 20
165.9825216801976
 30
0.0
 11
626.3717651103262
 21
166.0466506900405
 31
0.0
  0
LINE
  5
1ECCE
330
18
100
AcDbEntity
  8
1
  6
CONTINUOUS
 62
     7
100
AcDbLine
 10
629.4467650089983
 20
165.9825216801976
 30
0.0
 11
629.4467650089983
 21
166.0466506900405
 31
0.0
  0
LINE
  5
1ECCF
330
18
100
AcDbEntity
  8
1
  6
CONTINUOUS
 62
     7
100
AcDbLine
 10
629.4467650089983
 20
165.7183930101012
 30
0.0
 11
629.4467650089983
 21
165.7825220199441
 31
0.0
  0
LINE
  5
1ECD0
330
18
100
AcDbEntity
  8
1
  6
CONTINUOUS
 62
     7
100
AcDbLine
 10
626.3717651103262
 20
165.7183930101012
 30
0.0
 11
626.3717651103262
 21
165.7825220199441
 31
0.0
  0
LINE
  5
1ECD1
330
18
100
AcDbEntity
  8
1
  6
CONTINUOUS
 62
     7
100
AcDbLine
 10
629.1967649680201
 20
165.9825216801976
 30
0.0
 11
629.1967649680201
 21
165.7825220199441
 31
0.0
  0
LINE
  5
1ECD2
330
18
100
AcDbEntity
  8
1
  6
CONTINUOUS
 62
     7
100
AcDbLine
 10
629.4467650089983
 20
165.9825216801976
 30
0.0
 11
629.4467650089983
 21
165.7825220199441
 31
0.0
  0
ARC
  5
1ECD3
330
18
100
AcDbEntity
  8
1
  6
CONTINUOUS
 62
     7
100
AcDbCircle
 10
627.9529985789918
 20
165.5036079041234
 30
0.0
 40
0.8925975526780844
100
AcDbArc
 50
267.191623815791
 51
290.9507797182347
  0
LINE
  5
1ECD4
330
18
100
AcDbEntity
  8
1
  6
CONTINUOUS
 62
     7
100
AcDbLine
 10
628.3092648458306
 20
164.6700218143081
 30
0.0
 11
628.3092648458306
 21
164.5950224073743
 31
0.0
  0
ARC
  5
1ECD5
330
18
100
AcDbEntity
  8
1
  6
CONTINUOUS
 62
     7
100
AcDbCircle
 10
627.8655315403328
 20
165.5036079041234
 30
0.0
 40
0.8925975526780844
100
AcDbArc
 50
249.0492202817653
 51
272.808376184209
  0
LINE
  5
1ECD6
330
18
100
AcDbEntity
  8
1
  6
CONTINUOUS
 62
     7
100
AcDbLine
 10
627.509265273494
 20
164.5950224073743
 30
0.0
 11
627.509265273494
 21
164.6700218143081
 31
0.0
  0
LINE
  5
1ECF1
330
18
100
AcDbEntity
  8
1
  6
CONTINUOUS
 62
     7
100
AcDbLine
 10
613.1717651818518
 20
162.9950214000558
 30
0.0
 11
616.2467650805239
 21
162.9950214000558
 31
0.0
  0
LINE
  5
1ECF2
330
18
100
AcDbEntity
  8
1
  6
CONTINUOUS
 62
     7
100
AcDbLine
 10
616.2467650805239
 20
162.7450208934163
 30
0.0
 11
616.2467650805239
 21
162.9950214000558
 31
0.0
  0
LINE
  5
1ECF3
330
18
100
AcDbEntity
  8
1
  6
CONTINUOUS
 62
     7
100
AcDbLine
 10
613.1717651818518
 20
162.7450208934163
 30
0.0
 11
613.1717651818518
 21
162.9950214000558
 31
0.0
  0
LINE
  5
1ECF4
330
18
100
AcDbEntity
  8
1
  6
CONTINUOUS
 62
     7
100
AcDbLine
 10
613.1717651818518
 20
162.7450208934163
 30
0.0
 11
616.2467650805239
 21
162.7450208934163
 31
0.0
  0
LINE
  5
1ECF5
330
18
100
AcDbEntity
  8
1
  6
CONTINUOUS
 62
     7
100
AcDbLine
 10
613.1717651818518
 20
160.5700213285302
 30
0.0
 11
613.1717651818518
 21
160.8200218351697
 31
0.0
  0
LINE
  5
1ECF6
330
18
100
AcDbEntity
  8
1
  6
CONTINUOUS
 62
     7
100
AcDbLine
 10
613.1717651818518
 20
160.8200218351697
 30
0.0
 11
616.2467650805239
 21
160.8200218351697
 31
0.0
  0
LINE
  5
1ECF7
330
18
100
AcDbEntity
  8
1
  6
CONTINUOUS
 62
     7
100
AcDbLine
 10
616.2467650805239
 20
160.5700213285302
 30
0.0
 11
616.2467650805239
 21
160.8200218351697
 31
0.0
  0
LINE
  5
1ECF8
330
18
100
AcDbEntity
  8
1
  6
CONTINUOUS
 62
     7
100
AcDbLine
 10
613.1717651818518
 20
160.5700213285302
 30
0.0
 11
616.2467650805239
 21
160.5700213285302
 31
0.0
  0
LINE
  5
1ECF9
330
18
100
AcDbEntity
  8
1
  6
CONTINUOUS
 62
     7
100
AcDbLine
 10
616.2467650805239
 20
162.7129573198174
 30
0.0
 11
616.2467650805239
 21
162.7450208934163
 31
0.0
  0
LINE
  5
1ECFA
330
18
100
AcDbEntity
  8
1
  6
CONTINUOUS
 62
     7
100
AcDbLine
 10
613.1717651818518
 20
162.7129573198174
 30
0.0
 11
613.1717651818518
 21
162.7450208934163
 31
0.0
  0
LINE
  5
1ECFB
330
18
100
AcDbEntity
  8
1
  6
CONTINUOUS
 62
     7
100
AcDbLine
 10
613.1717651818518
 20
160.8200218351697
 30
0.0
 11
613.1717651818518
 21
160.8520854087685
 31
0.0
  0
LINE
  5
1ECFC
330
18
100
AcDbEntity
  8
1
  6
CONTINUOUS
 62
     7
100
AcDbLine
 10
616.2467650805239
 20
160.8200218351697
 30
0.0
 11
616.2467650805239
 21
160.8520854087685
 31
0.0
  0
LINE
  5
1ECFD
330
18
100
AcDbEntity
  8
1
  6
CONTINUOUS
 62
     7
100
AcDbLine
 10
613.1717651818518
 20
160.8520854087685
 30
0.0
 11
613.1717651818518
 21
161.6183925243234
 31
0.0
  0
LINE
  5
1ECFE
330
18
100
AcDbEntity
  8
1
  6
CONTINUOUS
 62
     7
100
AcDbLine
 10
616.2467650805239
 20
160.8520854087685
 30
0.0
 11
616.2467650805239
 21
161.6183925243234
 31
0.0
  0
LINE
  5
1ECFF
330
18
100
AcDbEntity
  8
1
  6
CONTINUOUS
 62
     7
100
AcDbLine
 10
616.2467650805239
 20
161.9466502042626
 30
0.0
 11
616.2467650805239
 21
162.7129573198174
 31
0.0
  0
LINE
  5
1ED00
330
18
100
AcDbEntity
  8
1
  6
CONTINUOUS
 62
     7
100
AcDbLine
 10
613.1717651818518
 20
161.9466502042626
 30
0.0
 11
613.1717651818518
 21
162.7129573198174
 31
0.0
  0
LINE
  5
1ED01
330
18
100
AcDbEntity
  8
1
  6
CONTINUOUS
 62
     7
100
AcDbLine
 10
616.2467650805239
 20
161.8825211944198
 30
0.0
 11
616.2467650805239
 21
161.9466502042626
 31
0.0
  0
LINE
  5
1ED02
330
18
100
AcDbEntity
  8
1
  6
CONTINUOUS
 62
     7
100
AcDbLine
 10
613.1717651818518
 20
161.8825211944198
 30
0.0
 11
613.1717651818518
 21
161.9466502042626
 31
0.0
  0
LINE
  5
1ED03
330
18
100
AcDbEntity
  8
1
  6
CONTINUOUS
 62
     7
100
AcDbLine
 10
613.1717651818518
 20
161.6183925243234
 30
0.0
 11
613.1717651818518
 21
161.6825215341662
 31
0.0
  0
LINE
  5
1ED04
330
18
100
AcDbEntity
  8
1
  6
CONTINUOUS
 62
     7
100
AcDbLine
 10
616.2467650805239
 20
161.6183925243234
 30
0.0
 11
616.2467650805239
 21
161.6825215341662
 31
0.0
  0
LINE
  5
1ED05
330
18
100
AcDbEntity
  8
1
  6
CONTINUOUS
 62
     7
100
AcDbLine
 10
615.9967645738844
 20
161.8825211944198
 30
0.0
 11
615.9967645738844
 21
161.6825215341662
 31
0.0
  0
LINE
  5
1ED06
330
18
100
AcDbEntity
  8
1
  6
CONTINUOUS
 62
     7
100
AcDbLine
 10
616.2467650805239
 20
161.8825211944198
 30
0.0
 11
616.2467650805239
 21
161.6825215341662
 31
0.0
  0
ARC
  5
1ED07
330
18
100
AcDbEntity
  8
1
  6
CONTINUOUS
 62
     7
100
AcDbCircle
 10
614.7530120374569
 20
161.4035496650391
 30
0.0
 40
0.8925386643783776
100
AcDbArc
 50
267.19057797771
 51
290.9512749012575
  0
LINE
  5
1ED08
330
18
100
AcDbEntity
  8
1
  6
CONTINUOUS
 62
     7
100
AcDbLine
 10
615.1092644516949
 20
160.5700213285302
 30
0.0
 11
615.1092644516949
 21
160.4950219215964
 31
0.0
  0
ARC
  5
1ED09
330
18
100
AcDbEntity
  8
1
  6
CONTINUOUS
 62
     7
100
AcDbCircle
 10
614.6655182249189
 20
161.4035496650391
 30
0.0
 40
0.8925386643783776
100
AcDbArc
 50
249.0487250987424
 51
272.80942202229
  0
LINE
  5
1ED0A
330
18
100
AcDbEntity
  8
1
  6
CONTINUOUS
 62
     7
100
AcDbLine
 10
614.3092658106808
 20
160.4950219215964
 30
0.0
 11
614.3092658106808
 21
160.5700213285302
 31
0.0
  0
LINE
  5
1ED25
330
18
100
AcDbEntity
  8
1
  6
CONTINUOUS
 62
     7
100
AcDbLine
 10
613.1717651818518
 20
164.6700218143081
 30
0.0
 11
613.1717651818518
 21
164.9200223209475
 31
0.0
  0
LINE
  5
1ED26
330
18
100
AcDbEntity
  8
1
  6
CONTINUOUS
 62
     7
100
AcDbLine
 10
613.1717651818518
 20
164.6700218143081
 30
0.0
 11
616.2467650805239
 21
164.6700218143081
 31
0.0
  0
LINE
  5
1ED27
330
18
100
AcDbEntity
  8
1
  6
CONTINUOUS
 62
     7
100
AcDbLine
 10
613.1717651818518
 20
164.9200223209475
 30
0.0
 11
616.2467650805239
 21
164.9200223209475
 31
0.0
  0
LINE
  5
1ED28
330
18
100
AcDbEntity
  8
1
  6
CONTINUOUS
 62
     7
100
AcDbLine
 10
616.2467650805239
 20
164.6700218143081
 30
0.0
 11
616.2467650805239
 21
164.9200223209475
 31
0.0
  0
LINE
  5
1ED29
330
18
100
AcDbEntity
  8
1
  6
CONTINUOUS
 62
     7
100
AcDbLine
 10
613.1717651818518
 20
167.0950218858336
 30
0.0
 11
616.2467650805239
 21
167.0950218858336
 31
0.0
  0
LINE
  5
1ED2A
330
18
100
AcDbEntity
  8
1
  6
CONTINUOUS
 62
     7
100
AcDbLine
 10
616.2467650805239
 20
166.8450213791942
 30
0.0
 11
616.2467650805239
 21
167.0950218858336
 31
0.0
  0
LINE
  5
1ED2B
330
18
100
AcDbEntity
  8
1
  6
CONTINUOUS
 62
     7
100
AcDbLine
 10
613.1717651818518
 20
166.8450213791942
 30
0.0
 11
616.2467650805239
 21
166.8450213791942
 31
0.0
  0
LINE
  5
1ED2C
330
18
100
AcDbEntity
  8
1
  6
CONTINUOUS
 62
     7
100
AcDbLine
 10
613.1717651818518
 20
166.8450213791942
 30
0.0
 11
613.1717651818518
 21
167.0950218858336
 31
0.0
  0
LINE
  5
1ED2D
330
18
100
AcDbEntity
  8
1
  6
CONTINUOUS
 62
     7
100
AcDbLine
 10
616.2467650805239
 20
166.8129578055953
 30
0.0
 11
616.2467650805239
 21
166.8450213791942
 31
0.0
  0
LINE
  5
1ED2E
330
18
100
AcDbEntity
  8
1
  6
CONTINUOUS
 62
     7
100
AcDbLine
 10
613.1717651818518
 20
166.8129578055953
 30
0.0
 11
613.1717651818518
 21
166.8450213791942
 31
0.0
  0
LINE
  5
1ED2F
330
18
100
AcDbEntity
  8
1
  6
CONTINUOUS
 62
     7
100
AcDbLine
 10
613.1717651818518
 20
164.9200223209475
 30
0.0
 11
613.1717651818518
 21
164.9520858945464
 31
0.0
  0
LINE
  5
1ED30
330
18
100
AcDbEntity
  8
1
  6
CONTINUOUS
 62
     7
100
AcDbLine
 10
616.2467650805239
 20
164.9200223209475
 30
0.0
 11
616.2467650805239
 21
164.9520858945464
 31
0.0
  0
LINE
  5
1ED31
330
18
100
AcDbEntity
  8
1
  6
CONTINUOUS
 62
     7
100
AcDbLine
 10
613.1717651818518
 20
164.9520858945464
 30
0.0
 11
613.1717651818518
 21
165.7183930101012
 31
0.0
  0
LINE
  5
1ED32
330
18
100
AcDbEntity
  8
1
  6
CONTINUOUS
 62
     7
100
AcDbLine
 10
616.2467650805239
 20
164.9520858945464
 30
0.0
 11
616.2467650805239
 21
165.7183930101012
 31
0.0
  0
LINE
  5
1ED33
330
18
100
AcDbEntity
  8
1
  6
CONTINUOUS
 62
     7
100
AcDbLine
 10
616.2467650805239
 20
166.0466506900405
 30
0.0
 11
616.2467650805239
 21
166.8129578055953
 31
0.0
  0
LINE
  5
1ED34
330
18
100
AcDbEntity
  8
1
  6
CONTINUOUS
 62
     7
100
AcDbLine
 10
613.1717651818518
 20
166.0466506900405
 30
0.0
 11
613.1717651818518
 21
166.8129578055953
 31
0.0
  0
LINE
  5
1ED35
330
18
100
AcDbEntity
  8
1
  6
CONTINUOUS
 62
     7
100
AcDbLine
 10
616.2467650805239
 20
165.9825216801976
 30
0.0
 11
616.2467650805239
 21
166.0466506900405
 31
0.0
  0
LINE
  5
1ED36
330
18
100
AcDbEntity
  8
1
  6
CONTINUOUS
 62
     7
100
AcDbLine
 10
613.1717651818518
 20
165.9825216801976
 30
0.0
 11
613.1717651818518
 21
166.0466506900405
 31
0.0
  0
LINE
  5
1ED37
330
18
100
AcDbEntity
  8
1
  6
CONTINUOUS
 62
     7
100
AcDbLine
 10
613.1717651818518
 20
165.7183930101012
 30
0.0
 11
613.1717651818518
 21
165.7825220199441
 31
0.0
  0
LINE
  5
1ED38
330
18
100
AcDbEntity
  8
1
  6
CONTINUOUS
 62
     7
100
AcDbLine
 10
616.2467650805239
 20
165.7183930101012
 30
0.0
 11
616.2467650805239
 21
165.7825220199441
 31
0.0
  0
LINE
  5
1ED39
330
18
100
AcDbEntity
  8
1
  6
CONTINUOUS
 62
     7
100
AcDbLine
 10
615.9967645738844
 20
165.9825216801976
 30
0.0
 11
615.9967645738844
 21
165.7825220199441
 31
0.0
  0
LINE
  5
1ED3A
330
18
100
AcDbEntity
  8
1
  6
CONTINUOUS
 62
     7
100
AcDbLine
 10
616.2467650805239
 20
165.9825216801976
 30
0.0
 11
616.2467650805239
 21
165.7825220199441
 31
0.0
  0
ARC
  5
1ED3B
330
18
100
AcDbEntity
  8
1
  6
CONTINUOUS
 62
     7
100
AcDbCircle
 10
614.6655307957893
 20
165.503600227674
 30
0.0
 40
0.8925899254328722
100
AcDbArc
 50
249.0491209249431
 51
272.80845264808
  0
ARC
  5
1ED3C
330
18
100
AcDbEntity
  8
1
  6
CONTINUOUS
 62
     7
100
AcDbCircle
 10
614.7529994665864
 20
165.503600227674
 30
0.0
 40
0.8925899254328722
100
AcDbArc
 50
267.19154735192
 51
290.9508790750569
  0
LINE
  5
1ED3D
330
18
100
AcDbEntity
  8
1
  6
CONTINUOUS
 62
     7
100
AcDbLine
 10
614.3092658106808
 20
164.5950224073743
 30
0.0
 11
614.3092658106808
 21
164.6700218143081
 31
0.0
  0
LINE
  5
1ED3E
330
18
100
AcDbEntity
  8
1
  6
CONTINUOUS
 62
     7
100
AcDbLine
 10
615.1092644516949
 20
164.6700218143081
 30
0.0
 11
615.1092644516949
 21
164.5950224073743
 31
0.0
  0
LINE
  5
1ED59
330
18
100
AcDbEntity
  8
1
  6
CONTINUOUS
 62
     7
100
AcDbLine
 10
626.3717651103262
 20
148.2200218187784
 30
0.0
 11
629.4467650089983
 21
148.2200218187784
 31
0.0
  0
LINE
  5
1ED5A
330
18
100
AcDbEntity
  8
1
  6
CONTINUOUS
 62
     7
100
AcDbLine
 10
629.4467650089983
 20
147.9700217778002
 30
0.0
 11
629.4467650089983
 21
148.2200218187784
 31
0.0
  0
LINE
  5
1ED5B
330
18
100
AcDbEntity
  8
1
  6
CONTINUOUS
 62
     7
100
AcDbLine
 10
626.3717651103262
 20
147.9700217778002
 30
0.0
 11
629.4467650089983
 21
147.9700217778002
 31
0.0
  0
LINE
  5
1ED5C
330
18
100
AcDbEntity
  8
1
  6
CONTINUOUS
 62
     7
100
AcDbLine
 10
626.3717651103262
 20
147.9700217778002
 30
0.0
 11
626.3717651103262
 21
148.2200218187784
 31
0.0
  0
LINE
  5
1ED5D
330
18
100
AcDbEntity
  8
1
  6
CONTINUOUS
 62
     7
100
AcDbLine
 10
626.3717651103262
 20
150.3950218493258
 30
0.0
 11
629.4467650089983
 21
150.3950218493258
 31
0.0
  0
LINE
  5
1ED5E
330
18
100
AcDbEntity
  8
1
  6
CONTINUOUS
 62
     7
100
AcDbLine
 10
629.4467650089983
 20
150.1450218083476
 30
0.0
 11
629.4467650089983
 21
150.3950218493258
 31
0.0
  0
LINE
  5
1ED5F
330
18
100
AcDbEntity
  8
1
  6
CONTINUOUS
 62
     7
100
AcDbLine
 10
626.3717651103262
 20
150.1450218083476
 30
0.0
 11
626.3717651103262
 21
150.3950218493258
 31
0.0
  0
LINE
  5
1ED60
330
18
100
AcDbEntity
  8
1
  6
CONTINUOUS
 62
     7
100
AcDbLine
 10
626.3717651103262
 20
150.1450218083476
 30
0.0
 11
629.4467650089983
 21
150.1450218083476
 31
0.0
  0
LINE
  5
1ED61
330
18
100
AcDbEntity
  8
1
  6
CONTINUOUS
 62
     7
100
AcDbLine
 10
629.4467650089983
 20
150.1129573034262
 30
0.0
 11
629.4467650089983
 21
150.1450218083476
 31
0.0
  0
LINE
  5
1ED62
330
18
100
AcDbEntity
  8
1
  6
CONTINUOUS
 62
     7
100
AcDbLine
 10
626.3717651103262
 20
150.1129573034262
 30
0.0
 11
626.3717651103262
 21
150.1450218083476
 31
0.0
  0
LINE
  5
1ED63
330
18
100
AcDbEntity
  8
1
  6
CONTINUOUS
 62
     7
100
AcDbLine
 10
629.4467650089983
 20
148.2200218187784
 30
0.0
 11
629.4467650089983
 21
148.2520860908692
 31
0.0
  0
LINE
  5
1ED64
330
18
100
AcDbEntity
  8
1
  6
CONTINUOUS
 62
     7
100
AcDbLine
 10
626.3717651103262
 20
148.2200218187784
 30
0.0
 11
626.3717651103262
 21
148.2520860908692
 31
0.0
  0
LINE
  5
1ED65
330
18
100
AcDbEntity
  8
1
  6
CONTINUOUS
 62
     7
100
AcDbLine
 10
629.4467650089983
 20
148.2520860908692
 30
0.0
 11
629.4467650089983
 21
149.0183929735934
 31
0.0
  0
LINE
  5
1ED66
330
18
100
AcDbEntity
  8
1
  6
CONTINUOUS
 62
     7
100
AcDbLine
 10
626.3717651103262
 20
148.2520860908692
 30
0.0
 11
626.3717651103262
 21
149.0183929735934
 31
0.0
  0
LINE
  5
1ED67
330
18
100
AcDbEntity
  8
1
  6
CONTINUOUS
 62
     7
100
AcDbLine
 10
629.4467650089983
 20
149.3466506535326
 30
0.0
 11
629.4467650089983
 21
150.1129573034262
 31
0.0
  0
LINE
  5
1ED68
330
18
100
AcDbEntity
  8
1
  6
CONTINUOUS
 62
     7
100
AcDbLine
 10
626.3717651103262
 20
149.3466506535326
 30
0.0
 11
626.3717651103262
 21
150.1129573034262
 31
0.0
  0
LINE
  5
1ED69
330
18
100
AcDbEntity
  8
1
  6
CONTINUOUS
 62
     7
100
AcDbLine
 10
629.4467650089983
 20
149.2825216436898
 30
0.0
 11
629.4467650089983
 21
149.3466506535326
 31
0.0
  0
LINE
  5
1ED6A
330
18
100
AcDbEntity
  8
1
  6
CONTINUOUS
 62
     7
100
AcDbLine
 10
626.3717651103262
 20
149.2825216436898
 30
0.0
 11
626.3717651103262
 21
149.3466506535326
 31
0.0
  0
LINE
  5
1ED6B
330
18
100
AcDbEntity
  8
1
  6
CONTINUOUS
 62
     7
100
AcDbLine
 10
629.4467650089983
 20
149.0183929735934
 30
0.0
 11
629.4467650089983
 21
149.0825219834362
 31
0.0
  0
LINE
  5
1ED6C
330
18
100
AcDbEntity
  8
1
  6
CONTINUOUS
 62
     7
100
AcDbLine
 10
626.3717651103262
 20
149.0183929735934
 30
0.0
 11
626.3717651103262
 21
149.0825219834362
 31
0.0
  0
LINE
  5
1ED6D
330
18
100
AcDbEntity
  8
1
  6
CONTINUOUS
 62
     7
100
AcDbLine
 10
629.1967649680201
 20
149.2825216436898
 30
0.0
 11
629.1967649680201
 21
149.0825219834362
 31
0.0
  0
LINE
  5
1ED6E
330
18
100
AcDbEntity
  8
1
  6
CONTINUOUS
 62
     7
100
AcDbLine
 10
629.4467650089983
 20
149.2825216436898
 30
0.0
 11
629.4467650089983
 21
149.0825219834362
 31
0.0
  0
ARC
  5
1ED6F
330
18
100
AcDbEntity
  8
1
  6
CONTINUOUS
 62
     7
100
AcDbCircle
 10
627.865524250368
 20
148.8035765378334
 30
0.0
 40
0.8925656875409055
100
AcDbArc
 50
249.0489381922898
 51
272.8089450472283
  0
ARC
  5
1ED70
330
18
100
AcDbEntity
  8
1
  6
CONTINUOUS
 62
     7
100
AcDbCircle
 10
627.9530058689564
 20
148.8035765378334
 30
0.0
 40
0.8925656875409157
100
AcDbArc
 50
267.1910549527791
 51
290.9510618077177
  0
LINE
  5
1ED71
330
18
100
AcDbEntity
  8
1
  6
CONTINUOUS
 62
     7
100
AcDbLine
 10
628.3092648458306
 20
147.9700217778002
 30
0.0
 11
628.3092648458306
 21
147.8950219052051
 31
0.0
  0
LINE
  5
1ED72
330
18
100
AcDbEntity
  8
1
  6
CONTINUOUS
 62
     7
100
AcDbLine
 10
627.509265273494
 20
147.8950219052051
 30
0.0
 11
627.509265273494
 21
147.9700217778002
 31
0.0
  0
LINE
  5
1ED73
330
18
100
AcDbEntity
  8
1
  6
CONTINUOUS
 62
     7
100
AcDbLine
 10
619.8092648495559
 20
139.1270468766009
 30
0.0
 11
619.8092648495559
 21
141.8200217476254
 31
0.0
  0
LINE
  5
1ED74
330
18
100
AcDbEntity
  8
1
  6
CONTINUOUS
 62
     7
100
AcDbLine
 10
611.2502474073891
 20
141.9080401128297
 30
0.0
 11
619.8092648495559
 21
139.1270468766009
 31
0.0
  0
ARC
  5
1ED75
330
18
100
AcDbEntity
  8
1
  6
CONTINUOUS
 62
     7
100
AcDbCircle
 10
611.5592650762688
 20
142.8590965633974
 30
0.0
 40
1.0
100
AcDbArc
 50
180.0
 51
252.000000000001
  0
LINE
  5
1ED76
330
18
100
AcDbEntity
  8
1
  6
CONTINUOUS
 62
     7
100
AcDbLine
 10
610.5592656616692
 20
148.4200217118626
 30
0.0
 11
610.5592656616692
 21
142.859096597894
 31
0.0
  0
LINE
  5
1ED77
330
18
100
AcDbEntity
  8
1
  6
CONTINUOUS
 62
     7
100
AcDbLine
 10
610.5592656616692
 20
148.4200217118626
 30
0.0
 11
611.559265825582
 21
148.4200217118626
 31
0.0
  0
LINE
  5
1ED78
330
18
100
AcDbEntity
  8
1
  6
CONTINUOUS
 62
     7
100
AcDbLine
 10
611.559265825582
 20
148.4200217118626
 30
0.0
 11
611.559265825582
 21
152.5200219648098
 31
0.0
  0
LINE
  5
1ED79
330
18
100
AcDbEntity
  8
1
  6
CONTINUOUS
 62
     7
100
AcDbLine
 10
611.559265825582
 20
152.5200219648098
 30
0.0
 11
610.5592656616692
 21
152.5200219648098
 31
0.0
  0
LINE
  5
1ED7A
330
18
100
AcDbEntity
  8
1
  6
CONTINUOUS
 62
     7
100
AcDbLine
 10
610.5592656616692
 20
160.7200220050429
 30
0.0
 11
610.5592656616692
 21
152.5200219648098
 31
0.0
  0
LINE
  5
1ED7B
330
18
100
AcDbEntity
  8
1
  6
CONTINUOUS
 62
     7
100
AcDbLine
 10
610.5592656616692
 20
160.7200220050429
 30
0.0
 11
611.559265825582
 21
160.7200220050429
 31
0.0
  0
LINE
  5
1ED7C
330
18
100
AcDbEntity
  8
1
  6
CONTINUOUS
 62
     7
100
AcDbLine
 10
611.559265825582
 20
160.7200220050429
 30
0.0
 11
611.559265825582
 21
164.8200224908208
 31
0.0
  0
LINE
  5
1ED7D
330
18
100
AcDbEntity
  8
1
  6
CONTINUOUS
 62
     7
100
AcDbLine
 10
611.559265825582
 20
164.8200224908208
 30
0.0
 11
610.5592656616692
 21
164.8200224908208
 31
0.0
  0
LINE
  5
1ED7E
330
18
100
AcDbEntity
  8
1
  6
CONTINUOUS
 62
     7
100
AcDbLine
 10
610.5592656616692
 20
173.6200224431371
 30
0.0
 11
610.5592656616692
 21
164.8200224908208
 31
0.0
  0
ARC
  5
1ED7F
330
18
100
AcDbEntity
  8
1
  6
CONTINUOUS
 62
     7
100
AcDbCircle
 10
613.8092650762688
 20
173.6200218079159
 30
0.0
 40
3.25
100
AcDbArc
 50
71.99999999999956
 51
180.0
  0
LINE
  5
1ED80
330
18
100
AcDbEntity
  8
1
  6
CONTINUOUS
 62
     7
100
AcDbLine
 10
619.8092648495559
 20
175.0877551557635
 30
0.0
 11
614.8135695342545
 21
176.7109554084157
 31
0.0
  0
LINE
  5
1ED81
330
18
100
AcDbEntity
  8
1
  6
CONTINUOUS
 62
     7
100
AcDbLine
 10
619.8092648495559
 20
171.420022455058
 30
0.0
 11
619.8092648495559
 21
175.0877551557635
 31
0.0
  0
LINE
  5
1ED82
330
18
100
AcDbEntity
  8
1
  6
CONTINUOUS
 62
     7
100
AcDbLine
 10
619.8092648495559
 20
170.4200222911452
 30
0.0
 11
619.8092648495559
 21
171.420022455058
 31
0.0
  0
LINE
  5
1ED83
330
18
100
AcDbEntity
  8
1
  6
CONTINUOUS
 62
     7
100
AcDbLine
 10
622.8092653412942
 20
170.4200222911452
 30
0.0
 11
622.8092653412942
 21
171.420022455058
 31
0.0
  0
LINE
  5
1ED84
330
18
100
AcDbEntity
  8
1
  6
CONTINUOUS
 62
     7
100
AcDbLine
 10
622.8092653412942
 20
174.1129975589131
 30
0.0
 11
622.8092653412942
 21
171.420022455058
 31
0.0
  0
LINE
  5
1ED85
330
18
100
AcDbEntity
  8
1
  6
CONTINUOUS
 62
     7
100
AcDbLine
 10
631.3682820849691
 20
171.3320031585311
 30
0.0
 11
622.8092653412942
 21
174.1129975589131
 31
0.0
  0
ARC
  5
1ED86
330
18
100
AcDbEntity
  8
1
  6
CONTINUOUS
 62
     7
100
AcDbCircle
 10
631.0592650762688
 20
170.3809470524345
 30
0.0
 40
1.0
100
AcDbArc
 50
0.0
 51
72.00000000000101
  0
LINE
  5
1ED87
330
18
100
AcDbEntity
  8
1
  6
CONTINUOUS
 62
     7
100
AcDbLine
 10
632.0592649948422
 20
164.8200224908208
 30
0.0
 11
632.0592649948422
 21
170.3809477212046
 31
0.0
  0
LINE
  5
1ED88
330
18
100
AcDbEntity
  8
1
  6
CONTINUOUS
 62
     7
100
AcDbLine
 10
632.0592649948422
 20
164.8200224908208
 30
0.0
 11
631.0592652965908
 21
164.8200224908208
 31
0.0
  0
LINE
  5
1ED89
330
18
100
AcDbEntity
  8
1
  6
CONTINUOUS
 62
     7
100
AcDbLine
 10
631.0592652965908
 20
164.8200224908208
 30
0.0
 11
631.0592652965908
 21
160.7200220050429
 31
0.0
  0
LINE
  5
1ED8A
330
18
100
AcDbEntity
  8
1
  6
CONTINUOUS
 62
     7
100
AcDbLine
 10
631.0592652965908
 20
160.7200220050429
 30
0.0
 11
632.0592649948422
 21
160.7200220050429
 31
0.0
  0
LINE
  5
1ED8B
330
18
100
AcDbEntity
  8
1
  6
CONTINUOUS
 62
     7
100
AcDbLine
 10
632.0592649948422
 20
152.5200219648098
 30
0.0
 11
632.0592649948422
 21
160.7200220050429
 31
0.0
  0
LINE
  5
1ED8C
330
18
100
AcDbEntity
  8
1
  6
CONTINUOUS
 62
     7
100
AcDbLine
 10
632.0592649948422
 20
152.5200219648098
 30
0.0
 11
631.0592652965908
 21
152.5200219648098
 31
0.0
  0
LINE
  5
1ED8D
330
18
100
AcDbEntity
  8
1
  6
CONTINUOUS
 62
     7
100
AcDbLine
 10
631.0592652965908
 20
152.5200219648098
 30
0.0
 11
631.0592652965908
 21
148.4200217118626
 31
0.0
  0
LINE
  5
1ED8E
330
18
100
AcDbEntity
  8
1
  6
CONTINUOUS
 62
     7
100
AcDbLine
 10
631.0592652965908
 20
148.4200217118626
 30
0.0
 11
632.0592649948422
 21
148.4200217118626
 31
0.0
  0
LINE
  5
1ED8F
330
18
100
AcDbEntity
  8
1
  6
CONTINUOUS
 62
     7
100
AcDbLine
 10
632.0592649948422
 20
139.6200219923769
 30
0.0
 11
632.0592649948422
 21
148.4200217118626
 31
0.0
  0
ARC
  5
1ED90
330
18
100
AcDbEntity
  8
1
  6
CONTINUOUS
 62
     7
100
AcDbCircle
 10
628.8092650762688
 20
139.6200218079159
 30
0.0
 40
3.250000000000028
100
AcDbArc
 50
252.0000000000017
 51
0.0
  0
LINE
  5
1ED91
330
18
100
AcDbEntity
  8
1
  6
CONTINUOUS
 62
     7
100
AcDbLine
 10
622.8092653412942
 20
138.1522878827666
 30
0.0
 11
627.8049597252731
 21
136.529088561437
 31
0.0
  0
LINE
  5
1ED92
330
18
100
AcDbEntity
  8
1
  6
CONTINUOUS
 62
     7
100
AcDbLine
 10
622.8092653412942
 20
141.8200217476254
 30
0.0
 11
622.8092653412942
 21
138.1522878827666
 31
0.0
  0
LINE
  5
1ED93
330
18
100
AcDbEntity
  8
1
  6
CONTINUOUS
 62
     7
100
AcDbLine
 10
622.8092653412942
 20
142.8200217951228
 30
0.0
 11
622.8092653412942
 21
141.8200217476254
 31
0.0
  0
LINE
  5
1ED94
330
18
100
AcDbEntity
  8
1
  6
CONTINUOUS
 62
     7
100
AcDbLine
 10
619.8092648495559
 20
142.8200217951228
 30
0.0
 11
619.8092648495559
 21
141.8200217476254
 31
0.0
  0
LINE
  5
1ED95
330
18
100
AcDbEntity
  8
1
  6
CONTINUOUS
 62
     7
100
AcDbLine
 10
623.9092653353338
 20
145.8200218211998
 30
0.0
 11
624.3092646558408
 21
152.1200217129802
 31
0.0
  0
LINE
  5
1ED96
330
18
100
AcDbEntity
  8
1
  6
CONTINUOUS
 62
     7
100
AcDbLine
 10
624.3092646558408
 20
152.1200217129802
 30
0.0
 11
618.3092646036868
 21
152.1200217129802
 31
0.0
  0
LINE
  5
1ED97
330
18
100
AcDbEntity
  8
1
  6
CONTINUOUS
 62
     7
100
AcDbLine
 10
618.3092646036868
 20
152.1200217129802
 30
0.0
 11
618.709265786839
 21
145.8200218211998
 31
0.0
  0
LINE
  5
1ED98
330
18
100
AcDbEntity
  8
1
  6
CONTINUOUS
 62
     7
100
AcDbLine
 10
618.709265786839
 20
145.8200218211998
 30
0.0
 11
623.9092653353338
 21
145.8200218211998
 31
0.0
  0
LINE
  5
1ED99
330
18
100
AcDbEntity
  8
1
  6
CONTINUOUS
 62
     7
100
AcDbLine
 10
626.23426464541
 20
163.345021736822
 30
0.0
 11
626.23426464541
 21
160.4950219215964
 31
0.0
  0
LINE
  5
1ED9A
330
18
100
AcDbEntity
  8
1
  6
CONTINUOUS
 62
     7
100
AcDbLine
 10
626.23426464541
 20
160.4950219215964
 30
0.0
 11
629.5842650082533
 21
160.4950219215964
 31
0.0
  0
LINE
  5
1ED9B
330
18
100
AcDbEntity
  8
1
  6
CONTINUOUS
 62
     7
100
AcDbLine
 10
629.5842650082533
 20
160.4950219215964
 30
0.0
 11
629.5842650082533
 21
163.345021736822
 31
0.0
  0
LINE
  5
1ED9C
330
18
100
AcDbEntity
  8
1
  6
CONTINUOUS
 62
     7
100
AcDbLine
 10
629.5842650082533
 20
163.345021736822
 30
0.0
 11
626.23426464541
 21
163.345021736822
 31
0.0
  0
LINE
  5
1ED9D
330
18
100
AcDbEntity
  8
1
  6
CONTINUOUS
 62
     7
100
AcDbLine
 10
613.0342647169356
 20
157.0450221942877
 30
0.0
 11
613.0342647169356
 21
154.1950214477395
 31
0.0
  0
LINE
  5
1ED9E
330
18
100
AcDbEntity
  8
1
  6
CONTINUOUS
 62
     7
100
AcDbLine
 10
613.0342647169356
 20
154.1950214477395
 30
0.0
 11
616.3842655454401
 21
154.1950214477395
 31
0.0
  0
LINE
  5
1ED9F
330
18
100
AcDbEntity
  8
1
  6
CONTINUOUS
 62
     7
100
AcDbLine
 10
616.3842655454401
 20
154.1950214477395
 30
0.0
 11
616.3842655454401
 21
157.0450221942877
 31
0.0
  0
LINE
  5
1EDA0
330
18
100
AcDbEntity
  8
1
  6
CONTINUOUS
 62
     7
100
AcDbLine
 10
616.3842655454401
 20
157.0450221942877
 30
0.0
 11
613.0342647169356
 21
157.0450221942877
 31
0.0
  0
LINE
  5
1EDA1
330
18
100
AcDbEntity
  8
1
  6
CONTINUOUS
 62
     7
100
AcDbLine
 10
617.4342646930937
 20
157.0450221942877
 30
0.0
 11
617.4342646930937
 21
154.1950214477395
 31
0.0
  0
LINE
  5
1EDA2
330
18
100
AcDbEntity
  8
1
  6
CONTINUOUS
 62
     7
100
AcDbLine
 10
617.4342646930937
 20
154.1950214477395
 30
0.0
 11
620.7842655215983
 21
154.1950214477395
 31
0.0
  0
LINE
  5
1EDA3
330
18
100
AcDbEntity
  8
1
  6
CONTINUOUS
 62
     7
100
AcDbLine
 10
620.7842655215983
 20
154.1950214477395
 30
0.0
 11
620.7842655215983
 21
157.0450221942877
 31
0.0
  0
LINE
  5
1EDA4
330
18
100
AcDbEntity
  8
1
  6
CONTINUOUS
 62
     7
100
AcDbLine
 10
620.7842655215983
 20
157.0450221942877
 30
0.0
 11
617.4342646930937
 21
157.0450221942877
 31
0.0
  0
LINE
  5
1EDA5
330
18
100
AcDbEntity
  8
1
  6
CONTINUOUS
 62
     7
100
AcDbLine
 10
621.8342646692519
 20
157.0450221942877
 30
0.0
 11
621.8342646692519
 21
154.1950214477395
 31
0.0
  0
LINE
  5
1EDA7
330
18
100
AcDbEntity
  8
1
  6
CONTINUOUS
 62
     7
100
AcDbLine
 10
625.1842654977564
 20
154.1950214477395
 30
0.0
 11
625.1842654977564
 21
157.0450221942877
 31
0.0
  0
LINE
  5
1EDA8
330
18
100
AcDbEntity
  8
1
  6
CONTINUOUS
 62
     7
100
AcDbLine
 10
625.1842654977564
 20
157.0450221942877
 30
0.0
 11
621.8342646692519
 21
157.0450221942877
 31
0.0
  0
LINE
  5
1EDA9
330
18
100
AcDbEntity
  8
1
  6
CONTINUOUS
 62
     7
100
AcDbLine
 10
626.23426464541
 20
157.0450221942877
 30
0.0
 11
626.23426464541
 21
154.1950214477395
 31
0.0
  0
LINE
  5
1EDAA
330
18
100
AcDbEntity
  8
1
  6
CONTINUOUS
 62
     7
100
AcDbLine
 10
626.23426464541
 20
154.1950214477395
 30
0.0
 11
629.5842650082533
 21
154.1950214477395
 31
0.0
  0
LINE
  5
1EDAB
330
18
100
AcDbEntity
  8
1
  6
CONTINUOUS
 62
     7
100
AcDbLine
 10
629.5842650082533
 20
154.1950214477395
 30
0.0
 11
629.5842650082533
 21
157.0450221942877
 31
0.0
  0
LINE
  5
1EDAC
330
18
100
AcDbEntity
  8
1
  6
CONTINUOUS
 62
     7
100
AcDbLine
 10
629.5842650082533
 20
157.0450221942877
 30
0.0
 11
626.23426464541
 21
157.0450221942877
 31
0.0
  0
LINE
  5
1EDAD
330
18
100
AcDbEntity
  8
1
  6
CONTINUOUS
 62
     7
100
AcDbLine
 10
613.0342647169356
 20
150.7450217204307
 30
0.0
 11
613.0342647169356
 21
147.8950219052051
 31
0.0
  0
LINE
  5
1EDAE
330
18
100
AcDbEntity
  8
1
  6
CONTINUOUS
 62
     7
100
AcDbLine
 10
613.0342647169356
 20
147.8950219052051
 30
0.0
 11
616.3842655454401
 21
147.8950219052051
 31
0.0
  0
LINE
  5
1EDAF
330
18
100
AcDbEntity
  8
1
  6
CONTINUOUS
 62
     7
100
AcDbLine
 10
616.3842655454401
 20
147.8950219052051
 30
0.0
 11
616.3842655454401
 21
150.7450217204307
 31
0.0
  0
LINE
  5
1EDB0
330
18
100
AcDbEntity
  8
1
  6
CONTINUOUS
 62
     7
100
AcDbLine
 10
616.3842655454401
 20
150.7450217204307
 30
0.0
 11
613.0342647169356
 21
150.7450217204307
 31
0.0
  0
LINE
  5
1EDB1
330
18
100
AcDbEntity
  8
1
  6
CONTINUOUS
 62
     7
100
AcDbLine
 10
626.23426464541
 20
150.7450217204307
 30
0.0
 11
626.23426464541
 21
147.8950219052051
 31
0.0
  0
LINE
  5
1EDB2
330
18
100
AcDbEntity
  8
1
  6
CONTINUOUS
 62
     7
100
AcDbLine
 10
626.23426464541
 20
147.8950219052051
 30
0.0
 11
629.5842650082533
 21
147.8950219052051
 31
0.0
  0
LINE
  5
1EDB3
330
18
100
AcDbEntity
  8
1
  6
CONTINUOUS
 62
     7
100
AcDbLine
 10
629.5842650082533
 20
147.8950219052051
 30
0.0
 11
629.5842650082533
 21
150.7450217204307
 31
0.0
  0
LINE
  5
1EDB4
330
18
100
AcDbEntity
  8
1
  6
CONTINUOUS
 62
     7
100
AcDbLine
 10
629.5842650082533
 20
150.7450217204307
 30
0.0
 11
626.23426464541
 21
150.7450217204307
 31
0.0
  0
LINE
  5
1EDB5
330
18
100
AcDbEntity
  8
1
  6
CONTINUOUS
 62
     7
100
AcDbLine
 10
621.8342646692519
 20
163.345021736822
 30
0.0
 11
621.8342646692519
 21
160.4950219215964
 31
0.0
  0
LINE
  5
1EDB6
330
18
100
AcDbEntity
  8
1
  6
CONTINUOUS
 62
     7
100
AcDbLine
 10
625.1842654977564
 20
160.4950219215964
 30
0.0
 11
625.1842654977564
 21
163.345021736822
 31
0.0
  0
LINE
  5
1EDB7
330
18
100
AcDbEntity
  8
1
  6
CONTINUOUS
 62
     7
100
AcDbLine
 10
617.4342646930937
 20
167.4450222225999
 30
0.0
 11
617.4342646930937
 21
164.5950224073743
 31
0.0
  0
LINE
  5
1EDB9
330
18
100
AcDbEntity
  8
1
  6
CONTINUOUS
 62
     7
100
AcDbLine
 10
620.7842655215983
 20
164.5950224073743
 30
0.0
 11
620.7842655215983
 21
167.4450222225999
 31
0.0
  0
LINE
  5
1EDBA
330
18
100
AcDbEntity
  8
1
  6
CONTINUOUS
 62
     7
100
AcDbLine
 10
620.7842655215983
 20
167.4450222225999
 30
0.0
 11
617.4342646930937
 21
167.4450222225999
 31
0.0
  0
LINE
  5
1EDBB
330
18
100
AcDbEntity
  8
1
  6
CONTINUOUS
 62
     7
100
AcDbLine
 10
613.0342647169356
 20
167.4450222225999
 30
0.0
 11
613.0342647169356
 21
164.5950224073743
 31
0.0
  0
LINE
  5
1EDBC
330
18
100
AcDbEntity
  8
1
  6
CONTINUOUS
 62
     7
100
AcDbLine
 10
613.0342647169356
 20
164.5950224073743
 30
0.0
 11
616.3842655454401
 21
164.5950224073743
 31
0.0
  0
LINE
  5
1EDBD
330
18
100
AcDbEntity
  8
1
  6
CONTINUOUS
 62
     7
100
AcDbLine
 10
616.3842655454401
 20
164.5950224073743
 30
0.0
 11
616.3842655454401
 21
167.4450222225999
 31
0.0
  0
LINE
  5
1EDBE
330
18
100
AcDbEntity
  8
1
  6
CONTINUOUS
 62
     7
100
AcDbLine
 10
616.3842655454401
 20
167.4450222225999
 30
0.0
 11
613.0342647169356
 21
167.4450222225999
 31
0.0
  0
CIRCLE
  5
1EDBF
330
18
100
AcDbEntity
  8
1
  6
CONTINUOUS
 62
     7
100
AcDbCircle
 10
613.8092650762688
 20
173.6200218079159
 30
0.0
 40
1.599999999999994
  0
CIRCLE
  5
1EDC0
330
18
100
AcDbEntity
  8
1
  6
CONTINUOUS
 62
     7
100
AcDbCircle
 10
628.8092650762688
 20
139.6200218079159
 30
0.0
 40
1.599999999999994
  0
LINE
  5
1EDC1
330
18
100
AcDbEntity
  8
1
  6
CONTINUOUS
 62
     7
100
AcDbLine
 10
625.1842654977564
 20
163.345021736822
 30
0.0
 11
621.8342646692519
 21
163.345021736822
 31
0.0
  0
LINE
  5
1EDC2
330
18
100
AcDbEntity
  8
1
  6
CONTINUOUS
 62
     7
100
AcDbLine
 10
619.8092648495559
 20
142.8200217951228
 30
0.0
 11
622.8092653412942
 21
142.8200217951228
 31
0.0
  0
LINE
  5
1EDC4
330
18
100
AcDbEntity
  8
1
  6
CONTINUOUS
 62
     7
100
AcDbLine
 10
619.8092648495559
 20
170.4200222911452
 30
0.0
 11
622.8092653412942
 21
170.4200222911452
 31
0.0
  0
LINE
  5
1EDC5
330
18
100
AcDbEntity
  8
1
  6
CONTINUOUS
 62
     7
100
AcDbLine
 10
620.7842655215983
 20
163.345021736822
 30
0.0
 11
617.4342646930937
 21
163.345021736822
 31
0.0
  0
LINE
  5
1EDC6
330
18
100
AcDbEntity
  8
1
  6
CONTINUOUS
 62
     7
100
AcDbLine
 10
617.4342646930937
 20
163.345021736822
 30
0.0
 11
617.4342646930937
 21
160.4950219215964
 31
0.0
  0
LINE
  5
1EDC8
330
18
100
AcDbEntity
  8
1
  6
CONTINUOUS
 62
     7
100
AcDbLine
 10
620.7842655215983
 20
160.4950219215964
 30
0.0
 11
620.7842655215983
 21
163.345021736822
 31
0.0
  0
LINE
  5
1EDC9
330
18
100
AcDbEntity
  8
1
  6
CONTINUOUS
 62
     7
100
AcDbLine
 10
616.3842655454401
 20
163.345021736822
 30
0.0
 11
613.0342647169356
 21
163.345021736822
 31
0.0
  0
LINE
  5
1EDCA
330
18
100
AcDbEntity
  8
1
  6
CONTINUOUS
 62
     7
100
AcDbLine
 10
613.0342647169356
 20
163.345021736822
 30
0.0
 11
613.0342647169356
 21
160.4950219215964
 31
0.0
  0
LINE
  5
1EDCB
330
18
100
AcDbEntity
  8
1
  6
CONTINUOUS
 62
     7
100
AcDbLine
 10
613.0342647169356
 20
160.4950219215964
 30
0.0
 11
616.3842655454401
 21
160.4950219215964
 31
0.0
  0
LINE
  5
1EDCC
330
18
100
AcDbEntity
  8
1
  6
CONTINUOUS
 62
     7
100
AcDbLine
 10
616.3842655454401
 20
160.4950219215964
 30
0.0
 11
616.3842655454401
 21
163.345021736822
 31
0.0
  0
LINE
  5
1EDCD
330
18
100
AcDbEntity
  8
1
  6
CONTINUOUS
 62
     7
100
AcDbLine
 10
629.5842650082533
 20
167.4450222225999
 30
0.0
 11
626.23426464541
 21
167.4450222225999
 31
0.0
  0
LINE
  5
1EDCE
330
18
100
AcDbEntity
  8
1
  6
CONTINUOUS
 62
     7
100
AcDbLine
 10
626.23426464541
 20
167.4450222225999
 30
0.0
 11
626.23426464541
 21
164.5950224073743
 31
0.0
  0
LINE
  5
1EDCF
330
18
100
AcDbEntity
  8
1
  6
CONTINUOUS
 62
     7
100
AcDbLine
 10
626.23426464541
 20
164.5950224073743
 30
0.0
 11
629.5842650082533
 21
164.5950224073743
 31
0.0
  0
LINE
  5
1EDD0
330
18
100
AcDbEntity
  8
1
  6
CONTINUOUS
 62
     7
100
AcDbLine
 10
629.5842650082533
 20
164.5950224073743
 30
0.0
 11
629.5842650082533
 21
167.4450222225999
 31
0.0
  0
LINE
  5
1EDD1
330
18
100
AcDbEntity
  8
1
  6
CONTINUOUS
 62
     7
100
AcDbLine
 10
625.1842654977564
 20
167.4450222225999
 30
0.0
 11
621.8342646692519
 21
167.4450222225999
 31
0.0
  0
LINE
  5
1EDD2
330
18
100
AcDbEntity
  8
1
  6
CONTINUOUS
 62
     7
100
AcDbLine
 10
621.8342646692519
 20
167.4450222225999
 30
0.0
 11
621.8342646692519
 21
164.5950224073743
 31
0.0
  0
LINE
  5
1EDD4
330
18
100
AcDbEntity
  8
1
  6
CONTINUOUS
 62
     7
100
AcDbLine
 10
625.1842654977564
 20
164.5950224073743
 30
0.0
 11
625.1842654977564
 21
167.4450222225999
 31
0.0
  0
LINE
  5
1EDD5
330
18
100
AcDbEntity
  8
1
  6
CONTINUOUS
 62
     7
100
AcDbLine
 10
621.9092650075082
 20
170.4200222911452
 30
0.0
 11
621.9092650075082
 21
171.420022455058
 31
0.0
  0
LINE
  5
1EDD6
330
18
100
AcDbEntity
  8
1
  6
CONTINUOUS
 62
     7
100
AcDbLine
 10
622.8092653412942
 20
171.420022455058
 30
0.0
 11
621.9092650075082
 21
171.420022455058
 31
0.0
  0
LINE
  5
1EDD7
330
18
100
AcDbEntity
  8
1
  6
CONTINUOUS
 62
     7
100
AcDbLine
 10
621.9092650075082
 20
142.8200217951228
 30
0.0
 11
621.9092650075082
 21
141.8200217476254
 31
0.0
  0
LINE
  5
1EDD8
330
18
100
AcDbEntity
  8
1
  6
CONTINUOUS
 62
     7
100
AcDbLine
 10
622.8092653412942
 20
141.8200217476254
 30
0.0
 11
621.9092650075082
 21
141.8200217476254
 31
0.0
  0
LINE
  5
1EDD9
330
18
100
AcDbEntity
  8
1
  6
CONTINUOUS
 62
     7
100
AcDbLine
 10
620.7092651833419
 20
142.8200217951228
 30
0.0
 11
620.7092651833419
 21
141.8200217476254
 31
0.0
  0
LINE
  5
1EDDA
330
18
100
AcDbEntity
  8
1
  6
CONTINUOUS
 62
     7
100
AcDbLine
 10
620.7092651833419
 20
141.8200217476254
 30
0.0
 11
619.8092648495559
 21
141.8200217476254
 31
0.0
  0
LINE
  5
1EDDB
330
18
100
AcDbEntity
  8
1
  6
CONTINUOUS
 62
     7
100
AcDbLine
 10
620.7092651833419
 20
170.4200222911452
 30
0.0
 11
620.7092651833419
 21
171.420022455058
 31
0.0
  0
LINE
  5
1EDDC
330
18
100
AcDbEntity
  8
1
  6
CONTINUOUS
 62
     7
100
AcDbLine
 10
620.7092651833419
 20
171.420022455058
 30
0.0
 11
619.8092648495559
 21
171.420022455058
 31
0.0
  0
LINE
  5
1EDDD
330
18
100
AcDbEntity
  8
1
  6
CONTINUOUS
 62
     7
100
AcDbLine
 10
618.6140268777136
 20
147.320021717823
 30
0.0
 11
624.0045033131365
 21
147.320021717823
 31
0.0
  0
LINE
  5
1EDDE
330
18
100
AcDbEntity
  8
1
  6
CONTINUOUS
 62
     7
100
AcDbLine
 10
618.6902183775429
 20
146.1200217772414
 30
0.0
 11
623.9283127446298
 21
146.1200217772414
 31
0.0
  0
CIRCLE
  5
1EDDF
330
18
100
AcDbEntity
  8
1
  6
CONTINUOUS
 62
     7
100
AcDbCircle
 10
621.3092650762688
 20
149.8200218079159
 30
0.0
 40
2.0
  0
LINE
  5
1EDE0
330
18
100
AcDbEntity
  8
1
  6
CONTINUOUS
 62
     7
100
AcDbLine
 10
610.5592656616692
 20
164.8200224908208
 30
0.0
 11
610.5592656616692
 21
160.7200220050429
 31
0.0
  0
LINE
  5
1EDE1
330
18
100
AcDbEntity
  8
1
  6
CONTINUOUS
 62
     7
100
AcDbLine
 10
610.5592656616692
 20
152.5200219648098
 30
0.0
 11
610.5592656616692
 21
148.4200217118626
 31
0.0
  0
LINE
  5
1EDE2
330
18
100
AcDbEntity
  8
1
  6
CONTINUOUS
 62
     7
100
AcDbLine
 10
632.0592649948422
 20
148.4200217118626
 30
0.0
 11
632.0592649948422
 21
152.5200219648098
 31
0.0
  0
LINE
  5
1EDE3
330
18
100
AcDbEntity
  8
1
  6
CONTINUOUS
 62
     7
100
AcDbLine
 10
632.0592649948422
 20
160.7200220050429
 30
0.0
 11
632.0592649948422
 21
164.8200224908208
 31
0.0
  0
LINE
  5
1EDE4
330
18
100
AcDbEntity
  8
1
  6
CONTINUOUS
 62
     7
100
AcDbLine
 10
620.7842655215983
 20
155.320021864972
 30
0.0
 11
617.4342646930937
 21
155.320021864972
 31
0.0
  0
LINE
  5
1EDE6
330
18
100
AcDbEntity
  8
1
  6
CONTINUOUS
 62
     7
100
AcDbLine
 10
616.3842655454401
 20
149.0200218567764
 30
0.0
 11
616.2467650805239
 21
149.0200218567764
 31
0.0
  0
LINE
  5
1EDE7
330
18
100
AcDbEntity
  8
1
  6
CONTINUOUS
 62
     7
100
AcDbLine
 10
613.1717651818518
 20
149.0200218567764
 30
0.0
 11
613.0342647169356
 21
149.0200218567764
 31
0.0
  0
LINE
  5
1EDE8
330
18
100
AcDbEntity
  8
1
  6
CONTINUOUS
 62
     7
100
AcDbLine
 10
629.5842650082533
 20
155.320021864972
 30
0.0
 11
629.4467650089983
 21
155.320021864972
 31
0.0
  0
LINE
  5
1EDE9
330
18
100
AcDbEntity
  8
1
  6
CONTINUOUS
 62
     7
100
AcDbLine
 10
626.3717651103262
 20
155.320021864972
 30
0.0
 11
626.23426464541
 21
155.320021864972
 31
0.0
  0
LINE
  5
1EDEA
330
18
100
AcDbEntity
  8
1
  6
CONTINUOUS
 62
     7
100
AcDbLine
 10
629.5842650082533
 20
154.5950216995691
 30
0.0
 11
629.4467650089983
 21
154.5950216995691
 31
0.0
  0
LINE
  5
1EDEB
330
18
100
AcDbEntity
  8
1
  6
CONTINUOUS
 62
     7
100
AcDbLine
 10
626.3717651103262
 20
154.5950216995691
 30
0.0
 11
626.23426464541
 21
154.5950216995691
 31
0.0
  0
LINE
  5
1EDEC
330
18
100
AcDbEntity
  8
1
  6
CONTINUOUS
 62
     7
100
AcDbLine
 10
616.3842655454401
 20
155.320021864972
 30
0.0
 11
616.2467650805239
 21
155.320021864972
 31
0.0
  0
LINE
  5
1EDED
330
18
100
AcDbEntity
  8
1
  6
CONTINUOUS
 62
     7
100
AcDbLine
 10
613.1717651818518
 20
155.320021864972
 30
0.0
 11
613.0342647169356
 21
155.320021864972
 31
0.0
  0
LINE
  5
1EDEE
330
18
100
AcDbEntity
  8
1
  6
CONTINUOUS
 62
     7
100
AcDbLine
 10
616.3842655454401
 20
154.5950216995691
 30
0.0
 11
616.2467650805239
 21
154.5950216995691
 31
0.0
  0
LINE
  5
1EDEF
330
18
100
AcDbEntity
  8
1
  6
CONTINUOUS
 62
     7
100
AcDbLine
 10
613.1717651818518
 20
154.5950216995691
 30
0.0
 11
613.0342647169356
 21
154.5950216995691
 31
0.0
  0
LINE
  5
1EDF0
330
18
100
AcDbEntity
  8
1
  6
CONTINUOUS
 62
     7
100
AcDbLine
 10
616.3842655454401
 20
148.2950219242041
 30
0.0
 11
616.2467650805239
 21
148.2950219242041
 31
0.0
  0
LINE
  5
1EDF1
330
18
100
AcDbEntity
  8
1
  6
CONTINUOUS
 62
     7
100
AcDbLine
 10
613.1717651818518
 20
148.2950219242041
 30
0.0
 11
613.0342647169356
 21
148.2950219242041
 31
0.0
  0
LINE
  5
1EDF8
330
18
100
AcDbEntity
  8
1
  6
CONTINUOUS
 62
     7
100
AcDbLine
 10
629.5842650082533
 20
149.0200218567764
 30
0.0
 11
629.4467650089983
 21
149.0200218567764
 31
0.0
  0
LINE
  5
1EDF9
330
18
100
AcDbEntity
  8
1
  6
CONTINUOUS
 62
     7
100
AcDbLine
 10
626.3717651103262
 20
149.0200218567764
 30
0.0
 11
626.23426464541
 21
149.0200218567764
 31
0.0
  0
LINE
  5
1EDFA
330
18
100
AcDbEntity
  8
1
  6
CONTINUOUS
 62
     7
100
AcDbLine
 10
629.5842650082533
 20
165.7200209619616
 30
0.0
 11
629.4467650089983
 21
165.7200209619616
 31
0.0
  0
LINE
  5
1EDFB
330
18
100
AcDbEntity
  8
1
  6
CONTINUOUS
 62
     7
100
AcDbLine
 10
626.3717651103262
 20
165.7200209619616
 30
0.0
 11
626.23426464541
 21
165.7200209619616
 31
0.0
  0
LINE
  5
1EDFC
330
18
100
AcDbEntity
  8
1
  6
CONTINUOUS
 62
     7
100
AcDbLine
 10
629.5842650082533
 20
164.9950217278813
 30
0.0
 11
629.4467650089983
 21
164.9950217278813
 31
0.0
  0
LINE
  5
1EDFD
330
18
100
AcDbEntity
  8
1
  6
CONTINUOUS
 62
     7
100
AcDbLine
 10
626.3717651103262
 20
164.9950217278813
 30
0.0
 11
626.23426464541
 21
164.9950217278813
 31
0.0
  0
LINE
  5
1EDFE
330
18
100
AcDbEntity
  8
1
  6
CONTINUOUS
 62
     7
100
AcDbLine
 10
616.3842655454401
 20
161.6200223388289
 30
0.0
 11
616.2467650805239
 21
161.6200223388289
 31
0.0
  0
LINE
  5
1EDFF
330
18
100
AcDbEntity
  8
1
  6
CONTINUOUS
 62
     7
100
AcDbLine
 10
613.1717651818518
 20
161.6200223388289
 30
0.0
 11
613.0342647169356
 21
161.6200223388289
 31
0.0
  0
LINE
  5
1EE00
330
18
100
AcDbEntity
  8
1
  6
CONTINUOUS
 62
     7
100
AcDbLine
 10
616.3842655454401
 20
160.8950212421035
 30
0.0
 11
616.2467650805239
 21
160.8950212421035
 31
0.0
  0
LINE
  5
1EE01
330
18
100
AcDbEntity
  8
1
  6
CONTINUOUS
 62
     7
100
AcDbLine
 10
613.1717651818518
 20
160.8950212421035
 30
0.0
 11
613.0342647169356
 21
160.8950212421035
 31
0.0
  0
LINE
  5
1EE06
330
18
100
AcDbEntity
  8
1
  6
CONTINUOUS
 62
     7
100
AcDbLine
 10
629.5842650082533
 20
161.6200223388289
 30
0.0
 11
629.4467650089983
 21
161.6200223388289
 31
0.0
  0
LINE
  5
1EE07
330
18
100
AcDbEntity
  8
1
  6
CONTINUOUS
 62
     7
100
AcDbLine
 10
626.3717651103262
 20
161.6200223388289
 30
0.0
 11
626.23426464541
 21
161.6200223388289
 31
0.0
  0
LINE
  5
1EE08
330
18
100
AcDbEntity
  8
1
  6
CONTINUOUS
 62
     7
100
AcDbLine
 10
629.5842650082533
 20
160.8950212421035
 30
0.0
 11
629.4467650089983
 21
160.8950212421035
 31
0.0
  0
LINE
  5
1EE09
330
18
100
AcDbEntity
  8
1
  6
CONTINUOUS
 62
     7
100
AcDbLine
 10
626.3717651103262
 20
160.8950212421035
 30
0.0
 11
626.23426464541
 21
160.8950212421035
 31
0.0
  0
LINE
  5
1EE0E
330
18
100
AcDbEntity
  8
1
  6
CONTINUOUS
 62
     7
100
AcDbLine
 10
620.7842655215983
 20
154.5950216995691
 30
0.0
 11
617.4342646930937
 21
154.5950216995691
 31
0.0
  0
LINE
  5
1EE10
330
18
100
AcDbEntity
  8
1
  6
CONTINUOUS
 62
     7
100
AcDbLine
 10
616.3842655454401
 20
165.7200209619616
 30
0.0
 11
616.2467650805239
 21
165.7200209619616
 31
0.0
  0
LINE
  5
1EE11
330
18
100
AcDbEntity
  8
1
  6
CONTINUOUS
 62
     7
100
AcDbLine
 10
613.1717651818518
 20
165.7200209619616
 30
0.0
 11
613.0342647169356
 21
165.7200209619616
 31
0.0
  0
LINE
  5
1EE12
330
18
100
AcDbEntity
  8
1
  6
CONTINUOUS
 62
     7
100
AcDbLine
 10
616.3842655454401
 20
164.9950217278813
 30
0.0
 11
616.2467650805239
 21
164.9950217278813
 31
0.0
  0
LINE
  5
1EE13
330
18
100
AcDbEntity
  8
1
  6
CONTINUOUS
 62
     7
100
AcDbLine
 10
613.1717651818518
 20
164.9950217278813
 30
0.0
 11
613.0342647169356
 21
164.9950217278813
 31
0.0
  0
LINE
  5
1EE16
330
18
100
AcDbEntity
  8
1
  6
CONTINUOUS
 62
     7
100
AcDbLine
 10
629.5842650082533
 20
148.2950219242041
 30
0.0
 11
629.4467650089983
 21
148.2950219242041
 31
0.0
  0
LINE
  5
1EE17
330
18
100
AcDbEntity
  8
1
  6
CONTINUOUS
 62
     7
100
AcDbLine
 10
626.3717651103262
 20
148.2950219242041
 30
0.0
 11
626.23426464541
 21
148.2950219242041
 31
0.0
  0
LINE
  5
1EE1C
330
18
100
AcDbEntity
  8
1
  6
CONTINUOUS
 62
     7
100
AcDbLine
 10
629.1592652645533
 20
154.1950214477395
 30
0.0
 11
629.1592652645533
 21
154.2700217859959
 31
0.0
  0
LINE
  5
1EE21
330
18
100
AcDbEntity
  8
1
  6
CONTINUOUS
 62
     7
100
AcDbLine
 10
626.6592653204326
 20
154.2700217859959
 30
0.0
 11
626.6592653204326
 21
154.1950214477395
 31
0.0
  0
LINE
  5
1EE22
330
18
100
AcDbEntity
  8
1
  6
CONTINUOUS
 62
     7
100
AcDbLine
 10
617.8592644367938
 20
154.5950216995691
 30
0.0
 11
617.8592644367938
 21
154.1950214477395
 31
0.0
  0
LINE
  5
1EE23
330
18
100
AcDbEntity
  8
1
  6
CONTINUOUS
 62
     7
100
AcDbLine
 10
620.3592648465757
 20
154.1950214477395
 30
0.0
 11
620.3592648465757
 21
154.5950216995691
 31
0.0
  0
LINE
  5
1EE25
330
18
100
AcDbEntity
  8
1
  6
CONTINUOUS
 62
     7
100
AcDbLine
 10
613.4592644606356
 20
160.5700213285302
 30
0.0
 11
613.4592644606356
 21
160.4950219215964
 31
0.0
  0
LINE
  5
1EE26
330
18
100
AcDbEntity
  8
1
  6
CONTINUOUS
 62
     7
100
AcDbLine
 10
613.4592644606356
 20
147.9700217778002
 30
0.0
 11
613.4592644606356
 21
147.8950219052051
 31
0.0
  0
LINE
  5
1EE27
330
18
100
AcDbEntity
  8
1
  6
CONTINUOUS
 62
     7
100
AcDbLine
 10
626.6592653204326
 20
160.5700213285302
 30
0.0
 11
626.6592653204326
 21
160.4950219215964
 31
0.0
  0
LINE
  5
1EE28
330
18
100
AcDbEntity
  8
1
  6
CONTINUOUS
 62
     7
100
AcDbLine
 10
613.4592644606356
 20
154.2700217859959
 30
0.0
 11
613.4592644606356
 21
154.1950214477395
 31
0.0
  0
LINE
  5
1EE29
330
18
100
AcDbEntity
  8
1
  6
CONTINUOUS
 62
     7
100
AcDbLine
 10
615.9592658017401
 20
147.8950219052051
 30
0.0
 11
615.9592658017401
 21
147.9700217778002
 31
0.0
  0
LINE
  5
1EE2A
330
18
100
AcDbEntity
  8
1
  6
CONTINUOUS
 62
     7
100
AcDbLine
 10
629.1592652645533
 20
160.4950219215964
 30
0.0
 11
629.1592652645533
 21
160.5700213285302
 31
0.0
  0
LINE
  5
1EE2B
330
18
100
AcDbEntity
  8
1
  6
CONTINUOUS
 62
     7
100
AcDbLine
 10
626.6592653204326
 20
147.9700217778002
 30
0.0
 11
626.6592653204326
 21
147.8950219052051
 31
0.0
  0
LINE
  5
1EE2E
330
18
100
AcDbEntity
  8
1
  6
CONTINUOUS
 62
     7
100
AcDbLine
 10
613.4592644606356
 20
164.6700218143081
 30
0.0
 11
613.4592644606356
 21
164.5950224073743
 31
0.0
  0
LINE
  5
1EE2F
330
18
100
AcDbEntity
  8
1
  6
CONTINUOUS
 62
     7
100
AcDbLine
 10
615.9592658017401
 20
160.4950219215964
 30
0.0
 11
615.9592658017401
 21
160.5700213285302
 31
0.0
  0
LINE
  5
1EE30
330
18
100
AcDbEntity
  8
1
  6
CONTINUOUS
 62
     7
100
AcDbLine
 10
629.1592652645533
 20
164.5950224073743
 30
0.0
 11
629.1592652645533
 21
164.6700218143081
 31
0.0
  0
LINE
  5
1EE34
330
18
100
AcDbEntity
  8
1
  6
CONTINUOUS
 62
     7
100
AcDbLine
 10
629.1592652645533
 20
147.8950219052051
 30
0.0
 11
629.1592652645533
 21
147.9700217778002
 31
0.0
  0
LINE
  5
1EE35
330
18
100
AcDbEntity
  8
1
  6
CONTINUOUS
 62
     7
100
AcDbLine
 10
615.9592658017401
 20
164.5950224073743
 30
0.0
 11
615.9592658017401
 21
164.6700218143081
 31
0.0
  0
LINE
  5
1EE36
330
18
100
AcDbEntity
  8
1
  6
CONTINUOUS
 62
     7
100
AcDbLine
 10
626.6592653204326
 20
164.6700218143081
 30
0.0
 11
626.6592653204326
 21
164.5950224073743
 31
0.0
  0
LINE
  5
1EE37
330
18
100
AcDbEntity
  8
1
  6
CONTINUOUS
 62
     7
100
AcDbLine
 10
615.9592658017401
 20
154.1950214477395
 30
0.0
 11
615.9592658017401
 21
154.2700217859959
 31
0.0
  0
LINE
  5
1EE38
330
18
100
AcDbEntity
  8
1
  6
CONTINUOUS
 62
     7
100
AcDbLine
 10
618.709265786839
 20
228.4594114986102
 30
0.0
 11
619.5092653591756
 21
228.4594114986102
 31
0.0
  0
LINE
  5
1EE39
330
18
100
AcDbEntity
  8
1
  6
CONTINUOUS
 62
     7
100
AcDbLine
 10
618.709265786839
 20
228.4594114986102
 30
0.0
 11
618.709265786839
 21
228.7594114546518
 31
0.0
  0
LINE
  5
1EE3A
330
18
100
AcDbEntity
  8
1
  6
CONTINUOUS
 62
     7
100
AcDbLine
 10
619.5092653591756
 20
228.4594114986102
 30
0.0
 11
619.5092653591756
 21
228.7594114546518
 31
0.0
  0
LINE
  5
1EE42
330
18
100
AcDbEntity
  8
1
  6
CONTINUOUS
 62
     7
100
AcDbLine
 10
623.1092648316745
 20
228.4594114986102
 30
0.0
 11
623.9092653353338
 21
228.4594114986102
 31
0.0
  0
LINE
  5
1EE43
330
18
100
AcDbEntity
  8
1
  6
CONTINUOUS
 62
     7
100
AcDbLine
 10
623.1092648316745
 20
228.4594114986102
 30
0.0
 11
623.1092648316745
 21
228.7594114546518
 31
0.0
  0
LINE
  5
1EE44
330
18
100
AcDbEntity
  8
1
  6
CONTINUOUS
 62
     7
100
AcDbLine
 10
623.9092653353338
 20
228.4594114986102
 30
0.0
 11
623.9092653353338
 21
228.7594114546518
 31
0.0
  0
LINE
  5
1EE4C
330
18
100
AcDbEntity
  8
1
  6
CONTINUOUS
 62
     7
100
AcDbLine
 10
614.3092658106808
 20
228.4594114986102
 30
0.0
 11
615.1092644516949
 21
228.4594114986102
 31
0.0
  0
LINE
  5
1EE4D
330
18
100
AcDbEntity
  8
1
  6
CONTINUOUS
 62
     7
100
AcDbLine
 10
614.3092658106808
 20
228.4594114986102
 30
0.0
 11
614.3092658106808
 21
228.7594114546518
 31
0.0
  0
LINE
  5
1EE4E
330
18
100
AcDbEntity
  8
1
  6
CONTINUOUS
 62
     7
100
AcDbLine
 10
615.1092644516949
 20
228.4594114986102
 30
0.0
 11
615.1092644516949
 21
228.7594114546518
 31
0.0
  0
ARC
  5
1EE4F
330
18
100
AcDbEntity
  8
1
  6
CONTINUOUS
 62
     7
100
AcDbCircle
 10
614.7092650762688
 20
223.2094115099227
 30
0.0
 40
0.6000000000000227
100
AcDbArc
 50
0.0
 51
180.0
  0
ARC
  5
1EE50
330
18
100
AcDbEntity
  8
1
  6
CONTINUOUS
 62
     7
100
AcDbCircle
 10
614.7092650762688
 20
221.0344115099227
 30
0.0
 40
1.125
100
AcDbArc
 50
180.0
 51
0.0
  0
LINE
  5
1EE51
330
18
100
AcDbEntity
  8
1
  6
CONTINUOUS
 62
     7
100
AcDbLine
 10
614.1092642877821
 20
221.40941136748
 30
0.0
 11
614.1092642877821
 21
223.2094111037294
 31
0.0
  0
ARC
  5
1EE52
330
18
100
AcDbEntity
  8
1
  6
CONTINUOUS
 62
     7
100
AcDbCircle
 10
614.7092650762688
 20
221.4094115099227
 30
0.0
 40
0.6000000000000227
100
AcDbArc
 50
180.0
 51
0.0
  0
LINE
  5
1EE53
330
18
100
AcDbEntity
  8
1
  6
CONTINUOUS
 62
     7
100
AcDbLine
 10
613.5842647139553
 20
221.0344115388433
 30
0.0
 11
613.5842647139553
 21
228.7594114546518
 31
0.0
  0
LINE
  5
1EE54
330
18
100
AcDbEntity
  8
1
  6
CONTINUOUS
 62
     7
100
AcDbLine
 10
615.3092659745936
 20
223.2094111037294
 30
0.0
 11
615.3092659745936
 21
221.40941136748
 31
0.0
  0
LINE
  5
1EE55
330
18
100
AcDbEntity
  8
1
  6
CONTINUOUS
 62
     7
100
AcDbLine
 10
615.8342655484204
 20
228.7594114546518
 30
0.0
 11
615.8342655484204
 21
221.0344115388433
 31
0.0
  0
LINE
  5
1EE56
330
18
100
AcDbEntity
  8
1
  6
CONTINUOUS
 62
     7
100
AcDbLine
 10
627.509265273494
 20
228.4594114986102
 30
0.0
 11
628.3092648458306
 21
228.4594114986102
 31
0.0
  0
LINE
  5
1EE57
330
18
100
AcDbEntity
  8
1
  6
CONTINUOUS
 62
     7
100
AcDbLine
 10
627.509265273494
 20
228.4594114986102
 30
0.0
 11
627.509265273494
 21
228.7594114546518
 31
0.0
  0
LINE
  5
1EE58
330
18
100
AcDbEntity
  8
1
  6
CONTINUOUS
 62
     7
100
AcDbLine
 10
628.3092648458306
 20
228.4594114986102
 30
0.0
 11
628.3092648458306
 21
228.7594114546518
 31
0.0
  0
LINE
  5
1EE59
330
18
100
AcDbEntity
  8
1
  6
CONTINUOUS
 62
     7
100
AcDbLine
 10
627.3092651475791
 20
221.40941136748
 30
0.0
 11
627.3092651475791
 21
223.2094111037294
 31
0.0
  0
ARC
  5
1EE5A
330
18
100
AcDbEntity
  8
1
  6
CONTINUOUS
 62
     7
100
AcDbCircle
 10
627.9092650762689
 20
223.2094115099227
 30
0.0
 40
0.6000000000000227
100
AcDbArc
 50
0.0
 51
180.0
  0
LINE
  5
1EE5B
330
18
100
AcDbEntity
  8
1
  6
CONTINUOUS
 62
     7
100
AcDbLine
 10
629.0342650112335
 20
228.7594114546518
 30
0.0
 11
629.0342650112335
 21
221.0344115388433
 31
0.0
  0
ARC
  5
1EE5C
330
18
100
AcDbEntity
  8
1
  6
CONTINUOUS
 62
     7
100
AcDbCircle
 10
627.9092650762689
 20
221.0344115099227
 30
0.0
 40
1.125000000000028
100
AcDbArc
 50
180.0
 51
0.0
  0
LINE
  5
1EE5D
330
18
100
AcDbEntity
  8
1
  6
CONTINUOUS
 62
     7
100
AcDbLine
 10
626.7842646424298
 20
221.0344115388433
 30
0.0
 11
626.7842646424298
 21
228.7594114546518
 31
0.0
  0
ARC
  5
1EE5E
330
18
100
AcDbEntity
  8
1
  6
CONTINUOUS
 62
     7
100
AcDbCircle
 10
627.9092650762689
 20
221.4094115099227
 30
0.0
 40
0.5999999999999943
100
AcDbArc
 50
180.0
 51
0.0
  0
LINE
  5
1EE5F
330
18
100
AcDbEntity
  8
1
  6
CONTINUOUS
 62
     7
100
AcDbLine
 10
628.5092649717454
 20
223.2094111037294
 30
0.0
 11
628.5092649717454
 21
221.40941136748
 31
0.0
  0
LINE
  5
1EE60
330
18
100
AcDbEntity
  8
1
  6
CONTINUOUS
 62
     7
100
AcDbLine
 10
632.0592649948422
 20
235.2594115887622
 30
0.0
 11
632.0592649948422
 21
238.2594116148393
 31
0.0
  0
LINE
  5
1EE61
330
18
100
AcDbEntity
  8
1
  6
CONTINUOUS
 62
     7
100
AcDbLine
 10
627.8049597252731
 20
235.2594115887622
 30
0.0
 11
632.0592649948422
 21
235.2594115887622
 31
0.0
  0
LINE
  5
1EE62
330
18
100
AcDbEntity
  8
1
  6
CONTINUOUS
 62
     7
100
AcDbLine
 10
627.8049597252731
 20
238.2594116148393
 30
0.0
 11
632.0592649948422
 21
238.2594116148393
 31
0.0
  0
LINE
  5
1EE63
330
18
100
AcDbEntity
  8
1
  6
CONTINUOUS
 62
     7
100
AcDbLine
 10
622.8092653412942
 20
235.2594115887622
 30
0.0
 11
622.8092653412942
 21
238.2594116148393
 31
0.0
  0
LINE
  5
1EE64
330
18
100
AcDbEntity
  8
1
  6
CONTINUOUS
 62
     7
100
AcDbLine
 10
622.8092653412942
 20
238.2594116148393
 30
0.0
 11
627.8049597252731
 21
238.2594116148393
 31
0.0
  0
LINE
  5
1EE65
330
18
100
AcDbEntity
  8
1
  6
CONTINUOUS
 62
     7
100
AcDbLine
 10
622.8092653412942
 20
235.2594115887622
 30
0.0
 11
627.8049597252731
 21
235.2594115887622
 31
0.0
  0
LINE
  5
1EE66
330
18
100
AcDbEntity
  8
1
  6
CONTINUOUS
 62
     7
100
AcDbLine
 10
611.2502474073891
 20
235.2594115887622
 30
0.0
 11
619.8092648495559
 21
235.2594115887622
 31
0.0
  0
LINE
  5
1EE67
330
18
100
AcDbEntity
  8
1
  6
CONTINUOUS
 62
     7
100
AcDbLine
 10
619.8092648495559
 20
235.2594115887622
 30
0.0
 11
619.8092648495559
 21
238.2594116148393
 31
0.0
  0
LINE
  5
1EE68
330
18
100
AcDbEntity
  8
1
  6
CONTINUOUS
 62
     7
100
AcDbLine
 10
611.2502474073891
 20
238.2594116148393
 30
0.0
 11
619.8092648495559
 21
238.2594116148393
 31
0.0
  0
LINE
  5
1EE69
330
18
100
AcDbEntity
  8
1
  6
CONTINUOUS
 62
     7
100
AcDbLine
 10
620.7092651833419
 20
236.4594114129285
 30
0.0
 11
619.8092648495559
 21
238.2594116148393
 31
0.0
  0
LINE
  5
1EE6A
330
18
100
AcDbEntity
  8
1
  6
CONTINUOUS
 62
     7
100
AcDbLine
 10
620.7092651833419
 20
235.2594115887622
 30
0.0
 11
620.7092651833419
 21
236.4594114129285
 31
0.0
  0
LINE
  5
1EE6B
330
18
100
AcDbEntity
  8
1
  6
CONTINUOUS
 62
     7
100
AcDbLine
 10
619.8092648495559
 20
235.2594115887622
 30
0.0
 11
620.7092651833419
 21
235.2594115887622
 31
0.0
  0
LINE
  5
1EE6C
330
18
100
AcDbEntity
  8
1
  6
CONTINUOUS
 62
     7
100
AcDbLine
 10
621.9092650075082
 20
236.4594114129285
 30
0.0
 11
621.9092650075082
 21
235.2594115887622
 31
0.0
  0
LINE
  5
1EE6D
330
18
100
AcDbEntity
  8
1
  6
CONTINUOUS
 62
     7
100
AcDbLine
 10
622.8092653412942
 20
238.2594116148393
 30
0.0
 11
621.9092650075082
 21
236.4594114129285
 31
0.0
  0
LINE
  5
1EE6E
330
18
100
AcDbEntity
  8
1
  6
CONTINUOUS
 62
     7
100
AcDbLine
 10
621.9092650075082
 20
235.2594115887622
 30
0.0
 11
622.8092653412942
 21
235.2594115887622
 31
0.0
  0
LINE
  5
1EE6F
330
18
100
AcDbEntity
  8
1
  6
CONTINUOUS
 62
     7
100
AcDbLine
 10
610.5592656616692
 20
235.2594115887622
 30
0.0
 11
610.5592656616692
 21
238.2594116148393
 31
0.0
  0
LINE
  5
1EE70
330
18
100
AcDbEntity
  8
1
  6
CONTINUOUS
 62
     7
100
AcDbLine
 10
610.5592656616692
 20
235.2594115887622
 30
0.0
 11
611.2502474073891
 21
235.2594115887622
 31
0.0
  0
LINE
  5
1EE71
330
18
100
AcDbEntity
  8
1
  6
CONTINUOUS
 62
     7
100
AcDbLine
 10
610.5592656616692
 20
238.2594116148393
 30
0.0
 11
611.2502474073891
 21
238.2594116148393
 31
0.0
  0
LINE
  5
1EE72
330
18
100
AcDbEntity
  8
1
  6
CONTINUOUS
 62
     7
100
AcDbLine
 10
620.7092651833419
 20
236.4594114129285
 30
0.0
 11
621.9092650075082
 21
236.4594114129285
 31
0.0
  0
LINE
  5
1EE73
330
18
100
AcDbEntity
  8
1
  6
CONTINUOUS
 62
     7
100
AcDbLine
 10
619.8092648495559
 20
238.2594116148393
 30
0.0
 11
622.8092653412942
 21
238.2594116148393
 31
0.0
  0
LINE
  5
1EE74
330
18
100
AcDbEntity
  8
1
  6
CONTINUOUS
 62
     7
100
AcDbLine
 10
611.559265825582
 20
228.7594114546518
 30
0.0
 11
610.5592656616692
 21
228.7594114546518
 31
0.0
  0
LINE
  5
1EE75
330
18
100
AcDbEntity
  8
1
  6
CONTINUOUS
 62
     7
100
AcDbLine
 10
610.5592656616692
 20
228.7594114546518
 30
0.0
 11
610.5592656616692
 21
235.2594115887622
 31
0.0
  0
LINE
  5
1EE76
330
18
100
AcDbEntity
  8
1
  6
CONTINUOUS
 62
     7
100
AcDbLine
 10
632.0592649948422
 20
228.7594114546518
 30
0.0
 11
631.0592652965908
 21
228.7594114546518
 31
0.0
  0
LINE
  5
1EE77
330
18
100
AcDbEntity
  8
1
  6
CONTINUOUS
 62
     7
100
AcDbLine
 10
632.0592649948422
 20
228.7594114546518
 30
0.0
 11
632.0592649948422
 21
235.2594115887622
 31
0.0
  0
LINE
  5
1EE78
330
18
100
AcDbEntity
  8
1
  6
CONTINUOUS
 62
     7
100
AcDbLine
 10
617.4417655651097
 20
229.4344114721606
 30
0.0
 11
617.4417655651097
 21
228.7594114546518
 31
0.0
  0
LINE
  5
1EE79
330
18
100
AcDbEntity
  8
1
  6
CONTINUOUS
 62
     7
100
AcDbLine
 10
617.4417655651097
 20
229.4344114721606
 30
0.0
 11
616.3767646734242
 21
229.4344114721606
 31
0.0
  0
LINE
  5
1EE7A
330
18
100
AcDbEntity
  8
1
  6
CONTINUOUS
 62
     7
100
AcDbLine
 10
626.241765517426
 20
229.4344114721606
 30
0.0
 11
625.1767646257405
 21
229.4344114721606
 31
0.0
  0
LINE
  5
1EE7B
330
18
100
AcDbEntity
  8
1
  6
CONTINUOUS
 62
     7
100
AcDbLine
 10
625.1767646257405
 20
229.4344114721606
 30
0.0
 11
625.1767646257405
 21
228.7594114546518
 31
0.0
  0
LINE
  5
1EE7C
330
18
100
AcDbEntity
  8
1
  6
CONTINUOUS
 62
     7
100
AcDbLine
 10
616.3767646734242
 20
229.4344114721606
 30
0.0
 11
616.3767646734242
 21
228.7594114546518
 31
0.0
  0
LINE
  5
1EE7D
330
18
100
AcDbEntity
  8
1
  6
CONTINUOUS
 62
     7
100
AcDbLine
 10
625.1767646257405
 20
228.7594114546518
 30
0.0
 11
617.4417655651097
 21
228.7594114546518
 31
0.0
  0
LINE
  5
1EE7E
330
18
100
AcDbEntity
  8
1
  6
CONTINUOUS
 62
     7
100
AcDbLine
 10
626.241765517426
 20
229.4344114721606
 30
0.0
 11
626.241765517426
 21
228.7594114546518
 31
0.0
  0
LINE
  5
1EE7F
330
18
100
AcDbEntity
  8
1
  6
CONTINUOUS
 62
     7
100
AcDbLine
 10
631.0592652965908
 20
228.7594114546518
 30
0.0
 11
626.241765517426
 21
228.7594114546518
 31
0.0
  0
LINE
  5
1EE80
330
18
100
AcDbEntity
  8
1
  6
CONTINUOUS
 62
     7
100
AcDbLine
 10
616.3767646734242
 20
228.7594114546518
 30
0.0
 11
611.559265825582
 21
228.7594114546518
 31
0.0
  0
ARC
  5
1EE81
330
18
100
AcDbEntity
  8
1
  6
CONTINUOUS
 62
     7
100
AcDbCircle
 10
612.5092650762689
 20
227.6594115099227
 30
0.0
 40
0.4000000000000057
100
AcDbArc
 50
270.0
 51
0.0
  0
ARC
  5
1EE82
330
18
100
AcDbEntity
  8
1
  6
CONTINUOUS
 62
     7
100
AcDbCircle
 10
612.5092650762689
 20
227.6594115099227
 30
0.0
 40
0.4000000000000057
100
AcDbArc
 50
180.0
 51
270.0
  0
LINE
  5
1EE83
330
18
100
AcDbEntity
  8
1
  6
CONTINUOUS
 62
     7
100
AcDbLine
 10
630.509265299571
 20
227.6594114606122
 30
0.0
 11
630.509265299571
 21
228.7594114546518
 31
0.0
  0
LINE
  5
1EE84
330
18
100
AcDbEntity
  8
1
  6
CONTINUOUS
 62
     7
100
AcDbLine
 10
629.709265261573
 20
227.6594114606122
 30
0.0
 11
629.709265261573
 21
228.7594114546518
 31
0.0
  0
ARC
  5
1EE85
330
18
100
AcDbEntity
  8
1
  6
CONTINUOUS
 62
     7
100
AcDbCircle
 10
630.1092650762688
 20
227.6594115099227
 30
0.0
 40
0.3999999999999773
100
AcDbArc
 50
270.0
 51
0.0
  0
ARC
  5
1EE86
330
18
100
AcDbEntity
  8
1
  6
CONTINUOUS
 62
     7
100
AcDbCircle
 10
630.1092650762688
 20
227.6594115099227
 30
0.0
 40
0.4000000000000057
100
AcDbArc
 50
180.0
 51
270.0
  0
LINE
  5
1EE87
330
18
100
AcDbEntity
  8
1
  6
CONTINUOUS
 62
     7
100
AcDbLine
 10
612.9092644636158
 20
227.6594114606122
 30
0.0
 11
612.9092644636158
 21
228.7594114546518
 31
0.0
  0
LINE
  5
1EE88
330
18
100
AcDbEntity
  8
1
  6
CONTINUOUS
 62
     7
100
AcDbLine
 10
612.1092658226017
 20
227.6594114606122
 30
0.0
 11
612.1092658226017
 21
228.7594114546518
 31
0.0
  0
LINE
  5
1EE89
330
18
100
AcDbEntity
  8
1
  6
CONTINUOUS
 62
     7
100
AcDbLine
 10
561.9483031797622
 20
154.2700217859959
 30
0.0
 11
561.9483031797622
 21
154.5200213613128
 31
0.0
  0
LINE
  5
1EE8A
330
18
100
AcDbEntity
  8
1
  6
CONTINUOUS
 62
     7
100
AcDbLine
 10
561.9483031797622
 20
160.5700213285302
 30
0.0
 11
561.9483031797622
 21
160.8200218351697
 31
0.0
  0
LINE
  5
1EE8B
330
18
100
AcDbEntity
  8
1
  6
CONTINUOUS
 62
     7
100
AcDbLine
 10
561.9483031797622
 20
164.6700218143081
 30
0.0
 11
561.9483031797622
 21
164.9200223209475
 31
0.0
  0
LINE
  5
1EE8C
330
18
100
AcDbEntity
  8
1
  6
CONTINUOUS
 62
     7
100
AcDbLine
 10
561.9483031797622
 20
147.9700217778002
 30
0.0
 11
561.9483031797622
 21
148.2200218187784
 31
0.0
  0
LINE
  5
1EE8D
330
18
100
AcDbEntity
  8
1
  6
CONTINUOUS
 62
     7
100
AcDbLine
 10
543.5983026865338
 20
136.3700214596604
 30
0.0
 11
546.5983027126108
 21
136.3700214596604
 31
0.0
  0
LINE
  5
1EE8E
330
18
100
AcDbEntity
  8
1
  6
CONTINUOUS
 62
     7
100
AcDbLine
 10
554.1983028407608
 20
168.3200221331929
 30
0.0
 11
553.0983028467213
 21
168.3200221331929
 31
0.0
  0
ARC
  5
1EE8F
330
18
100
AcDbEntity
  8
1
  6
CONTINUOUS
 62
     7
100
AcDbCircle
 10
554.1983027914504
 20
167.920021807916
 30
0.0
 40
0.4000000000000057
100
AcDbArc
 50
0.0
 51
90.0
  0
LINE
  5
1EE90
330
18
100
AcDbEntity
  8
1
  6
CONTINUOUS
 62
     7
100
AcDbLine
 10
553.0983028467213
 20
144.920021807556
 30
0.0
 11
554.1983028407608
 21
144.920021807556
 31
0.0
  0
ARC
  5
1EE91
330
18
100
AcDbEntity
  8
1
  6
CONTINUOUS
 62
     7
100
AcDbCircle
 10
554.1983027914504
 20
145.3200218079159
 30
0.0
 40
0.4000000000000057
100
AcDbArc
 50
270.0
 51
0.0
  0
LINE
  5
1EE92
330
18
100
AcDbEntity
  8
1
  6
CONTINUOUS
 62
     7
100
AcDbLine
 10
546.5983027126108
 20
176.8700215788697
 30
0.0
 11
543.5983026865338
 21
176.8700215788697
 31
0.0
  0
LINE
  5
1EE93
330
18
100
AcDbEntity
  8
1
  6
CONTINUOUS
 62
     7
100
AcDbLine
 10
554.5983028597598
 20
154.5200213613128
 30
0.0
 11
560.8233027625297
 21
154.5200213613128
 31
0.0
  0
LINE
  5
1EE94
330
18
100
AcDbEntity
  8
1
  6
CONTINUOUS
 62
     7
100
AcDbLine
 10
554.5983028597598
 20
154.2700217859959
 30
0.0
 11
560.8233027625297
 21
154.2700217859959
 31
0.0
  0
LINE
  5
1EE95
330
18
100
AcDbEntity
  8
1
  6
CONTINUOUS
 62
     7
100
AcDbLine
 10
560.8233027625297
 20
154.5200213613128
 30
0.0
 11
561.9483031797622
 21
154.5200213613128
 31
0.0
  0
LINE
  5
1EE96
330
18
100
AcDbEntity
  8
1
  6
CONTINUOUS
 62
     7
100
AcDbLine
 10
560.8233027625297
 20
154.2700217859959
 30
0.0
 11
561.9483031797622
 21
154.2700217859959
 31
0.0
  0
LINE
  5
1EE97
330
18
100
AcDbEntity
  8
1
  6
CONTINUOUS
 62
     7
100
AcDbLine
 10
554.5983028597598
 20
160.8200218351697
 30
0.0
 11
560.8233027625297
 21
160.8200218351697
 31
0.0
  0
LINE
  5
1EE98
330
18
100
AcDbEntity
  8
1
  6
CONTINUOUS
 62
     7
100
AcDbLine
 10
554.5983028597598
 20
160.5700213285302
 30
0.0
 11
560.8233027625297
 21
160.5700213285302
 31
0.0
  0
LINE
  5
1EE99
330
18
100
AcDbEntity
  8
1
  6
CONTINUOUS
 62
     7
100
AcDbLine
 10
560.8233027625297
 20
160.8200218351697
 30
0.0
 11
561.9483031797622
 21
160.8200218351697
 31
0.0
  0
LINE
  5
1EE9A
330
18
100
AcDbEntity
  8
1
  6
CONTINUOUS
 62
     7
100
AcDbLine
 10
560.8233027625297
 20
160.5700213285302
 30
0.0
 11
561.9483031797622
 21
160.5700213285302
 31
0.0
  0
LINE
  5
1EE9B
330
18
100
AcDbEntity
  8
1
  6
CONTINUOUS
 62
     7
100
AcDbLine
 10
554.5983028597598
 20
164.6700218143081
 30
0.0
 11
560.8233027625297
 21
164.6700218143081
 31
0.0
  0
LINE
  5
1EE9C
330
18
100
AcDbEntity
  8
1
  6
CONTINUOUS
 62
     7
100
AcDbLine
 10
554.5983028597598
 20
164.9200223209475
 30
0.0
 11
560.8233027625297
 21
164.9200223209475
 31
0.0
  0
LINE
  5
1EE9D
330
18
100
AcDbEntity
  8
1
  6
CONTINUOUS
 62
     7
100
AcDbLine
 10
560.8233027625297
 20
164.6700218143081
 30
0.0
 11
561.9483031797622
 21
164.6700218143081
 31
0.0
  0
LINE
  5
1EE9E
330
18
100
AcDbEntity
  8
1
  6
CONTINUOUS
 62
     7
100
AcDbLine
 10
560.8233027625297
 20
164.9200223209475
 30
0.0
 11
561.9483031797622
 21
164.9200223209475
 31
0.0
  0
LINE
  5
1EE9F
330
18
100
AcDbEntity
  8
1
  6
CONTINUOUS
 62
     7
100
AcDbLine
 10
554.5983028597598
 20
148.2200218187784
 30
0.0
 11
560.8233027625297
 21
148.2200218187784
 31
0.0
  0
LINE
  5
1EEA0
330
18
100
AcDbEntity
  8
1
  6
CONTINUOUS
 62
     7
100
AcDbLine
 10
554.5983028597598
 20
147.9700217778002
 30
0.0
 11
560.8233027625297
 21
147.9700217778002
 31
0.0
  0
LINE
  5
1EEA1
330
18
100
AcDbEntity
  8
1
  6
CONTINUOUS
 62
     7
100
AcDbLine
 10
560.8233027625297
 20
148.2200218187784
 30
0.0
 11
561.9483031797622
 21
148.2200218187784
 31
0.0
  0
LINE
  5
1EEA2
330
18
100
AcDbEntity
  8
1
  6
CONTINUOUS
 62
     7
100
AcDbLine
 10
560.8233027625297
 20
147.9700217778002
 30
0.0
 11
561.9483031797622
 21
147.9700217778002
 31
0.0
  0
LINE
  5
1EEA3
330
18
100
AcDbEntity
  8
1
  6
CONTINUOUS
 62
     7
100
AcDbLine
 10
546.5983027126108
 20
168.3200221331929
 30
0.0
 11
546.5983027126108
 21
170.3809477212046
 31
0.0
  0
LINE
  5
1EEA4
330
18
100
AcDbEntity
  8
1
  6
CONTINUOUS
 62
     7
100
AcDbLine
 10
553.0983028467213
 20
168.3200221331929
 30
0.0
 11
553.0983028467213
 21
144.920021807556
 31
0.0
  0
LINE
  5
1EEA5
330
18
100
AcDbEntity
  8
1
  6
CONTINUOUS
 62
     7
100
AcDbLine
 10
546.5983027126108
 20
139.6200219923769
 30
0.0
 11
546.5983027126108
 21
144.920021807556
 31
0.0
  0
LINE
  5
1EEA6
330
18
100
AcDbEntity
  8
1
  6
CONTINUOUS
 62
     7
100
AcDbLine
 10
549.0983027731468
 20
152.5200219648098
 30
0.0
 11
543.5983026865338
 21
152.5200219648098
 31
0.0
  0
LINE
  5
1EEA7
330
18
100
AcDbEntity
  8
1
  6
CONTINUOUS
 62
     7
100
AcDbLine
 10
549.0983027731468
 20
160.7200220050429
 30
0.0
 11
543.5983026865338
 21
160.7200220050429
 31
0.0
  0
LINE
  5
1EEA8
330
18
100
AcDbEntity
  8
1
  6
CONTINUOUS
 62
     7
100
AcDbLine
 10
549.0983027731468
 20
160.7200220050429
 30
0.0
 11
549.0983027731468
 21
164.8200224908208
 31
0.0
  0
LINE
  5
1EEA9
330
18
100
AcDbEntity
  8
1
  6
CONTINUOUS
 62
     7
100
AcDbLine
 10
549.0983027731468
 20
164.8200224908208
 30
0.0
 11
543.5983026865338
 21
164.8200224908208
 31
0.0
  0
LINE
  5
1EEAA
330
18
100
AcDbEntity
  8
1
  6
CONTINUOUS
 62
     7
100
AcDbLine
 10
549.0983027731468
 20
148.4200217118626
 30
0.0
 11
549.0983027731468
 21
152.5200219648098
 31
0.0
  0
LINE
  5
1EEAB
330
18
100
AcDbEntity
  8
1
  6
CONTINUOUS
 62
     7
100
AcDbLine
 10
549.0983027731468
 20
148.4200217118626
 30
0.0
 11
543.5983026865338
 21
148.4200217118626
 31
0.0
  0
LINE
  5
1EEAC
330
18
100
AcDbEntity
  8
1
  6
CONTINUOUS
 62
     7
100
AcDbLine
 10
543.5983026865338
 20
164.8200224908208
 30
0.0
 11
543.5983026865338
 21
170.3809477212046
 31
0.0
  0
LINE
  5
1EEAD
330
18
100
AcDbEntity
  8
1
  6
CONTINUOUS
 62
     7
100
AcDbLine
 10
543.5983026865338
 20
152.5200219648098
 30
0.0
 11
543.5983026865338
 21
160.7200220050429
 31
0.0
  0
LINE
  5
1EEAE
330
18
100
AcDbEntity
  8
1
  6
CONTINUOUS
 62
     7
100
AcDbLine
 10
543.5983026865338
 20
139.6200219923769
 30
0.0
 11
543.5983026865338
 21
148.4200217118626
 31
0.0
  0
LINE
  5
1EEAF
330
18
100
AcDbEntity
  8
1
  6
CONTINUOUS
 62
     7
100
AcDbLine
 10
553.0983028467213
 20
169.3200222971057
 30
0.0
 11
546.5983027126108
 21
169.3200222971057
 31
0.0
  0
LINE
  5
1EEB0
330
18
100
AcDbEntity
  8
1
  6
CONTINUOUS
 62
     7
100
AcDbLine
 10
553.0983028467213
 20
169.3200222971057
 30
0.0
 11
553.0983028467213
 21
168.3200221331929
 31
0.0
  0
LINE
  5
1EEB1
330
18
100
AcDbEntity
  8
1
  6
CONTINUOUS
 62
     7
100
AcDbLine
 10
546.5983027126108
 20
136.3700214596604
 30
0.0
 11
546.5983027126108
 21
139.6200219923769
 31
0.0
  0
LINE
  5
1EEB2
330
18
100
AcDbEntity
  8
1
  6
CONTINUOUS
 62
     7
100
AcDbLine
 10
543.5983026865338
 20
136.3700214596604
 30
0.0
 11
543.5983026865338
 21
139.6200219923769
 31
0.0
  0
LINE
  5
1EEB3
330
18
100
AcDbEntity
  8
1
  6
CONTINUOUS
 62
     7
100
AcDbLine
 10
553.0983028467213
 20
143.9200217891623
 30
0.0
 11
546.5983027126108
 21
143.9200217891623
 31
0.0
  0
LINE
  5
1EEB4
330
18
100
AcDbEntity
  8
1
  6
CONTINUOUS
 62
     7
100
AcDbLine
 10
553.0983028467213
 20
144.920021807556
 30
0.0
 11
553.0983028467213
 21
143.9200217891623
 31
0.0
  0
LINE
  5
1EEB5
330
18
100
AcDbEntity
  8
1
  6
CONTINUOUS
 62
     7
100
AcDbLine
 10
546.5983027126108
 20
170.3809477212046
 30
0.0
 11
546.5983027126108
 21
171.3320031585311
 31
0.0
  0
LINE
  5
1EEB6
330
18
100
AcDbEntity
  8
1
  6
CONTINUOUS
 62
     7
100
AcDbLine
 10
543.5983026865338
 20
170.3809477212046
 30
0.0
 11
543.5983026865338
 21
171.3320031585311
 31
0.0
  0
LINE
  5
1EEB7
330
18
100
AcDbEntity
  8
1
  6
CONTINUOUS
 62
     7
100
AcDbLine
 10
546.5983027126108
 20
174.1129975589131
 30
0.0
 11
543.5983026865338
 21
174.1129975589131
 31
0.0
  0
LINE
  5
1EEB8
330
18
100
AcDbEntity
  8
1
  6
CONTINUOUS
 62
     7
100
AcDbLine
 10
546.5983027126108
 20
171.3320031585311
 30
0.0
 11
546.5983027126108
 21
174.1129975589131
 31
0.0
  0
LINE
  5
1EEB9
330
18
100
AcDbEntity
  8
1
  6
CONTINUOUS
 62
     7
100
AcDbLine
 10
543.5983026865338
 20
171.3320031585311
 30
0.0
 11
543.5983026865338
 21
174.1129975589131
 31
0.0
  0
LINE
  5
1EEBA
330
18
100
AcDbEntity
  8
1
  6
CONTINUOUS
 62
     7
100
AcDbLine
 10
543.5983026865338
 20
152.5200219648098
 30
0.0
 11
543.5983026865338
 21
148.4200217118626
 31
0.0
  0
LINE
  5
1EEBB
330
18
100
AcDbEntity
  8
1
  6
CONTINUOUS
 62
     7
100
AcDbLine
 10
543.5983026865338
 20
164.8200224908208
 30
0.0
 11
543.5983026865338
 21
160.7200220050429
 31
0.0
  0
LINE
  5
1EEBC
330
18
100
AcDbEntity
  8
1
  6
CONTINUOUS
 62
     7
100
AcDbLine
 10
554.5983028597598
 20
145.3200217974511
 30
0.0
 11
554.5983028597598
 21
167.9200209500407
 31
0.0
  0
LINE
  5
1EEBD
330
18
100
AcDbEntity
  8
1
  6
CONTINUOUS
 62
     7
100
AcDbLine
 10
546.5983027126108
 20
175.0877551557635
 30
0.0
 11
543.5983026865338
 21
175.0877551557635
 31
0.0
  0
LINE
  5
1EEBE
330
18
100
AcDbEntity
  8
1
  6
CONTINUOUS
 62
     7
100
AcDbLine
 10
546.5983027126108
 20
174.1129975589131
 30
0.0
 11
546.5983027126108
 21
175.0877551557635
 31
0.0
  0
LINE
  5
1EEBF
330
18
100
AcDbEntity
  8
1
  6
CONTINUOUS
 62
     7
100
AcDbLine
 10
543.5983026865338
 20
174.1129975589131
 30
0.0
 11
543.5983026865338
 21
175.0877551557635
 31
0.0
  0
LINE
  5
1EEC0
330
18
100
AcDbEntity
  8
1
  6
CONTINUOUS
 62
     7
100
AcDbLine
 10
546.5983027126108
 20
175.0877551557635
 30
0.0
 11
546.5983027126108
 21
176.7109554084157
 31
0.0
  0
LINE
  5
1EEC1
330
18
100
AcDbEntity
  8
1
  6
CONTINUOUS
 62
     7
100
AcDbLine
 10
543.5983026865338
 20
175.0877551557635
 30
0.0
 11
543.5983026865338
 21
176.7109554084157
 31
0.0
  0
LINE
  5
1EEC2
330
18
100
AcDbEntity
  8
1
  6
CONTINUOUS
 62
     7
100
AcDbLine
 10
546.5983027126108
 20
176.7109554084157
 30
0.0
 11
546.5983027126108
 21
176.8700215788697
 31
0.0
  0
LINE
  5
1EEC3
330
18
100
AcDbEntity
  8
1
  6
CONTINUOUS
 62
     7
100
AcDbLine
 10
543.5983026865338
 20
176.7109554084157
 30
0.0
 11
543.5983026865338
 21
176.8700215788697
 31
0.0
  0
LINE
  5
1EEC5
330
18
100
AcDbEntity
  8
OSIE
100
AcDbLine
 10
621.3092650954251
 20
177.7442908929847
 30
0.0
 11
621.3092650954251
 21
136.739090487719
 31
0.0
  0
LINE
  5
1EEC6
330
18
100
AcDbEntity
  8
OSIE
100
AcDbLine
 10
628.8092650762688
 20
141.9686930069334
 30
0.0
 11
628.8092650762688
 21
137.2713506088985
 31
0.0
  0
LINE
  5
1EEF0
330
18
100
AcDbEntity
  8
OSIE
100
AcDbLine
 10
626.4605938772514
 20
139.6200218079159
 30
0.0
 11
631.1579362752863
 21
139.6200218079159
 31
0.0
  0
LINE
  5
1EEF1
330
18
100
AcDbEntity
  8
OSIE
100
AcDbLine
 10
613.8092650762688
 20
175.9686930069334
 30
0.0
 11
613.8092650762688
 21
171.2713506088985
 31
0.0
  0
LINE
  5
1EEF2
330
18
100
AcDbEntity
  8
OSIE
100
AcDbLine
 10
611.4605938772514
 20
173.6200218079159
 30
0.0
 11
616.1579362752863
 21
173.6200218079159
 31
0.0
  0
LINE
  5
1EEF4
330
18
100
AcDbEntity
  8
OSIE
100
AcDbLine
 10
618.6625233322798
 20
149.8200218079159
 30
0.0
 11
623.9560068585703
 21
149.8200218079159
 31
0.0
  0
LINE
  5
1EEF5
330
18
100
AcDbEntity
  8
OSIE
100
AcDbLine
 10
614.7092651311879
 20
168.8268909811958
 30
0.0
 11
614.7092651311879
 21
146.4907249067828
 31
0.0
  0
LINE
  5
1EEF6
330
18
100
AcDbEntity
  8
OSIE
100
AcDbLine
 10
627.9092648268316
 20
168.8268909811958
 30
0.0
 11
627.9092648268316
 21
146.4907249067828
 31
0.0
  0
LINE
  5
1EEF8
330
18
100
AcDbEntity
  8
OSIE
100
AcDbLine
 10
623.5092650835041
 20
168.8268909811958
 30
0.0
 11
623.5092650835041
 21
153.0741884132426
 31
0.0
  0
LINE
  5
1EEF9
330
18
100
AcDbEntity
  8
OSIE
100
AcDbLine
 10
612.3445353837681
 20
165.8825218500708
 30
0.0
 11
630.2739948070821
 21
165.8825218500708
 31
0.0
  0
LINE
  5
1EEFA
330
18
100
AcDbEntity
  8
OSIE
100
AcDbLine
 10
612.3445353837681
 20
161.782521364293
 30
0.0
 11
630.2739948070821
 21
161.782521364293
 31
0.0
  0
LINE
  5
1EEFB
330
18
100
AcDbEntity
  8
OSIE
100
AcDbLine
 10
612.3445353837681
 20
155.4825218217586
 30
0.0
 11
630.2739948070821
 21
155.4825218217586
 31
0.0
  0
LINE
  5
1EEFC
330
18
100
AcDbEntity
  8
OSIE
100
AcDbLine
 10
612.6820729875128
 20
149.182521813563
 30
0.0
 11
629.9364572033375
 21
149.182521813563
 31
0.0
  0
DIMENSION
  5
1EEFE
330
18
100
AcDbEntity
  8
WY
100
AcDbDimension
  2
*D200
 10
640.1335574284982
 20
161.782521364293
 30
0.0
 11
640.1335574284982
 21
163.8325216071819
 31
0.0
 70
   160
  3
STANDARD
100
AcDbAlignedDimension
 13
630.2739948070821
 23
165.8825218500708
 33
0.0
 14
630.2739948070821
 24
161.782521364293
 34
0.0
 50
90.0
100
AcDbRotatedDimension
1001
ACAD
1000
DSTYLE
1002
{
1070
   287
1070
     3
1070
     7
1000
OBLIQUE
1070
     6
1000

1070
     5
1000

1070
   173
1070
     1
1070
   172
1070
     1
1070
    41
1040
2.0
1070
   147
1040
0.75
1070
   174
1070
     1
1070
   279
1070
     0
1070
    74
1070
     1
1070
   140
1040
1.5
1070
   284
1070
     8
1070
    78
1070
     8
1002
}
  0
DIMENSION
  5
1EF0E
330
18
100
AcDbEntity
  8
WY
100
AcDbDimension
  2
*D201
 10
640.1335574284982
 20
161.782521364293
 30
0.0
 11
638.6335574284982
 21
158.6325215930258
 31
0.0
 70
    32
  3
STANDARD
100
AcDbAlignedDimension
 13
630.2739948070821
 23
155.4825218217586
 33
0.0
 14
630.2739948070821
 24
161.782521364293
 34
0.0
 50
90.0
100
AcDbRotatedDimension
1001
ACAD
1000
DSTYLE
1002
{
1070
   287
1070
     3
1070
     7
1000
NONE
1070
     6
1000
NONE
1070
     5
1000

1070
   172
1070
     1
1070
   173
1070
     1
1070
    41
1040
2.0
1070
   147
1040
0.75
1070
   174
1070
     1
1070
   279
1070
     0
1070
    74
1070
     0
1070
   140
1040
1.5
1070
   284
1070
     8
1070
    78
1070
     8
1002
}
  0
DIMENSION
  5
1EF1E
330
18
100
AcDbEntity
  8
WY
100
AcDbDimension
  2
*D202
 10
640.1335574284982
 20
155.4825218217586
 30
0.0
 11
640.1335574284982
 21
152.3325218176608
 31
0.0
 70
   160
  3
STANDARD
100
AcDbAlignedDimension
 13
629.9364572033375
 23
149.182521813563
 33
0.0
 14
630.2739948070821
 24
155.4825218217586
 34
0.0
 50
90.0
100
AcDbRotatedDimension
1001
ACAD
1000
DSTYLE
1002
{
1070
   287
1070
     3
1070
     7
1000
OBLIQUE
1070
     6
1000

1070
     5
1000

1070
   173
1070
     1
1070
   172
1070
     1
1070
    41
1040
2.0
1070
   147
1040
0.75
1070
   174
1070
     1
1070
   279
1070
     0
1070
    74
1070
     1
1070
   140
1040
1.5
1070
   284
1070
     8
1070
    78
1070
     8
1002
}
  0
DIMENSION
  5
1EF3A
330
18
100
AcDbEntity
  8
WY
100
AcDbDimension
  2
*D203
 10
627.9092648268316
 20
128.7806753725957
 30
0.0
 11
621.3092649790098
 21
130.2806753725957
 31
0.0
 70
    32
  3
STANDARD
100
AcDbAlignedDimension
 13
614.7092651311879
 23
146.4907249067828
 33
0.0
 14
627.9092648268316
 24
146.4907249067828
 34
0.0
100
AcDbRotatedDimension
1001
ACAD
1000
DSTYLE
1002
{
1070
   287
1070
     3
1070
   172
1070
     1
1070
    41
1040
2.0
1070
   147
1040
0.75
1070
   174
1070
     1
1070
   279
1070
     0
1070
    74
1070
     0
1070
   140
1040
1.5
1070
   284
1070
     8
1070
    78
1070
     8
1002
}
  0
DIMENSION
  5
1EF5A
330
18
100
AcDbEntity
  8
WY
100
AcDbDimension
  2
*D205
 10
645.8983720070336
 20
173.6200218079159
 30
0.0
 11
644.3983720070336
 21
156.6200218079159
 31
0.0
 70
    32
  3
STANDARD
100
AcDbAlignedDimension
 13
631.1579362752863
 23
139.6200218079159
 33
0.0
 14
616.1579362752863
 24
173.6200218079159
 34
0.0
 50
90.0
100
AcDbRotatedDimension
1001
ACAD
1000
DSTYLE
1002
{
1070
   287
1070
     4
1070
     3
1000
%%p0.1
1070
    41
1040
2.5
1070
   147
1040
0.75
1070
   174
1070
     1
1070
   279
1070
     1
1070
    74
1070
     1
1070
   140
1040
1.5
1070
   284
1070
     8
1070
    78
1070
     8
1002
}
  0
DIMENSION
  5
1EF69
330
18
100
AcDbEntity
  8
WY
100
AcDbDimension
  2
*D206
 10
613.8092650762688
 20
124.3777868616842
 30
0.0
 11
621.3092650762688
 21
125.8777868616842
 31
0.0
 70
    32
  3
STANDARD
100
AcDbAlignedDimension
 13
628.8092650762688
 23
137.2713506088985
 33
0.0
 14
613.8092650762688
 24
171.2713506088985
 34
0.0
100
AcDbRotatedDimension
1001
ACAD
1000
DSTYLE
1002
{
1070
   287
1070
     4
1070
     3
1000
%%p0.1
1070
    41
1040
2.5
1070
   147
1040
0.75
1070
   174
1070
     1
1070
   279
1070
     1
1070
    74
1070
     1
1070
   140
1040
1.5
1070
   284
1070
     8
1070
    78
1070
     8
1002
}
  0
DIMENSION
  5
1EF78
330
18
100
AcDbEntity
  8
WY
100
AcDbDimension
  2
*D207
 10
534.1320822345502
 20
136.3700214596604
 30
0.0
 11
532.6320822345502
 21
156.6200215192651
 31
0.0
 70
    32
  3
STANDARD
100
AcDbAlignedDimension
 13
543.5983026865338
 23
176.8700215788697
 33
0.0
 14
543.5983026865338
 24
136.3700214596604
 34
0.0
 50
90.0
100
AcDbRotatedDimension
1001
ACAD
1000
DSTYLE
1002
{
1070
   287
1070
     3
1070
   172
1070
     1
1070
    41
1040
2.0
1070
   147
1040
0.75
1070
   174
1070
     1
1070
   279
1070
     0
1070
    74
1070
     0
1070
   140
1040
1.5
1070
   284
1070
     8
1070
    78
1070
     8
1002
}
  0
DIMENSION
  5
1EF87
330
18
100
AcDbEntity
  8
WY
100
AcDbDimension
  2
*D208
 10
546.5983027126108
 20
128.6415670866688
 30
0.0
 11
545.0983026995723
 21
130.1415670866688
 31
0.0
 70
    32
  3
STANDARD
100
AcDbAlignedDimension
 13
543.5983026865338
 23
136.3700214596604
 33
0.0
 14
546.5983027126108
 24
136.3700214596604
 34
0.0
100
AcDbRotatedDimension
1001
ACAD
1000
DSTYLE
1002
{
1070
   287
1070
     3
1070
   172
1070
     1
1070
    41
1040
2.0
1070
   147
1040
0.75
1070
   174
1070
     1
1070
   279
1070
     0
1070
    74
1070
     0
1070
   140
1040
1.5
1070
   284
1070
     8
1070
    78
1070
     8
1002
}
  0
DIMENSION
  5
1EF97
330
18
100
AcDbEntity
  8
WY
100
AcDbDimension
  2
*D209
 10
554.5983027914504
 20
124.4868374295975
 30
0.0
 11
549.0983027389921
 21
125.9868374295975
 31
0.0
 70
    32
  3
STANDARD
100
AcDbAlignedDimension
 13
543.5983026865338
 23
136.3700214596604
 33
0.0
 14
554.5983027914504
 24
145.3200218079159
 34
0.0
100
AcDbRotatedDimension
1001
ACAD
1000
DSTYLE
1002
{
1070
   287
1070
     3
1070
   172
1070
     1
1070
    41
1040
2.0
1070
   147
1040
0.75
1070
   174
1070
     1
1070
   279
1070
     0
1070
    74
1070
     0
1070
   140
1040
1.5
1070
   284
1070
     8
1070
    78
1070
     8
1002
}
  0
DIMENSION
  5
1EFA6
330
18
100
AcDbEntity
  8
WY
100
AcDbDimension
  2
*D210
 10
561.9483031797622
 20
119.4446897875206
 30
0.0
 11
552.773302933148
 21
120.9446897875206
 31
0.0
 70
    32
  3
STANDARD
100
AcDbAlignedDimension
 13
543.5983026865338
 23
136.3700214596604
 33
0.0
 14
561.9483031797622
 24
147.9700217778002
 34
0.0
100
AcDbRotatedDimension
1001
ACAD
1000
DSTYLE
1002
{
1070
   287
1070
     3
1070
     3
1000
%%p0.25
1070
   172
1070
     1
1070
    41
1040
2.0
1070
   147
1040
0.75
1070
   174
1070
     1
1070
   279
1070
     0
1070
    74
1070
     0
1070
   140
1040
1.5
1070
   284
1070
     8
1070
    78
1070
     8
1002
}
  0
DIMENSION
  5
1EFB6
330
18
100
AcDbEntity
  8
WY
100
AcDbDimension
  2
*D211
 10
632.0592649948422
 20
209.0538186593026
 30
0.0
 11
621.3092653282557
 21
210.5538186593026
 31
0.0
 70
    32
  3
STANDARD
100
AcDbAlignedDimension
 13
610.5592656616692
 23
228.7594114546518
 33
0.0
 14
632.0592649948422
 24
228.7594114546518
 34
0.0
100
AcDbRotatedDimension
1001
ACAD
1000
DSTYLE
1002
{
1070
   287
1070
     3
1070
   172
1070
     1
1070
    41
1040
2.0
1070
   147
1040
0.75
1070
   174
1070
     1
1070
   279
1070
     0
1070
    74
1070
     0
1070
   140
1040
1.5
1070
   284
1070
     8
1070
    78
1070
     8
1002
}
  0
LINE
  5
1EFC6
330
18
100
AcDbEntity
  8
OSIE
100
AcDbLine
 10
614.7092650762688
 20
218.1530598115097
 30
0.0
 11
614.7092650762688
 21
230.3046356289149
 31
0.0
  0
LINE
  5
1EFC9
330
18
100
AcDbEntity
  8
OSIE
100
AcDbLine
 10
627.9092650762689
 20
218.1530598115097
 30
0.0
 11
627.9092650762689
 21
230.3046356289149
 31
0.0
  0
LINE
  5
1EFCA
330
18
100
AcDbEntity
  8
OSIE
100
AcDbLine
 10
621.3092650954251
 20
239.6167965917515
 30
0.0
 11
621.3092650954251
 21
216.350310512152
 31
0.0
  0
DIMENSION
  5
1EFCC
330
18
100
AcDbEntity
  8
WY
100
AcDbDimension
  2
*D212
 10
613.5842647139553
 20
212.2807871277305
 30
0.0
 11
624.2092650762688
 21
212.2807871277305
 31
0.0
 70
   160
  3
STANDARD
100
AcDbAlignedDimension
 13
615.8342650762688
 23
221.0344115099227
 33
0.0
 14
613.5842647139553
 24
221.0344115388433
 34
0.0
100
AcDbRotatedDimension
1001
ACAD
1000
DSTYLE
1002
{
1070
   287
1070
     3
1070
     3
1000
-0.1
1070
   271
1070
     1
1070
   172
1070
     1
1070
    41
1040
2.0
1070
   147
1040
0.75
1070
   174
1070
     1
1070
   279
1070
     0
1070
    74
1070
     0
1070
   140
1040
1.5
1070
   284
1070
     8
1070
    78
1070
     8
1002
}
  0
DIMENSION
  5
1EFDD
330
18
100
AcDbEntity
  8
WY
100
AcDbDimension
  2
*D213
 10
571.4351342033165
 20
143.9200217891623
 30
0.0
 11
569.9351342033165
 21
156.620022043134
 31
0.0
 70
    32
  3
STANDARD
100
AcDbAlignedDimension
 13
553.0983028467213
 23
169.3200222971057
 33
0.0
 14
553.0983028467213
 24
143.9200217891623
 34
0.0
 50
90.0
100
AcDbRotatedDimension
1001
ACAD
1000
DSTYLE
1002
{
1070
   287
1070
     4
1070
    41
1040
2.0
1070
   147
1040
0.75
1070
   174
1070
     1
1070
   279
1070
     1
1070
    74
1070
     1
1070
   140
1040
1.5
1070
   284
1070
     8
1070
    78
1070
     8
1002
}
  0
DIMENSION
  5
1EFEC
330
18
100
AcDbEntity
  8
WY
100
AcDbDimension
  2
*D214
 10
566.7172210696931
 20
164.6700218143081
 30
0.0
 11
566.7172210696931
 21
156.7950218143081
 31
0.0
 70
   160
  3
STANDARD
100
AcDbAlignedDimension
 13
561.9483031797622
 23
164.9200223209475
 33
0.0
 14
561.9483031797622
 24
164.6700218143081
 34
0.0
 50
90.0
100
AcDbRotatedDimension
1001
ACAD
1000
DSTYLE
1002
{
1070
   287
1070
     3
1070
   172
1070
     1
1070
    41
1040
2.0
1070
   147
1040
0.75
1070
   174
1070
     1
1070
   279
1070
     0
1070
    74
1070
     0
1070
   140
1040
1.5
1070
   284
1070
     8
1070
    78
1070
     8
1002
}
  0
LINE
  5
1EFFF
330
18
100
AcDbEntity
  8
OSIE
100
AcDbLine
 10
562.9012106600799
 20
164.7950220676278
 30
0.0
 11
553.2077118475146
 21
164.7950220676278
 31
0.0
  0
LINE
  5
1F000
330
18
100
AcDbEntity
  8
OSIE
100
AcDbLine
 10
562.9012106600799
 20
160.6950215818499
 30
0.0
 11
553.2077118475146
 21
160.6950215818499
 31
0.0
  0
LINE
  5
1F001
330
18
100
AcDbEntity
  8
OSIE
100
AcDbLine
 10
562.9012106600799
 20
154.3950220393156
 30
0.0
 11
553.2077118475146
 21
154.3950220393156
 31
0.0
  0
LINE
  5
1F002
330
18
100
AcDbEntity
  8
OSIE
100
AcDbLine
 10
562.9012106600799
 20
148.09502203112
 30
0.0
 11
553.2077118475146
 21
148.09502203112
 31
0.0
  0
LINE
  5
1F051
330
18
100
AcDbEntity
  8
1
 62
     7
100
AcDbLine
 10
549.5983027731468
 20
164.8200224908208
 30
0.0
 11
553.0983028467213
 21
164.8200224908208
 31
0.0
  0
LINE
  5
1F052
330
18
100
AcDbEntity
  8
1
 62
     7
100
AcDbLine
 10
549.5983027731468
 20
164.8200224908208
 30
0.0
 11
549.5983027731468
 21
160.7200220050429
 31
0.0
  0
LINE
  5
1F053
330
18
100
AcDbEntity
  8
1
 62
     7
100
AcDbLine
 10
549.5983027731468
 20
160.7200220050429
 30
0.0
 11
553.0983028467213
 21
160.7200220050429
 31
0.0
  0
LINE
  5
1F054
330
18
100
AcDbEntity
  8
1
 62
     7
100
AcDbLine
 10
549.5983027731468
 20
152.5200221976404
 30
0.0
 11
553.0983028467213
 21
152.5200221976404
 31
0.0
  0
LINE
  5
1F055
330
18
100
AcDbEntity
  8
1
 62
     7
100
AcDbLine
 10
549.5983027731468
 20
152.5200221976404
 30
0.0
 11
549.5983027731468
 21
148.4200217118626
 31
0.0
  0
LINE
  5
1F056
330
18
100
AcDbEntity
  8
1
 62
     7
100
AcDbLine
 10
549.5983027731468
 20
148.4200217118626
 30
0.0
 11
553.0983028467213
 21
148.4200217118626
 31
0.0
  0
LINE
  5
1F09F
330
18
100
AcDbEntity
  8
1
  6
CONTINUOUS
 62
     7
100
AcDbLine
 10
625.1842654977564
 20
154.5950216995691
 30
0.0
 11
621.8342646692519
 21
154.5950216995691
 31
0.0
  0
LINE
  5
1F0A0
330
18
100
AcDbEntity
  8
1
  6
CONTINUOUS
 62
     7
100
AcDbLine
 10
622.2592644129519
 20
154.5950216995691
 30
0.0
 11
622.2592644129519
 21
154.1950214477395
 31
0.0
  0
LINE
  5
1F0A1
330
18
100
AcDbEntity
  8
1
  6
CONTINUOUS
 62
     7
100
AcDbLine
 10
624.7592648227338
 20
154.1950214477395
 30
0.0
 11
624.7592648227338
 21
154.5950216995691
 31
0.0
  0
LINE
  5
1F0A2
330
18
100
AcDbEntity
  8
1
  6
CONTINUOUS
 62
     7
100
AcDbLine
 10
621.8342646692519
 20
154.1950214477395
 30
0.0
 11
625.1842654977564
 21
154.1950214477395
 31
0.0
  0
LINE
  5
1F0A3
330
18
100
AcDbEntity
  8
1
  6
CONTINUOUS
 62
     7
100
AcDbLine
 10
620.7842655215983
 20
160.895022173426
 30
0.0
 11
617.4342646930937
 21
160.895022173426
 31
0.0
  0
LINE
  5
1F0A4
330
18
100
AcDbEntity
  8
1
  6
CONTINUOUS
 62
     7
100
AcDbLine
 10
617.8592644367938
 20
160.895022173426
 30
0.0
 11
617.8592644367938
 21
160.4950219215964
 31
0.0
  0
LINE
  5
1F0A5
330
18
100
AcDbEntity
  8
1
  6
CONTINUOUS
 62
     7
100
AcDbLine
 10
620.3592648465757
 20
160.4950219215964
 30
0.0
 11
620.3592648465757
 21
160.895022173426
 31
0.0
  0
LINE
  5
1F0A6
330
18
100
AcDbEntity
  8
1
  6
CONTINUOUS
 62
     7
100
AcDbLine
 10
617.4342646930937
 20
160.4950219215964
 30
0.0
 11
620.7842655215983
 21
160.4950219215964
 31
0.0
  0
LINE
  5
1F0A7
330
18
100
AcDbEntity
  8
1
  6
CONTINUOUS
 62
     7
100
AcDbLine
 10
625.1842654977564
 20
160.895022173426
 30
0.0
 11
621.8342646692519
 21
160.895022173426
 31
0.0
  0
LINE
  5
1F0A8
330
18
100
AcDbEntity
  8
1
  6
CONTINUOUS
 62
     7
100
AcDbLine
 10
622.2592644129519
 20
160.895022173426
 30
0.0
 11
622.2592644129519
 21
160.4950219215964
 31
0.0
  0
LINE
  5
1F0A9
330
18
100
AcDbEntity
  8
1
  6
CONTINUOUS
 62
     7
100
AcDbLine
 10
624.7592648227338
 20
160.4950219215964
 30
0.0
 11
624.7592648227338
 21
160.895022173426
 31
0.0
  0
LINE
  5
1F0AA
330
18
100
AcDbEntity
  8
1
  6
CONTINUOUS
 62
     7
100
AcDbLine
 10
621.8342646692519
 20
160.4950219215964
 30
0.0
 11
625.1842654977564
 21
160.4950219215964
 31
0.0
  0
LINE
  5
1F0AB
330
18
100
AcDbEntity
  8
1
  6
CONTINUOUS
 62
     7
100
AcDbLine
 10
620.7842655215983
 20
164.9950226592039
 30
0.0
 11
617.4342646930937
 21
164.9950226592039
 31
0.0
  0
LINE
  5
1F0AC
330
18
100
AcDbEntity
  8
1
  6
CONTINUOUS
 62
     7
100
AcDbLine
 10
617.8592644367938
 20
164.9950226592039
 30
0.0
 11
617.8592644367938
 21
164.5950224073743
 31
0.0
  0
LINE
  5
1F0AD
330
18
100
AcDbEntity
  8
1
  6
CONTINUOUS
 62
     7
100
AcDbLine
 10
620.3592648465757
 20
164.5950224073743
 30
0.0
 11
620.3592648465757
 21
164.9950226592039
 31
0.0
  0
LINE
  5
1F0AE
330
18
100
AcDbEntity
  8
1
  6
CONTINUOUS
 62
     7
100
AcDbLine
 10
617.4342646930937
 20
164.5950224073743
 30
0.0
 11
620.7842655215983
 21
164.5950224073743
 31
0.0
  0
LINE
  5
1F0AF
330
18
100
AcDbEntity
  8
1
  6
CONTINUOUS
 62
     7
100
AcDbLine
 10
625.1842654977564
 20
164.9950226592039
 30
0.0
 11
621.8342646692519
 21
164.9950226592039
 31
0.0
  0
LINE
  5
1F0B0
330
18
100
AcDbEntity
  8
1
  6
CONTINUOUS
 62
     7
100
AcDbLine
 10
622.2592644129519
 20
164.9950226592039
 30
0.0
 11
622.2592644129519
 21
164.5950224073743
 31
0.0
  0
LINE
  5
1F0B1
330
18
100
AcDbEntity
  8
1
  6
CONTINUOUS
 62
     7
100
AcDbLine
 10
624.7592648227338
 20
164.5950224073743
 30
0.0
 11
624.7592648227338
 21
164.9950226592039
 31
0.0
  0
LINE
  5
1F0B2
330
18
100
AcDbEntity
  8
1
  6
CONTINUOUS
 62
     7
100
AcDbLine
 10
621.8342646692519
 20
164.5950224073743
 30
0.0
 11
625.1842654977564
 21
164.5950224073743
 31
0.0
  0
LINE
  5
1F0B3
330
18
100
AcDbEntity
  8
1
  6
CONTINUOUS
 62
     7
100
AcDbLine
 10
625.1842654977564
 20
155.320021864972
 30
0.0
 11
621.8342646692519
 21
155.320021864972
 31
0.0
  0
LINE
  5
1F0B4
330
18
100
AcDbEntity
  8
1
  6
CONTINUOUS
 62
     7
100
AcDbLine
 10
625.1842654977564
 20
161.6200214075064
 30
0.0
 11
621.8342646692519
 21
161.6200214075064
 31
0.0
  0
LINE
  5
1F0B5
330
18
100
AcDbEntity
  8
1
  6
CONTINUOUS
 62
     7
100
AcDbLine
 10
620.7842655215983
 20
161.6200214075064
 30
0.0
 11
617.4342646930937
 21
161.6200214075064
 31
0.0
  0
LINE
  5
1F0B6
330
18
100
AcDbEntity
  8
1
  6
CONTINUOUS
 62
     7
100
AcDbLine
 10
620.7842655215983
 20
165.7200218932842
 30
0.0
 11
617.4342646930937
 21
165.7200218932842
 31
0.0
  0
LINE
  5
1F0B7
330
18
100
AcDbEntity
  8
1
  6
CONTINUOUS
 62
     7
100
AcDbLine
 10
625.1842654977564
 20
165.7200218932842
 30
0.0
 11
621.8342646692519
 21
165.7200218932842
 31
0.0
  0
ENDSEC
  0
SECTION
  2
OBJECTS
  0
DICTIONARY
  5
C
330
0
100
AcDbDictionary
  3
ACAD_DETAILVIEWSTYLE
350
F5C4
  3
ACAD_GROUP
350
D
  3
ACAD_IMAGE_VARS
350
F140
  3
ACAD_MLINESTYLE
350
E
  3
ACAD_SCALELIST
350
1F071
  3
ACAD_SECTIONVIEWSTYLE
350
F5C5
  3
ACDBVARIABLEDICTIONARY
350
C1B
  3
APPDATA
350
F13E
  3
DIMOFFSETDICTIONARY
350
13296
  3
DWGPROPS
350
1F0B9
  0
DICTIONARY
  5
13241
330
2
100
AcDbDictionary
280
     1
  3
ACAD_LAYERSTATES
360
13242
  0
DICTIONARY
  5
F5C4
102
{ACAD_REACTORS
330
C
102
}
330
C
100
AcDbDictionary
  0
DICTIONARY
  5
D
102
{ACAD_REACTORS
330
C
102
}
330
C
100
AcDbDictionary
  0
RASTERVARIABLES
  5
F140
102
{ACAD_REACTORS
330
C
102
}
330
C
100
AcDbRasterVariables
 90
        0
 70
     1
 71
     1
 72
     0
  0
DICTIONARY
  5
E
102
{ACAD_REACTORS
330
C
102
}
330
C
100
AcDbDictionary
  3
STANDARD
350
1B
  0
DICTIONARY
  5
1F071
102
{ACAD_REACTORS
330
C
102
}
330
C
100
AcDbDictionary
  0
DICTIONARY
  5
F5C5
102
{ACAD_REACTORS
330
C
102
}
330
C
100
AcDbDictionary
  0
DICTIONARY
  5
C1B
102
{ACAD_REACTORS
330
C
102
}
330
C
100
AcDbDictionary
  3
HPTRANSPARENCY
350
13295
  3
SORTENTS
350
C1C
  0
DICTIONARY
  5
F13E
102
{ACAD_REACTORS
330
C
102
}
330
C
100
AcDbDictionary
  0
DICTIONARY
  5
13296
102
{ACAD_REACTORS
330
C
102
}
330
C
100
AcDbDictionary
  3
DIMRAILANGLE
350
173E2
  3
DIMRAILFIRSTOFFSET
350
173E0
  3
DIMRAILOFFSET
350
173E1
  3
DIMRAILSENABLED
350
173E3
  0
XRECORD
  5
1F0B9
102
{ACAD_REACTORS
330
C
102
}
330
C
100
AcDbXrecord
  1
DWGPROPS COOKIE
  2

  3

  4

  6

  7

  8
pikusl
  9

300
=
301
=
302
=
303
=
304
=
305
=
306
=
307
=
308
=
309
=
 40
0.0
 41
2448721.315803356
 42
2457540.444470324
  1

 90
        0
  0
DICTIONARY
  5
13242
102
{ACAD_REACTORS
330
13241
102
}
330
13241
100
AcDbDictionary
  0
MLINESTYLE
  5
1B
102
{ACAD_REACTORS
330
E
102
}
330
E
100
AcDbMlineStyle
  2
STANDARD
 70
     0
  3

 62
     0
 51
90.0
 52
90.0
 71
     2
 49
0.5
 62
   256
  6
BYLAYER
 49
-0.5
 62
   256
  6
BYLAYER
  0
DICTIONARYVAR
  5
13295
102
{ACAD_REACTORS
330
C1B
102
}
330
C1B
100
DictionaryVariables
280
     0
  1
ByLayer
  0
DICTIONARYVAR
  5
C1C
102
{ACAD_REACTORS
330
C1B
102
}
330
C1B
100
DictionaryVariables
280
     0
  1
96
  0
DICTIONARYVAR
  5
173E2
102
{ACAD_REACTORS
330
13296
102
}
330
13296
100
DictionaryVariables
280
     0
  1
0.261799
  0
DICTIONARYVAR
  5
173E0
102
{ACAD_REACTORS
330
13296
102
}
330
13296
100
DictionaryVariables
280
     0
  1
0.400000
  0
DICTIONARYVAR
  5
173E1
102
{ACAD_REACTORS
330
13296
102
}
330
13296
100
DictionaryVariables
280
     0
  1
0.250000
  0
DICTIONARYVAR
  5
173E3
102
{ACAD_REACTORS
330
13296
102
}
330
13296
100
DictionaryVariables
280
     0
  1
1
  0
ENDSEC
  0
EOF
