  0
SECTION
  2
HEADER
  9
$ACADVER
  1
AC1014
  9
$ACADMAINTVER
 70
     9
  9
$DWGCODEPAGE
  3
ANSI_1250
  9
$INSBASE
 10
0.0
 20
0.0
 30
0.0
  9
$EXTMIN
 10
486.041244
 20
0.0
 30
0.0
  9
$EXTMAX
 10
687.671651
 20
297.0
 30
0.0
  9
$LIMMIN
 10
0.0
 20
0.0
  9
$LIMMAX
 10
420.0
 20
297.0
  9
$ORTHOMODE
 70
     0
  9
$REGENMODE
 70
     1
  9
$FILLMODE
 70
     1
  9
$QTEXTMODE
 70
     0
  9
$MIRRTEXT
 70
     1
  9
$DRAGMODE
 70
     2
  9
$LTSCALE
 40
6.0
  9
$OSMODE
 70
  9143
  9
$ATTMODE
 70
     1
  9
$TEXTSIZE
 40
3.5
  9
$TRACEWID
 40
0.05
  9
$TEXTSTYLE
  7
ITALIC
  9
$CLAYER
  8
WYMIARY
  9
$CELTYPE
  6
BYLAYER
  9
$CECOLOR
 62
   256
  9
$CELTSCALE
 40
1.0
  9
$DELOBJ
 70
     1
  9
$DISPSILH
 70
     0
  9
$DIMSCALE
 40
1.0
  9
$DIMASZ
 40
2.0
  9
$DIMEXO
 40
1.5
  9
$DIMDLI
 40
7.0
  9
$DIMRND
 40
0.0
  9
$DIMDLE
 40
0.0
  9
$DIMEXE
 40
1.5
  9
$DIMTP
 40
0.1
  9
$DIMTM
 40
0.0
  9
$DIMTXT
 40
1.0
  9
$DIMCEN
 40
-1.0
  9
$DIMTSZ
 40
0.0
  9
$DIMTOL
 70
     0
  9
$DIMLIM
 70
     0
  9
$DIMTIH
 70
     0
  9
$DIMTOH
 70
     0
  9
$DIMSE1
 70
     0
  9
$DIMSE2
 70
     0
  9
$DIMTAD
 70
     1
  9
$DIMZIN
 70
     0
  9
$DIMBLK
  1

  9
$DIMASO
 70
     1
  9
$DIMSHO
 70
     0
  9
$DIMPOST
  1

  9
$DIMAPOST
  1

  9
$DIMALT
 70
     0
  9
$DIMALTD
 70
     2
  9
$DIMALTF
 40
25.4
  9
$DIMLFAC
 40
1.0
  9
$DIMTOFL
 70
     0
  9
$DIMTVP
 40
0.0
  9
$DIMTIX
 70
     0
  9
$DIMSOXD
 70
     0
  9
$DIMSAH
 70
     0
  9
$DIMBLK1
  1

  9
$DIMBLK2
  1

  9
$DIMSTYLE
  2
STANDARD
  9
$DIMCLRD
 70
     0
  9
$DIMCLRE
 70
     0
  9
$DIMCLRT
 70
     0
  9
$DIMTFAC
 40
1.0
  9
$DIMGAP
 40
0.5
  9
$DIMJUST
 70
     0
  9
$DIMSD1
 70
     0
  9
$DIMSD2
 70
     0
  9
$DIMTOLJ
 70
     1
  9
$DIMTZIN
 70
     0
  9
$DIMALTZ
 70
     0
  9
$DIMALTTZ
 70
     0
  9
$DIMFIT
 70
     5
  9
$DIMUPT
 70
     0
  9
$DIMUNIT
 70
     2
  9
$DIMDEC
 70
     2
  9
$DIMTDEC
 70
     4
  9
$DIMALTU
 70
     2
  9
$DIMALTTD
 70
     2
  9
$DIMTXSTY
  7
STANDARD
  9
$DIMAUNIT
 70
     0
  9
$LUNITS
 70
     2
  9
$LUPREC
 70
     2
  9
$SKETCHINC
 40
0.1
  9
$FILLETRAD
 40
0.1
  9
$AUNITS
 70
     0
  9
$AUPREC
 70
     2
  9
$MENU
  1
ACAD
  9
$ELEVATION
 40
0.0
  9
$PELEVATION
 40
0.0
  9
$THICKNESS
 40
0.0
  9
$LIMCHECK
 70
     0
  9
$CHAMFERA
 40
0.0
  9
$CHAMFERB
 40
0.0
  9
$CHAMFERC
 40
0.0
  9
$CHAMFERD
 40
0.0
  9
$SKPOLY
 70
     0
  9
$TDCREATE
 40
2448721.39913669
  9
$TDUPDATE
 40
2457520.608204398
  9
$TDINDWG
 40
1.5239130324
  9
$TDUSRTIMER
 40
2457520.523600799
  9
$USRTIMER
 70
     1
  9
$ANGBASE
 50
0.0
  9
$ANGDIR
 70
     0
  9
$PDMODE
 70
     0
  9
$PDSIZE
 40
0.0
  9
$PLINEWID
 40
0.5
  9
$COORDS
 70
     1
  9
$SPLFRAME
 70
     0
  9
$SPLINETYPE
 70
     6
  9
$SPLINESEGS
 70
     8
  9
$ATTDIA
 70
     0
  9
$ATTREQ
 70
     1
  9
$HANDLING
 70
     1
  9
$HANDSEED
  5
955F
  9
$SURFTAB1
 70
     6
  9
$SURFTAB2
 70
     6
  9
$SURFTYPE
 70
     6
  9
$SURFU
 70
     6
  9
$SURFV
 70
     6
  9
$UCSNAME
  2

  9
$UCSORG
 10
0.0
 20
0.0
 30
0.0
  9
$UCSXDIR
 10
1.0
 20
0.0
 30
0.0
  9
$UCSYDIR
 10
0.0
 20
1.0
 30
0.0
  9
$PUCSNAME
  2

  9
$PUCSORG
 10
0.0
 20
0.0
 30
0.0
  9
$PUCSXDIR
 10
1.0
 20
0.0
 30
0.0
  9
$PUCSYDIR
 10
0.0
 20
1.0
 30
0.0
  9
$USERI1
 70
     0
  9
$USERI2
 70
     0
  9
$USERI3
 70
     0
  9
$USERI4
 70
     0
  9
$USERI5
 70
     0
  9
$USERR1
 40
0.0
  9
$USERR2
 40
0.0
  9
$USERR3
 40
0.0
  9
$USERR4
 40
0.0
  9
$USERR5
 40
0.0
  9
$WORLDVIEW
 70
     1
  9
$SHADEDGE
 70
     3
  9
$SHADEDIF
 70
    70
  9
$TILEMODE
 70
     1
  9
$MAXACTVP
 70
    16
  9
$PINSBASE
 10
0.0
 20
0.0
 30
0.0
  9
$PLIMCHECK
 70
     0
  9
$PEXTMIN
 10
1.000000000000000E+20
 20
1.000000000000000E+20
 30
1.000000000000000E+20
  9
$PEXTMAX
 10
-1.000000000000000E+20
 20
-1.000000000000000E+20
 30
-1.000000000000000E+20
  9
$PLIMMIN
 10
0.0
 20
0.0
  9
$PLIMMAX
 10
0.0
 20
0.0
  9
$UNITMODE
 70
     0
  9
$VISRETAIN
 70
     0
  9
$PLINEGEN
 70
     0
  9
$PSLTSCALE
 70
     0
  9
$TREEDEPTH
 70
  3020
  9
$PICKSTYLE
 70
     1
  9
$CMLSTYLE
  2
STANDARD
  9
$CMLJUST
 70
     0
  9
$CMLSCALE
 40
1.0
  9
$PROXYGRAPHICS
 70
     1
  9
$MEASUREMENT
 70
     0
  0
ENDSEC
  0
SECTION
  2
CLASSES
  0
CLASS
  1
HATCH
  2
AcDbHatch
  3
ObjectDBX Classes
 90
        0
280
     0
281
     1
  0
CLASS
  1
LWPOLYLINE
  2
AcDbPolyline
  3
ObjectDBX Classes
 90
        0
280
     0
281
     1
  0
CLASS
  1
DICTIONARYVAR
  2
AcDbDictionaryVar
  3
ObjectDBX Classes
 90
        0
280
     0
281
     0
  0
CLASS
  1
XRECORD
  2
AcDbXrecord
  3
ObjectDBX Classes
 90
        0
280
     0
281
     0
  0
CLASS
  1
SCALE
  2
AcDbScale
  3
ObjectDBX Classes
 90
     1153
280
     0
281
     0
  0
CLASS
  1
VISUALSTYLE
  2
AcDbVisualStyle
  3
ObjectDBX Classes
 90
     4095
280
     0
281
     0
  0
CLASS
  1
MATERIAL
  2
AcDbMaterial
  3
ObjectDBX Classes
 90
     1153
280
     0
281
     0
  0
CLASS
  1
TABLESTYLE
  2
AcDbTableStyle
  3
ObjectDBX Classes
 90
     4095
280
     0
281
     0
  0
CLASS
  1
MLEADERSTYLE
  2
AcDbMLeaderStyle
  3
ACDB_MLEADERSTYLE_CLASS
 90
     4095
280
     0
281
     0
  0
CLASS
  1
SUN
  2
AcDbSun
  3
SCENEOE
 90
     1153
280
     0
281
     0
  0
CLASS
  1
RASTERVARIABLES
  2
AcDbRasterVariables
  3
ISM
 90
        0
280
     0
281
     0
  0
CLASS
  1
DIMASSOC
  2
AcDbDimAssoc
  3
"AcDbDimAssoc|Product Desc:     AcDim ARX App For Dimension|Company:          Autodesk, Inc.|WEB Address:      www.autodesk.com"
 90
        0
280
     0
281
     0
  0
ENDSEC
  0
SECTION
  2
TABLES
  0
TABLE
  2
VPORT
  5
8
330
0
100
AcDbSymbolTable
 70
     1
  0
VPORT
  5
8FE4
330
8
100
AcDbSymbolTableRecord
100
AcDbViewportTableRecord
  2
*ACTIVE
 70
     0
 10
0.0
 20
0.0
 11
1.0
 21
1.0
 12
586.8564475000001
 22
148.5
 13
0.0
 23
0.0
 14
1.0
 24
1.0
 15
5.0
 25
5.0
 16
0.0
 26
0.0
 36
1.0
 17
0.0
 27
0.0
 37
0.0
 40
302.94
 41
2.811127379209371
 42
50.0
 43
0.0
 44
0.0
 50
0.0
 51
0.0
 71
    16
 72
   100
 73
     1
 74
     0
 75
     0
 76
     0
 77
     0
 78
     0
  0
ENDTAB
  0
TABLE
  2
LTYPE
  5
5
330
0
100
AcDbSymbolTable
 70
     3
  0
LTYPE
  5
12
330
5
100
AcDbSymbolTableRecord
100
AcDbLinetypeTableRecord
  2
BYBLOCK
 70
     0
  3

 72
    65
 73
     0
 40
0.0
  0
LTYPE
  5
13
330
5
100
AcDbSymbolTableRecord
100
AcDbLinetypeTableRecord
  2
BYLAYER
 70
     0
  3

 72
    65
 73
     0
 40
0.0
  0
LTYPE
  5
14
330
5
100
AcDbSymbolTableRecord
100
AcDbLinetypeTableRecord
  2
CONTINUOUS
 70
     0
  3
Solid line
 72
    65
 73
     0
 40
0.0
  0
LTYPE
  5
1D
330
5
100
AcDbSymbolTableRecord
100
AcDbLinetypeTableRecord
  2
CENTER
 70
     0
  3
____ _ ____ _ ____ _ ____ _ ____ _ ____ _ ____
 72
    65
 73
     4
 40
2.0
 49
1.25
 74
     0
 49
-0.25
 74
     0
 49
0.25
 74
     0
 49
-0.25
 74
     0
  0
LTYPE
  5
1E
330
5
100
AcDbSymbolTableRecord
100
AcDbLinetypeTableRecord
  2
HIDDEN
 70
     0
  3
_ _ _ _ _ _ _ _ _ _ _ _ _ _ _ _ _ _ _ _ _ _ _
 72
    65
 73
     2
 40
0.375
 49
0.25
 74
     0
 49
-0.125
 74
     0
  0
ENDTAB
  0
TABLE
  2
LAYER
  5
2
102
{ACAD_XDICTIONARY
360
92D8
102
}
330
0
100
AcDbSymbolTable
 70
    11
  0
LAYER
  5
F
330
2
100
AcDbSymbolTableRecord
100
AcDbLayerTableRecord
  2
0
 70
     0
 62
     7
  6
CONTINUOUS
  0
LAYER
  5
21
330
2
100
AcDbSymbolTableRecord
100
AcDbLayerTableRecord
  2
1
 70
     0
 62
     3
  6
CONTINUOUS
  0
LAYER
  5
22
330
2
100
AcDbSymbolTableRecord
100
AcDbLayerTableRecord
  2
2
 70
     0
 62
     6
  6
CONTINUOUS
  0
LAYER
  5
23
330
2
100
AcDbSymbolTableRecord
100
AcDbLayerTableRecord
  2
3
 70
     0
 62
     4
  6
HIDDEN
  0
LAYER
  5
25
330
2
100
AcDbSymbolTableRecord
100
AcDbLayerTableRecord
  2
WY
 70
     0
 62
     1
  6
CONTINUOUS
  0
LAYER
  5
26
330
2
100
AcDbSymbolTableRecord
100
AcDbLayerTableRecord
  2
DEFPOINTS
 70
     0
 62
     7
  6
CONTINUOUS
  0
LAYER
  5
464
330
2
100
AcDbSymbolTableRecord
100
AcDbLayerTableRecord
  2
WYMIARY
 70
     0
 62
     1
  6
CONTINUOUS
  0
LAYER
  5
7006
330
2
100
AcDbSymbolTableRecord
100
AcDbLayerTableRecord
  2
WYMSKALA1
 70
     0
 62
     1
  6
CONTINUOUS
  0
LAYER
  5
7007
330
2
100
AcDbSymbolTableRecord
100
AcDbLayerTableRecord
  2
WARSTWA3
 70
     0
 62
     3
  6
CONTINUOUS
  0
LAYER
  5
8703
330
2
100
AcDbSymbolTableRecord
100
AcDbLayerTableRecord
  2
WARSTWA_1
 70
     0
 62
     7
  6
CONTINUOUS
  0
LAYER
  5
9031
330
2
100
AcDbSymbolTableRecord
100
AcDbLayerTableRecord
  2
OSIE
 70
     0
 62
     2
  6
CENTER
  0
ENDTAB
  0
TABLE
  2
STYLE
  5
3
330
0
100
AcDbSymbolTable
 70
     3
  0
STYLE
  5
10
330
3
100
AcDbSymbolTableRecord
100
AcDbTextStyleTableRecord
  2
STANDARD
 70
     0
 40
0.0
 41
1.0
 50
0.0
 71
     0
 42
6.0
  3
txt
  4

  0
STYLE
  5
1C
330
3
100
AcDbSymbolTableRecord
100
AcDbTextStyleTableRecord
  2
ITALIC
 70
     0
 40
0.0
 41
1.0
 50
15.0
 71
     0
 42
3.5
  3
simplex
  4

  0
STYLE
  5
8704
330
3
100
AcDbSymbolTableRecord
100
AcDbTextStyleTableRecord
  2
GOST
 70
     0
 40
0.0
 41
1.0
 50
15.0
 71
     0
 42
3.0
  3
ISO
  4

  0
ENDTAB
  0
TABLE
  2
VIEW
  5
6
330
0
100
AcDbSymbolTable
 70
     0
  0
ENDTAB
  0
TABLE
  2
UCS
  5
7
330
0
100
AcDbSymbolTable
 70
     0
  0
ENDTAB
  0
TABLE
  2
APPID
  5
9
330
0
100
AcDbSymbolTable
 70
     1
  0
APPID
  5
11
330
9
100
AcDbSymbolTableRecord
100
AcDbRegAppTableRecord
  2
ACAD
 70
     0
  0
ENDTAB
  0
TABLE
  2
DIMSTYLE
  5
A
330
0
100
AcDbSymbolTable
 70
     2
  0
DIMSTYLE
105
3B
102
{ACAD_REACTORS
330
8F74
330
8F81
330
9271
330
927E
330
952D
330
953C
330
954B
102
}
330
A
100
AcDbSymbolTableRecord
100
AcDbDimStyleTableRecord
  2
STANDARD
 70
     0
  3

  4

  5

  6

  7

 40
1.0
 41
3.5
 42
1.5
 43
7.0
 44
1.5
 45
0.0
 46
0.0
 47
0.1
 48
0.0
140
3.6
141
-1.0
142
0.0
143
25.4
144
1.0
145
0.0
146
1.0
147
1.5
 71
     0
 72
     0
 73
     0
 74
     0
 75
     0
 76
     0
 77
     1
 78
     0
170
     0
171
     2
172
     0
173
     0
174
     0
175
     0
176
     0
177
     0
178
     0
270
     2
271
     2
272
     4
273
     2
274
     2
340
10
275
     0
280
     0
281
     0
282
     0
283
     1
284
     0
285
     0
286
     0
287
     3
288
     0
  0
DIMSTYLE
105
7008
102
{ACAD_REACTORS
330
9057
330
9064
102
}
330
A
100
AcDbSymbolTableRecord
100
AcDbDimStyleTableRecord
  2
ISO-25
 70
     0
  3

  4

  5

  6

  7

 40
1.0
 41
2.5
 42
0.625
 43
3.75
 44
1.25
 45
0.0
 46
0.0
 47
0.0
 48
0.0
140
2.5
141
2.5
142
0.0
143
0.03937
144
1.0
145
0.0
146
1.0
147
0.625
 71
     0
 72
     0
 73
     0
 74
     0
 75
     0
 76
     0
 77
     1
 78
     8
170
     0
171
     3
172
     1
173
     0
174
     0
175
     0
176
     0
177
     0
178
     0
270
     2
271
     2
272
     2
273
     2
274
     3
340
10
275
     0
280
     0
281
     0
282
     0
283
     0
284
     8
285
     0
286
     0
287
     3
288
     0
  0
ENDTAB
  0
TABLE
  2
BLOCK_RECORD
  5
1
330
0
100
AcDbSymbolTable
 70
    18
  0
BLOCK_RECORD
  5
18
330
1
100
AcDbSymbolTableRecord
100
AcDbBlockTableRecord
  2
*MODEL_SPACE
  0
BLOCK_RECORD
  5
15
330
1
100
AcDbSymbolTableRecord
100
AcDbBlockTableRecord
  2
*PAPER_SPACE
  0
BLOCK_RECORD
  5
832A
330
1
100
AcDbSymbolTableRecord
100
AcDbBlockTableRecord
  2
A$C394A53EE
  0
BLOCK_RECORD
  5
8EB4
330
1
100
AcDbSymbolTableRecord
100
AcDbBlockTableRecord
  2
A$C113F12C2
  0
BLOCK_RECORD
  5
8F0C
330
1
100
AcDbSymbolTableRecord
100
AcDbBlockTableRecord
  2
A$C708059A8
  0
BLOCK_RECORD
  5
8F68
330
1
100
AcDbSymbolTableRecord
100
AcDbBlockTableRecord
  2
*D3
  0
BLOCK_RECORD
  5
8F75
330
1
100
AcDbSymbolTableRecord
100
AcDbBlockTableRecord
  2
*D4
  0
BLOCK_RECORD
  5
9058
330
1
100
AcDbSymbolTableRecord
100
AcDbBlockTableRecord
  2
*D6
  0
BLOCK_RECORD
  5
9065
330
1
100
AcDbSymbolTableRecord
100
AcDbBlockTableRecord
  2
*D7
  0
BLOCK_RECORD
  5
9272
330
1
100
AcDbSymbolTableRecord
100
AcDbBlockTableRecord
  2
*D8
  0
BLOCK_RECORD
  5
927F
330
1
100
AcDbSymbolTableRecord
100
AcDbBlockTableRecord
  2
*D9
  0
BLOCK_RECORD
  5
92A7
330
1
100
AcDbSymbolTableRecord
100
AcDbBlockTableRecord
  2
A$C33365191
  0
BLOCK_RECORD
  5
94FD
330
1
100
AcDbSymbolTableRecord
100
AcDbBlockTableRecord
  2
*D11
  0
BLOCK_RECORD
  5
9509
330
1
100
AcDbSymbolTableRecord
100
AcDbBlockTableRecord
  2
*D12
  0
BLOCK_RECORD
  5
9515
330
1
100
AcDbSymbolTableRecord
100
AcDbBlockTableRecord
  2
*D13
  0
BLOCK_RECORD
  5
9521
330
1
100
AcDbSymbolTableRecord
100
AcDbBlockTableRecord
  2
*D14
  0
BLOCK_RECORD
  5
9530
330
1
100
AcDbSymbolTableRecord
100
AcDbBlockTableRecord
  2
*D15
  0
BLOCK_RECORD
  5
953F
330
1
100
AcDbSymbolTableRecord
100
AcDbBlockTableRecord
  2
*D16
  0
BLOCK_RECORD
  5
954E
330
1
100
AcDbSymbolTableRecord
100
AcDbBlockTableRecord
  2
*D17
  0
ENDTAB
  0
ENDSEC
  0
SECTION
  2
BLOCKS
  0
BLOCK
  5
29
330
18
100
AcDbEntity
  8
0
100
AcDbBlockBegin
  2
*MODEL_SPACE
 70
     0
 10
0.0
 20
0.0
 30
0.0
  3
*MODEL_SPACE
  1

  0
ENDBLK
  5
2A
330
18
100
AcDbEntity
  8
0
100
AcDbBlockEnd
  0
BLOCK
  5
27
330
15
100
AcDbEntity
 67
     1
  8
0
100
AcDbBlockBegin
  2
*PAPER_SPACE
 70
     0
 10
0.0
 20
0.0
 30
0.0
  3
*PAPER_SPACE
  1

  0
ENDBLK
  5
28
330
15
100
AcDbEntity
 67
     1
  8
0
100
AcDbBlockEnd
  0
BLOCK
  5
8696
330
832A
100
AcDbEntity
  8
0
 62
     2
100
AcDbBlockBegin
  2
A$C394A53EE
 70
     0
 10
0.0
 20
0.0
 30
0.0
  3
A$C394A53EE
  1
A$C394A53EE
  0
HATCH
  5
832B
330
832A
100
AcDbEntity
  8
0
  6
CONTINUOUS
 62
    20
100
AcDbHatch
 10
0.0
 20
0.0
 30
0.0
210
0.0
220
0.0
230
1.0
  2
SOLID
 70
     1
 71
     1
 91
        2
 92
        7
 72
     0
 73
     1
 93
       87
 10
2.730075769928969
 20
0.7449929936242992
 10
3.115937769928968
 20
0.7449929936242992
 10
3.115937769928968
 20
1.181373993624296
 10
3.114642769928968
 20
1.209377993624302
 10
3.110847769928967
 20
1.235271993624307
 10
3.104504769928966
 20
1.259236993624301
 10
3.095705769928969
 20
1.281381993624299
 10
3.084422769928968
 20
1.301637993624295
 10
3.070575769928972
 20
1.320161993624294
 10
3.054248769928966
 20
1.336929993624299
 10
3.03526476992897
 20
1.352027993624297
 10
3.013733769928974
 20
1.365370993624296
 10
2.989437769928968
 20
1.377023993624298
 10
2.962489769928966
 20
1.386944993624299
 10
2.932796769928972
 20
1.395106993624298
 10
2.900426769928965
 20
1.401448993624299
 10
2.865331769928968
 20
1.406035993624299
 10
2.827540769928966
 20
1.408755993624299
 10
2.787004769928967
 20
1.409724993624299
 10
2.746997769928967
 20
1.408736993624298
 10
2.709623769928971
 20
1.405881993624299
 10
2.67494976992897
 20
1.401141993624299
 10
2.642906769928969
 20
1.394515993624299
 10
2.613587769928968
 20
1.386043993624299
 10
2.586941769928968
 20
1.375728993624299
 10
2.562934769928967
 20
1.363614993624298
 10
2.541556769928968
 20
1.349720993624298
 10
2.522835769928969
 20
1.3340079936243
 10
2.506619769928967
 20
1.316515993624298
 10
2.492926769928967
 20
1.297184993624298
 10
2.481666769928969
 20
1.276003993624301
 10
2.472910769928968
 20
1.252873993624298
 10
2.466611769928968
 20
1.227767993624299
 10
2.462815769928969
 20
1.2006659936243
 10
2.461520769928968
 20
1.171385993624293
 10
2.461520769928968
 20
0.4716109936243022
 10
2.462815769928968
 20
0.4422679936243016
 10
2.466611769928968
 20
0.4151659936243018
 10
2.472910769928969
 20
0.3900359936243008
 10
2.481666769928968
 20
0.3669259936243004
 10
2.49292676992897
 20
0.3457049936242983
 10
2.506619769928968
 20
0.3264139936242981
 10
2.522835769928968
 20
0.3089219936242999
 10
2.541556769928967
 20
0.2932519936243009
 10
2.562934769928967
 20
0.2793149936242986
 10
2.586941769928971
 20
0.2672009936242996
 10
2.613587769928969
 20
0.2568859936242989
 10
2.642906769928969
 20
0.2484609936242989
 10
2.674949769928969
 20
0.2418109936242993
 10
2.709623769928969
 20
0.2370909936242992
 10
2.746997769928969
 20
0.2342409936242991
 10
2.787004769928968
 20
0.2332959936242989
 10
2.827540769928968
 20
0.2342169936242988
 10
2.865331769928968
 20
0.2369369936242989
 10
2.900402769928969
 20
0.2414809936242991
 10
2.93279676992897
 20
0.2478899936242992
 10
2.96248976992897
 20
0.2560119936242995
 10
2.989437769928967
 20
0.265952993624299
 10
3.013713769928969
 20
0.2776069936242995
 10
3.035264769928969
 20
0.2909929936243004
 10
3.054248769928968
 20
0.3060479936243
 10
3.070575769928968
 20
0.3228149936242999
 10
3.084422769928969
 20
0.3413149936242993
 10
3.095705769928966
 20
0.3615949936242969
 10
3.10450476992897
 20
0.3836699936243058
 10
3.110847769928967
 20
0.4077009936242958
 10
3.114642769928969
 20
0.4335789936242997
 10
3.115937769928968
 20
0.4616459936242968
 10
3.115937769928968
 20
0.6267479936242993
 10
2.847378769928969
 20
0.6267479936242993
 10
2.847378769928969
 20
0.4629179936243026
 10
2.846591769928968
 20
0.4481699936243009
 10
2.843977769928967
 20
0.4348079936242979
 10
2.839544769928968
 20
0.4230439936242982
 10
2.832985769928969
 20
0.4130359936242999
 10
2.824445769928968
 20
0.4050909936242996
 10
2.814044769928968
 20
0.3994729936242991
 10
2.802213769928968
 20
0.3962249936242989
 10
2.789067769928969
 20
0.3952169936242989
 10
2.775859769928968
 20
0.396224993624299
 10
2.763898769928969
 20
0.3994729936242989
 10
2.753449769928967
 20
0.4050669936242991
 10
2.744737769928968
 20
0.4129929936242993
 10
2.738130769928969
 20
0.4229769936242977
 10
2.733544769928969
 20
0.4347639936242979
 10
2.730910769928969
 20
0.4481499936242983
 10
2.730075769928968
 20
0.4629179936243012
 97
        1
330
832C
 92
       22
 72
     0
 73
     1
 93
       19
 10
2.730075769928968
 20
0.9028309936242989
 10
2.730075769928968
 20
1.179771993624299
 10
2.730910769928968
 20
1.194145993624299
 10
2.733567769928968
 20
1.2072249936243
 10
2.73817476992897
 20
1.2187249936243
 10
2.744823769928968
 20
1.228511993624298
 10
2.753536769928969
 20
1.236192993624299
 10
2.763985769928969
 20
1.241614993624299
 10
2.775878769928969
 20
1.244732993624299
 10
2.789067769928968
 20
1.245740993624298
 10
2.802170769928968
 20
1.244732993624299
 10
2.813957769928968
 20
1.241594993624298
 10
2.824335769928969
 20
1.236149993624298
 10
2.832894769928971
 20
1.228448993624296
 10
2.839500769928969
 20
1.218681993624299
 10
2.843957769928967
 20
1.207181993624303
 10
2.846591769928968
 20
1.194121993624299
 10
2.847378769928969
 20
1.179747993624295
 10
2.847378769928969
 20
0.902830993624299
 97
        1
330
84A3
 75
     0
 76
     1
 47
0.007755
 98
        2
 10
2.627639
 20
0.772296
 10
2.627639
 20
0.772296
  0
LWPOLYLINE
  5
832C
102
{ACAD_REACTORS
330
832B
102
}
330
832A
100
AcDbEntity
  8
WARSTWA_1
  6
CONTINUOUS
 62
    20
100
AcDbPolyline
 90
       87
 70
     1
 43
0.003
 10
3.115938
 20
0.744993
 10
2.730076
 20
0.744993
 10
2.730076
 20
0.462918
 10
2.730911
 20
0.44815
 10
2.733545
 20
0.434764
 10
2.738131
 20
0.422977
 10
2.744738
 20
0.412993
 10
2.75345
 20
0.405067
 10
2.763899
 20
0.399473
 10
2.77586
 20
0.396225
 10
2.789068
 20
0.395217
 10
2.802214
 20
0.396225
 10
2.814045
 20
0.399473
 10
2.824446
 20
0.405091
 10
2.832986
 20
0.413036
 10
2.839545
 20
0.423044
 10
2.843978
 20
0.434808
 10
2.846592
 20
0.44817
 10
2.847379
 20
0.462918
 10
2.847379
 20
0.626748
 10
3.115938
 20
0.626748
 10
3.115938
 20
0.461646
 10
3.114643
 20
0.433579
 10
3.110848
 20
0.407701
 10
3.104505
 20
0.38367
 10
3.095706
 20
0.361595
 10
3.084423
 20
0.341315
 10
3.070576
 20
0.322815
 10
3.054249
 20
0.306048
 10
3.035265
 20
0.290993
 10
3.013714
 20
0.277607
 10
2.989438
 20
0.265953
 10
2.96249
 20
0.256012
 10
2.932797
 20
0.24789
 10
2.900403
 20
0.241481
 10
2.865332
 20
0.236937
 10
2.827541
 20
0.234217
 10
2.787005
 20
0.233296
 10
2.746998
 20
0.234241
 10
2.709624
 20
0.237091
 10
2.67495
 20
0.241811
 10
2.642907
 20
0.248461
 10
2.613588
 20
0.256886
 10
2.586942
 20
0.267201
 10
2.562935
 20
0.279315
 10
2.541557
 20
0.293252
 10
2.522836
 20
0.308922
 10
2.50662
 20
0.326414
 10
2.492927
 20
0.345705
 10
2.481667
 20
0.366926
 10
2.472911
 20
0.390036
 10
2.466612
 20
0.415166
 10
2.462816
 20
0.442268
 10
2.461521
 20
0.471611
 10
2.461521
 20
1.171386
 10
2.462816
 20
1.200666
 10
2.466612
 20
1.227768
 10
2.472911
 20
1.252874
 10
2.481667
 20
1.276004
 10
2.492927
 20
1.297185
 10
2.50662
 20
1.316516
 10
2.522836
 20
1.334008
 10
2.541557
 20
1.349721
 10
2.562935
 20
1.363615
 10
2.586942
 20
1.375729
 10
2.613588
 20
1.386044
 10
2.642907
 20
1.394516
 10
2.67495
 20
1.401142
 10
2.709624
 20
1.405882
 10
2.746998
 20
1.408737
 10
2.787005
 20
1.409725
 10
2.827541
 20
1.408756
 10
2.865332
 20
1.406036
 10
2.900427
 20
1.401449
 10
2.932797
 20
1.395107
 10
2.96249
 20
1.386945
 10
2.989438
 20
1.377024
 10
3.013734
 20
1.365371
 10
3.035265
 20
1.352028
 10
3.054249
 20
1.33693
 10
3.070576
 20
1.320162
 10
3.084423
 20
1.301638
 10
3.095706
 20
1.281382
 10
3.104505
 20
1.259237
 10
3.110848
 20
1.235272
 10
3.114643
 20
1.209378
 10
3.115938
 20
1.181374
  0
HATCH
  5
8385
330
832A
100
AcDbEntity
  8
0
  6
CONTINUOUS
 62
    20
100
AcDbHatch
 10
0.0
 20
0.0
 30
0.0
210
0.0
220
0.0
230
1.0
  2
SOLID
 70
     1
 71
     1
 91
        2
 92
        7
 72
     0
 73
     1
 93
       63
 10
0.2052417699289691
 20
0.7343429936242992
 10
0.205241769928969
 20
0.5793469936242991
 10
0.2259127699289682
 20
0.6091739936242986
 10
0.2484447699289682
 20
0.6369009936242983
 10
0.2727547699289683
 20
0.6625819936242991
 10
0.2987587699289692
 20
0.6862679936242998
 10
0.3263747699289694
 20
0.7080129936242991
 10
0.35552076992897
 20
0.7278669936243003
 10
0.386112769928969
 20
0.7458849936242982
 10
0.4180667699289681
 20
0.7621169936242992
 10
0.4513017699289697
 20
0.7766169936242995
 10
0.4857347699289689
 20
0.7894369936242992
 10
0.5212817699289684
 20
0.8006289936242986
 10
0.55786076992897
 20
0.8102449936242988
 10
0.5953877699289685
 20
0.8183389936242983
 10
0.6337817699289695
 20
0.8249609936242998
 10
0.6729577699289675
 20
0.8301659936242991
 10
0.7070367699289652
 20
0.8326969936242988
 10
0.7416427699289656
 20
0.834551993624299
 10
0.7778907699289652
 20
0.835858993624299
 10
0.8193517699289701
 20
0.838999993624299
 10
0.8599027699289707
 20
0.8447369936242989
 10
0.8989577699289683
 20
0.853236993624299
 10
0.9365167699289676
 20
0.8645589936242988
 10
0.9724307699289685
 20
0.8789649936242987
 10
1.006489769928968
 20
0.8964449936242989
 10
1.038540769928969
 20
0.917133993624299
 10
1.068382769928969
 20
0.9410669936242992
 10
1.095859769928968
 20
0.9682519936242986
 10
1.120745769928969
 20
0.9985559936242999
 10
1.142969769928968
 20
1.031936993624298
 10
1.162457769928969
 20
1.0682719936243
 10
1.179221769928968
 20
1.107598993624298
 10
1.193201769928968
 20
1.1498189936243
 10
1.204504769928968
 20
1.195007993624298
 10
1.213595769928969
 20
1.2459809936243
 10
1.213595769928968
 20
1.539058993624297
 10
1.211528769928968
 20
1.5634809936243
 10
1.204233769928968
 20
1.589082993624299
 10
1.191662769928969
 20
1.613015993624299
 10
1.173780769928968
 20
1.633787993624297
 10
1.151552769928968
 20
1.650299993624299
 10
1.125930769928967
 20
1.661940993624299
 10
1.09798976992897
 20
1.668814993624299
 10
1.069500769928968
 20
1.671070993624298
 10
0.3323637699289676
 20
1.671070993624299
 10
0.3089347699289691
 20
1.670058993624298
 10
0.2842607699289679
 20
1.665421993624298
 10
0.2603047699289684
 20
1.656184993624298
 10
0.2382257699289695
 20
1.641338993624298
 10
0.2202567699289681
 20
1.620988993624298
 10
0.2078357699289688
 20
1.596755993624298
 10
0.2011507699289692
 20
1.570480993624299
 10
0.1992727699289687
 20
1.544712993624299
 10
0.1992727699289687
 20
0.9418079936242991
 10
0.1988317699289689
 20
0.9417449936242984
 10
0.1580877699289691
 20
0.9320829936242988
 10
0.1214817699289682
 20
0.9192839936242995
 10
0.0888787699289694
 20
0.9027089936242993
 10
0.0605757699289691
 20
0.8816419936242992
 10
0.0375917699289686
 20
0.8553229936242988
 10
0.0217337699289693
 20
0.8242209936242989
 10
0.0018677699289688
 20
0.7343429936242992
 97
        1
330
83E9
 92
       22
 72
     0
 73
     1
 93
       95
 10
0.1126277699289688
 20
0.784952993624299
 10
0.0648787699289688
 20
0.784952993624299
 10
0.0725127699289688
 20
0.8137929936242994
 10
0.0894257699289689
 20
0.838652993624299
 10
0.1156197699289689
 20
0.8595359936242996
 10
0.151093769928969
 20
0.8764429936242992
 10
0.1958487699289689
 20
0.8893779936242989
 10
0.2498867699289686
 20
0.8983429936242991
 10
0.2498867699289686
 20
0.9362569936242991
 10
0.2498867699289686
 20
0.9741709936242992
 10
0.2498867699289686
 20
1.012084993624299
 10
0.2498867699289686
 20
1.049998993624298
 10
0.2498867699289686
 20
1.087912993624299
 10
0.2498867699289686
 20
1.125825993624299
 10
0.2498867699289686
 20
1.163739993624299
 10
0.2498867699289686
 20
1.201653993624299
 10
0.2498867699289686
 20
1.239567993624299
 10
0.2498867699289686
 20
1.277480993624299
 10
0.2498867699289686
 20
1.315394993624298
 10
0.2498867699289686
 20
1.353308993624299
 10
0.2498867699289686
 20
1.391222993624298
 10
0.2498867699289686
 20
1.429135993624299
 10
0.2498867699289686
 20
1.467049993624299
 10
0.2498867699289686
 20
1.504963993624299
 10
0.2498867699289686
 20
1.542877993624299
 10
0.259747769928969
 20
1.588047993624299
 10
0.2883307699289686
 20
1.613119993624299
 10
0.3334377699289708
 20
1.620460993624299
 10
0.3701407699289687
 20
1.620460993624299
 10
0.4068437699289689
 20
1.620460993624299
 10
0.4435467699289691
 20
1.620460993624299
 10
0.4802497699289688
 20
1.620460993624299
 10
0.5169517699289689
 20
1.620460993624299
 10
0.5536547699289689
 20
1.620460993624299
 10
0.590357769928969
 20
1.620460993624299
 10
0.6270607699289688
 20
1.620460993624299
 10
0.6637637699289689
 20
1.620460993624299
 10
0.7004667699289691
 20
1.620460993624299
 10
0.7371687699289687
 20
1.620460993624299
 10
0.7738717699289688
 20
1.620460993624299
 10
0.810574769928969
 20
1.620460993624299
 10
0.8472777699289686
 20
1.620460993624299
 10
0.8839807699289687
 20
1.620460993624299
 10
0.9206847699289685
 20
1.620460993624299
 10
0.9573877699289688
 20
1.620460993624299
 10
0.9940907699289688
 20
1.620460993624299
 10
1.030793769928968
 20
1.620460993624299
 10
1.067497769928968
 20
1.620460993624299
 10
1.120514769928968
 20
1.609202993624299
 10
1.152336769928968
 20
1.579813993624298
 10
1.162981769928968
 20
1.536909993624299
 10
1.162981769928968
 20
1.495987993624298
 10
1.162981769928968
 20
1.455064993624299
 10
1.162981769928968
 20
1.414142993624299
 10
1.162981769928968
 20
1.373218993624299
 10
1.162981769928968
 20
1.332295993624299
 10
1.162981769928968
 20
1.291372993624298
 10
1.162981769928968
 20
1.250448993624298
 10
1.155494769928969
 20
1.2081139936243
 10
1.145890769928968
 20
1.168666993624301
 10
1.134209769928969
 20
1.132052993624299
 10
1.120492769928969
 20
1.0982179936243
 10
1.104779769928968
 20
1.067106993624299
 10
1.087109769928967
 20
1.038665993624297
 10
1.067522769928968
 20
1.012840993624299
 10
1.046059769928968
 20
0.9895749936242989
 10
1.022760769928969
 20
0.9688159936242993
 10
0.9976657699289688
 20
0.9505079936242989
 10
0.970813769928969
 20
0.934596993624299
 10
0.9422457699289681
 20
0.9210279936242988
 10
0.9120017699289691
 20
0.909747993624299
 10
0.8801207699289673
 20
0.9006999936242991
 10
0.8466447699289696
 20
0.893830993624299
 10
0.8116127699289668
 20
0.8890859936242994
 10
0.7750637699289717
 20
0.886409993624299
 10
0.7369467699289645
 20
0.8849829936242983
 10
0.6990517699289603
 20
0.8828839936242991
 10
0.6614427699289709
 20
0.8799239936242996
 10
0.6241847699289681
 20
0.8759089936242995
 10
0.587340769928967
 20
0.8706489936242983
 10
0.5509767699289682
 20
0.8639519936242992
 10
0.5151557699289703
 20
0.8556249936242991
 10
0.4799417699289677
 20
0.8454779936242994
 10
0.445400769928969
 20
0.8333189936242991
 10
0.411594769928968
 20
0.8189549936242994
 10
0.3785897699289693
 20
0.8021959936243
 10
0.3464487699289693
 20
0.7828499936242987
 10
0.315236769928968
 20
0.7607249936242987
 10
0.285017769928969
 20
0.7356289936242996
 10
0.255855769928969
 20
0.707370993624299
 10
0.255855769928969
 20
0.7332259936242989
 10
0.255855769928969
 20
0.759084993624299
 10
0.255855769928969
 20
0.784952993624299
 10
0.2081177699289687
 20
0.784952993624299
 10
0.1603747699289686
 20
0.784952993624299
 97
        1
330
8387
 75
     0
 76
     1
 47
0.007755
 98
        2
 10
0.112883
 20
0.76454
 10
0.112883
 20
0.76454
  0
HATCH
  5
8386
330
832A
100
AcDbEntity
  8
0
  6
CONTINUOUS
 62
    20
100
AcDbHatch
 10
0.0
 20
0.0
 30
0.0
210
0.0
220
0.0
230
1.0
  2
SOLID
 70
     1
 71
     1
 91
        1
 92
        7
 72
     0
 73
     1
 93
       68
 10
1.225063769928968
 20
0.731850993624299
 10
1.225508769928968
 20
0.731917993624299
 10
1.225867769928968
 20
0.789220993624299
 10
1.251944769928969
 20
0.7949229936242992
 10
1.27765576992897
 20
0.8028549936242995
 10
1.302859769928969
 20
0.811614993624299
 10
1.342716769928968
 20
0.8349759936242984
 10
1.370579769928968
 20
0.8587859936242995
 10
1.389481769928969
 20
0.8850969936242993
 10
1.402456769928968
 20
0.9159629936242982
 10
1.412536769928969
 20
0.9534359936243072
 10
1.422756769928968
 20
0.9995669936242988
 10
1.216666769928969
 20
0.9995669936242991
 10
1.216579769928968
 20
0.9992639936242999
 10
1.216567769928968
 20
0.9995669936242988
 10
1.195471769928968
 20
0.9613549936242985
 10
1.172984769928967
 20
0.927359993624298
 10
1.149186769928969
 20
0.8973189936242995
 10
1.12415476992897
 20
0.8709699936243
 10
1.097967769928969
 20
0.8480499936243001
 10
1.070703769928968
 20
0.8282979936242991
 10
1.042441769928968
 20
0.8114499936242987
 10
1.013258769928969
 20
0.7972449936242987
 10
0.983233769928969
 20
0.7854199936242989
 10
0.9524447699289676
 20
0.7757139936242985
 10
0.9209707699289669
 20
0.7678619936242985
 10
0.888889769928968
 20
0.7616039936242986
 10
0.8562797699289662
 20
0.7566769936242989
 10
0.8232187699289658
 20
0.7528189936242985
 10
0.789785769928966
 20
0.7497669936242981
 10
0.7560587699289674
 20
0.7472589936242992
 10
0.7221157699289652
 20
0.745031993624299
 10
0.6921567699289719
 20
0.7426069936242997
 10
0.6615577699289698
 20
0.7390369936242989
 10
0.6304717699289667
 20
0.7342119936242982
 10
0.5990537699289699
 20
0.7280269936242993
 10
0.5674577699289707
 20
0.7203729936242994
 10
0.5358377699289684
 20
0.7111439936242988
 10
0.5043497699289701
 20
0.7002309936242999
 10
0.473145769928969
 20
0.6875279936242992
 10
0.4423817699289684
 20
0.6729269936242993
 10
0.412211769928968
 20
0.6563199936242982
 10
0.3827897699289692
 20
0.6376009936243
 10
0.3542707699289679
 20
0.6166619936242986
 10
0.3268077699289688
 20
0.5933949936242989
 10
0.3005567699289693
 20
0.5676929936242998
 10
0.2756707699289691
 20
0.5394489936242995
 10
0.2523047699289687
 20
0.5085559936242993
 10
0.2306127699289689
 20
0.4749049936242995
 10
0.2107487699289691
 20
0.4383899936242988
 10
0.2107487699289692
 20
0.1345949936242981
 10
0.2128117699289689
 20
0.110177993624299
 10
0.2201077699289692
 20
0.0845749936242992
 10
0.2326747699289689
 20
0.0606419936242987
 10
0.2505607699289685
 20
0.039873993624299
 10
0.2727887699289689
 20
0.0233589936242992
 10
0.2984107699289688
 20
0.0117169936242991
 10
0.3263517699289688
 20
0.0048429936242993
 10
0.3548397699289691
 20
0.0025869936242993
 10
1.091977769928968
 20
0.0025869936242993
 10
1.115406769928968
 20
0.0036029936242992
 10
1.140083769928968
 20
0.0082369936242989
 10
1.164040769928969
 20
0.0174769936242991
 10
1.186119769928968
 20
0.0323229936242989
 10
1.204083769928969
 20
0.0526739936242984
 10
1.216504769928968
 20
0.0769019936242993
 10
1.223189769928968
 20
0.1031779936242981
 10
1.225063769928968
 20
0.1289449936243001
 97
        1
330
842A
 75
     0
 76
     1
 47
0.007755
 98
        1
 10
1.090843
 20
0.586165
  0
LWPOLYLINE
  5
8387
102
{ACAD_REACTORS
330
8385
102
}
330
832A
100
AcDbEntity
  8
WARSTWA_1
  6
CONTINUOUS
 62
    20
100
AcDbPolyline
 90
       96
 70
     1
 43
0.003
 10
0.255856
 20
0.707371
 10
0.255856
 20
0.733226
 10
0.255856
 20
0.759085
 10
0.255856
 20
0.784953
 10
0.208118
 20
0.784953
 10
0.160375
 20
0.784953
 10
0.112628
 20
0.784953
 10
0.064879
 20
0.784953
 10
0.072513
 20
0.813793
 10
0.089426
 20
0.838653
 10
0.11562
 20
0.859536
 10
0.151094
 20
0.876443
 10
0.195849
 20
0.889378
 10
0.249887
 20
0.898343
 10
0.249887
 20
0.936257
 10
0.249887
 20
0.974171
 10
0.249887
 20
1.012085
 10
0.249887
 20
1.049999
 10
0.249887
 20
1.087913
 10
0.249887
 20
1.125826
 10
0.249887
 20
1.16374
 10
0.249887
 20
1.201654
 10
0.249887
 20
1.239568
 10
0.249887
 20
1.277481
 10
0.249887
 20
1.315395
 10
0.249887
 20
1.353309
 10
0.249887
 20
1.391223
 10
0.249887
 20
1.429136
 10
0.249887
 20
1.46705
 10
0.249887
 20
1.504964
 10
0.249887
 20
1.542878
 10
0.259748
 20
1.588048
 10
0.288331
 20
1.61312
 10
0.333438
 20
1.620461
 10
0.370141
 20
1.620461
 10
0.406844
 20
1.620461
 10
0.443547
 20
1.620461
 10
0.48025
 20
1.620461
 10
0.516952
 20
1.620461
 10
0.553655
 20
1.620461
 10
0.590358
 20
1.620461
 10
0.627061
 20
1.620461
 10
0.663764
 20
1.620461
 10
0.700467
 20
1.620461
 10
0.737169
 20
1.620461
 10
0.773872
 20
1.620461
 10
0.810575
 20
1.620461
 10
0.847278
 20
1.620461
 10
0.883981
 20
1.620461
 10
0.920685
 20
1.620461
 10
0.957388
 20
1.620461
 10
0.994091
 20
1.620461
 10
1.030794
 20
1.620461
 10
1.067498
 20
1.620461
 10
1.067498
 20
1.620461
 10
1.120515
 20
1.609203
 10
1.152337
 20
1.579814
 10
1.162982
 20
1.53691
 10
1.162982
 20
1.495988
 10
1.162982
 20
1.455065
 10
1.162982
 20
1.414143
 10
1.162982
 20
1.373219
 10
1.162982
 20
1.332296
 10
1.162982
 20
1.291373
 10
1.162982
 20
1.250449
 10
1.155495
 20
1.208114
 10
1.145891
 20
1.168667
 10
1.13421
 20
1.132053
 10
1.120493
 20
1.098218
 10
1.10478
 20
1.067107
 10
1.08711
 20
1.038666
 10
1.067523
 20
1.012841
 10
1.04606
 20
0.989575
 10
1.022761
 20
0.968816
 10
0.997666
 20
0.950508
 10
0.970814
 20
0.934597
 10
0.942246
 20
0.921028
 10
0.912002
 20
0.909748
 10
0.880121
 20
0.9007
 10
0.846645
 20
0.893831
 10
0.811613
 20
0.889086
 10
0.775064
 20
0.88641
 10
0.736947
 20
0.884983
 10
0.699052
 20
0.882884
 10
0.661443
 20
0.879924
 10
0.624185
 20
0.875909
 10
0.587341
 20
0.870649
 10
0.550977
 20
0.863952
 10
0.515156
 20
0.855625
 10
0.479942
 20
0.845478
 10
0.445401
 20
0.833319
 10
0.411595
 20
0.818955
 10
0.37859
 20
0.802196
 10
0.346449
 20
0.78285
 10
0.315237
 20
0.760725
 10
0.285018
 20
0.735629
  0
LWPOLYLINE
  5
83E9
102
{ACAD_REACTORS
330
8385
102
}
330
832A
100
AcDbEntity
  8
WARSTWA_1
  6
CONTINUOUS
 62
    20
100
AcDbPolyline
 90
       63
 70
     1
 43
0.003
 10
0.205242
 20
0.579347
 10
0.205242
 20
0.734343
 10
0.001868
 20
0.734343
 10
0.021734
 20
0.824221
 10
0.037592
 20
0.855323
 10
0.060576
 20
0.881642
 10
0.088879
 20
0.902709
 10
0.121482
 20
0.919284
 10
0.158088
 20
0.932083
 10
0.198832
 20
0.941745
 10
0.199273
 20
0.941808
 10
0.199273
 20
1.544713
 10
0.201151
 20
1.570481
 10
0.207836
 20
1.596756
 10
0.220257
 20
1.620989
 10
0.238226
 20
1.641339
 10
0.260305
 20
1.656185
 10
0.284261
 20
1.665422
 10
0.308935
 20
1.670059
 10
0.332364
 20
1.671071
 10
1.069501
 20
1.671071
 10
1.09799
 20
1.668815
 10
1.125931
 20
1.661941
 10
1.151553
 20
1.6503
 10
1.173781
 20
1.633788
 10
1.191663
 20
1.613016
 10
1.204234
 20
1.589083
 10
1.211529
 20
1.563481
 10
1.213596
 20
1.539059
 10
1.213596
 20
1.245981
 10
1.204505
 20
1.195008
 10
1.193202
 20
1.149819
 10
1.179222
 20
1.107599
 10
1.162458
 20
1.068272
 10
1.14297
 20
1.031937
 10
1.120746
 20
0.998556
 10
1.09586
 20
0.968252
 10
1.068383
 20
0.941067
 10
1.038541
 20
0.917134
 10
1.00649
 20
0.896445
 10
0.972431
 20
0.878965
 10
0.936517
 20
0.864559
 10
0.898958
 20
0.853237
 10
0.859903
 20
0.844737
 10
0.819352
 20
0.839
 10
0.777891
 20
0.835859
 10
0.741643
 20
0.834552
 10
0.707037
 20
0.832697
 10
0.672958
 20
0.830166
 10
0.633782
 20
0.824961
 10
0.595388
 20
0.818339
 10
0.557861
 20
0.810245
 10
0.521282
 20
0.800629
 10
0.485735
 20
0.789437
 10
0.451302
 20
0.776617
 10
0.418067
 20
0.762117
 10
0.386113
 20
0.745885
 10
0.355521
 20
0.727867
 10
0.326375
 20
0.708013
 10
0.298759
 20
0.686268
 10
0.272755
 20
0.662582
 10
0.248445
 20
0.636901
 10
0.225913
 20
0.609174
  0
LWPOLYLINE
  5
842A
102
{ACAD_REACTORS
330
8386
102
}
330
832A
100
AcDbEntity
  8
WARSTWA_1
  6
CONTINUOUS
 62
    20
100
AcDbPolyline
 90
       68
 70
     1
 43
0.003
 10
1.21658
 20
0.999264
 10
1.216667
 20
0.999567
 10
1.422757
 20
0.999567
 10
1.412537
 20
0.953436
 10
1.402457
 20
0.915963
 10
1.389482
 20
0.885097
 10
1.37058
 20
0.858786
 10
1.342717
 20
0.834976
 10
1.30286
 20
0.811615
 10
1.277656
 20
0.802855
 10
1.251945
 20
0.794923
 10
1.225868
 20
0.789221
 10
1.225509
 20
0.731918
 10
1.225064
 20
0.731851
 10
1.225064
 20
0.128945
 10
1.22319
 20
0.103178
 10
1.216505
 20
0.076902
 10
1.204084
 20
0.052674
 10
1.18612
 20
0.032323
 10
1.164041
 20
0.017477
 10
1.140084
 20
0.008237
 10
1.115407
 20
0.003603
 10
1.091978
 20
0.002587
 10
0.35484
 20
0.002587
 10
0.326352
 20
0.004843
 10
0.298411
 20
0.011717
 10
0.272789
 20
0.023359
 10
0.250561
 20
0.039874
 10
0.232675
 20
0.060642
 10
0.220108
 20
0.084575
 10
0.212812
 20
0.110178
 10
0.210749
 20
0.134595
 10
0.210749
 20
0.43839
 10
0.230613
 20
0.474905
 10
0.252305
 20
0.508556
 10
0.275671
 20
0.539449
 10
0.300557
 20
0.567693
 10
0.326808
 20
0.593395
 10
0.354271
 20
0.616662
 10
0.38279
 20
0.637601
 10
0.412212
 20
0.65632
 10
0.442382
 20
0.672927
 10
0.473146
 20
0.687528
 10
0.50435
 20
0.700231
 10
0.535838
 20
0.711144
 10
0.567458
 20
0.720373
 10
0.599054
 20
0.728027
 10
0.630472
 20
0.734212
 10
0.661558
 20
0.739037
 10
0.692157
 20
0.742607
 10
0.722116
 20
0.745032
 10
0.756059
 20
0.747259
 10
0.789786
 20
0.749767
 10
0.823219
 20
0.752819
 10
0.85628
 20
0.756677
 10
0.88889
 20
0.761604
 10
0.920971
 20
0.767862
 10
0.952445
 20
0.775714
 10
0.983234
 20
0.78542
 10
1.013259
 20
0.797245
 10
1.042442
 20
0.81145
 10
1.070704
 20
0.828298
 10
1.097968
 20
0.84805
 10
1.124155
 20
0.87097
 10
1.149187
 20
0.897319
 10
1.172985
 20
0.92736
 10
1.195472
 20
0.961355
 10
1.216568
 20
0.999567
  0
HATCH
  5
8470
330
832A
100
AcDbEntity
  8
0
  6
CONTINUOUS
 62
    20
100
AcDbHatch
 10
0.0
 20
0.0
 30
0.0
210
0.0
220
0.0
230
1.0
  2
SOLID
 70
     1
 71
     1
 91
        1
 92
        7
 72
     0
 73
     1
 93
       48
 10
1.972209769928968
 20
1.181854993624299
 10
1.973067769928969
 20
1.194846993624298
 10
1.975701769928969
 20
1.206854993624298
 10
1.980331769928969
 20
1.2173859936243
 10
1.986981769928969
 20
1.226362993624299
 10
1.995626769928968
 20
1.233342993624298
 10
2.005898769928968
 20
1.238236993624298
 10
2.017575769928969
 20
1.241023993624299
 10
2.030500769928966
 20
1.241944993624298
 10
2.04342676992897
 20
1.240980993624298
 10
2.055036769928969
 20
1.238058993624298
 10
2.065331769928968
 20
1.232944993624299
 10
2.073867769928969
 20
1.225704993624299
 10
2.080493769928969
 20
1.216440993624299
 10
2.085016769928969
 20
1.205578993624299
 10
2.087650769928968
 20
1.193244993624297
 10
2.088461769928969
 20
1.179771993624297
 10
2.088461769928969
 20
0.9344769936242993
 10
2.358052769928968
 20
0.9344769936242993
 10
2.358052769928968
 20
1.251842993624308
 10
2.357174769928968
 20
1.2693549936243
 10
2.354453769928968
 20
1.285684993624301
 10
2.349997769928968
 20
1.3011109936243
 10
2.343721769928968
 20
1.315641993624298
 10
2.335686769928968
 20
1.329310993624299
 10
2.325835769928969
 20
1.342216993624303
 10
2.314071769928966
 20
1.354354993624298
 10
2.300355769928969
 20
1.365720993624299
 10
2.28520976992897
 20
1.375905993624296
 10
2.269300769928968
 20
1.384814993624298
 10
2.252709769928967
 20
1.392362993624298
 10
2.235371769928965
 20
1.398574993624299
 10
2.217331769928962
 20
1.4034019936243
 10
2.198457769928968
 20
1.406893993624299
 10
2.178878769928968
 20
1.408999993624299
 10
2.158382769928967
 20
1.409724993624299
 10
2.129894769928965
 20
1.408956993624299
 10
2.103363769928966
 20
1.406759993624298
 10
2.07887176992897
 20
1.403118993624299
 10
2.05641876992897
 20
1.3981149936243
 10
2.03600876992897
 20
1.391661993624298
 10
2.017595769928969
 20
1.383893993624299
 10
2.001134769928968
 20
1.374720993624299
 10
1.972209769928968
 20
1.353936993624298
 10
1.972209769928968
 20
1.401472993624299
 10
1.702599769928968
 20
1.401472993624298
 10
1.702599769928968
 20
0.2494489936242989
 10
1.972209769928969
 20
0.249448993624299
 97
        1
330
8471
 75
     0
 76
     1
 47
0.007755
 98
        1
 10
1.874764
 20
1.067003
  0
LWPOLYLINE
  5
8471
102
{ACAD_REACTORS
330
8470
102
}
330
832A
100
AcDbEntity
  8
WARSTWA_1
  6
CONTINUOUS
 62
    20
100
AcDbPolyline
 90
       48
 70
     1
 43
0.003
 10
2.358053
 20
0.934477
 10
2.088462
 20
0.934477
 10
2.088462
 20
1.179772
 10
2.087651
 20
1.193245
 10
2.085017
 20
1.205579
 10
2.080494
 20
1.216441
 10
2.073868
 20
1.225705
 10
2.065332
 20
1.232945
 10
2.055037
 20
1.238059
 10
2.043427
 20
1.240981
 10
2.030501
 20
1.241945
 10
2.017576
 20
1.241024
 10
2.005899
 20
1.238237
 10
1.995627
 20
1.233343
 10
1.986982
 20
1.226363
 10
1.980332
 20
1.217386
 10
1.975702
 20
1.206855
 10
1.973068
 20
1.194847
 10
1.97221
 20
1.181855
 10
1.97221
 20
0.249449
 10
1.7026
 20
0.249449
 10
1.7026
 20
1.401473
 10
1.97221
 20
1.401473
 10
1.97221
 20
1.353937
 10
2.001135
 20
1.374721
 10
2.017596
 20
1.383894
 10
2.036009
 20
1.391662
 10
2.056419
 20
1.398115
 10
2.078872
 20
1.403119
 10
2.103364
 20
1.40676
 10
2.129895
 20
1.408957
 10
2.158383
 20
1.409725
 10
2.178879
 20
1.409
 10
2.198458
 20
1.406894
 10
2.217332
 20
1.403402
 10
2.235372
 20
1.398575
 10
2.25271
 20
1.392363
 10
2.269301
 20
1.384815
 10
2.28521
 20
1.375906
 10
2.300356
 20
1.365721
 10
2.314072
 20
1.354355
 10
2.325836
 20
1.342217
 10
2.335687
 20
1.329311
 10
2.343722
 20
1.315642
 10
2.349998
 20
1.301111
 10
2.354454
 20
1.285685
 10
2.357175
 20
1.269355
 10
2.358053
 20
1.251843
  0
LWPOLYLINE
  5
84A3
102
{ACAD_REACTORS
330
832B
102
}
330
832A
100
AcDbEntity
  8
WARSTWA_1
  6
CONTINUOUS
 62
    20
100
AcDbPolyline
 90
       19
 70
     1
 43
0.003
 10
2.847379
 20
0.902831
 10
2.847379
 20
1.179748
 10
2.846592
 20
1.194122
 10
2.843958
 20
1.207182
 10
2.839501
 20
1.218682
 10
2.832895
 20
1.228449
 10
2.824336
 20
1.23615
 10
2.813958
 20
1.241595
 10
2.802171
 20
1.244733
 10
2.789068
 20
1.245741
 10
2.775879
 20
1.244733
 10
2.763986
 20
1.241615
 10
2.753537
 20
1.236193
 10
2.744824
 20
1.228512
 10
2.738175
 20
1.218725
 10
2.733568
 20
1.207225
 10
2.730911
 20
1.194146
 10
2.730076
 20
1.179772
 10
2.730076
 20
0.902831
  0
LWPOLYLINE
  5
84B8
330
832A
100
AcDbEntity
  8
WARSTWA_1
  6
CONTINUOUS
 62
    20
100
AcDbPolyline
 90
        4
 70
     1
 43
0.003
 10
5.410466
 20
0.249449
 10
5.140875
 20
0.249449
 10
5.140875
 20
1.672811
 10
5.410466
 20
1.672811
  0
SOLID
  5
84BE
330
832A
100
AcDbEntity
  8
WARSTWA_1
  6
CONTINUOUS
 62
    20
100
AcDbTrace
 10
5.410466
 20
0.249449
 30
0.0
 11
5.140875
 21
0.249449
 31
0.0
 12
5.410466
 22
1.672811
 32
0.0
 13
5.140875
 23
1.672811
 33
0.0
  0
HATCH
  5
84BF
330
832A
100
AcDbEntity
  8
0
  6
CONTINUOUS
 62
    20
100
AcDbHatch
 10
0.0
 20
0.0
 30
0.0
210
0.0
220
0.0
230
1.0
  2
SOLID
 70
     1
 71
     1
 91
        2
 92
        7
 72
     0
 73
     1
 93
       66
 10
4.375087769928969
 20
0.4716109936242766
 10
4.376426769928967
 20
0.4422919936243003
 10
4.380308769928968
 20
0.4151849936243043
 10
4.386760769928969
 20
0.3900789936242974
 10
4.395670769928966
 20
0.3669929936243017
 10
4.407150769928968
 20
0.3457719936242957
 10
4.421130769928968
 20
0.3264809936242983
 10
4.437721769928966
 20
0.3089649936242992
 10
4.456859769928969
 20
0.2933189936243026
 10
4.47873776992897
 20
0.2793629936242996
 10
4.503276769928964
 20
0.2672249936242996
 10
4.530532769928971
 20
0.2569099936242995
 10
4.560489769928967
 20
0.248460993624299
 10
4.593233769928969
 20
0.241830993624299
 10
4.62869776992897
 20
0.237090993624299
 10
4.66693076992897
 20
0.234240993624299
 10
4.707792769928969
 20
0.2332959936242989
 10
4.747713769928967
 20
0.2342169936242988
 10
4.78491476992897
 20
0.236936993624299
 10
4.819477769928967
 20
0.2414809936242988
 10
4.851323769928969
 20
0.2478669936242991
 10
4.88053276992897
 20
0.2560119936242997
 10
4.907044769928968
 20
0.2659299936242982
 10
4.930922769928969
 20
0.2775829936242991
 10
4.952146769928968
 20
0.2909489936243006
 10
4.97084376992897
 20
0.3060039936242979
 10
4.986930769928972
 20
0.3227719936242993
 10
5.000536769928968
 20
0.3412719936243
 10
5.011642769928967
 20
0.361551993624297
 10
5.020355769928968
 20
0.3836499936243034
 10
5.02656376992897
 20
0.4076819936243045
 10
5.030319769928969
 20
0.433578993624301
 10
5.031567769928969
 20
0.4616459936243008
 10
5.031567769928969
 20
1.181350993624298
 10
5.030075769928968
 20
1.210102993624298
 10
5.025532769928969
 20
1.236499993624292
 10
5.018095769928968
 20
1.260818993624295
 10
5.007646769928971
 20
1.2831149936243
 10
4.994304769928969
 20
1.303417993624299
 10
4.97788676992897
 20
1.321917993624297
 10
4.958465769928967
 20
1.338574993624299
 10
4.935815769928963
 20
1.353496993624299
 10
4.910863769928979
 20
1.366555993624298
 10
4.884811769928976
 20
1.377968993624298
 10
4.857819769928969
 20
1.387621993624299
 10
4.82981576992897
 20
1.3955669936243
 10
4.800847769928968
 20
1.401712993624298
 10
4.770847769928965
 20
1.406169993624299
 10
4.739835769928964
 20
1.408803993624298
 10
4.707772769928968
 20
1.409724993624299
 10
4.666930769928965
 20
1.408736993624298
 10
4.62872176992897
 20
1.405881993624299
 10
4.59323376992897
 20
1.401121993624299
 10
4.560489769928969
 20
1.394515993624299
 10
4.530556769928966
 20
1.386019993624298
 10
4.503276769928969
 20
1.375708993624298
 10
4.478717769928973
 20
1.3635709936243
 10
4.456859769928966
 20
1.349677993624297
 10
4.437721769928968
 20
1.333944993624298
 10
4.42115076992897
 20
1.316452993624299
 10
4.40715076992897
 20
1.297118993624299
 10
4.395670769928967
 20
1.275940993624297
 10
4.38676076992897
 20
1.252830993624296
 10
4.380308769928969
 20
1.227744993624298
 10
4.376426769928968
 20
1.200641993624297
 10
4.375087769928969
 20
1.171385993624287
 97
        1
330
84C1
 92
       22
 72
     0
 73
     1
 93
       34
 10
4.644674769928968
 20
1.179771993624302
 10
4.645508769928968
 20
1.194145993624303
 10
4.648166769928968
 20
1.207224993624298
 10
4.652772769928966
 20
1.218747993624299
 10
4.659469769928969
 20
1.228535993624298
 10
4.668225769928969
 20
1.236192993624298
 10
4.678737769928968
 20
1.241614993624299
 10
4.690717769928969
 20
1.244732993624299
 10
4.704020769928966
 20
1.245740993624298
 10
4.717012769928969
 20
1.244732993624299
 10
4.728709769928967
 20
1.2415949936243
 10
4.73902476992897
 20
1.236129993624297
 10
4.747540769928972
 20
1.228448993624298
 10
4.754099769928966
 20
1.218661993624302
 10
4.758556769928969
 20
1.207161993624295
 10
4.76116676992897
 20
1.194102993624288
 10
4.76195776992897
 20
1.179747993624284
 10
4.76195776992897
 20
0.4629179936242934
 10
4.761166769928969
 20
0.4481699936243022
 10
4.758575769928969
 20
0.4348269936242979
 10
4.754142769928969
 20
0.4230439936242992
 10
4.747626769928968
 20
0.4130589936243006
 10
4.739134769928968
 20
0.405114993624299
 10
4.728796769928971
 20
0.3994969936242991
 10
4.717056769928968
 20
0.396224993624299
 10
4.704020769928968
 20
0.3952169936242988
 10
4.690674769928969
 20
0.3962249936242989
 10
4.678650769928969
 20
0.3994489936242989
 10
4.668115769928967
 20
0.4050479936242994
 10
4.659402769928968
 20
0.4129689936242993
 10
4.65272976992897
 20
0.4229769936243013
 10
4.648142769928969
 20
0.4347639936242983
 10
4.645508769928969
 20
0.4481499936243
 10
4.644674769928968
 20
0.462917993624288
 97
        1
330
8505
 75
     0
 76
     1
 47
0.007755
 98
        2
 10
4.476443
 20
0.725763
 10
4.476443
 20
0.725763
  0
HATCH
  5
84C0
330
832A
100
AcDbEntity
  8
0
  6
CONTINUOUS
 62
    20
100
AcDbHatch
 10
0.0
 20
0.0
 30
0.0
210
0.0
220
0.0
230
1.0
  2
SOLID
 70
     1
 71
     1
 91
        2
 92
        7
 72
     0
 73
     1
 93
       46
 10
4.268874769928968
 20
1.226712993624292
 10
4.264297769928967
 20
1.258533993624303
 10
4.254660769928968
 20
1.287669993624304
 10
4.240488769928966
 20
1.314010993624302
 10
4.222307769928969
 20
1.337444993624298
 10
4.200643769928964
 20
1.357860993624301
 10
4.176022769928967
 20
1.375147993624301
 10
4.148968769928968
 20
1.389193993624298
 10
4.120007769928969
 20
1.399888993624299
 10
4.089665769928966
 20
1.407119993624299
 10
4.058468769928972
 20
1.410777993624299
 10
4.026940769928968
 20
1.410749993624299
 10
3.995609769928968
 20
1.406924993624299
 10
3.964998769928969
 20
1.399191993624299
 10
3.935634769928969
 20
1.387439993624299
 10
3.908042769928971
 20
1.371557993624301
 10
3.882748769928969
 20
1.351433993624298
 10
3.882374769928968
 20
1.401472993624298
 10
3.614453769928968
 20
1.401472993624298
 10
3.614453769928968
 20
0.0014999936242992
 10
3.883012769928968
 20
0.0014999936242992
 10
3.883012769928969
 20
0.2840589936242988
 10
3.911741769928968
 20
0.2652919936242983
 10
3.928398769928966
 20
0.2569099936243001
 10
3.947032769928965
 20
0.249755993624299
 10
3.967638769928965
 20
0.2438739936242994
 10
3.990288769928969
 20
0.239244993624299
 10
4.014867769928968
 20
0.2359529936242992
 10
4.041445769928969
 20
0.2339529936242993
 10
4.069886769928968
 20
0.2332959936242989
 10
4.090626769928968
 20
0.2339529936242993
 10
4.110489769928968
 20
0.2359729936242993
 10
4.129469769928967
 20
0.2393079936242987
 10
4.147619769928968
 20
0.2439849936242992
 10
4.164914769928966
 20
0.2499529936242991
 10
4.181394769928971
 20
0.2573039936242988
 10
4.197067769928971
 20
0.2659529936243005
 10
4.211902769928967
 20
0.2759369936242975
 10
4.225398769928967
 20
0.2869099936242981
 10
4.23698576992897
 20
0.2986299936242997
 10
4.246729769928967
 20
0.3111619936242992
 10
4.254674769928966
 20
0.324503993624297
 10
4.260863769928969
 20
0.3386579936243048
 10
4.265296769928967
 20
0.3537599936242921
 10
4.267997769928969
 20
0.3697799936243013
 10
4.268874769928968
 20
0.3870519936243079
 97
        1
330
8529
 92
       22
 72
     0
 73
     1
 93
       34
 10
4.000315769928969
 20
0.459121993624299
 10
3.999504769928968
 20
0.4455829936242994
 10
3.996847769928967
 20
0.4332479936242941
 10
3.99230876992897
 20
0.4223389936243008
 10
3.985658769928969
 20
0.4131459936243
 10
3.977075769928968
 20
0.4058389936242993
 10
3.966717769928968
 20
0.4007679936242993
 10
3.955020769928969
 20
0.3978469936242988
 10
3.942004769928968
 20
0.3969489936242989
 10
3.928969769928968
 20
0.3978269936242991
 10
3.917205769928966
 20
0.4005909936242991
 10
3.906823769928968
 20
0.4054409936242998
 10
3.898048769928968
 20
0.4124409936242979
 10
3.891288769928968
 20
0.4213549936243003
 10
3.886591769928967
 20
0.4319529936242988
 10
3.883871769928967
 20
0.4439369936243022
 10
3.883012769928969
 20
0.4570399936242908
 10
3.883012769928969
 20
1.183917993624302
 10
3.883871769928968
 20
1.1973939936243
 10
3.886548769928968
 20
1.209728993624298
 10
3.891245769928967
 20
1.220566993624296
 10
3.897957769928968
 20
1.229763993624298
 10
3.906737769928968
 20
1.236940993624298
 10
3.917138769928969
 20
1.241944993624298
 10
3.928926769928969
 20
1.244818993624299
 10
3.942004769928968
 20
1.245740993624299
 10
3.955020769928969
 20
1.244818993624299
 10
3.966693769928969
 20
1.241921993624299
 10
3.977032769928968
 20
1.236897993624296
 10
3.985634769928967
 20
1.229720993624299
 10
3.992308769928969
 20
1.220503993624297
 10
3.996847769928968
 20
1.209684993624299
 10
3.999504769928968
 20
1.197350993624301
 10
4.000315769928969
 20
1.183897993624303
 97
        1
330
8559
 75
     0
 76
     1
 47
0.007755
 98
        2
 10
4.096125
 20
0.741274
 10
4.096125
 20
0.741274
  0
LWPOLYLINE
  5
84C1
102
{ACAD_REACTORS
330
84BF
102
}
330
832A
100
AcDbEntity
  8
WARSTWA_1
  6
CONTINUOUS
 62
    20
100
AcDbPolyline
 90
       66
 70
     1
 43
0.003
 10
4.375088
 20
0.471611
 10
4.375088
 20
1.171386
 10
4.376427
 20
1.200642
 10
4.380309
 20
1.227745
 10
4.386761
 20
1.252831
 10
4.395671
 20
1.275941
 10
4.407151
 20
1.297119
 10
4.421151
 20
1.316453
 10
4.437722
 20
1.333945
 10
4.45686
 20
1.349678
 10
4.478718
 20
1.363571
 10
4.503277
 20
1.375709
 10
4.530557
 20
1.38602
 10
4.56049
 20
1.394516
 10
4.593234
 20
1.401122
 10
4.628722
 20
1.405882
 10
4.666931
 20
1.408737
 10
4.707773
 20
1.409725
 10
4.739836
 20
1.408804
 10
4.770848
 20
1.40617
 10
4.800848
 20
1.401713
 10
4.829816
 20
1.395567
 10
4.85782
 20
1.387622
 10
4.884812
 20
1.377969
 10
4.910864
 20
1.366556
 10
4.935816
 20
1.353497
 10
4.958466
 20
1.338575
 10
4.977887
 20
1.321918
 10
4.994305
 20
1.303418
 10
5.007647
 20
1.283115
 10
5.018096
 20
1.260819
 10
5.025533
 20
1.2365
 10
5.030076
 20
1.210103
 10
5.031568
 20
1.181351
 10
5.031568
 20
0.461646
 10
5.03032
 20
0.433579
 10
5.026564
 20
0.407682
 10
5.020356
 20
0.38365
 10
5.011643
 20
0.361552
 10
5.000537
 20
0.341272
 10
4.986931
 20
0.322772
 10
4.970844
 20
0.306004
 10
4.952147
 20
0.290949
 10
4.930923
 20
0.277583
 10
4.907045
 20
0.26593
 10
4.880533
 20
0.256012
 10
4.851324
 20
0.247867
 10
4.819478
 20
0.241481
 10
4.784915
 20
0.236937
 10
4.747714
 20
0.234217
 10
4.707793
 20
0.233296
 10
4.666931
 20
0.234241
 10
4.628698
 20
0.237091
 10
4.593234
 20
0.241831
 10
4.56049
 20
0.248461
 10
4.530533
 20
0.25691
 10
4.503277
 20
0.267225
 10
4.478738
 20
0.279363
 10
4.45686
 20
0.293319
 10
4.437722
 20
0.308965
 10
4.421131
 20
0.326481
 10
4.407151
 20
0.345772
 10
4.395671
 20
0.366993
 10
4.386761
 20
0.390079
 10
4.380309
 20
0.415185
 10
4.376427
 20
0.442292
  0
LWPOLYLINE
  5
8505
102
{ACAD_REACTORS
330
84BF
102
}
330
832A
100
AcDbEntity
  8
WARSTWA_1
  6
CONTINUOUS
 62
    20
100
AcDbPolyline
 90
       34
 70
     1
 43
0.003
 10
4.761958
 20
0.462918
 10
4.761958
 20
1.179748
 10
4.761167
 20
1.194103
 10
4.758557
 20
1.207162
 10
4.7541
 20
1.218662
 10
4.747541
 20
1.228449
 10
4.739025
 20
1.23613
 10
4.72871
 20
1.241595
 10
4.717013
 20
1.244733
 10
4.704021
 20
1.245741
 10
4.690718
 20
1.244733
 10
4.678738
 20
1.241615
 10
4.668226
 20
1.236193
 10
4.65947
 20
1.228536
 10
4.652773
 20
1.218748
 10
4.648167
 20
1.207225
 10
4.645509
 20
1.194146
 10
4.644675
 20
1.179772
 10
4.644675
 20
0.462918
 10
4.645509
 20
0.44815
 10
4.648143
 20
0.434764
 10
4.65273
 20
0.422977
 10
4.659403
 20
0.412969
 10
4.668116
 20
0.405048
 10
4.678651
 20
0.399449
 10
4.690675
 20
0.396225
 10
4.704021
 20
0.395217
 10
4.717057
 20
0.396225
 10
4.728797
 20
0.399497
 10
4.739135
 20
0.405115
 10
4.747627
 20
0.413059
 10
4.754143
 20
0.423044
 10
4.758576
 20
0.434827
 10
4.761167
 20
0.44817
  0
LWPOLYLINE
  5
8529
102
{ACAD_REACTORS
330
84C0
102
}
330
832A
100
AcDbEntity
  8
WARSTWA_1
  6
CONTINUOUS
 62
    20
100
AcDbPolyline
 90
       46
 70
     1
 43
0.003
 10
3.883013
 20
0.284059
 10
3.883013
 20
0.0015
 10
3.614454
 20
0.0015
 10
3.614454
 20
1.401473
 10
3.882375
 20
1.401473
 10
3.882749
 20
1.351434
 10
3.908043
 20
1.371558
 10
3.935635
 20
1.38744
 10
3.964999
 20
1.399192
 10
3.99561
 20
1.406925
 10
4.026941
 20
1.41075
 10
4.058469
 20
1.410778
 10
4.089666
 20
1.40712
 10
4.120008
 20
1.399889
 10
4.148969
 20
1.389194
 10
4.176023
 20
1.375148
 10
4.200644
 20
1.357861
 10
4.222308
 20
1.337445
 10
4.240489
 20
1.314011
 10
4.254661
 20
1.28767
 10
4.264298
 20
1.258534
 10
4.268875
 20
1.226713
 10
4.268875
 20
0.387052
 10
4.267998
 20
0.36978
 10
4.265297
 20
0.35376
 10
4.260864
 20
0.338658
 10
4.254675
 20
0.324504
 10
4.24673
 20
0.311162
 10
4.236986
 20
0.29863
 10
4.225399
 20
0.28691
 10
4.211903
 20
0.275937
 10
4.197068
 20
0.265953
 10
4.181395
 20
0.257304
 10
4.164915
 20
0.249953
 10
4.14762
 20
0.243985
 10
4.12947
 20
0.239308
 10
4.11049
 20
0.235973
 10
4.090627
 20
0.233953
 10
4.069887
 20
0.233296
 10
4.041446
 20
0.233953
 10
4.014868
 20
0.235953
 10
3.990289
 20
0.239245
 10
3.967639
 20
0.243874
 10
3.947033
 20
0.249756
 10
3.928399
 20
0.25691
 10
3.911742
 20
0.265292
  0
LWPOLYLINE
  5
8559
102
{ACAD_REACTORS
330
84C0
102
}
330
832A
100
AcDbEntity
  8
WARSTWA_1
  6
CONTINUOUS
 62
    20
100
AcDbPolyline
 90
       34
 70
     1
 43
0.003
 10
4.000316
 20
0.459122
 10
4.000316
 20
1.183898
 10
3.999505
 20
1.197351
 10
3.996848
 20
1.209685
 10
3.992309
 20
1.220504
 10
3.985635
 20
1.229721
 10
3.977033
 20
1.236898
 10
3.966694
 20
1.241922
 10
3.955021
 20
1.244819
 10
3.942005
 20
1.245741
 10
3.928927
 20
1.244819
 10
3.917139
 20
1.241945
 10
3.906738
 20
1.236941
 10
3.897958
 20
1.229764
 10
3.891246
 20
1.220567
 10
3.886549
 20
1.209729
 10
3.883872
 20
1.197394
 10
3.883013
 20
1.183918
 10
3.883013
 20
0.45704
 10
3.883872
 20
0.443937
 10
3.886592
 20
0.431953
 10
3.891289
 20
0.421355
 10
3.898049
 20
0.412441
 10
3.906824
 20
0.405441
 10
3.917206
 20
0.400591
 10
3.92897
 20
0.397827
 10
3.942005
 20
0.396949
 10
3.955021
 20
0.397847
 10
3.966718
 20
0.400768
 10
3.977076
 20
0.405839
 10
3.985659
 20
0.413146
 10
3.992309
 20
0.422339
 10
3.996848
 20
0.433248
 10
3.999505
 20
0.445583
  0
SOLID
  5
857D
330
832A
100
AcDbEntity
  8
WARSTWA_1
  6
CONTINUOUS
 62
    20
100
AcDbTrace
 10
3.501025
 20
0.249449
 30
0.0
 11
3.231435
 21
0.249449
 31
0.0
 12
3.501025
 22
1.67376
 32
0.0
 13
3.231435
 23
1.67376
 33
0.0
  0
HATCH
  5
857E
330
832A
100
AcDbEntity
  8
0
  6
CONTINUOUS
 62
    20
100
AcDbHatch
 10
0.0
 20
0.0
 30
0.0
210
0.0
220
0.0
230
1.0
  2
SOLID
 70
     1
 71
     1
 91
        2
 92
        7
 72
     0
 73
     1
 93
        8
 10
6.494831769928969
 20
0.3819339936242998
 10
6.544048769928968
 20
0.2541379936242989
 10
6.607705769928968
 20
0.2541379936242989
 10
6.435016769928969
 20
0.6760559936242992
 10
6.374898769928968
 20
0.6760559936242992
 10
6.212804769928968
 20
0.2541379936242989
 10
6.272142769928969
 20
0.2541379936242989
 10
6.318406769928968
 20
0.3819339936242993
 97
        1
330
858A
 92
       22
 72
     0
 73
     1
 93
        9
 10
6.47765076992897
 20
0.4274139936242995
 10
6.334520769928967
 20
0.4274139936242994
 10
6.380890769928971
 20
0.5511029936243024
 10
6.389960769928967
 20
0.5778569936242822
 10
6.397546769928969
 20
0.6047209936243242
 10
6.403674769928968
 20
0.6317479936242983
 10
6.411335769928973
 20
0.606761993624277
 10
6.421303769928957
 20
0.5775879936242982
 10
6.433540769928965
 20
0.5442209936243854
 97
        1
330
857F
 75
     0
 76
     1
 47
0.003856
 98
        2
 10
6.500793
 20
0.398939
 10
6.500793
 20
0.398939
  0
LWPOLYLINE
  5
857F
102
{ACAD_REACTORS
330
857E
102
}
330
832A
100
AcDbEntity
  8
WARSTWA_1
  6
CONTINUOUS
 62
    20
100
AcDbPolyline
 90
        9
 70
     1
 43
0.003
 10
6.334521
 20
0.427414
 10
6.477651
 20
0.427414
 10
6.433541
 20
0.544221
 10
6.421304
 20
0.577588
 10
6.411336
 20
0.606762
 10
6.403675
 20
0.631748
 10
6.397547
 20
0.604721
 10
6.389961
 20
0.577857
 10
6.380891
 20
0.551103
  0
LWPOLYLINE
  5
858A
102
{ACAD_REACTORS
330
857E
102
}
330
832A
100
AcDbEntity
  8
WARSTWA_1
  6
CONTINUOUS
 62
    20
100
AcDbPolyline
 90
        8
 70
     1
 43
0.003
 10
6.212805
 20
0.254138
 10
6.374899
 20
0.676056
 10
6.435017
 20
0.676056
 10
6.607706
 20
0.254138
 10
6.544049
 20
0.254138
 10
6.494832
 20
0.381934
 10
6.318407
 20
0.381934
 10
6.272143
 20
0.254138
  0
HATCH
  5
8594
330
832A
100
AcDbEntity
  8
0
  6
CONTINUOUS
 62
    20
100
AcDbHatch
 10
0.0
 20
0.0
 30
0.0
210
0.0
220
0.0
230
1.0
  2
SOLID
 70
     1
 71
     1
 91
        1
 92
        7
 72
     0
 73
     1
 93
      101
 10
5.953367769928968
 20
0.3325239936243002
 10
5.944010769928968
 20
0.3223119936242982
 10
5.931853769928967
 20
0.3136459936242991
 10
5.916922769928967
 20
0.3065039936242986
 10
5.89980576992897
 20
0.3012549936242993
 10
5.881017769928969
 20
0.2981049936242992
 10
5.860540769928968
 20
0.2970559936242991
 10
5.837369769928968
 20
0.2984349936242992
 10
5.815787769928966
 20
0.3025899936242987
 10
5.795815769928971
 20
0.3095439936242986
 10
5.778330769928969
 20
0.3187419936243
 10
5.76418576992897
 20
0.3296739936242982
 10
5.753374769928967
 20
0.3423629936242967
 10
5.745347769928971
 20
0.357162993624291
 10
5.73954876992897
 20
0.3744729936242951
 10
5.735977769928968
 20
0.3943149936242989
 10
5.683331769928969
 20
0.389708993624299
 10
5.68637376992897
 20
0.362463993624297
 10
5.69408276992897
 20
0.3371729936242931
 10
5.706418769928968
 20
0.3138669936242965
 10
5.722987769928969
 20
0.2933669936242976
 10
5.743252769928968
 20
0.2766429936242999
 10
5.76723376992897
 20
0.2636739936242983
 10
5.795059769928967
 20
0.254361993624299
 10
5.827051769928969
 20
0.2488119936242992
 10
5.863189769928967
 20
0.2469729936242992
 10
5.892266769928968
 20
0.2488049936242991
 10
5.919359769928968
 20
0.2543039936242993
 10
5.944441769928966
 20
0.263476993624299
 10
5.966639769928971
 20
0.276018993624298
 10
5.985106769928968
 20
0.2914629936243005
 10
5.999847769928969
 20
0.3098269936242981
 10
6.010551769928969
 20
0.3301019936242974
 10
6.016959769928968
 20
0.3512459936243017
 10
6.019091769928969
 20
0.3732879936243009
 10
6.01715576992897
 20
0.3950269936242952
 10
6.011333769928968
 20
0.415045993624296
 10
6.001607769928968
 20
0.4333229936242987
 10
5.987761769928967
 20
0.4496269936243023
 10
5.969609769928966
 20
0.4639669936243006
 10
5.947178769928968
 20
0.4763469936242995
 10
5.925546769928976
 20
0.4844289936242988
 10
5.894407769928966
 20
0.4933939936242976
 10
5.853764769928946
 20
0.5032559936242956
 10
5.814176769928962
 20
0.5134059936243
 10
5.78612876992897
 20
0.5234289936242971
 10
5.769579769928969
 20
0.533314993624299
 10
5.760481769928969
 20
0.5439599936243001
 10
5.755009769928969
 20
0.5564319936242983
 10
5.753182769928968
 20
0.5707409936242972
 10
5.755762769928969
 20
0.5873079936242994
 10
5.763493769928967
 20
0.6022119936242974
 10
5.77635576992897
 20
0.6154369936242987
 10
5.794902769928971
 20
0.6257529936242993
 10
5.819511769928968
 20
0.631943993624299
 10
5.850221769928968
 20
0.6340079936242988
 10
5.879997769928968
 20
0.6317449936242986
 10
5.90448876992897
 20
0.624938993624299
 10
5.923721769928967
 20
0.6135669936243002
 10
5.938029769928969
 20
0.5977979936243019
 10
5.94777676992897
 20
0.5776399936242999
 10
5.95297776992897
 20
0.5531699936242991
 10
6.006516769928968
 20
0.5571849936242992
 10
6.003547769928969
 20
0.5810879936242941
 10
5.996626769928965
 20
0.6032619936243082
 10
5.985796769928965
 20
0.6236889936243026
 10
5.971089769928971
 20
0.6416619936242989
 10
5.952725769928967
 20
0.6564679936243003
 10
5.930693769928969
 20
0.668082993624298
 10
5.905529769928966
 20
0.6765059936242998
 10
5.877948769928969
 20
0.6815459936242994
 10
5.847878769928968
 20
0.6832209936242993
 10
5.820366769928968
 20
0.6816179936242995
 10
5.794577769928969
 20
0.6768259936242988
 10
5.770469769928968
 20
0.6688669936242989
 10
5.74912576992897
 20
0.6577659936243002
 10
5.731463769928969
 20
0.6436959936242991
 10
5.717516769928969
 20
0.6266419936242982
 10
5.707465769928969
 20
0.6076819936242992
 10
5.701447769928967
 20
0.5877889936243011
 10
5.69944576992897
 20
0.5670039936243043
 10
5.701082769928969
 20
0.5482119936242973
 10
5.705991769928971
 20
0.5307059936242992
 10
5.71417476992897
 20
0.5144649936242977
 10
5.725800769928969
 20
0.4996589936242993
 10
5.740828769928969
 20
0.4865429936242986
 10
5.759260769928968
 20
0.4751539936242991
 10
5.778679769928966
 20
0.4667349936242978
 10
5.80584276992897
 20
0.4579699936243
 10
5.840709769929009
 20
0.4488269936242952
 10
5.87489976992897
 20
0.4403229936242995
 10
5.899928769928965
 20
0.4334439936242998
 10
5.915859769928973
 20
0.4281969936242975
 10
5.93179676992897
 20
0.420996993624298
 10
5.944446769928971
 20
0.412721993624298
 10
5.953780769928968
 20
0.4033509936242995
 10
5.960228769928971
 20
0.3928949936242973
 10
5.964077769928969
 20
0.3813539936242942
 10
5.96535576992897
 20
0.3686849936243033
 10
5.964018769928968
 20
0.3559659936242967
 10
5.960018769928968
 20
0.3439259936243028
 97
        1
330
8595
 75
     0
 76
     1
 47
0.003856
 98
        1
 10
5.975986
 20
0.321822
  0
LWPOLYLINE
  5
8595
102
{ACAD_REACTORS
330
8594
102
}
330
832A
100
AcDbEntity
  8
WARSTWA_1
  6
CONTINUOUS
 62
    20
100
AcDbPolyline
 90
      101
 70
     1
 43
0.003
 10
5.683332
 20
0.389709
 10
5.735978
 20
0.394315
 10
5.739549
 20
0.374473
 10
5.745348
 20
0.357163
 10
5.753375
 20
0.342363
 10
5.764186
 20
0.329674
 10
5.778331
 20
0.318742
 10
5.795816
 20
0.309544
 10
5.815788
 20
0.30259
 10
5.83737
 20
0.298435
 10
5.860541
 20
0.297056
 10
5.881018
 20
0.298105
 10
5.899806
 20
0.301255
 10
5.916923
 20
0.306504
 10
5.931854
 20
0.313646
 10
5.944011
 20
0.322312
 10
5.953368
 20
0.332524
 10
5.960019
 20
0.343926
 10
5.964019
 20
0.355966
 10
5.965356
 20
0.368685
 10
5.964078
 20
0.381354
 10
5.960229
 20
0.392895
 10
5.953781
 20
0.403351
 10
5.944447
 20
0.412722
 10
5.931797
 20
0.420997
 10
5.91586
 20
0.428197
 10
5.899929
 20
0.433444
 10
5.8749
 20
0.440323
 10
5.84071
 20
0.448827
 10
5.805843
 20
0.45797
 10
5.77868
 20
0.466735
 10
5.759261
 20
0.475154
 10
5.740829
 20
0.486543
 10
5.725801
 20
0.499659
 10
5.714175
 20
0.514465
 10
5.705992
 20
0.530706
 10
5.701083
 20
0.548212
 10
5.699446
 20
0.567004
 10
5.701448
 20
0.587789
 10
5.707466
 20
0.607682
 10
5.717517
 20
0.626642
 10
5.731464
 20
0.643696
 10
5.749126
 20
0.657766
 10
5.77047
 20
0.668867
 10
5.794578
 20
0.676826
 10
5.820367
 20
0.681618
 10
5.847879
 20
0.683221
 10
5.877949
 20
0.681546
 10
5.90553
 20
0.676506
 10
5.930694
 20
0.668083
 10
5.952726
 20
0.656468
 10
5.97109
 20
0.641662
 10
5.985797
 20
0.623689
 10
5.996627
 20
0.603262
 10
6.003548
 20
0.581088
 10
6.006517
 20
0.557185
 10
5.952978
 20
0.55317
 10
5.947777
 20
0.57764
 10
5.93803
 20
0.597798
 10
5.923722
 20
0.613567
 10
5.904489
 20
0.624939
 10
5.879998
 20
0.631745
 10
5.850222
 20
0.634008
 10
5.819512
 20
0.631944
 10
5.794903
 20
0.625753
 10
5.776356
 20
0.615437
 10
5.763494
 20
0.602212
 10
5.755763
 20
0.587308
 10
5.753183
 20
0.570741
 10
5.75501
 20
0.556432
 10
5.760482
 20
0.54396
 10
5.76958
 20
0.533315
 10
5.786129
 20
0.523429
 10
5.814177
 20
0.513406
 10
5.853765
 20
0.503256
 10
5.894408
 20
0.493394
 10
5.925547
 20
0.484429
 10
5.947179
 20
0.476347
 10
5.96961
 20
0.463967
 10
5.987762
 20
0.449627
 10
6.001608
 20
0.433323
 10
6.011334
 20
0.415046
 10
6.017156
 20
0.395027
 10
6.019092
 20
0.373288
 10
6.01696
 20
0.351246
 10
6.010552
 20
0.330102
 10
5.999848
 20
0.309827
 10
5.985107
 20
0.291463
 10
5.96664
 20
0.276019
 10
5.944442
 20
0.263477
 10
5.91936
 20
0.254304
 10
5.892267
 20
0.248805
 10
5.86319
 20
0.246973
 10
5.827052
 20
0.248812
 10
5.79506
 20
0.254362
 10
5.767234
 20
0.263674
 10
5.743253
 20
0.276643
 10
5.722988
 20
0.293367
 10
5.706419
 20
0.313867
 10
5.694083
 20
0.337173
 10
5.686374
 20
0.362464
  0
LWPOLYLINE
  5
85FC
330
832A
100
AcDbEntity
  8
WARSTWA_1
  6
CONTINUOUS
 62
    20
100
AcDbPolyline
 90
        4
 70
     1
 43
0.003
 10
6.10347
 20
0.254138
 10
6.10347
 20
0.31317
 10
6.162505
 20
0.31317
 10
6.162505
 20
0.254138
  0
SOLID
  5
8602
330
832A
100
AcDbEntity
  8
WARSTWA_1
 62
    20
100
AcDbTrace
 10
6.10347
 20
0.254138
 30
0.0
 11
6.10347
 21
0.31317
 31
0.0
 12
6.162505
 22
0.254138
 32
0.0
 13
6.162505
 23
0.31317
 33
0.0
  0
LWPOLYLINE
  5
8603
330
832A
100
AcDbEntity
  8
WARSTWA_1
  6
CONTINUOUS
 62
    20
100
AcDbPolyline
 90
        4
 70
     1
 43
0.003
 10
6.660356
 20
0.254138
 10
6.660356
 20
0.31317
 10
6.719387
 20
0.31317
 10
6.719387
 20
0.254138
  0
SOLID
  5
8609
330
832A
100
AcDbEntity
  8
WARSTWA_1
  6
CONTINUOUS
 62
    20
100
AcDbTrace
 10
6.660356
 20
0.254138
 30
0.0
 11
6.660356
 21
0.31317
 31
0.0
 12
6.719387
 22
0.254138
 32
0.0
 13
6.719387
 23
0.31317
 33
0.0
  0
HATCH
  5
860A
330
832A
100
AcDbEntity
  8
0
  6
CONTINUOUS
 62
    20
100
AcDbHatch
 10
0.0
 20
0.0
 30
0.0
210
0.0
220
0.0
230
1.0
  2
SOLID
 70
     1
 71
     1
 91
        4
 92
        7
 72
     0
 73
     1
 93
       48
 10
6.213609769928965
 20
1.274360993624299
 10
6.232985769928964
 20
1.245522993624303
 10
6.256288769928965
 20
1.219007993624303
 10
6.283374769928963
 20
1.195036993624298
 10
6.312644769928978
 20
1.175130993624297
 10
6.344126769928966
 20
1.159287993624298
 10
6.377143769928971
 20
1.147762993624298
 10
6.411017769928968
 20
1.140828993624298
 10
6.445776769928968
 20
1.138511993624298
 10
6.480272769928967
 20
1.140828993624299
 10
6.514298769928967
 20
1.147762993624298
 10
6.547800769928968
 20
1.159287993624298
 10
6.579903769928963
 20
1.175051993624297
 10
6.609546769928968
 20
1.194741993624298
 10
6.636756769928967
 20
1.218385993624299
 10
6.660233769928969
 20
1.244389993624298
 10
6.679674769928968
 20
1.272881993624293
 10
6.695107769928971
 20
1.303862993624304
 10
6.70621876992897
 20
1.336743993624301
 10
6.712904769928967
 20
1.371173993624293
 10
6.715138769928968
 20
1.407125993624292
 10
6.712904769928966
 20
1.442120993624304
 10
6.706218769928969
 20
1.476146993624302
 10
6.695107769928974
 20
1.509149993624293
 10
6.679758769928969
 20
1.540505993624303
 10
6.660567769928971
 20
1.569402993624297
 10
6.637504769928965
 20
1.595866993624293
 10
6.610956769928967
 20
1.619623993624296
 10
6.581811769928965
 20
1.639373993624301
 10
6.550040769928972
 20
1.655086993624297
 10
6.516399769928968
 20
1.666579993624297
 10
6.481653769928971
 20
1.673454993624298
 10
6.445776769928968
 20
1.675740993624298
 10
6.410520769928968
 20
1.673588993624299
 10
6.376645769928966
 20
1.667151993624298
 10
6.344126769928969
 20
1.656456993624299
 10
6.313442769928967
 20
1.641523993624296
 10
6.28510776992897
 20
1.622579993624299
 10
6.259150769928968
 20
1.599598993624296
 10
6.235137769928972
 20
1.5725259936243
 10
6.21510576992897
 20
1.542855993624298
 10
6.199056769928971
 20
1.510641993624304
 10
6.187324769928968
 20
1.476753993624301
 10
6.180265769928967
 20
1.4422589936243
 10
6.177906769928967
 20
1.407125993624294
 10
6.180150769928968
 20
1.372372993624297
 10
6.186900769928967
 20
1.3385319936243
 10
6.198186769928967
 20
1.305602993624304
 97
        1
330
860B
 92
       22
 72
     0
 73
     1
 93
       48
 10
6.230536769928968
 20
1.319165993624298
 10
6.220700769928967
 20
1.347774993624301
 10
6.214820769928969
 20
1.377104993624296
 10
6.212867769928968
 20
1.407125993624296
 10
6.214904769928969
 20
1.437685993624297
 10
6.221033769928967
 20
1.4676379936243
 10
6.231280769928964
 20
1.496952993624297
 10
6.245340769928971
 20
1.524956993624298
 10
6.262884769928966
 20
1.550776993624294
 10
6.283910769928973
 20
1.574468993624301
 10
6.306005769928968
 20
1.594202993624299
 10
6.330449769928971
 20
1.610592993624299
 10
6.357189769928966
 20
1.623610993624298
 10
6.385770769928965
 20
1.633148993624298
 10
6.415539769928968
 20
1.638871993624299
 10
6.446524769928968
 20
1.640779993624298
 10
6.477590769928965
 20
1.638788993624299
 10
6.507608769928967
 20
1.632816993624298
 10
6.536603769928974
 20
1.622862993624298
 10
6.564015769928968
 20
1.6092649936243
 10
6.589520769928977
 20
1.592127993624294
 10
6.613119769928966
 20
1.571480993624295
 10
6.633030769928972
 20
1.548767993624299
 10
6.649485769928969
 20
1.523731993624296
 10
6.662512769928969
 20
1.496456993624299
 10
6.671930769928966
 20
1.4673019936243
 10
6.677562769928969
 20
1.436820993624297
 10
6.679434769928969
 20
1.405011993624303
 10
6.677484769928969
 20
1.374768993624297
 10
6.671635769928967
 20
1.345466993624306
 10
6.66189076992897
 20
1.317047993624295
 10
6.648582769928967
 20
1.290216993624295
 10
6.631817769928965
 20
1.265457993624297
 10
6.61162676992897
 20
1.242771993624299
 10
6.587986769928971
 20
1.222362993624299
 10
6.562356769928966
 20
1.205409993624298
 10
6.534737769928972
 20
1.191885993624301
 10
6.505534769928971
 20
1.182051993624299
 10
6.475393769928968
 20
1.176170993624299
 10
6.444284769928967
 20
1.174216993624299
 10
6.414666769928967
 20
1.176244993624299
 10
6.385520769928971
 20
1.182309993624298
 10
6.356815769928966
 20
1.192381993624299
 10
6.329528769928966
 20
1.206233993624301
 10
6.304397769928967
 20
1.223402993624297
 10
6.281422769928969
 20
1.243889993624296
 10
6.261013769928964
 20
1.266779993624299
 10
6.24406076992897
 20
1.291879993624296
 97
        1
330
863D
 92
        6
 72
     0
 73
     1
 93
       20
 10
6.338280769928969
 20
1.564511993624299
 10
6.453115769928965
 20
1.564511993624298
 10
6.491841769928971
 20
1.562189993624299
 10
6.523629769928968
 20
1.555223993624298
 10
6.54842276992897
 20
1.543610993624298
 10
6.566135769928967
 20
1.527302993624298
 10
6.576743769928969
 20
1.506460993624297
 10
6.580272769928968
 20
1.4810279936243
 10
6.578235769928968
 20
1.460458993624303
 10
6.572106769928968
 20
1.442293993624299
 10
6.561859769928966
 20
1.426535993624296
 10
6.547960769928969
 20
1.413848993624298
 10
6.53088276992897
 20
1.404673993624299
 10
6.510595769928968
 20
1.399039993624299
 10
6.578780769928969
 20
1.260314993624299
 10
6.514205769928969
 20
1.260314993624299
 10
6.452371769928968
 20
1.389956993624299
 10
6.395886769928968
 20
1.389956993624299
 10
6.395886769928969
 20
1.260314993624299
 10
6.338280769928968
 20
1.260314993624299
 97
        1
330
866F
 92
        6
 72
     0
 73
     1
 93
       15
 10
6.395886769928967
 20
1.426409993624298
 10
6.395886769928967
 20
1.527310993624299
 10
6.442914769928971
 20
1.527310993624299
 10
6.467797769928967
 20
1.525937993624298
 10
6.487704769928972
 20
1.521799993624298
 10
6.502634769928967
 20
1.514870993624299
 10
6.512916769928968
 20
1.504953993624299
 10
6.519105769928968
 20
1.491608993624299
 10
6.521174769928967
 20
1.4748079936243
 10
6.519220769928971
 20
1.459223993624302
 10
6.513340769928966
 20
1.446846993624297
 10
6.503504769928968
 20
1.437732993624299
 10
6.489063769928968
 20
1.431423993624298
 10
6.469342769928966
 20
1.427658993624298
 10
6.44428476992897
 20
1.426409993624298
 97
        1
330
8685
 75
     0
 76
     1
 47
0.003856
 98
        4
 10
6.226813
 20
1.289633
 10
6.226813
 20
1.289633
 10
6.226813
 20
1.289633
 10
6.226813
 20
1.289633
  0
LWPOLYLINE
  5
860B
102
{ACAD_REACTORS
330
860A
102
}
330
832A
100
AcDbEntity
  8
WARSTWA_1
  6
CONTINUOUS
 62
    20
100
AcDbPolyline
 90
       48
 70
     1
 43
0.003
 10
6.445777
 20
1.675741
 10
6.481654
 20
1.673455
 10
6.5164
 20
1.66658
 10
6.550041
 20
1.655087
 10
6.581812
 20
1.639374
 10
6.610957
 20
1.619624
 10
6.637505
 20
1.595867
 10
6.660568
 20
1.569403
 10
6.679759
 20
1.540506
 10
6.695108
 20
1.50915
 10
6.706219
 20
1.476147
 10
6.712905
 20
1.442121
 10
6.715139
 20
1.407126
 10
6.712905
 20
1.371174
 10
6.706219
 20
1.336744
 10
6.695108
 20
1.303863
 10
6.679675
 20
1.272882
 10
6.660234
 20
1.24439
 10
6.636757
 20
1.218386
 10
6.609547
 20
1.194742
 10
6.579904
 20
1.175052
 10
6.547801
 20
1.159288
 10
6.514299
 20
1.147763
 10
6.480273
 20
1.140829
 10
6.445777
 20
1.138512
 10
6.411018
 20
1.140829
 10
6.377144
 20
1.147763
 10
6.344127
 20
1.159288
 10
6.312645
 20
1.175131
 10
6.283375
 20
1.195037
 10
6.256289
 20
1.219008
 10
6.232986
 20
1.245523
 10
6.21361
 20
1.274361
 10
6.198187
 20
1.305603
 10
6.186901
 20
1.338532
 10
6.180151
 20
1.372373
 10
6.177907
 20
1.407126
 10
6.180266
 20
1.442259
 10
6.187325
 20
1.476754
 10
6.199057
 20
1.510642
 10
6.215106
 20
1.542856
 10
6.235138
 20
1.572526
 10
6.259151
 20
1.599599
 10
6.285108
 20
1.62258
 10
6.313443
 20
1.641524
 10
6.344127
 20
1.656457
 10
6.376646
 20
1.667152
 10
6.410521
 20
1.673589
  0
LWPOLYLINE
  5
863D
102
{ACAD_REACTORS
330
860A
102
}
330
832A
100
AcDbEntity
  8
WARSTWA_1
  6
CONTINUOUS
 62
    20
100
AcDbPolyline
 90
       48
 70
     1
 43
0.003
 10
6.679435
 20
1.405012
 10
6.677563
 20
1.436821
 10
6.671931
 20
1.467302
 10
6.662513
 20
1.496457
 10
6.649486
 20
1.523732
 10
6.633031
 20
1.548768
 10
6.61312
 20
1.571481
 10
6.589521
 20
1.592128
 10
6.564016
 20
1.609265
 10
6.536604
 20
1.622863
 10
6.507609
 20
1.632817
 10
6.477591
 20
1.638789
 10
6.446525
 20
1.64078
 10
6.41554
 20
1.638872
 10
6.385771
 20
1.633149
 10
6.35719
 20
1.623611
 10
6.33045
 20
1.610593
 10
6.306006
 20
1.594203
 10
6.283911
 20
1.574469
 10
6.262885
 20
1.550777
 10
6.245341
 20
1.524957
 10
6.231281
 20
1.496953
 10
6.221034
 20
1.467638
 10
6.214905
 20
1.437686
 10
6.212868
 20
1.407126
 10
6.214821
 20
1.377105
 10
6.220701
 20
1.347775
 10
6.230537
 20
1.319166
 10
6.244061
 20
1.29188
 10
6.261014
 20
1.26678
 10
6.281423
 20
1.24389
 10
6.304398
 20
1.223403
 10
6.329529
 20
1.206234
 10
6.356816
 20
1.192382
 10
6.385521
 20
1.18231
 10
6.414667
 20
1.176245
 10
6.444285
 20
1.174217
 10
6.475394
 20
1.176171
 10
6.505535
 20
1.182052
 10
6.534738
 20
1.191886
 10
6.562357
 20
1.20541
 10
6.587987
 20
1.222363
 10
6.611627
 20
1.242772
 10
6.631818
 20
1.265458
 10
6.648583
 20
1.290217
 10
6.661891
 20
1.317048
 10
6.671636
 20
1.345467
 10
6.677485
 20
1.374769
  0
LWPOLYLINE
  5
866F
102
{ACAD_REACTORS
330
860A
102
}
330
832A
100
AcDbEntity
  8
WARSTWA_1
  6
CONTINUOUS
 62
    20
100
AcDbPolyline
 90
       20
 70
     1
 43
0.003
 10
6.453116
 20
1.564512
 10
6.491842
 20
1.56219
 10
6.52363
 20
1.555224
 10
6.548423
 20
1.543611
 10
6.566136
 20
1.527303
 10
6.576744
 20
1.506461
 10
6.580273
 20
1.481028
 10
6.578236
 20
1.460459
 10
6.572107
 20
1.442294
 10
6.56186
 20
1.426536
 10
6.547961
 20
1.413849
 10
6.530883
 20
1.404674
 10
6.510596
 20
1.39904
 10
6.578781
 20
1.260315
 10
6.514206
 20
1.260315
 10
6.452372
 20
1.389957
 10
6.395887
 20
1.389957
 10
6.395887
 20
1.260315
 10
6.338281
 20
1.260315
 10
6.338281
 20
1.564512
  0
LWPOLYLINE
  5
8685
102
{ACAD_REACTORS
330
860A
102
}
330
832A
100
AcDbEntity
  8
WARSTWA_1
  6
CONTINUOUS
 62
    20
100
AcDbPolyline
 90
       15
 70
     1
 43
0.003
 10
6.442915
 20
1.527311
 10
6.395887
 20
1.527311
 10
6.395887
 20
1.42641
 10
6.444285
 20
1.42641
 10
6.469343
 20
1.427659
 10
6.489064
 20
1.431424
 10
6.503505
 20
1.437733
 10
6.513341
 20
1.446847
 10
6.519221
 20
1.459224
 10
6.521175
 20
1.474808
 10
6.519106
 20
1.491609
 10
6.512917
 20
1.504954
 10
6.502635
 20
1.514871
 10
6.487705
 20
1.5218
 10
6.467798
 20
1.525938
  0
ENDBLK
  5
8697
330
832A
100
AcDbEntity
  8
0
 62
     2
100
AcDbBlockEnd
  0
BLOCK
  5
8EB7
330
8EB4
100
AcDbEntity
  8
0
 62
     3
100
AcDbBlockBegin
  2
A$C113F12C2
 70
     0
 10
0.0
 20
0.0
 30
0.0
  3
A$C113F12C2
  1
A$C113F12C2
  0
TEXT
  5
8EB5
330
8EB4
100
AcDbEntity
  8
1
100
AcDbText
 10
0.0
 20
1.333334
 30
0.0
 40
4.0
  1
Interconnection strip ZG20
 41
0.7
 51
15.0
  7
ITALIC
100
AcDbText
  0
TEXT
  5
8EB6
330
8EB4
100
AcDbEntity
  8
1
100
AcDbText
 10
0.0
 20
8.15093
 30
0.0
 40
4.0
  1
Złacze grzebieniowe ZG20
 41
0.7
 51
15.0
  7
ITALIC
100
AcDbText
  0
ENDBLK
  5
8EB8
330
8EB4
100
AcDbEntity
  8
0
 62
     3
100
AcDbBlockEnd
  0
BLOCK
  5
8F0E
330
8F0C
100
AcDbEntity
  8
0
 62
     3
100
AcDbBlockBegin
  2
A$C708059A8
 70
     0
 10
0.0
 20
0.0
 30
0.0
  3
A$C708059A8
  1
A$C708059A8
  0
TEXT
  5
8F0D
330
8F0C
100
AcDbEntity
  8
1
100
AcDbText
 10
-0.153114
 20
1.333334
 30
0.0
 40
4.0
  1
Schematy połączeń / Connections diagrams
 41
0.7
 51
15.0
  7
ITALIC
100
AcDbText
  0
ENDBLK
  5
8F0F
330
8F0C
100
AcDbEntity
  8
0
 62
     3
100
AcDbBlockEnd
  0
BLOCK
  5
8FD0
330
8F68
100
AcDbEntity
  8
0
100
AcDbBlockBegin
  2
*D3
 70
     1
 10
0.0
 20
0.0
 30
0.0
  3
*D3
  1
*D3
  0
LINE
  5
8FD1
330
8F68
100
AcDbEntity
  8
WYMIARY
 62
     0
100
AcDbLine
 10
636.040826
 20
100.0235529448316
 30
0.0
 11
647.32771
 21
100.0235529448316
 31
0.0
  0
LINE
  5
8FD2
330
8F68
100
AcDbEntity
  8
WYMIARY
 62
     0
100
AcDbLine
 10
636.107037
 20
93.81266794483163
 30
0.0
 11
647.32771
 21
93.81266794483163
 31
0.0
  0
LINE
  5
8FD3
330
8F68
100
AcDbEntity
  8
WYMIARY
 62
     0
100
AcDbLine
 10
645.82771
 20
93.81266794483163
 30
0.0
 11
645.82771
 21
80.81266794483163
 31
0.0
  0
LINE
  5
8FD4
330
8F68
100
AcDbEntity
  8
WYMIARY
 62
     0
100
AcDbLine
 10
645.82771
 20
100.0235529448316
 30
0.0
 11
645.82771
 21
93.81266794483163
 31
0.0
  0
LINE
  5
8FD5
330
8F68
100
AcDbEntity
  8
WYMIARY
 62
     0
100
AcDbLine
 10
645.82771
 20
103.0235529448316
 30
0.0
 11
645.82771
 21
106.0235529448316
 31
0.0
  0
LINE
  5
8FD6
330
8F68
100
AcDbEntity
  8
WYMIARY
 62
     0
100
AcDbLine
 10
645.82771
 20
90.81266794483163
 30
0.0
 11
645.82771
 21
87.81266794483163
 31
0.0
  0
SOLID
  5
8FD7
330
8F68
100
AcDbEntity
  8
WYMIARY
 62
     0
100
AcDbTrace
 10
645.32771
 20
103.0235529448316
 30
0.0
 11
646.32771
 21
103.0235529448316
 31
0.0
 12
645.82771
 22
100.0235529448316
 32
0.0
 13
645.82771
 23
100.0235529448316
 33
0.0
  0
SOLID
  5
8FD8
330
8F68
100
AcDbEntity
  8
WYMIARY
 62
     0
100
AcDbTrace
 10
646.32771
 20
90.81266794483163
 30
0.0
 11
645.32771
 21
90.81266794483163
 31
0.0
 12
645.82771
 22
93.81266794483163
 32
0.0
 13
645.82771
 23
93.81266794483163
 33
0.0
  0
MTEXT
  5
8FD9
330
8F68
100
AcDbEntity
  8
WYMIARY
 62
     0
100
AcDbMText
 10
643.82771
 20
84.31266794483163
 30
0.0
 40
3.0
 41
0.0
 71
     5
 72
     1
  1
\A1;6.2
 11
0.0
 21
1.0
 31
0.0
  0
POINT
  5
8FDA
330
8F68
100
AcDbEntity
  8
DEFPOINTS
 62
     0
100
AcDbPoint
 10
634.540826
 20
100.0235529448316
 30
0.0
  0
POINT
  5
955A
330
8F68
100
AcDbEntity
  8
DEFPOINTS
 62
     0
100
AcDbPoint
 10
634.607037
 20
93.81266794483163
 30
0.0
  0
POINT
  5
955B
330
8F68
100
AcDbEntity
  8
DEFPOINTS
 62
     0
100
AcDbPoint
 10
645.82771
 20
93.81266794483163
 30
0.0
  0
ENDBLK
  5
8FDB
330
8F68
100
AcDbEntity
  8
0
100
AcDbBlockEnd
  0
BLOCK
  5
8FAE
330
8F75
100
AcDbEntity
  8
0
100
AcDbBlockBegin
  2
*D4
 70
     1
 10
0.0
 20
0.0
 30
0.0
  3
*D4
  1
*D4
  0
LINE
  5
8FAF
330
8F75
100
AcDbEntity
  8
WYMIARY
 62
     0
100
AcDbLine
 10
536.859824
 20
92.59134394483165
 30
0.0
 11
536.859824
 21
83.27744894483165
 31
0.0
  0
LINE
  5
8FB0
330
8F75
100
AcDbEntity
  8
WYMIARY
 62
     0
100
AcDbLine
 10
635.142591
 20
92.59134394483165
 30
0.0
 11
635.142591
 21
83.27744894483165
 31
0.0
  0
LINE
  5
8FB1
330
8F75
100
AcDbEntity
  8
WYMIARY
 62
     0
100
AcDbLine
 10
539.859824
 20
84.77744894483165
 30
0.0
 11
632.142591
 21
84.77744894483165
 31
0.0
  0
SOLID
  5
8FB2
330
8F75
100
AcDbEntity
  8
WYMIARY
 62
     0
100
AcDbTrace
 10
539.859824
 20
85.27744894483165
 30
0.0
 11
539.859824
 21
84.27744894483165
 31
0.0
 12
536.859824
 22
84.77744894483165
 32
0.0
 13
536.859824
 23
84.77744894483165
 33
0.0
  0
SOLID
  5
8FB3
330
8F75
100
AcDbEntity
  8
WYMIARY
 62
     0
100
AcDbTrace
 10
632.142591
 20
84.27744894483165
 30
0.0
 11
632.142591
 21
85.27744894483165
 31
0.0
 12
635.142591
 22
84.77744894483165
 32
0.0
 13
635.142591
 23
84.77744894483165
 33
0.0
  0
MTEXT
  5
8FB4
330
8F75
100
AcDbEntity
  8
WYMIARY
 62
     0
100
AcDbMText
 10
586.0012075
 20
86.77744894483165
 30
0.0
 40
3.0
 41
0.0
 71
     5
 72
     1
  1
\A1;98.3
  0
POINT
  5
8FB5
330
8F75
100
AcDbEntity
  8
DEFPOINTS
 62
     0
100
AcDbPoint
 10
536.859824
 20
94.09134394483165
 30
0.0
  0
POINT
  5
8FB6
330
8F75
100
AcDbEntity
  8
DEFPOINTS
 62
     0
100
AcDbPoint
 10
635.142591
 20
94.09134394483165
 30
0.0
  0
POINT
  5
8FB7
330
8F75
100
AcDbEntity
  8
DEFPOINTS
 62
     0
100
AcDbPoint
 10
635.142591
 20
84.77744894483165
 30
0.0
  0
ENDBLK
  5
8FB8
330
8F75
100
AcDbEntity
  8
0
100
AcDbBlockEnd
  0
BLOCK
  5
9059
330
9058
100
AcDbEntity
  8
0
100
AcDbBlockBegin
  2
*D6
 70
     1
 10
0.0
 20
0.0
 30
0.0
  3
*D6
  1
*D6
  0
LINE
  5
905A
330
9058
100
AcDbEntity
  8
WY
 62
     0
100
AcDbLine
 10
0.0000000000000071
 20
99.55683396429646
 30
0.0
 11
-0.0000000000000001
 21
3.75
 31
0.0
  0
LINE
  5
905B
330
9058
100
AcDbEntity
  8
WY
 62
     0
100
AcDbLine
 10
196.6290860774398
 20
61.34137711681987
 30
0.0
 11
196.6290860774398
 21
3.75
 31
0.0
  0
LINE
  5
905C
330
9058
100
AcDbEntity
  8
WY
 62
     0
100
AcDbLine
 10
2.5
 20
5.0
 30
0.0
 11
194.1290860774398
 21
5.0
 31
0.0
  0
SOLID
  5
905D
330
9058
100
AcDbEntity
  8
WY
 62
     0
100
AcDbTrace
 10
2.5
 20
5.416666666666667
 30
0.0
 11
2.5
 21
4.583333333333333
 31
0.0
 12
0.0
 22
5.0
 32
0.0
 13
0.0
 23
5.0
 33
0.0
  0
SOLID
  5
905E
330
9058
100
AcDbEntity
  8
WY
 62
     0
100
AcDbTrace
 10
194.1290860774398
 20
4.583333333333333
 30
0.0
 11
194.1290860774398
 21
5.416666666666667
 31
0.0
 12
196.6290860774398
 22
5.0
 32
0.0
 13
196.6290860774398
 23
5.0
 33
0.0
  0
MTEXT
  5
905F
330
9058
100
AcDbEntity
  8
WY
 62
     0
100
AcDbMText
 10
98.31454303871992
 20
8.541666666666666
 30
0.0
 40
3.5
 41
0.0
 71
     5
 72
     1
  1
97,8%%p0.2
  0
POINT
  5
9060
330
9058
100
AcDbEntity
  8
DEFPOINTS
 62
     0
100
AcDbPoint
 10
0.0000000000000071
 20
100.1818339642965
 30
0.0
  0
POINT
  5
9061
330
9058
100
AcDbEntity
  8
DEFPOINTS
 62
     0
100
AcDbPoint
 10
196.6290860774398
 20
61.96637711681987
 30
0.0
  0
POINT
  5
9062
330
9058
100
AcDbEntity
  8
DEFPOINTS
 62
     0
100
AcDbPoint
 10
196.6290860774398
 20
5.0
 30
0.0
  0
ENDBLK
  5
9063
330
9058
100
AcDbEntity
  8
0
100
AcDbBlockEnd
  0
BLOCK
  5
9066
330
9065
100
AcDbEntity
  8
0
100
AcDbBlockBegin
  2
*D7
 70
     1
 10
0.0
 20
0.0
 30
0.0
  3
*D7
  1
*D7
  0
LINE
  5
9067
330
9065
100
AcDbEntity
  8
WY
 62
     0
100
AcDbLine
 10
13.23968398818995
 20
27.1131356225969
 30
0.0
 11
202.7905012764757
 21
27.1131356225969
 31
0.0
  0
LINE
  5
9068
330
9065
100
AcDbEntity
  8
WY
 62
     0
100
AcDbLine
 10
117.9015752250912
 20
196.3131387697222
 30
0.0
 11
202.7905012764757
 21
196.3131387697222
 31
0.0
  0
LINE
  5
9069
330
9065
100
AcDbEntity
  8
WY
 62
     0
100
AcDbLine
 10
201.5405012764757
 20
29.6131356225969
 30
0.0
 11
201.5405012764757
 21
193.8131387697222
 31
0.0
  0
SOLID
  5
906A
330
9065
100
AcDbEntity
  8
WY
 62
     0
100
AcDbTrace
 10
201.123834609809
 20
29.6131356225969
 30
0.0
 11
201.9571679431423
 21
29.6131356225969
 31
0.0
 12
201.5405012764757
 22
27.1131356225969
 32
0.0
 13
201.5405012764757
 23
27.1131356225969
 33
0.0
  0
SOLID
  5
906B
330
9065
100
AcDbEntity
  8
WY
 62
     0
100
AcDbTrace
 10
201.9571679431423
 20
193.8131387697222
 30
0.0
 11
201.123834609809
 21
193.8131387697222
 31
0.0
 12
201.5405012764757
 22
196.3131387697222
 32
0.0
 13
201.5405012764757
 23
196.3131387697222
 33
0.0
  0
MTEXT
  5
906C
330
9065
100
AcDbEntity
  8
WY
 62
     0
100
AcDbMText
 10
198.2905012764757
 20
111.7131371961595
 30
0.0
 40
3.5
 41
0.0
 71
     5
 72
     1
  1
84.6%%p0.2
 11
0.0
 21
1.0
 31
0.0
  0
POINT
  5
906D
330
9065
100
AcDbEntity
  8
DEFPOINTS
 62
     0
100
AcDbPoint
 10
12.61468398818995
 20
27.1131356225969
 30
0.0
  0
POINT
  5
906E
330
9065
100
AcDbEntity
  8
DEFPOINTS
 62
     0
100
AcDbPoint
 10
117.2765752250912
 20
196.3131387697222
 30
0.0
  0
POINT
  5
906F
330
9065
100
AcDbEntity
  8
DEFPOINTS
 62
     0
100
AcDbPoint
 10
201.5405012764757
 20
196.3131387697222
 30
0.0
  0
ENDBLK
  5
9070
330
9065
100
AcDbEntity
  8
0
100
AcDbBlockEnd
  0
BLOCK
  5
9273
330
9272
100
AcDbEntity
  8
0
100
AcDbBlockBegin
  2
*D8
 70
     1
 10
0.0
 20
0.0
 30
0.0
  3
*D8
  1
*D8
  0
LINE
  5
9274
330
9272
100
AcDbEntity
  8
WY
 62
     0
100
AcDbLine
 10
0.0000000000000071
 20
93.68183396429646
 30
0.0
 11
0.0000000000000071
 21
13.25539654167324
 31
0.0
  0
LINE
  5
9275
330
9272
100
AcDbEntity
  8
WY
 62
     0
100
AcDbLine
 10
56.1252909117261
 20
34.61313896045701
 30
0.0
 11
56.1252909117261
 21
13.25539654167324
 31
0.0
  0
LINE
  5
9276
330
9272
100
AcDbEntity
  8
WY
 62
     0
100
AcDbLine
 10
3.500000000000007
 20
14.75539654167324
 30
0.0
 11
52.6252909117261
 21
14.75539654167324
 31
0.0
  0
SOLID
  5
9277
330
9272
100
AcDbEntity
  8
WY
 62
     0
100
AcDbTrace
 10
3.500000000000007
 20
15.33872987500657
 30
0.0
 11
3.500000000000007
 21
14.1720632083399
 31
0.0
 12
0.0000000000000071
 22
14.75539654167324
 32
0.0
 13
0.0000000000000071
 23
14.75539654167324
 33
0.0
  0
SOLID
  5
9278
330
9272
100
AcDbEntity
  8
WY
 62
     0
100
AcDbTrace
 10
52.6252909117261
 20
14.1720632083399
 30
0.0
 11
52.6252909117261
 21
15.33872987500657
 31
0.0
 12
56.1252909117261
 22
14.75539654167324
 32
0.0
 13
56.1252909117261
 23
14.75539654167324
 33
0.0
  0
MTEXT
  5
9279
330
9272
100
AcDbEntity
  8
WY
 62
     0
100
AcDbMText
 10
28.06264545586305
 20
18.05539654167324
 30
0.0
 40
3.6
 41
0.0
 71
     5
 72
     1
  1
\A1;28
  0
POINT
  5
927A
330
9272
100
AcDbEntity
  8
DEFPOINTS
 62
     0
100
AcDbPoint
 10
0.0000000000000071
 20
95.18183396429646
 30
0.0
  0
POINT
  5
927B
330
9272
100
AcDbEntity
  8
DEFPOINTS
 62
     0
100
AcDbPoint
 10
56.1252909117261
 20
36.11313896045701
 30
0.0
  0
POINT
  5
927C
330
9272
100
AcDbEntity
  8
DEFPOINTS
 62
     0
100
AcDbPoint
 10
56.1252909117261
 20
14.75539654167324
 30
0.0
  0
ENDBLK
  5
927D
330
9272
100
AcDbEntity
  8
0
100
AcDbBlockEnd
  0
BLOCK
  5
9280
330
927F
100
AcDbEntity
  8
0
100
AcDbBlockBegin
  2
*D9
 70
     1
 10
0.0
 20
0.0
 30
0.0
  3
*D9
  1
*D9
  0
LINE
  5
9281
330
927F
100
AcDbEntity
  8
WY
 62
     0
100
AcDbLine
 10
56.1252909117261
 20
33.11313896045701
 30
0.0
 11
56.1252909117261
 21
13.25539654167324
 31
0.0
  0
LINE
  5
9282
330
927F
100
AcDbEntity
  8
WY
 62
     0
100
AcDbLine
 10
125.5878576878543
 20
33.11313896045701
 30
0.0
 11
125.5878576878543
 21
13.25539654167324
 31
0.0
  0
LINE
  5
9283
330
927F
100
AcDbEntity
  8
WY
 62
     0
100
AcDbLine
 10
59.6252909117261
 20
14.75539654167324
 30
0.0
 11
122.0878576878543
 21
14.75539654167324
 31
0.0
  0
SOLID
  5
9284
330
927F
100
AcDbEntity
  8
WY
 62
     0
100
AcDbTrace
 10
59.6252909117261
 20
15.33872987500657
 30
0.0
 11
59.6252909117261
 21
14.1720632083399
 31
0.0
 12
56.1252909117261
 22
14.75539654167324
 32
0.0
 13
56.1252909117261
 23
14.75539654167324
 33
0.0
  0
SOLID
  5
9285
330
927F
100
AcDbEntity
  8
WY
 62
     0
100
AcDbTrace
 10
122.0878576878543
 20
14.1720632083399
 30
0.0
 11
122.0878576878543
 21
15.33872987500657
 31
0.0
 12
125.5878576878543
 22
14.75539654167324
 32
0.0
 13
125.5878576878543
 23
14.75539654167324
 33
0.0
  0
MTEXT
  5
9286
330
927F
100
AcDbEntity
  8
WY
 62
     0
100
AcDbMText
 10
90.8565742997902
 20
18.05539654167324
 30
0.0
 40
3.6
 41
0.0
 71
     5
 72
     1
  1
\A1;34.73
  0
POINT
  5
9287
330
927F
100
AcDbEntity
  8
DEFPOINTS
 62
     0
100
AcDbPoint
 10
56.1252909117261
 20
34.61313896045701
 30
0.0
  0
POINT
  5
9288
330
927F
100
AcDbEntity
  8
DEFPOINTS
 62
     0
100
AcDbPoint
 10
125.5878576878543
 20
34.61313896045701
 30
0.0
  0
POINT
  5
9289
330
927F
100
AcDbEntity
  8
DEFPOINTS
 62
     0
100
AcDbPoint
 10
125.5878576878543
 20
14.75539654167324
 30
0.0
  0
ENDBLK
  5
928A
330
927F
100
AcDbEntity
  8
0
100
AcDbBlockEnd
  0
BLOCK
  5
92A8
330
92A7
100
AcDbEntity
  8
0
100
AcDbBlockBegin
  2
A$C33365191
 70
     0
 10
0.0
 20
0.0
 30
0.0
  3
A$C33365191
  1
A$C33365191
  0
ARC
  5
92A9
330
92A7
100
AcDbEntity
  8
WARSTWA3
100
AcDbCircle
 10
15.00000111116412
 20
187.299998606959
 30
0.0
 40
15.0
100
AcDbArc
 50
0.0
 51
180.0000000000004
  0
LINE
  5
92AA
330
92A7
100
AcDbEntity
  8
WARSTWA3
100
AcDbLine
 10
30.0000062136387
 20
187.3000078456787
 30
0.0
 11
0.0000012962555047
 21
187.3000078456787
 31
0.0
  0
LINE
  5
92AB
330
92A7
100
AcDbEntity
  8
WARSTWA3
100
AcDbLine
 10
0.0000012962555047
 20
187.3000078456787
 30
0.0
 11
0.0000012962555047
 21
184.2999943154243
 31
0.0
  0
LINE
  5
92AC
330
92A7
100
AcDbEntity
  8
WARSTWA3
100
AcDbLine
 10
30.0000062136387
 20
184.2999943154243
 30
0.0
 11
30.0000062136387
 21
187.3000078456787
 31
0.0
  0
LINE
  5
92AD
330
92A7
100
AcDbEntity
  8
WARSTWA3
100
AcDbLine
 10
329.0000012068485
 20
181.2999994116215
 30
0.0
 11
329.0000012068485
 21
28.29999854735411
 31
0.0
  0
LINE
  5
92AE
330
92A7
100
AcDbEntity
  8
WARSTWA3
100
AcDbLine
 10
325.9999969898199
 20
31.29999810776985
 30
0.0
 11
325.9999969898199
 21
184.2999943154243
 31
0.0
  0
LINE
  5
92AF
330
92A7
100
AcDbEntity
  8
WARSTWA3
100
AcDbLine
 10
67.99999754116288
 20
28.29999854735411
 30
0.0
 11
67.99999754116288
 21
181.2999994116215
 31
0.0
  0
LINE
  5
92B0
330
92A7
100
AcDbEntity
  8
WARSTWA3
100
AcDbLine
 10
71.0000017581915
 20
184.2999943154243
 30
0.0
 11
71.0000017581915
 21
31.29999810776985
 31
0.0
  0
LINE
  5
92B1
330
92A7
100
AcDbEntity
  8
WARSTWA3
100
AcDbLine
 10
71.0000017581915
 20
184.2999943154243
 30
0.0
 11
71.0000017581915
 21
31.29999810776985
 31
0.0
  0
LINE
  5
92B2
330
92A7
100
AcDbEntity
  8
WARSTWA3
100
AcDbLine
 10
67.99999754116288
 20
28.29999854735411
 30
0.0
 11
67.99999754116288
 21
181.2999994116215
 31
0.0
  0
LINE
  5
92B3
330
92A7
100
AcDbEntity
  8
WARSTWA3
100
AcDbLine
 10
329.0000012068485
 20
181.2999994116215
 30
0.0
 11
329.0000012068485
 21
28.29999854735411
 31
0.0
  0
LINE
  5
92B4
330
92A7
100
AcDbEntity
  8
WARSTWA3
100
AcDbLine
 10
325.9999969898199
 20
31.29999810776985
 30
0.0
 11
325.9999969898199
 21
184.2999943154243
 31
0.0
  0
LINE
  5
92B5
330
92A7
100
AcDbEntity
  8
WARSTWA3
100
AcDbLine
 10
329.0000012068485
 20
28.29999854735411
 30
0.0
 11
67.99999754116288
 21
28.29999854735411
 31
0.0
  0
LINE
  5
92B6
330
92A7
100
AcDbEntity
  8
WARSTWA3
100
AcDbLine
 10
71.0000017581915
 20
31.29999810776985
 30
0.0
 11
325.9999969898199
 21
31.29999810776985
 31
0.0
  0
LINE
  5
92B7
330
92A7
100
AcDbEntity
  8
WARSTWA3
100
AcDbLine
 10
329.0000012068485
 20
28.29999854735411
 30
0.0
 11
67.99999754116288
 21
28.29999854735411
 31
0.0
  0
LINE
  5
92B8
330
92A7
100
AcDbEntity
  8
WARSTWA3
100
AcDbLine
 10
71.0000017581915
 20
31.29999810776985
 30
0.0
 11
325.9999969898199
 21
31.29999810776985
 31
0.0
  0
LINE
  5
92B9
330
92A7
100
AcDbEntity
  8
WARSTWA3
100
AcDbLine
 10
92.00000333771459
 20
36.29999892733372
 30
0.0
 11
286.9999980478024
 21
36.29999892733372
 31
0.0
  0
LINE
  5
92BA
330
92A7
100
AcDbEntity
  8
WARSTWA3
100
AcDbLine
 10
71.0000017581915
 20
36.29999892733372
 30
0.0
 11
80.00000509605161
 21
36.29999892733372
 31
0.0
  0
LWPOLYLINE
  5
92BB
330
92A7
100
AcDbEntity
  8
WARSTWA3
100
AcDbPolyline
 90
        9
 70
   128
 43
0.0
 10
71.0000017581915
 20
31.29999810776985
 10
70.9423528908228
 20
31.24235389701403
 10
70.77164146289579
 20
31.07163664832092
 10
70.49440535888425
 20
30.79440752922869
 10
70.12131753549329
 20
30.42131854168451
 10
69.66671104714624
 20
29.96670972503102
 10
69.14804819211713
 20
29.44804919830835
 10
68.58526858672849
 20
28.88526959291971
 10
67.99999754116288
 20
28.29999854735411
  0
LINE
  5
92BC
330
92A7
100
AcDbEntity
  8
WARSTWA3
100
AcDbLine
 10
80.00000509605161
 20
36.29999892733372
 30
0.0
 11
80.00000509605161
 21
31.29999810776985
 31
0.0
  0
LINE
  5
92BD
330
92A7
100
AcDbEntity
  8
WARSTWA3
100
AcDbLine
 10
92.00000333771459
 20
31.29999810776985
 30
0.0
 11
92.00000333771459
 21
36.29999892733372
 31
0.0
  0
LINE
  5
92BE
330
92A7
100
AcDbEntity
  8
WARSTWA3
100
AcDbLine
 10
106.6000027506088
 20
31.29999810776985
 30
0.0
 11
106.6000027506088
 21
36.29999892733372
 31
0.0
  0
LINE
  5
92BF
330
92A7
100
AcDbEntity
  8
WARSTWA3
100
AcDbLine
 10
102.6000002323126
 20
36.29999892733372
 30
0.0
 11
102.6000002323126
 21
31.29999810776985
 31
0.0
  0
LINE
  5
92C0
330
92A7
100
AcDbEntity
  8
WARSTWA3
100
AcDbLine
 10
233.9000011718308
 20
33.79999851755178
 30
0.0
 11
210.1000015547907
 21
33.79999851755178
 31
0.0
  0
LINE
  5
92C1
330
92A7
100
AcDbEntity
  8
WARSTWA3
100
AcDbLine
 10
233.9000011718308
 20
33.79999851755178
 30
0.0
 11
210.1000015547907
 21
33.79999851755178
 31
0.0
  0
LINE
  5
92C2
330
92A7
100
AcDbEntity
  8
WARSTWA3
100
AcDbLine
 10
210.1000015547907
 20
33.79999851755178
 30
0.0
 11
210.4069619829243
 21
31.29999810776985
 31
0.0
  0
LINE
  5
92C3
330
92A7
100
AcDbEntity
  8
WARSTWA3
100
AcDbLine
 10
213.2000007125025
 20
33.79999851755178
 30
0.0
 11
213.2000007125025
 21
36.29999892733372
 31
0.0
  0
LINE
  5
92C4
330
92A7
100
AcDbEntity
  8
WARSTWA3
100
AcDbLine
 10
210.1000015547907
 20
33.79999851755178
 30
0.0
 11
210.4069619829243
 21
31.29999810776985
 31
0.0
  0
LINE
  5
92C5
330
92A7
100
AcDbEntity
  8
WARSTWA3
100
AcDbLine
 10
233.9000011718308
 20
31.29999810776985
 30
0.0
 11
233.9000011718308
 21
33.79999851755178
 31
0.0
  0
LINE
  5
92C6
330
92A7
100
AcDbEntity
  8
WARSTWA3
100
AcDbLine
 10
223.200001187477
 20
33.79999851755178
 30
0.0
 11
223.200001187477
 21
36.29999892733372
 31
0.0
  0
LINE
  5
92C7
330
92A7
100
AcDbEntity
  8
WARSTWA3
100
AcDbLine
 10
233.9000011718308
 20
31.29999810776985
 30
0.0
 11
233.9000011718308
 21
33.79999851755178
 31
0.0
  0
LINE
  5
92C8
330
92A7
100
AcDbEntity
  8
WARSTWA3
100
AcDbLine
 10
273.6000031156873
 20
31.29999810776985
 30
0.0
 11
273.6000031156873
 21
36.29999892733372
 31
0.0
  0
LINE
  5
92C9
330
92A7
100
AcDbEntity
  8
WARSTWA3
100
AcDbLine
 10
263.6000014765596
 20
31.29999810776985
 30
0.0
 11
263.6000014765596
 21
36.29999892733372
 31
0.0
  0
LINE
  5
92CA
330
92A7
100
AcDbEntity
  8
WARSTWA3
100
AcDbLine
 10
286.9999980478024
 20
36.29999892733372
 30
0.0
 11
286.9999980478024
 21
31.29999810776985
 31
0.0
  0
LINE
  5
92CB
330
92A7
100
AcDbEntity
  8
WARSTWA3
100
AcDbLine
 10
299.0000056026911
 20
36.29999892733372
 30
0.0
 11
325.9999969898199
 21
36.29999892733372
 31
0.0
  0
LINE
  5
92CC
330
92A7
100
AcDbEntity
  8
WARSTWA3
100
AcDbLine
 10
313.9999987481569
 20
31.29999810776985
 30
0.0
 11
313.9999987481569
 21
36.29999892733372
 31
0.0
  0
LINE
  5
92CD
330
92A7
100
AcDbEntity
  8
WARSTWA3
100
AcDbLine
 10
299.0000056026911
 20
31.29999810776985
 30
0.0
 11
299.0000056026911
 21
36.29999892733372
 31
0.0
  0
LWPOLYLINE
  5
92CE
330
92A7
100
AcDbEntity
  8
WARSTWA3
100
AcDbPolyline
 90
        9
 70
   128
 43
0.0
 10
325.9999969898199
 20
31.29999810776985
 10
326.0576458571886
 20
31.24235389701403
 10
326.2283665983414
 20
31.07163664832092
 10
326.5055933891272
 20
30.79440752922869
 10
326.8786812125181
 20
30.42131854168451
 10
327.3332877008652
 20
29.96670972503102
 10
327.8519505558943
 20
29.44804919830835
 10
328.4147301612829
 20
28.88526959291971
 10
329.0000012068485
 20
28.29999854735411
  0
LINE
  5
92CF
330
92A7
100
AcDbEntity
  8
WARSTWA3
100
AcDbLine
 10
324.0000003872847
 20
31.29999810776985
 30
0.0
 11
324.0000003872847
 21
36.29999892733372
 31
0.0
  0
LINE
  5
92D0
330
92A7
100
AcDbEntity
  8
WARSTWA3
100
AcDbLine
 10
325.9999969898199
 20
179.3000028090862
 30
0.0
 11
71.0000017581915
 21
179.3000028090862
 31
0.0
  0
LINE
  5
92D1
330
92A7
100
AcDbEntity
  8
WARSTWA3
100
AcDbLine
 10
71.0000017581915
 20
181.2999994116215
 30
0.0
 11
325.9999969898199
 21
181.2999994116215
 31
0.0
  0
LWPOLYLINE
  5
92D2
330
92A7
100
AcDbEntity
  8
WARSTWA3
100
AcDbPolyline
 90
        9
 70
   128
 43
0.0
 10
71.0000017581915
 20
184.2999943154243
 10
70.9423528908228
 20
184.2423454480556
 10
70.77164146289579
 20
184.0716340201286
 10
70.49440535888425
 20
183.7944165425686
 10
70.12131753549329
 20
183.4213100927261
 10
69.66671104714624
 20
182.9667129176048
 10
69.14804819211713
 20
182.44804074935
 10
68.58526858672849
 20
181.8852611439613
 10
67.99999754116288
 20
181.2999994116215
  0
LWPOLYLINE
  5
92D3
330
92A7
100
AcDbEntity
  8
WARSTWA3
100
AcDbPolyline
 90
        9
 70
   128
 43
0.0
 10
71.0000017581915
 20
184.2999943154243
 10
70.9423528908228
 20
184.2423454480556
 10
70.77164146289579
 20
184.0716340201286
 10
70.49440535888425
 20
183.7944165425686
 10
70.12131753549329
 20
183.4213100927261
 10
69.66671104714624
 20
182.9667129176048
 10
69.14804819211713
 20
182.44804074935
 10
68.58526858672849
 20
181.8852611439613
 10
67.99999754116288
 20
181.2999994116215
  0
LWPOLYLINE
  5
92D4
330
92A7
100
AcDbEntity
  8
WARSTWA3
100
AcDbPolyline
 90
        9
 70
   128
 43
0.0
 10
325.9999969898199
 20
184.2999943154243
 10
326.0576458571886
 20
184.2423454480556
 10
326.2283665983414
 20
184.0716340201286
 10
326.5055933891272
 20
183.7944165425686
 10
326.8786812125181
 20
183.4213100927261
 10
327.3332877008652
 20
182.9667129176048
 10
327.8519505558943
 20
182.44804074935
 10
328.4147301612829
 20
181.8852611439613
 10
329.0000012068485
 20
181.2999994116215
  0
LWPOLYLINE
  5
92D5
330
92A7
100
AcDbEntity
  8
WARSTWA3
100
AcDbPolyline
 90
        9
 70
   128
 43
0.0
 10
325.9999969898199
 20
184.2999943154243
 10
326.0576458571886
 20
184.2423454480556
 10
326.2283665983414
 20
184.0716340201286
 10
326.5055933891272
 20
183.7944165425686
 10
326.8786812125181
 20
183.4213100927261
 10
327.3332877008652
 20
182.9667129176048
 10
327.8519505558943
 20
182.44804074935
 10
328.4147301612829
 20
181.8852611439613
 10
329.0000012068485
 20
181.2999994116215
  0
CIRCLE
  5
92D6
330
92A7
100
AcDbEntity
  8
WARSTWA3
100
AcDbCircle
 10
357.100001111164
 20
10.29999860695898
 30
0.0
 40
10.30000000000007
  0
ENDBLK
  5
92D7
330
92A7
100
AcDbEntity
  8
0
100
AcDbBlockEnd
  0
BLOCK
  5
94FE
330
94FD
100
AcDbEntity
  8
0
100
AcDbBlockBegin
  2
*D11
 70
     1
 10
0.0
 20
0.0
 30
0.0
  3
*D11
  1
*D11
  0
LINE
  5
9500
330
94FD
100
AcDbEntity
  8
WY
 62
     0
100
AcDbLine
 10
819.7166231954612
 20
181.7765904814162
 30
0.0
 11
819.7166231954612
 21
133.5606734992679
 31
0.0
  0
LINE
  5
9501
330
94FD
100
AcDbEntity
  8
WY
 62
     0
100
AcDbLine
 10
918.0311662341812
 20
162.6688620576779
 30
0.0
 11
918.0311662341812
 21
133.5606734992679
 31
0.0
  0
LINE
  5
9502
330
94FD
100
AcDbEntity
  8
WY
 62
     0
100
AcDbLine
 10
822.2166231954612
 20
134.8106734992679
 30
0.0
 11
915.5311662341812
 21
134.8106734992679
 31
0.0
  0
SOLID
  5
9503
330
94FD
100
AcDbEntity
  8
WY
 62
     0
100
AcDbTrace
 10
822.2166231954612
 20
135.2273401659346
 30
0.0
 11
822.2166231954612
 21
134.3940068326013
 31
0.0
 12
819.7166231954612
 22
134.8106734992679
 32
0.0
 13
819.7166231954612
 23
134.8106734992679
 33
0.0
  0
SOLID
  5
9504
330
94FD
100
AcDbEntity
  8
WY
 62
     0
100
AcDbTrace
 10
915.5311662341812
 20
134.3940068326013
 30
0.0
 11
915.5311662341812
 21
135.2273401659346
 31
0.0
 12
918.0311662341812
 22
134.8106734992679
 32
0.0
 13
918.0311662341812
 23
134.8106734992679
 33
0.0
  0
MTEXT
  5
9505
330
94FD
100
AcDbEntity
  8
WY
 62
     0
100
AcDbMText
 10
868.8738947148213
 20
138.3523401659346
 30
0.0
 40
3.5
 41
0.0
 71
     5
 72
     1
  1
97,8%%p0.2
  0
POINT
  5
9506
330
94FD
100
AcDbEntity
  8
DEFPOINTS
 62
     0
100
AcDbPoint
 10
819.7166231954612
 20
182.4015904814162
 30
0.0
  0
POINT
  5
9507
330
94FD
100
AcDbEntity
  8
DEFPOINTS
 62
     0
100
AcDbPoint
 10
918.0311662341812
 20
163.2938620576779
 30
0.0
  0
POINT
  5
9508
330
94FD
100
AcDbEntity
  8
DEFPOINTS
 62
     0
100
AcDbPoint
 10
918.0311662341812
 20
134.8106734992679
 30
0.0
  0
ENDBLK
  5
94FF
330
94FD
100
AcDbEntity
  8
0
100
AcDbBlockEnd
  0
BLOCK
  5
950A
330
9509
100
AcDbEntity
  8
0
100
AcDbBlockBegin
  2
*D12
 70
     1
 10
0.0
 20
0.0
 30
0.0
  3
*D12
  1
*D12
  0
LINE
  5
950C
330
9509
100
AcDbEntity
  8
WY
 62
     0
100
AcDbLine
 10
826.6489651895563
 20
145.8672413105664
 30
0.0
 11
921.7368738336991
 21
145.8672413105664
 31
0.0
  0
LINE
  5
950D
330
9509
100
AcDbEntity
  8
WY
 62
     0
100
AcDbLine
 10
878.9799108080069
 20
230.467242884129
 30
0.0
 11
921.7368738336991
 21
230.467242884129
 31
0.0
  0
LINE
  5
950E
330
9509
100
AcDbEntity
  8
WY
 62
     0
100
AcDbLine
 10
920.4868738336991
 20
148.3672413105664
 30
0.0
 11
920.4868738336991
 21
227.967242884129
 31
0.0
  0
SOLID
  5
950F
330
9509
100
AcDbEntity
  8
WY
 62
     0
100
AcDbTrace
 10
920.0702071670324
 20
148.3672413105664
 30
0.0
 11
920.9035405003657
 21
148.3672413105664
 31
0.0
 12
920.4868738336991
 22
145.8672413105664
 32
0.0
 13
920.4868738336991
 23
145.8672413105664
 33
0.0
  0
SOLID
  5
9510
330
9509
100
AcDbEntity
  8
WY
 62
     0
100
AcDbTrace
 10
920.9035405003657
 20
227.967242884129
 30
0.0
 11
920.0702071670324
 21
227.967242884129
 31
0.0
 12
920.4868738336991
 22
230.467242884129
 32
0.0
 13
920.4868738336991
 23
230.467242884129
 33
0.0
  0
MTEXT
  5
9511
330
9509
100
AcDbEntity
  8
WY
 62
     0
100
AcDbMText
 10
917.2368738336991
 20
188.1672420973477
 30
0.0
 40
3.5
 41
0.0
 71
     5
 72
     1
  1
84.6%%p0.2
 11
0.0
 21
1.0
 31
0.0
  0
POINT
  5
9512
330
9509
100
AcDbEntity
  8
DEFPOINTS
 62
     0
100
AcDbPoint
 10
826.0239651895563
 20
145.8672413105664
 30
0.0
  0
POINT
  5
9513
330
9509
100
AcDbEntity
  8
DEFPOINTS
 62
     0
100
AcDbPoint
 10
878.3549108080069
 20
230.467242884129
 30
0.0
  0
POINT
  5
9514
330
9509
100
AcDbEntity
  8
DEFPOINTS
 62
     0
100
AcDbPoint
 10
920.4868738336991
 20
230.467242884129
 30
0.0
  0
ENDBLK
  5
950B
330
9509
100
AcDbEntity
  8
0
100
AcDbBlockEnd
  0
BLOCK
  5
9516
330
9515
100
AcDbEntity
  8
0
100
AcDbBlockBegin
  2
*D13
 70
     1
 10
0.0
 20
0.0
 30
0.0
  3
*D13
  1
*D13
  0
LINE
  5
9518
330
9515
100
AcDbEntity
  8
WY
 62
     0
100
AcDbLine
 10
819.7166231954612
 20
178.4015904814162
 30
0.0
 11
819.7166231954612
 21
138.1883717701045
 31
0.0
  0
LINE
  5
9519
330
9515
100
AcDbEntity
  8
WY
 62
     0
100
AcDbLine
 10
847.7792686513243
 20
148.8672429794964
 30
0.0
 11
847.7792686513243
 21
138.1883717701045
 31
0.0
  0
LINE
  5
951A
330
9515
100
AcDbEntity
  8
WY
 62
     0
100
AcDbLine
 10
823.2166231954612
 20
139.6883717701045
 30
0.0
 11
844.2792686513243
 21
139.6883717701045
 31
0.0
  0
SOLID
  5
951B
330
9515
100
AcDbEntity
  8
WY
 62
     0
100
AcDbTrace
 10
823.2166231954612
 20
140.2717051034379
 30
0.0
 11
823.2166231954612
 21
139.1050384367712
 31
0.0
 12
819.7166231954612
 22
139.6883717701045
 32
0.0
 13
819.7166231954612
 23
139.6883717701045
 33
0.0
  0
SOLID
  5
951C
330
9515
100
AcDbEntity
  8
WY
 62
     0
100
AcDbTrace
 10
844.2792686513243
 20
139.1050384367712
 30
0.0
 11
844.2792686513243
 21
140.2717051034379
 31
0.0
 12
847.7792686513243
 22
139.6883717701045
 32
0.0
 13
847.7792686513243
 23
139.6883717701045
 33
0.0
  0
MTEXT
  5
951D
330
9515
100
AcDbEntity
  8
WY
 62
     0
100
AcDbMText
 10
833.7479459233928
 20
142.9883717701045
 30
0.0
 40
3.6
 41
0.0
 71
     5
 72
     1
  1
\A1;28
  0
POINT
  5
951E
330
9515
100
AcDbEntity
  8
DEFPOINTS
 62
     0
100
AcDbPoint
 10
819.7166231954612
 20
179.9015904814162
 30
0.0
  0
POINT
  5
951F
330
9515
100
AcDbEntity
  8
DEFPOINTS
 62
     0
100
AcDbPoint
 10
847.7792686513243
 20
150.3672429794964
 30
0.0
  0
POINT
  5
9520
330
9515
100
AcDbEntity
  8
DEFPOINTS
 62
     0
100
AcDbPoint
 10
847.7792686513243
 20
139.6883717701045
 30
0.0
  0
ENDBLK
  5
9517
330
9515
100
AcDbEntity
  8
0
100
AcDbBlockEnd
  0
BLOCK
  5
9522
330
9521
100
AcDbEntity
  8
0
100
AcDbBlockBegin
  2
*D14
 70
     1
 10
0.0
 20
0.0
 30
0.0
  3
*D14
  1
*D14
  0
LINE
  5
9524
330
9521
100
AcDbEntity
  8
WY
 62
     0
100
AcDbLine
 10
847.7792686513243
 20
148.1172429794964
 30
0.0
 11
847.7792686513243
 21
138.1883717701045
 31
0.0
  0
LINE
  5
9525
330
9521
100
AcDbEntity
  8
WY
 62
     0
100
AcDbLine
 10
882.5105520393884
 20
148.1172429794964
 30
0.0
 11
882.5105520393884
 21
138.1883717701045
 31
0.0
  0
LINE
  5
9526
330
9521
100
AcDbEntity
  8
WY
 62
     0
100
AcDbLine
 10
851.2792686513243
 20
139.6883717701045
 30
0.0
 11
879.0105520393884
 21
139.6883717701045
 31
0.0
  0
SOLID
  5
9527
330
9521
100
AcDbEntity
  8
WY
 62
     0
100
AcDbTrace
 10
851.2792686513243
 20
140.2717051034379
 30
0.0
 11
851.2792686513243
 21
139.1050384367712
 31
0.0
 12
847.7792686513243
 22
139.6883717701045
 32
0.0
 13
847.7792686513243
 23
139.6883717701045
 33
0.0
  0
SOLID
  5
9528
330
9521
100
AcDbEntity
  8
WY
 62
     0
100
AcDbTrace
 10
879.0105520393884
 20
139.1050384367712
 30
0.0
 11
879.0105520393884
 21
140.2717051034379
 31
0.0
 12
882.5105520393884
 22
139.6883717701045
 32
0.0
 13
882.5105520393884
 23
139.6883717701045
 33
0.0
  0
MTEXT
  5
9529
330
9521
100
AcDbEntity
  8
WY
 62
     0
100
AcDbMText
 10
865.1449103453563
 20
142.9883717701045
 30
0.0
 40
3.6
 41
0.0
 71
     5
 72
     1
  1
\A1;17.37
  0
POINT
  5
952A
330
9521
100
AcDbEntity
  8
DEFPOINTS
 62
     0
100
AcDbPoint
 10
847.7792686513243
 20
149.6172429794964
 30
0.0
  0
POINT
  5
952B
330
9521
100
AcDbEntity
  8
DEFPOINTS
 62
     0
100
AcDbPoint
 10
882.5105520393884
 20
149.6172429794964
 30
0.0
  0
POINT
  5
952C
330
9521
100
AcDbEntity
  8
DEFPOINTS
 62
     0
100
AcDbPoint
 10
882.5105520393884
 20
139.6883717701045
 30
0.0
  0
ENDBLK
  5
9523
330
9521
100
AcDbEntity
  8
0
100
AcDbBlockEnd
  0
BLOCK
  5
9531
330
9530
100
AcDbEntity
  8
0
100
AcDbBlockBegin
  2
*D15
 70
     1
 10
0.0
 20
0.0
 30
0.0
  3
*D15
  1
*D15
  0
LINE
  5
9533
330
9530
100
AcDbEntity
  8
WYMIARY
 62
     0
100
AcDbLine
 10
536.8432402082678
 20
174.4345751298092
 30
0.0
 11
536.8432402082678
 21
130.5368977907962
 31
0.0
  0
LINE
  5
9534
330
9530
100
AcDbEntity
  8
WYMIARY
 62
     0
100
AcDbLine
 10
564.8906934171431
 20
142.2265794502226
 30
0.0
 11
564.8906934171431
 21
130.5368977907962
 31
0.0
  0
LINE
  5
9535
330
9530
100
AcDbEntity
  8
WYMIARY
 62
     0
100
AcDbLine
 10
539.8432402082678
 20
132.0368977907962
 30
0.0
 11
561.8906934171431
 21
132.0368977907962
 31
0.0
  0
SOLID
  5
9536
330
9530
100
AcDbEntity
  8
WYMIARY
 62
     0
100
AcDbTrace
 10
539.8432402082678
 20
132.5368977907962
 30
0.0
 11
539.8432402082678
 21
131.5368977907962
 31
0.0
 12
536.8432402082678
 22
132.0368977907962
 32
0.0
 13
536.8432402082678
 23
132.0368977907962
 33
0.0
  0
SOLID
  5
9537
330
9530
100
AcDbEntity
  8
WYMIARY
 62
     0
100
AcDbTrace
 10
561.8906934171431
 20
131.5368977907962
 30
0.0
 11
561.8906934171431
 21
132.5368977907962
 31
0.0
 12
564.8906934171431
 22
132.0368977907962
 32
0.0
 13
564.8906934171431
 23
132.0368977907962
 33
0.0
  0
MTEXT
  5
9538
330
9530
100
AcDbEntity
  8
WYMIARY
 62
     0
100
AcDbMText
 10
550.8669668127054
 20
134.0368977907962
 30
0.0
 40
3.0
 41
0.0
 71
     5
 72
     1
  1
\A1;28
  0
POINT
  5
9539
330
9530
100
AcDbEntity
  8
DEFPOINTS
 62
     0
100
AcDbPoint
 10
536.8432402082678
 20
175.9345751298092
 30
0.0
  0
POINT
  5
953A
330
9530
100
AcDbEntity
  8
DEFPOINTS
 62
     0
100
AcDbPoint
 10
564.8906934171431
 20
143.7265794502226
 30
0.0
  0
POINT
  5
953B
330
9530
100
AcDbEntity
  8
DEFPOINTS
 62
     0
100
AcDbPoint
 10
564.8906934171431
 20
132.0368977907962
 30
0.0
  0
ENDBLK
  5
9532
330
9530
100
AcDbEntity
  8
0
100
AcDbBlockEnd
  0
BLOCK
  5
9540
330
953F
100
AcDbEntity
  8
0
100
AcDbBlockBegin
  2
*D16
 70
     1
 10
0.0
 20
0.0
 30
0.0
  3
*D16
  1
*D16
  0
LINE
  5
9542
330
953F
100
AcDbEntity
  8
WYMIARY
 62
     0
100
AcDbLine
 10
564.8906934171431
 20
142.2265794502226
 30
0.0
 11
564.8906934171431
 21
130.5368977907962
 31
0.0
  0
LINE
  5
9543
330
953F
100
AcDbEntity
  8
WYMIARY
 62
     0
100
AcDbLine
 10
599.6219768052072
 20
142.5266987079136
 30
0.0
 11
599.6219768052072
 21
130.5368977907962
 31
0.0
  0
LINE
  5
9544
330
953F
100
AcDbEntity
  8
WYMIARY
 62
     0
100
AcDbLine
 10
567.8906934171431
 20
132.0368977907962
 30
0.0
 11
596.6219768052072
 21
132.0368977907962
 31
0.0
  0
SOLID
  5
9545
330
953F
100
AcDbEntity
  8
WYMIARY
 62
     0
100
AcDbTrace
 10
567.8906934171431
 20
132.5368977907962
 30
0.0
 11
567.8906934171431
 21
131.5368977907962
 31
0.0
 12
564.8906934171431
 22
132.0368977907962
 32
0.0
 13
564.8906934171431
 23
132.0368977907962
 33
0.0
  0
SOLID
  5
9546
330
953F
100
AcDbEntity
  8
WYMIARY
 62
     0
100
AcDbTrace
 10
596.6219768052072
 20
131.5368977907962
 30
0.0
 11
596.6219768052072
 21
132.5368977907962
 31
0.0
 12
599.6219768052072
 22
132.0368977907962
 32
0.0
 13
599.6219768052072
 23
132.0368977907962
 33
0.0
  0
MTEXT
  5
9547
330
953F
100
AcDbEntity
  8
WYMIARY
 62
     0
100
AcDbMText
 10
582.2563351111751
 20
134.0368977907962
 30
0.0
 40
3.0
 41
0.0
 71
     5
 72
     1
  1
\A1;34.7
  0
POINT
  5
9548
330
953F
100
AcDbEntity
  8
DEFPOINTS
 62
     0
100
AcDbPoint
 10
564.8906934171431
 20
143.7265794502226
 30
0.0
  0
POINT
  5
9549
330
953F
100
AcDbEntity
  8
DEFPOINTS
 62
     0
100
AcDbPoint
 10
599.6219768052072
 20
144.0266987079136
 30
0.0
  0
POINT
  5
954A
330
953F
100
AcDbEntity
  8
DEFPOINTS
 62
     0
100
AcDbPoint
 10
599.6219768052072
 20
132.0368977907962
 30
0.0
  0
ENDBLK
  5
9541
330
953F
100
AcDbEntity
  8
0
100
AcDbBlockEnd
  0
BLOCK
  5
954F
330
954E
100
AcDbEntity
  8
0
100
AcDbBlockBegin
  2
*D17
 70
     1
 10
0.0
 20
0.0
 30
0.0
  3
*D17
  1
*D17
  0
LINE
  5
9551
330
954E
100
AcDbEntity
  8
WYMIARY
 62
     0
100
AcDbLine
 10
593.9663355738257
 20
223.8265793548552
 30
0.0
 11
520.1026458415785
 21
223.8265793548552
 31
0.0
  0
LINE
  5
9552
330
954E
100
AcDbEntity
  8
WYMIARY
 62
     0
100
AcDbLine
 10
537.8353892053678
 20
139.2265787945715
 30
0.0
 11
520.1026458415785
 21
139.2265787945715
 31
0.0
  0
LINE
  5
9553
330
954E
100
AcDbEntity
  8
WYMIARY
 62
     0
100
AcDbLine
 10
521.6026458415785
 20
220.8265793548552
 30
0.0
 11
521.6026458415785
 21
142.2265787945715
 31
0.0
  0
SOLID
  5
9554
330
954E
100
AcDbEntity
  8
WYMIARY
 62
     0
100
AcDbTrace
 10
522.1026458415785
 20
220.8265793548552
 30
0.0
 11
521.1026458415785
 21
220.8265793548552
 31
0.0
 12
521.6026458415785
 22
223.8265793548552
 32
0.0
 13
521.6026458415785
 23
223.8265793548552
 33
0.0
  0
SOLID
  5
9555
330
954E
100
AcDbEntity
  8
WYMIARY
 62
     0
100
AcDbTrace
 10
521.1026458415785
 20
142.2265787945715
 30
0.0
 11
522.1026458415785
 21
142.2265787945715
 31
0.0
 12
521.6026458415785
 22
139.2265787945715
 32
0.0
 13
521.6026458415785
 23
139.2265787945715
 33
0.0
  0
MTEXT
  5
9556
330
954E
100
AcDbEntity
  8
WYMIARY
 62
     0
100
AcDbMText
 10
519.6026458415785
 20
181.5265790747133
 30
0.0
 40
3.0
 41
0.0
 71
     5
 72
     1
  1
\A1;84.60
 11
0.0
 21
1.0
 31
0.0
  0
POINT
  5
9557
330
954E
100
AcDbEntity
  8
DEFPOINTS
 62
     0
100
AcDbPoint
 10
595.4663355738257
 20
223.8265793548552
 30
0.0
  0
POINT
  5
9558
330
954E
100
AcDbEntity
  8
DEFPOINTS
 62
     0
100
AcDbPoint
 10
539.3353892053678
 20
139.2265787945715
 30
0.0
  0
POINT
  5
9559
330
954E
100
AcDbEntity
  8
DEFPOINTS
 62
     0
100
AcDbPoint
 10
521.6026458415785
 20
139.2265787945715
 30
0.0
  0
ENDBLK
  5
9550
330
954E
100
AcDbEntity
  8
0
100
AcDbBlockEnd
  0
ENDSEC
  0
SECTION
  2
ENTITIES
  0
LINE
  5
2D2D
330
18
100
AcDbEntity
  8
WYMIARY
 62
     6
100
AcDbLine
 10
486.041244
 20
0.0
 30
0.0
 11
486.041244
 21
297.0
 31
0.0
  0
LINE
  5
2D2E
330
18
100
AcDbEntity
  8
WYMIARY
 62
     6
100
AcDbLine
 10
497.671651
 20
292.0
 30
0.0
 11
497.671651
 21
5.0
 31
0.0
  0
LINE
  5
2D34
330
18
100
AcDbEntity
  8
2
100
AcDbLine
 10
682.671651
 20
5.0
 30
0.0
 11
682.671651
 21
292.0
 31
0.0
  0
LINE
  5
2D35
330
18
100
AcDbEntity
  8
2
100
AcDbLine
 10
687.671651
 20
0.0
 30
0.0
 11
687.671651
 21
297.0
 31
0.0
  0
LINE
  5
2D36
330
18
100
AcDbEntity
  8
WY
  6
CONTINUOUS
 62
     3
100
AcDbLine
 10
682.671651
 20
19.689837
 30
0.0
 11
497.671651
 21
19.689837
 31
0.0
  0
LINE
  5
2D38
330
18
100
AcDbEntity
  8
2
100
AcDbLine
 10
497.671651
 20
5.0
 30
0.0
 11
682.671651
 21
5.0
 31
0.0
  0
LINE
  5
2D39
330
18
100
AcDbEntity
  8
2
 62
     6
100
AcDbLine
 10
497.671651
 20
0.0
 30
0.0
 11
687.671651
 21
0.0
 31
0.0
  0
LINE
  5
2D3A
330
18
100
AcDbEntity
  8
0
100
AcDbLine
 10
529.697667
 20
11.742481
 30
0.0
 11
528.795256
 21
11.742481
 31
0.0
  0
ELLIPSE
  5
2D3B
330
18
100
AcDbEntity
  8
0
100
AcDbEllipse
 10
529.697667
 20
11.742481
 30
0.0
 11
-1.203215696869327
 21
1.967000000000000E-13
 31
0.0
210
0.0
220
0.0
230
1.0
 40
0.958812
 41
-1.570796326794739
 42
0.0000000000001705
  0
TEXT
  5
2D3D
330
18
100
AcDbEntity
  8
1
100
AcDbText
 10
515.607578
 20
8.797457
 30
0.0
 40
5.0
  1
A4
 51
15.0
  7
ITALIC
100
AcDbText
  0
LINE
  5
2D40
330
18
100
AcDbEntity
  8
WYMIARY
 62
     6
100
AcDbLine
 10
497.671651
 20
0.0
 30
0.0
 11
486.041244
 21
0.0
 31
0.0
  0
TEXT
  5
2D42
330
18
100
AcDbEntity
  8
WY
100
AcDbText
 10
502.936765
 20
16.373844
 30
0.0
 40
2.0
  1
Skala
 51
15.0
  7
ITALIC
100
AcDbText
  0
TEXT
  5
2D43
330
18
100
AcDbEntity
  8
WY
100
AcDbText
 10
515.042219
 20
16.329369
 30
0.0
 40
2.0
  1
Format
 51
15.0
  7
ITALIC
100
AcDbText
  0
LINE
  5
2D44
330
18
100
AcDbEntity
  8
0
100
AcDbLine
 10
528.494452
 20
11.742481
 30
0.0
 11
528.795256
 21
11.742481
 31
0.0
  0
LINE
  5
2D45
330
18
100
AcDbEntity
  8
0
100
AcDbLine
 10
559.88722
 20
17.211264
 30
0.0
 11
559.88722
 21
9.015264
 31
0.0
  0
LINE
  5
2D46
330
18
100
AcDbEntity
  8
0
100
AcDbLine
 10
550.89322
 20
9.438264
 30
0.0
 11
550.89322
 21
7.416264
 31
0.0
  0
ARC
  5
2D47
330
18
100
AcDbEntity
  8
0
100
AcDbCircle
 10
551.5428
 20
9.724764
 30
0.0
 40
0.709955
100
AcDbArc
 50
203.80008
 51
272.051918
  0
LINE
  5
2D48
330
18
100
AcDbEntity
  8
0
100
AcDbLine
 10
549.34822
 20
7.416264
 30
0.0
 11
549.34822
 21
15.612264
 31
0.0
  0
ARC
  5
2D49
330
18
100
AcDbEntity
  8
0
100
AcDbCircle
 10
551.982126
 20
10.136416
 30
0.0
 40
1.128907
100
AcDbArc
 50
276.719576
 51
2.175194
  0
ARC
  5
2D4A
330
18
100
AcDbEntity
  8
0
100
AcDbCircle
 10
555.243059
 20
10.503572
 30
0.0
 40
1.488419
100
AcDbArc
 50
191.634268
 51
270.699113
  0
ARC
  5
2D4B
330
18
100
AcDbEntity
  8
0
100
AcDbCircle
 10
556.209381
 20
10.503572
 30
0.0
 40
1.488419
100
AcDbArc
 50
269.300887
 51
348.365732
  0
LINE
  5
2D4C
330
18
100
AcDbEntity
  8
0
100
AcDbLine
 10
558.34222
 20
9.015264
 30
0.0
 11
558.34222
 21
17.211264
 31
0.0
  0
ARC
  5
2D4D
330
18
100
AcDbEntity
  8
0
100
AcDbCircle
 10
545.056591
 20
10.472364
 30
0.0
 40
1.425319
100
AcDbArc
 50
269.703671
 51
350.465171
  0
ARC
  5
2D4E
330
18
100
AcDbEntity
  8
0
100
AcDbCircle
 10
544.201848
 20
10.472364
 30
0.0
 40
1.425319
100
AcDbArc
 50
189.534829
 51
270.2963290000001
  0
LINE
  5
2D4F
330
18
100
AcDbEntity
  8
0
100
AcDbLine
 10
547.14922
 20
9.015264
 30
0.0
 11
547.14922
 21
17.211264
 31
0.0
  0
LINE
  5
2D50
330
18
100
AcDbEntity
  8
0
100
AcDbLine
 10
548.69422
 20
17.211264
 30
0.0
 11
548.69422
 21
9.015264
 31
0.0
  0
LINE
  5
2D51
330
18
100
AcDbEntity
  8
0
100
AcDbLine
 10
539.892236
 20
14.361264
 30
0.0
 11
539.903809
 21
9.015264
 31
0.0
  0
LINE
  5
2D52
330
18
100
AcDbEntity
  8
0
100
AcDbLine
 10
538.361694
 20
9.015264
 30
0.0
 11
538.361694
 21
15.60367
 31
0.0
  0
LINE
  5
2D53
330
18
100
AcDbEntity
  8
0
100
AcDbLine
 10
529.697667
 20
9.895061
 30
0.0
 11
529.697667
 21
8.185369
 31
0.0
  0
LINE
  5
2D54
330
18
100
AcDbEntity
  8
0
100
AcDbLine
 10
535.613478
 20
8.185369
 30
0.0
 11
535.613478
 21
11.742481
 31
0.0
  0
LINE
  5
2D55
330
18
100
AcDbEntity
  8
1
100
AcDbLine
 10
563.469863
 20
5.0
 30
0.0
 11
563.469863
 21
19.689837
 31
0.0
  0
LINE
  5
2D56
330
18
100
AcDbEntity
  8
0
100
AcDbLine
 10
530.499811
 20
7.416263
 30
0.0
 11
534.811334
 21
7.416263
 31
0.0
  0
ELLIPSE
  5
2D57
330
18
100
AcDbEntity
  8
0
100
AcDbEllipse
 10
530.499811
 20
8.185369
 30
0.0
 11
-0.8021437979128705
 21
1.540000000000000E-14
 31
0.0
210
0.0
220
0.0
230
1.0
 40
0.958812
 41
0.00000000000002
 42
1.570796326794914
  0
ELLIPSE
  5
2D58
330
18
100
AcDbEntity
  8
0
100
AcDbEllipse
 10
534.811334
 20
8.185369
 30
0.0
 11
0.8021437979128704
 21
1.602000000000000E-13
 31
0.0
210
0.0
220
0.0
230
1.0
 40
0.958812
 41
4.712388980384497
 42
6.283185307179378
  0
LINE
  5
2D59
330
18
100
AcDbEntity
  8
0
100
AcDbLine
 10
539.892236
 20
9.015264
 30
0.0
 11
539.903809
 21
9.022759
 31
0.0
  0
LINE
  5
2D5A
330
18
100
AcDbEntity
  8
0
100
AcDbLine
 10
538.361694
 20
9.015264
 30
0.0
 11
539.903809
 21
9.015264
 31
0.0
  0
LINE
  5
2D5B
330
18
100
AcDbEntity
  8
0
100
AcDbLine
 10
544.194477
 20
9.047064
 30
0.0
 11
545.04922
 21
9.047064
 31
0.0
  0
LINE
  5
2D5C
330
18
100
AcDbEntity
  8
0
100
AcDbLine
 10
550.89322
 20
7.416264
 30
0.0
 11
549.34822
 21
7.416264
 31
0.0
  0
LINE
  5
2D5D
330
18
100
AcDbEntity
  8
0
100
AcDbLine
 10
548.69422
 20
9.015264
 30
0.0
 11
547.14922
 21
9.015264
 31
0.0
  0
LINE
  5
2D5E
330
18
100
AcDbEntity
  8
0
100
AcDbLine
 10
551.576266
 20
9.015264
 30
0.0
 11
552.11422
 21
9.015264
 31
0.0
  0
LINE
  5
2D5F
330
18
100
AcDbEntity
  8
0
100
AcDbLine
 10
555.26122
 20
9.015264
 30
0.0
 11
556.19122
 21
9.015264
 31
0.0
  0
LINE
  5
2D60
330
18
100
AcDbEntity
  8
0
100
AcDbLine
 10
559.88722
 20
9.015264
 30
0.0
 11
558.34222
 21
9.015264
 31
0.0
  0
ARC
  5
2D61
330
18
100
AcDbEntity
  8
0
100
AcDbCircle
 10
545.056591
 20
14.17837
 30
0.0
 40
1.425319
100
AcDbArc
 50
9.534829000000002
 51
90.296329
  0
LINE
  5
2D62
330
18
100
AcDbEntity
  8
0
100
AcDbLine
 10
546.46222
 20
11.81167
 30
0.0
 11
544.33822
 21
11.81167
 31
0.0
  0
LINE
  5
2D63
330
18
100
AcDbEntity
  8
0
100
AcDbLine
 10
545.01322
 20
11.13667
 30
0.0
 11
546.46222
 21
11.13667
 31
0.0
  0
LINE
  5
2D64
330
18
100
AcDbEntity
  8
0
100
AcDbLine
 10
529.697667
 20
13.461283
 30
0.0
 11
529.697667
 21
16.260974
 31
0.0
  0
ELLIPSE
  5
2D65
330
18
100
AcDbEntity
  8
0
100
AcDbEllipse
 10
532.630506
 20
15.17942
 30
0.0
 11
2.983077570132104
 21
2.996000000000000E-13
 31
0.0
210
0.0
220
0.0
230
1.0
 40
0.9588119999999999
 41
-1.562393163247347
 42
0.0084031635475457
  0
ELLIPSE
  5
2D66
330
18
100
AcDbEntity
  8
0
100
AcDbEllipse
 10
532.58733
 20
15.509539
 30
0.0
 11
-4.072692107280919
 21
9.250000000000000E-14
 31
0.0
210
0.0
220
0.0
230
1.0
 40
0.958812
 41
1.587553347046634
 42
2.408388587343224
  0
LINE
  5
2D67
330
18
100
AcDbEntity
  8
0
100
AcDbLine
 10
529.697667
 20
11.742481
 30
0.0
 11
529.697667
 21
11.034514
 31
0.0
  0
LINE
  5
2D68
330
18
100
AcDbEntity
  8
0
100
AcDbLine
 10
529.697667
 20
13.461283
 30
0.0
 11
529.697667
 21
12.896138
 31
0.0
  0
ELLIPSE
  5
2D69
330
18
100
AcDbEntity
  8
0
100
AcDbEllipse
 10
532.249598
 20
9.872487
 30
0.0
 11
2.960559210508897
 21
0.3570763225581005
 31
0.0
210
0.0
220
0.0
230
1.0
 40
0.820999
 41
1.335209029023201
 42
2.503032872947537
  0
ELLIPSE
  5
2D6A
330
18
100
AcDbEntity
  8
0
100
AcDbEllipse
 10
532.480104
 20
8.937306
 30
0.0
 11
3.015746449176212
 21
0.7746519372140013
 31
0.0
210
0.0
220
0.0
230
1.0
 40
0.846775
 41
1.29973646820557
 42
2.479974117225238
  0
LINE
  5
2D6B
330
18
100
AcDbEntity
  8
0
100
AcDbLine
 10
536.816694
 20
12.896138
 30
0.0
 11
536.51589
 21
12.896138
 31
0.0
  0
LINE
  5
2D6C
330
18
100
AcDbEntity
  8
0
100
AcDbLine
 10
535.613478
 20
12.896138
 30
0.0
 11
536.51589
 21
12.896138
 31
0.0
  0
ELLIPSE
  5
2D6D
330
18
100
AcDbEntity
  8
0
100
AcDbEllipse
 10
535.613478
 20
12.896138
 30
0.0
 11
1.203215696869352
 21
8.930000000000000E-14
 31
0.0
210
0.0
220
0.0
230
1.0
 40
0.9588119999999999
 41
4.712388980384611
 42
6.283185307179508
  0
LINE
  5
2D6E
330
18
100
AcDbEntity
  8
0
100
AcDbLine
 10
530.499811
 20
17.030079
 30
0.0
 11
534.811334
 21
17.030079
 31
0.0
  0
ELLIPSE
  5
2D6F
330
18
100
AcDbEntity
  8
0
100
AcDbEllipse
 10
530.499811
 20
16.260974
 30
0.0
 11
0.8021437979128704
 21
3.800000000000000E-14
 31
0.0
210
0.0
220
0.0
230
1.0
 40
0.958812
 41
1.570796326794851
 42
3.141592653589743
  0
LINE
  5
2D70
330
18
100
AcDbEntity
  8
0
100
AcDbLine
 10
535.613478
 20
15.155385
 30
0.0
 11
535.613478
 21
16.260974
 31
0.0
  0
ELLIPSE
  5
2D71
330
18
100
AcDbEntity
  8
0
100
AcDbEllipse
 10
534.811334
 20
16.260974
 30
0.0
 11
-0.8021437979128705
 21
3.800000000000000E-14
 31
0.0
210
0.0
220
0.0
230
1.0
 40
0.958812
 41
3.141592653589842
 42
4.712388980384734
  0
ARC
  5
2D72
330
18
100
AcDbEntity
  8
0
100
AcDbCircle
 10
540.798894
 20
14.34127
 30
0.0
 40
1.377457
100
AcDbArc
 50
16.265061
 51
130.527299
  0
ARC
  5
2D73
330
18
100
AcDbEntity
  8
0
100
AcDbCircle
 10
544.201848
 20
14.17837
 30
0.0
 40
1.425319
100
AcDbArc
 50
89.703671
 51
170.465171
  0
LINE
  5
2D74
330
18
100
AcDbEntity
  8
0
100
AcDbLine
 10
540.911147
 20
12.93607
 30
0.0
 11
542.12122
 21
12.93607
 31
0.0
  0
LINE
  5
2D75
330
18
100
AcDbEntity
  8
0
100
AcDbLine
 10
540.578809
 20
12.93607
 30
0.0
 11
542.12122
 21
12.93607
 31
0.0
  0
ARC
  5
2D76
330
18
100
AcDbEntity
  8
0
100
AcDbCircle
 10
540.229736
 20
14.361264
 30
0.0
 40
0.3375
100
AcDbArc
 50
360.0
 51
180.0
  0
LINE
  5
2D77
330
18
100
AcDbEntity
  8
0
100
AcDbLine
 10
540.567236
 20
14.361264
 30
0.0
 11
540.578809
 21
12.93607
 31
0.0
  0
ARC
  5
2D78
330
18
100
AcDbEntity
  8
0
100
AcDbCircle
 10
544.67572
 20
14.361264
 30
0.0
 40
0.3375
100
AcDbArc
 50
360.0
 51
180.0
  0
LINE
  5
2D79
330
18
100
AcDbEntity
  8
0
100
AcDbLine
 10
544.33822
 20
11.81167
 30
0.0
 11
544.33822
 21
10.236264
 31
0.0
  0
LINE
  5
2D7A
330
18
100
AcDbEntity
  8
0
100
AcDbLine
 10
544.33822
 20
12.71167
 30
0.0
 11
545.01322
 21
12.71167
 31
0.0
  0
LINE
  5
2D7B
330
18
100
AcDbEntity
  8
0
100
AcDbLine
 10
545.01322
 20
11.13667
 30
0.0
 11
545.01322
 21
10.252764
 31
0.0
  0
LINE
  5
2D7C
330
18
100
AcDbEntity
  8
0
100
AcDbLine
 10
544.33822
 20
11.81167
 30
0.0
 11
544.33822
 21
10.252764
 31
0.0
  0
ARC
  5
2D7D
330
18
100
AcDbEntity
  8
0
100
AcDbCircle
 10
544.67572
 20
10.252764
 30
0.0
 40
0.3375
100
AcDbArc
 50
180.0
 51
0.0
  0
LINE
  5
2D7E
330
18
100
AcDbEntity
  8
0
100
AcDbLine
 10
545.01322
 20
14.361264
 30
0.0
 11
545.01322
 21
12.71167
 31
0.0
  0
LINE
  5
2D7F
330
18
100
AcDbEntity
  8
0
100
AcDbLine
 10
544.33822
 20
14.361264
 30
0.0
 11
544.33822
 21
12.71167
 31
0.0
  0
LINE
  5
2D80
330
18
100
AcDbEntity
  8
0
100
AcDbLine
 10
542.12122
 20
12.93607
 30
0.0
 11
542.12122
 21
14.72707
 31
0.0
  0
LINE
  5
2D81
330
18
100
AcDbEntity
  8
0
100
AcDbLine
 10
542.79622
 20
10.236264
 30
0.0
 11
542.79622
 21
14.41447
 31
0.0
  0
LINE
  5
2D82
330
18
100
AcDbEntity
  8
0
100
AcDbLine
 10
539.903809
 20
15.60367
 30
0.0
 11
539.903809
 21
15.38827
 31
0.0
  0
LINE
  5
2D83
330
18
100
AcDbEntity
  8
0
100
AcDbLine
 10
538.361694
 20
15.60367
 30
0.0
 11
539.903809
 21
15.60367
 31
0.0
  0
LINE
  5
2D84
330
18
100
AcDbEntity
  8
0
100
AcDbLine
 10
544.194477
 20
15.60367
 30
0.0
 11
545.04922
 21
15.60367
 31
0.0
  0
ARC
  5
2D85
330
18
100
AcDbEntity
  8
0
100
AcDbCircle
 10
555.243059
 20
14.124104
 30
0.0
 40
1.488419
100
AcDbArc
 50
89.300887
 51
168.365732
  0
ARC
  5
2D86
330
18
100
AcDbEntity
  8
0
100
AcDbCircle
 10
551.752247
 20
14.207365
 30
0.0
 40
1.409039
100
AcDbArc
 50
15.47255
 51
127.56454
  0
LINE
  5
2D87
330
18
100
AcDbEntity
  8
0
100
AcDbLine
 10
546.46222
 20
11.13667
 30
0.0
 11
546.46222
 21
10.236264
 31
0.0
  0
LINE
  5
2D88
330
18
100
AcDbEntity
  8
0
100
AcDbLine
 10
546.46222
 20
11.81167
 30
0.0
 11
546.46222
 21
14.41447
 31
0.0
  0
LINE
  5
2D89
330
18
100
AcDbEntity
  8
0
100
AcDbLine
 10
553.11022
 20
14.583264
 30
0.0
 11
553.11022
 21
10.179264
 31
0.0
  0
LINE
  5
2D8A
330
18
100
AcDbEntity
  8
0
100
AcDbLine
 10
551.56822
 20
14.361264
 30
0.0
 11
551.56822
 21
10.252764
 31
0.0
  0
LINE
  5
2D8B
330
18
100
AcDbEntity
  8
0
100
AcDbLine
 10
550.89322
 20
14.361264
 30
0.0
 11
550.89322
 21
10.252764
 31
0.0
  0
ARC
  5
2D8C
330
18
100
AcDbEntity
  8
0
100
AcDbCircle
 10
551.23072
 20
10.252764
 30
0.0
 40
0.3375
100
AcDbArc
 50
180.0
 51
0.0
  0
ARC
  5
2D8D
330
18
100
AcDbEntity
  8
0
100
AcDbCircle
 10
551.23072
 20
14.361264
 30
0.0
 40
0.3375
100
AcDbArc
 50
360.0
 51
180.0
  0
LINE
  5
2D8E
330
18
100
AcDbEntity
  8
0
100
AcDbLine
 10
549.34822
 20
15.612264
 30
0.0
 11
550.89322
 21
15.612264
 31
0.0
  0
LINE
  5
2D8F
330
18
100
AcDbEntity
  8
0
100
AcDbLine
 10
547.14922
 20
17.211264
 30
0.0
 11
548.69422
 21
17.211264
 31
0.0
  0
LINE
  5
2D90
330
18
100
AcDbEntity
  8
0
100
AcDbLine
 10
550.89322
 20
15.612264
 30
0.0
 11
550.89322
 21
15.324264
 31
0.0
  0
ARC
  5
2D91
330
18
100
AcDbEntity
  8
0
100
AcDbCircle
 10
556.209381
 20
14.124104
 30
0.0
 40
1.488419
100
AcDbArc
 50
11.634268
 51
90.699113
  0
LINE
  5
2D92
330
18
100
AcDbEntity
  8
0
100
AcDbLine
 10
557.66722
 20
14.424264
 30
0.0
 11
557.66722
 21
10.203412
 31
0.0
  0
ARC
  5
2D93
330
18
100
AcDbEntity
  8
0
100
AcDbCircle
 10
555.72622
 20
14.361264
 30
0.0
 40
0.3375
100
AcDbArc
 50
360.0
 51
180.0
  0
ARC
  5
2D94
330
18
100
AcDbEntity
  8
0
100
AcDbCircle
 10
555.72622
 20
10.252764
 30
0.0
 40
0.3375
100
AcDbArc
 50
180.0
 51
0.0
  0
LINE
  5
2D95
330
18
100
AcDbEntity
  8
0
100
AcDbLine
 10
555.38872
 20
14.361264
 30
0.0
 11
555.38872
 21
10.252764
 31
0.0
  0
LINE
  5
2D96
330
18
100
AcDbEntity
  8
0
100
AcDbLine
 10
556.06372
 20
14.361264
 30
0.0
 11
556.06372
 21
10.252764
 31
0.0
  0
LINE
  5
2D97
330
18
100
AcDbEntity
  8
0
100
AcDbLine
 10
553.78522
 20
10.203412
 30
0.0
 11
553.78522
 21
14.424264
 31
0.0
  0
LINE
  5
2D98
330
18
100
AcDbEntity
  8
0
100
AcDbLine
 10
555.26122
 20
15.612412
 30
0.0
 11
556.19122
 21
15.612412
 31
0.0
  0
LINE
  5
2D99
330
18
100
AcDbEntity
  8
0
100
AcDbLine
 10
558.34222
 20
17.211264
 30
0.0
 11
559.88722
 21
17.211264
 31
0.0
  0
TEXT
  5
2D9A
330
18
100
AcDbEntity
  8
WY
100
AcDbText
 10
564.417407
 20
11.60401
 30
0.0
 40
2.0
  1
01-12-2007
 51
15.0
  7
ITALIC
100
AcDbText
  0
TEXT
  5
2D9B
330
18
100
AcDbEntity
  8
WY
100
AcDbText
 10
568.848776
 20
16.149239
 30
0.0
 40
2.0
  1
Data
 51
15.0
  7
ITALIC
100
AcDbText
  0
TEXT
  5
2D9D
330
18
100
AcDbEntity
  8
1
100
AcDbText
 10
637.422754
 20
9.064009
 30
0.0
 40
5.0
  1
PIR6WB-1PS
 41
0.8
 51
15.0
  7
ITALIC
100
AcDbText
  0
LINE
  5
2D9E
330
18
100
AcDbEntity
  8
1
100
AcDbLine
 10
627.394234
 20
5.0
 30
0.0
 11
627.394234
 21
19.689837
 31
0.0
  0
TEXT
  5
2D9F
330
18
100
AcDbEntity
  8
WY
100
AcDbText
 10
629.585432
 20
16.599248
 30
0.0
 40
2.0
  1
Product type
 51
15.0
  7
ITALIC
100
AcDbText
  0
LINE
  5
2DF2
330
18
100
AcDbEntity
  8
2
100
AcDbLine
 10
682.671651
 20
292.0
 30
0.0
 11
497.671651
 21
292.0
 31
0.0
  0
LINE
  5
2DF3
330
18
100
AcDbEntity
  8
2
100
AcDbLine
 10
687.671651
 20
297.0
 30
0.0
 11
497.671651
 21
297.0
 31
0.0
  0
LINE
  5
2E74
330
18
100
AcDbEntity
  8
WYMIARY
 62
     6
100
AcDbLine
 10
497.671651
 20
297.0
 30
0.0
 11
486.041244
 21
297.0
 31
0.0
  0
MTEXT
  5
31F2
330
18
100
AcDbEntity
  8
WYMIARY
100
AcDbMText
 10
780.543201
 20
224.476865
 30
0.0
 40
3.5
 41
15.6
 71
     1
 72
     5
  1

  7
ITALIC
  0
TEXT
  5
478E
330
18
100
AcDbEntity
  8
1
100
AcDbText
 10
500.301985
 20
8.797457
 30
0.0
 40
5.0
  1
1:1
 51
15.0
  7
ITALIC
100
AcDbText
  0
LINE
  5
482F
330
18
100
AcDbEntity
  8
WYMIARY
 62
     6
100
AcDbLine
 10
687.671651
 20
0.0
 30
0.0
 11
687.671651
 21
297.0
 31
0.0
  0
LINE
  5
4AD7
330
18
100
AcDbEntity
  8
WYMIARY
 62
     3
100
AcDbLine
 10
512.671651
 20
19.689837
 30
0.0
 11
512.671651
 21
5.0
 31
0.0
  0
LINE
  5
4AD9
330
18
100
AcDbEntity
  8
WYMIARY
 62
     3
100
AcDbLine
 10
527.671651
 20
19.689837
 30
0.0
 11
527.671651
 21
5.0
 31
0.0
  0
LINE
  5
4ADA
330
18
100
AcDbEntity
  8
WYMIARY
 62
     3
100
AcDbLine
 10
586.373187
 20
19.689837
 30
0.0
 11
586.373187
 21
5.0
 31
0.0
  0
TEXT
  5
4ADB
330
18
100
AcDbEntity
  8
WY
100
AcDbText
 10
587.562196
 20
16.599248
 30
0.0
 40
2.0
  1
Draw. No.
 51
15.0
  7
ITALIC
100
AcDbText
  0
TEXT
  5
4ADF
330
18
100
AcDbEntity
  8
1
100
AcDbText
 10
588.658916
 20
9.064009
 30
0.0
 40
4.0
  1
PIR6WB-1PS-01
 41
0.7
 51
15.0
  7
ITALIC
100
AcDbText
  0
LINE
  5
4AE9
330
18
100
AcDbEntity
  8
WYMIARY
 62
     6
100
AcDbLine
 10
687.671651
 20
0.0
 30
0.0
 11
687.671651
 21
297.0
 31
0.0
  0
LINE
  5
6488
330
18
100
AcDbEntity
  8
WYMIARY
 62
     6
100
AcDbLine
 10
687.671651
 20
0.0
 30
0.0
 11
687.671651
 21
297.0
 31
0.0
  0
LINE
  5
648E
330
18
100
AcDbEntity
  8
2
100
AcDbLine
 10
687.671651
 20
0.0
 30
0.0
 11
687.671651
 21
297.0
 31
0.0
  0
LINE
  5
6CB6
330
18
100
AcDbEntity
  8
WYMIARY
 62
     6
100
AcDbLine
 10
687.671651
 20
0.0
 30
0.0
 11
687.671651
 21
297.0
 31
0.0
  0
LINE
  5
6CB8
330
18
100
AcDbEntity
  8
2
100
AcDbLine
 10
687.671651
 20
0.0
 30
0.0
 11
687.671651
 21
297.0
 31
0.0
  0
LINE
  5
7805
330
18
100
AcDbEntity
  8
WARSTWA3
100
AcDbLine
 10
606.753589
 20
100.0235529448316
 30
0.0
 11
614.961332
 21
100.0235529448316
 31
0.0
  0
LINE
  5
7806
330
18
100
AcDbEntity
  8
WARSTWA3
100
AcDbLine
 10
612.36571
 20
98.79556294483164
 30
0.0
 11
609.8476
 21
98.79556294483164
 31
0.0
  0
LINE
  5
7807
330
18
100
AcDbEntity
  8
WARSTWA3
100
AcDbLine
 10
609.8476
 20
98.61590994483164
 30
0.0
 11
611.238143
 21
98.61590994483164
 31
0.0
  0
LINE
  5
7808
330
18
100
AcDbEntity
  8
WARSTWA3
100
AcDbLine
 10
609.8476
 20
95.01769694483166
 30
0.0
 11
612.36571
 21
95.01769694483166
 31
0.0
  0
LINE
  5
7809
330
18
100
AcDbEntity
  8
WARSTWA3
100
AcDbLine
 10
611.238143
 20
95.19734894483163
 30
0.0
 11
609.8476
 21
95.19734894483163
 31
0.0
  0
LINE
  5
780A
330
18
100
AcDbEntity
  8
WARSTWA3
100
AcDbLine
 10
618.799251
 20
93.78970694483165
 30
0.0
 11
609.487846
 21
93.78970694483165
 31
0.0
  0
LINE
  5
780B
330
18
100
AcDbEntity
  8
WARSTWA3
100
AcDbLine
 10
609.582951
 20
94.09134394483165
 30
0.0
 11
618.972261
 21
94.09134394483165
 31
0.0
  0
LINE
  5
780C
330
18
100
AcDbEntity
  8
WARSTWA3
100
AcDbLine
 10
609.487846
 20
100.0235529448316
 30
0.0
 11
618.799251
 21
100.0235529448316
 31
0.0
  0
LINE
  5
780D
330
18
100
AcDbEntity
  8
WARSTWA3
100
AcDbLine
 10
618.972261
 20
99.72191494483165
 30
0.0
 11
609.582951
 21
99.72191494483165
 31
0.0
  0
ARC
  5
780F
330
18
100
AcDbEntity
  8
WARSTWA3
100
AcDbCircle
 10
540.993459
 20
97.77687694483164
 30
0.0
 40
0.660257
100
AcDbArc
 50
96.99676100000453
 51
185.7264949999987
  0
ARC
  5
7810
330
18
100
AcDbEntity
  8
WARSTWA3
100
AcDbCircle
 10
540.312638
 20
97.80360094483164
 30
0.0
 40
0.928089
100
AcDbArc
 50
354.2735050000007
 51
83.00372399999678
  0
ARC
  5
7811
330
18
100
AcDbEntity
  8
WARSTWA3
100
AcDbCircle
 10
540.098236
 20
97.83827194483165
 30
0.0
 40
1.275613
100
AcDbArc
 50
354.2737380000001
 51
83.00333700000249
  0
ARC
  5
7812
330
18
100
AcDbEntity
  8
WARSTWA3
100
AcDbCircle
 10
540.99346
 20
96.03638294483166
 30
0.0
 40
0.660258
100
AcDbArc
 50
174.2735599999993
 51
263.003169999995
  0
ARC
  5
7813
330
18
100
AcDbEntity
  8
WARSTWA3
100
AcDbCircle
 10
540.312638
 20
96.00965794483166
 30
0.0
 40
0.928089
100
AcDbArc
 50
276.9962739999968
 51
5.726504000000328
  0
ARC
  5
7814
330
18
100
AcDbEntity
  8
WARSTWA3
100
AcDbCircle
 10
540.098237
 20
95.97498694483166
 30
0.0
 40
1.275613
100
AcDbArc
 50
276.9966549999991
 51
5.726279000000479
  0
LINE
  5
7815
330
18
100
AcDbEntity
  8
WARSTWA3
100
AcDbLine
 10
537.288575
 20
94.09134394483165
 30
0.0
 11
545.014852
 21
94.09134394483165
 31
0.0
  0
LINE
  5
7816
330
18
100
AcDbEntity
  8
WARSTWA3
100
AcDbLine
 10
545.014852
 20
99.72191494483165
 30
0.0
 11
537.288575
 21
99.72191494483165
 31
0.0
  0
LINE
  5
7817
330
18
100
AcDbEntity
  8
WARSTWA3
100
AcDbLine
 10
545.316487
 20
93.78970694483165
 30
0.0
 11
537.461586
 21
93.78970694483165
 31
0.0
  0
LINE
  5
7818
330
18
100
AcDbEntity
  8
WARSTWA3
100
AcDbLine
 10
537.461586
 20
100.0235529448316
 30
0.0
 11
546.772993
 21
100.0235529448316
 31
0.0
  0
LINE
  5
7819
330
18
100
AcDbEntity
  8
WARSTWA3
100
AcDbLine
 10
539.354974
 20
95.11293694483165
 30
0.0
 11
540.913031
 21
95.39844094483165
 31
0.0
  0
LINE
  5
781A
330
18
100
AcDbEntity
  8
WARSTWA3
100
AcDbLine
 10
539.354974
 20
98.70032194483166
 30
0.0
 11
540.913031
 21
98.41481794483165
 31
0.0
  0
LINE
  5
781B
330
18
100
AcDbEntity
  8
WARSTWA3
100
AcDbLine
 10
538.617965
 20
100.0235529448316
 30
0.0
 11
541.299505
 21
100.0235529448316
 31
0.0
  0
ARC
  5
781C
330
18
100
AcDbEntity
  8
WARSTWA3
100
AcDbCircle
 10
539.338286
 20
95.97497794483165
 30
0.0
 40
1.275604
100
AcDbArc
 50
174.2732779999999
 51
263.0037239999986
  0
LINE
  5
781D
330
18
100
AcDbEntity
  8
WARSTWA3
100
AcDbLine
 10
537.288575
 20
99.72191494483165
 30
0.0
 11
537.288575
 21
94.09134394483165
 31
0.0
  0
LINE
  5
781E
330
18
100
AcDbEntity
  8
WARSTWA3
100
AcDbLine
 10
536.859825
 20
99.72191494483165
 30
0.0
 11
536.859825
 21
94.09134394483165
 31
0.0
  0
LINE
  5
781F
330
18
100
AcDbEntity
  8
WARSTWA3
100
AcDbLine
 10
536.859825
 20
94.09134394483165
 30
0.0
 11
537.288575
 21
94.09134394483165
 31
0.0
  0
LINE
  5
7820
330
18
100
AcDbEntity
  8
WARSTWA3
100
AcDbLine
 10
537.461586
 20
93.78970694483165
 30
0.0
 11
537.16146
 21
93.78970694483165
 31
0.0
  0
LWPOLYLINE
  5
7821
330
18
100
AcDbEntity
  8
WARSTWA3
100
AcDbPolyline
 90
        9
 70
   128
 43
0.0
 10
537.461586
 20
93.78970694483165
 10
537.427834
 20
93.79550194483166
 10
537.395378
 20
93.81266794483163
 10
537.365465
 20
93.84054194483166
 10
537.33925
 20
93.87805394483165
 10
537.317731
 20
93.92376294483164
 10
537.301745
 20
93.97591294483165
 10
537.291901
 20
94.03249794483163
 10
537.288575
 20
94.09134394483165
  0
ARC
  5
7822
330
18
100
AcDbEntity
  8
WARSTWA3
100
AcDbCircle
 10
537.161461
 20
94.09134394483165
 30
0.0
 40
0.301638
100
AcDbArc
 50
180.0
 51
270.0
  0
LINE
  5
7823
330
18
100
AcDbEntity
  8
WARSTWA3
100
AcDbLine
 10
540.425684
 20
98.70032194483166
 30
0.0
 11
540.663617
 21
98.65672294483166
 31
0.0
  0
LINE
  5
7824
330
18
100
AcDbEntity
  8
WARSTWA3
100
AcDbLine
 10
540.253621
 20
99.07077294483163
 30
0.0
 11
540.425684
 21
98.70032194483166
 31
0.0
  0
LINE
  5
7825
330
18
100
AcDbEntity
  8
WARSTWA3
100
AcDbLine
 10
540.425684
 20
95.11293694483165
 30
0.0
 11
540.663617
 21
95.15653594483165
 31
0.0
  0
LINE
  5
7826
330
18
100
AcDbEntity
  8
WARSTWA3
100
AcDbLine
 10
540.253621
 20
94.74248594483164
 30
0.0
 11
540.425684
 21
95.11293694483165
 31
0.0
  0
LINE
  5
7827
330
18
100
AcDbEntity
  8
WARSTWA3
100
AcDbLine
 10
540.336496
 20
97.71099694483165
 30
0.0
 11
540.336496
 21
96.10226294483165
 31
0.0
  0
LINE
  5
7828
330
18
100
AcDbEntity
  8
WARSTWA3
100
AcDbLine
 10
537.685836
 20
100.0235529448316
 30
0.0
 11
538.617965
 21
100.0235529448316
 31
0.0
  0
LINE
  5
7829
330
18
100
AcDbEntity
  8
WARSTWA3
100
AcDbLine
 10
537.385711
 20
100.0235529448316
 30
0.0
 11
537.685836
 21
100.0235529448316
 31
0.0
  0
LINE
  5
782A
330
18
100
AcDbEntity
  8
WARSTWA3
100
AcDbLine
 10
537.16146
 20
100.0235529448316
 30
0.0
 11
537.461586
 21
100.0235529448316
 31
0.0
  0
ARC
  5
782B
330
18
100
AcDbEntity
  8
WARSTWA3
100
AcDbCircle
 10
539.338286
 20
97.83828094483165
 30
0.0
 40
1.275605
100
AcDbArc
 50
96.9962839999991
 51
185.7267049999999
  0
LINE
  5
782C
330
18
100
AcDbEntity
  8
WARSTWA3
100
AcDbLine
 10
537.288575
 20
99.72191494483165
 30
0.0
 11
536.859825
 21
99.72191494483165
 31
0.0
  0
LINE
  5
782D
330
18
100
AcDbEntity
  8
WARSTWA3
100
AcDbLine
 10
538.544566
 20
97.71099694483165
 30
0.0
 11
538.069048
 21
97.71099694483165
 31
0.0
  0
ARC
  5
782E
330
18
100
AcDbEntity
  8
WARSTWA3
100
AcDbCircle
 10
539.468027
 20
97.80359994483165
 30
0.0
 40
0.928092
100
AcDbArc
 50
96.99670800000345
 51
185.7263949999997
  0
LINE
  5
782F
330
18
100
AcDbEntity
  8
WARSTWA3
100
AcDbLine
 10
539.354974
 20
98.70032194483166
 30
0.0
 11
539.182911
 21
99.07077294483163
 31
0.0
  0
LWPOLYLINE
  5
7830
330
18
100
AcDbEntity
  8
WARSTWA3
100
AcDbPolyline
 90
        9
 70
   128
 43
0.0
 10
537.288575
 20
99.72191494483165
 10
537.291901
 20
99.78076094483164
 10
537.301745
 20
99.83734694483165
 10
537.317731
 20
99.88949594483164
 10
537.33925
 20
99.93520494483165
 10
537.365465
 20
99.97271694483165
 10
537.395378
 20
100.0005919448316
 10
537.427834
 20
100.0177569448316
 10
537.461586
 20
100.0235529448316
  0
ARC
  5
7831
330
18
100
AcDbEntity
  8
WARSTWA3
100
AcDbCircle
 10
537.161461
 20
99.72191494483165
 30
0.0
 40
0.301638
100
AcDbArc
 50
90.0
 51
180.0
  0
LINE
  5
7832
330
18
100
AcDbEntity
  8
WARSTWA3
100
AcDbLine
 10
538.544566
 20
96.10226294483165
 30
0.0
 11
538.069048
 21
96.10226294483165
 31
0.0
  0
ARC
  5
7833
330
18
100
AcDbEntity
  8
WARSTWA3
100
AcDbCircle
 10
539.468027
 20
96.00965894483166
 30
0.0
 40
0.928092
100
AcDbArc
 50
174.2735970000005
 51
263.0032939999983
  0
LINE
  5
7834
330
18
100
AcDbEntity
  8
WARSTWA3
100
AcDbLine
 10
539.354974
 20
95.11293694483165
 30
0.0
 11
539.182911
 21
94.74248594483164
 31
0.0
  0
LINE
  5
7835
330
18
100
AcDbEntity
  8
WARSTWA3
100
AcDbLine
 10
538.544566
 20
97.71099694483165
 30
0.0
 11
538.544566
 21
96.10226294483165
 31
0.0
  0
LINE
  5
7836
330
18
100
AcDbEntity
  8
WARSTWA3
100
AcDbLine
 10
538.069048
 20
96.10226294483165
 30
0.0
 11
538.069048
 21
97.71099694483165
 31
0.0
  0
LINE
  5
7837
330
18
100
AcDbEntity
  8
WARSTWA3
100
AcDbLine
 10
538.544566
 20
96.10226294483165
 30
0.0
 11
540.336496
 21
96.10226294483165
 31
0.0
  0
LINE
  5
7838
330
18
100
AcDbEntity
  8
WARSTWA3
100
AcDbLine
 10
539.354974
 20
95.11293694483165
 30
0.0
 11
540.425684
 21
95.11293694483165
 31
0.0
  0
LINE
  5
7839
330
18
100
AcDbEntity
  8
WARSTWA3
100
AcDbLine
 10
540.253621
 20
94.74248594483164
 30
0.0
 11
539.182911
 21
94.74248594483164
 31
0.0
  0
LINE
  5
783A
330
18
100
AcDbEntity
  8
WARSTWA3
100
AcDbLine
 10
538.544566
 20
97.71099694483165
 30
0.0
 11
540.336496
 21
97.71099694483165
 31
0.0
  0
LINE
  5
783B
330
18
100
AcDbEntity
  8
WARSTWA3
100
AcDbLine
 10
540.425684
 20
98.70032194483166
 30
0.0
 11
539.354974
 21
98.70032194483166
 31
0.0
  0
LINE
  5
783C
330
18
100
AcDbEntity
  8
WARSTWA3
100
AcDbLine
 10
539.182911
 20
99.07077294483163
 30
0.0
 11
540.253621
 21
99.07077294483163
 31
0.0
  0
LINE
  5
783D
330
18
100
AcDbEntity
  8
WARSTWA3
100
AcDbLine
 10
605.561114
 20
94.14161794483165
 30
0.0
 11
605.561114
 21
94.89571094483163
 31
0.0
  0
LINE
  5
783E
330
18
100
AcDbEntity
  8
WARSTWA3
100
AcDbLine
 10
607.742339
 20
94.89571094483163
 30
0.0
 11
607.742339
 21
94.14161794483165
 31
0.0
  0
LINE
  5
783F
330
18
100
AcDbEntity
  8
WARSTWA3
100
AcDbLine
 10
607.829986
 20
94.09134394483165
 30
0.0
 11
607.829986
 21
94.89571094483163
 31
0.0
  0
LINE
  5
7840
330
18
100
AcDbEntity
  8
WARSTWA3
100
AcDbLine
 10
597.586881
 20
99.87273394483164
 30
0.0
 11
597.586881
 21
93.83997994483165
 31
0.0
  0
LINE
  5
7841
330
18
100
AcDbEntity
  8
WARSTWA3
100
AcDbLine
 10
597.267757
 20
99.87273394483164
 30
0.0
 11
597.267757
 21
93.83997994483165
 31
0.0
  0
LINE
  5
7842
330
18
100
AcDbEntity
  8
WARSTWA3
100
AcDbLine
 10
593.696699
 20
99.87273394483164
 30
0.0
 11
593.696699
 21
99.42027694483166
 31
0.0
  0
LINE
  5
7843
330
18
100
AcDbEntity
  8
WARSTWA3
100
AcDbLine
 10
593.998337
 20
93.83997994483165
 30
0.0
 11
593.998337
 21
94.34270894483164
 31
0.0
  0
LINE
  5
7844
330
18
100
AcDbEntity
  8
WARSTWA3
100
AcDbLine
 10
594.40052
 20
99.87273394483164
 30
0.0
 11
594.40052
 21
93.83997994483165
 31
0.0
  0
LINE
  5
7845
330
18
100
AcDbEntity
  8
WARSTWA3
100
AcDbLine
 10
596.220401
 20
99.87273394483164
 30
0.0
 11
596.220401
 21
93.83997994483165
 31
0.0
  0
LINE
  5
7846
330
18
100
AcDbEntity
  8
WARSTWA3
100
AcDbLine
 10
596.119855
 20
99.87273394483164
 30
0.0
 11
596.119855
 21
93.83997994483165
 31
0.0
  0
LINE
  5
7847
330
18
100
AcDbEntity
  8
WARSTWA3
100
AcDbLine
 10
595.717671
 20
99.87273394483164
 30
0.0
 11
595.717671
 21
93.83997994483165
 31
0.0
  0
LINE
  5
7848
330
18
100
AcDbEntity
  8
WARSTWA3
100
AcDbLine
 10
595.818218
 20
99.87273394483164
 30
0.0
 11
595.818218
 21
93.83997994483165
 31
0.0
  0
LINE
  5
7849
330
18
100
AcDbEntity
  8
WARSTWA3
100
AcDbLine
 10
605.360023
 20
99.87273394483164
 30
0.0
 11
605.360023
 21
93.83997994483165
 31
0.0
  0
LINE
  5
784A
330
18
100
AcDbEntity
  8
WARSTWA3
100
AcDbLine
 10
605.188677
 20
93.83997994483165
 30
0.0
 11
605.188677
 21
99.87273394483164
 31
0.0
  0
LINE
  5
784B
330
18
100
AcDbEntity
  8
WARSTWA3
100
AcDbLine
 10
604.103522
 20
99.87273394483164
 30
0.0
 11
604.103522
 21
93.83997994483165
 31
0.0
  0
LINE
  5
784C
330
18
100
AcDbEntity
  8
WARSTWA3
100
AcDbLine
 10
603.599473
 20
99.87273394483164
 30
0.0
 11
603.599473
 21
93.83997994483165
 31
0.0
  0
LINE
  5
784D
330
18
100
AcDbEntity
  8
WARSTWA3
100
AcDbLine
 10
609.582951
 20
94.09134394483165
 30
0.0
 11
609.582951
 21
99.72191494483165
 31
0.0
  0
LINE
  5
784E
330
18
100
AcDbEntity
  8
WARSTWA3
100
AcDbLine
 10
567.755856
 20
94.34270894483164
 30
0.0
 11
567.755856
 21
94.89571094483163
 31
0.0
  0
LINE
  5
784F
330
18
100
AcDbEntity
  8
WARSTWA3
100
AcDbLine
 10
559.511093
 20
94.14161794483165
 30
0.0
 11
559.511093
 21
94.89571094483163
 31
0.0
  0
LINE
  5
7850
330
18
100
AcDbEntity
  8
WARSTWA3
100
AcDbLine
 10
559.812731
 20
94.89571094483163
 30
0.0
 11
559.812731
 21
94.14161794483165
 31
0.0
  0
LINE
  5
7851
330
18
100
AcDbEntity
  8
WARSTWA3
100
AcDbLine
 10
556.673525
 20
94.89571094483163
 30
0.0
 11
556.673525
 21
94.14161794483165
 31
0.0
  0
LINE
  5
7852
330
18
100
AcDbEntity
  8
WARSTWA3
100
AcDbLine
 10
556.585877
 20
94.09134394483165
 30
0.0
 11
556.585877
 21
94.89571094483163
 31
0.0
  0
ARC
  5
7853
330
18
100
AcDbEntity
  8
WARSTWA3
100
AcDbCircle
 10
548.253266
 20
95.97498194483164
 30
0.0
 40
1.275611
100
AcDbArc
 50
276.9965639999979
 51
5.726485000000436
  0
ARC
  5
7854
330
18
100
AcDbEntity
  8
WARSTWA3
100
AcDbCircle
 10
547.493316
 20
95.97498194483164
 30
0.0
 40
1.275611
100
AcDbArc
 50
174.2735149999996
 51
263.0034360000021
  0
LINE
  5
7855
330
18
100
AcDbEntity
  8
WARSTWA3
100
AcDbLine
 10
545.443602
 20
99.72191494483165
 30
0.0
 11
545.443602
 21
94.09134394483165
 31
0.0
  0
LINE
  5
7856
330
18
100
AcDbEntity
  8
WARSTWA3
100
AcDbLine
 10
545.014852
 20
99.72191494483165
 30
0.0
 11
545.014852
 21
94.09134394483165
 31
0.0
  0
LINE
  5
7857
330
18
100
AcDbEntity
  8
WARSTWA3
100
AcDbLine
 10
554.832913
 20
94.09134394483165
 30
0.0
 11
554.832913
 21
99.72191494483165
 31
0.0
  0
LINE
  5
7858
330
18
100
AcDbEntity
  8
WARSTWA3
100
AcDbLine
 10
593.696699
 20
93.83997994483165
 30
0.0
 11
568.962407
 21
93.83997994483165
 31
0.0
  0
LINE
  5
7859
330
18
100
AcDbEntity
  8
WARSTWA3
100
AcDbLine
 10
559.003436
 20
93.83997994483165
 30
0.0
 11
557.662275
 21
93.83997994483165
 31
0.0
  0
LINE
  5
785A
330
18
100
AcDbEntity
  8
WARSTWA3
100
AcDbLine
 10
559.812731
 20
93.83997994483165
 30
0.0
 11
556.393217
 21
93.83997994483165
 31
0.0
  0
LINE
  5
785B
330
18
100
AcDbEntity
  8
WARSTWA3
100
AcDbLine
 10
556.673525
 20
94.14161794483165
 30
0.0
 11
559.511093
 21
94.14161794483165
 31
0.0
  0
LINE
  5
785C
330
18
100
AcDbEntity
  8
WARSTWA3
100
AcDbLine
 10
554.928018
 20
93.78970694483165
 30
0.0
 11
545.616613
 21
93.78970694483165
 31
0.0
  0
LINE
  5
785D
330
18
100
AcDbEntity
  8
WARSTWA3
100
AcDbLine
 10
545.443602
 20
94.09134394483165
 30
0.0
 11
554.832913
 21
94.09134394483165
 31
0.0
  0
LINE
  5
785E
330
18
100
AcDbEntity
  8
WARSTWA3
100
AcDbLine
 10
545.014852
 20
94.09134394483165
 30
0.0
 11
545.443602
 21
94.09134394483165
 31
0.0
  0
LINE
  5
785F
330
18
100
AcDbEntity
  8
WARSTWA3
100
AcDbLine
 10
545.616613
 20
93.78970694483165
 30
0.0
 11
545.316487
 21
93.78970694483165
 31
0.0
  0
LWPOLYLINE
  5
7860
330
18
100
AcDbEntity
  8
WARSTWA3
100
AcDbPolyline
 90
        9
 70
   128
 43
0.0
 10
545.616613
 20
93.78970694483165
 10
545.582861
 20
93.79550194483166
 10
545.550405
 20
93.81266794483163
 10
545.520492
 20
93.84054194483166
 10
545.494277
 20
93.87805394483165
 10
545.472758
 20
93.92376294483164
 10
545.456772
 20
93.97591294483165
 10
545.446925
 20
94.03249794483163
 10
545.443602
 20
94.09134394483165
  0
ARC
  5
7861
330
18
100
AcDbEntity
  8
WARSTWA3
100
AcDbCircle
 10
545.316487
 20
94.09134394483165
 30
0.0
 40
0.301638
100
AcDbArc
 50
180.0
 51
270.0
  0
ELLIPSE
  5
7862
330
18
100
AcDbEntity
  8
WARSTWA3
100
AcDbEllipse
 10
556.155093
 20
94.09134394483165
 30
0.0
 11
0.430783280013279
 21
-5.700000000000000E-15
 31
0.0
210
0.0
220
0.0
230
1.0
 40
0.700208
 41
4.712388980384708
 42
6.283185307179586
  0
ELLIPSE
  5
7863
330
18
100
AcDbEntity
  8
WARSTWA3
100
AcDbEllipse
 10
556.242742
 20
94.14161694483165
 30
0.0
 11
0.430783280013279
 21
0.0
 31
0.0
210
0.0
220
0.0
230
1.0
 40
0.700208
 41
5.266811929372139
 42
6.283185307179586
  0
ELLIPSE
  5
7864
330
18
100
AcDbEntity
  8
WARSTWA3
100
AcDbEllipse
 10
554.928018
 20
94.09134394483165
 30
0.0
 11
0.0
 21
0.3016376999999999
 31
0.0
210
0.0
220
0.0
230
1.0
 40
0.315299
 41
1.570796326794896
 42
3.141592653589792
  0
LINE
  5
7865
330
18
100
AcDbEntity
  8
WARSTWA3
100
AcDbLine
 10
554.832913
 20
94.09134394483165
 30
0.0
 11
556.585877
 21
94.09134394483165
 31
0.0
  0
LINE
  5
7866
330
18
100
AcDbEntity
  8
WARSTWA3
100
AcDbLine
 10
556.155093
 20
93.78970694483165
 30
0.0
 11
554.928018
 21
93.78970694483165
 31
0.0
  0
LINE
  5
7867
330
18
100
AcDbEntity
  8
WARSTWA3
100
AcDbLine
 10
568.962407
 20
93.83997994483165
 30
0.0
 11
559.812731
 21
93.83997994483165
 31
0.0
  0
LINE
  5
7868
330
18
100
AcDbEntity
  8
WARSTWA3
100
AcDbLine
 10
559.812731
 20
94.14161794483165
 30
0.0
 11
569.264045
 21
94.14161794483165
 31
0.0
  0
ARC
  5
7869
330
18
100
AcDbEntity
  8
WARSTWA3
100
AcDbCircle
 10
559.81273
 20
94.14161694483165
 30
0.0
 40
0.301638
100
AcDbArc
 50
180.0
 51
270.0
  0
LINE
  5
786A
330
18
100
AcDbEntity
  8
WARSTWA3
100
AcDbLine
 10
559.812731
 20
94.14161794483165
 30
0.0
 11
559.812731
 21
93.83997994483165
 31
0.0
  0
LINE
  5
786B
330
18
100
AcDbEntity
  8
WARSTWA3
100
AcDbLine
 10
559.812731
 20
94.14161794483165
 30
0.0
 11
559.511093
 21
94.14161794483165
 31
0.0
  0
LINE
  5
786C
330
18
100
AcDbEntity
  8
WARSTWA3
100
AcDbLine
 10
567.755856
 20
94.34270894483164
 30
0.0
 11
569.264045
 21
94.34270894483164
 31
0.0
  0
ARC
  5
786D
330
18
100
AcDbEntity
  8
WARSTWA3
100
AcDbCircle
 10
568.962407
 20
94.14161694483165
 30
0.0
 40
0.301638
100
AcDbArc
 50
270.0
 51
0.0
  0
LINE
  5
786E
330
18
100
AcDbEntity
  8
WARSTWA3
100
AcDbLine
 10
569.264045
 20
94.34270894483164
 30
0.0
 11
569.264045
 21
94.14161794483165
 31
0.0
  0
LINE
  5
786F
330
18
100
AcDbEntity
  8
WARSTWA3
100
AcDbLine
 10
597.607934
 20
93.83997994483165
 30
0.0
 11
603.670852
 21
93.83997994483165
 31
0.0
  0
LINE
  5
7870
330
18
100
AcDbEntity
  8
WARSTWA3
100
AcDbLine
 10
598.723993
 20
93.68916094483164
 30
0.0
 11
597.336461
 21
93.68916094483164
 31
0.0
  0
LINE
  5
7871
330
18
100
AcDbEntity
  8
WARSTWA3
100
AcDbLine
 10
597.267757
 20
93.83997994483165
 30
0.0
 11
597.586881
 21
93.83997994483165
 31
0.0
  0
LINE
  5
7872
330
18
100
AcDbEntity
  8
WARSTWA3
100
AcDbLine
 10
598.723993
 20
93.68916094483164
 30
0.0
 11
598.874813
 21
93.83997994483165
 31
0.0
  0
LINE
  5
7873
330
18
100
AcDbEntity
  8
WARSTWA3
100
AcDbLine
 10
595.717671
 20
93.83997994483165
 30
0.0
 11
594.40052
 21
93.83997994483165
 31
0.0
  0
LINE
  5
7874
330
18
100
AcDbEntity
  8
WARSTWA3
100
AcDbLine
 10
596.220401
 20
93.83997994483165
 30
0.0
 11
596.119855
 21
93.83997994483165
 31
0.0
  0
LINE
  5
7875
330
18
100
AcDbEntity
  8
WARSTWA3
100
AcDbLine
 10
596.119855
 20
93.83997994483165
 30
0.0
 11
595.818218
 21
93.83997994483165
 31
0.0
  0
LINE
  5
7876
330
18
100
AcDbEntity
  8
WARSTWA3
100
AcDbLine
 10
595.818218
 20
93.83997994483165
 30
0.0
 11
595.717671
 21
93.83997994483165
 31
0.0
  0
LINE
  5
7877
330
18
100
AcDbEntity
  8
WARSTWA3
100
AcDbLine
 10
593.998337
 20
93.83997994483165
 30
0.0
 11
593.696699
 21
93.83997994483165
 31
0.0
  0
LINE
  5
7878
330
18
100
AcDbEntity
  8
WARSTWA3
100
AcDbLine
 10
594.40052
 20
93.83997994483165
 30
0.0
 11
593.998337
 21
93.83997994483165
 31
0.0
  0
LINE
  5
7879
330
18
100
AcDbEntity
  8
WARSTWA3
100
AcDbLine
 10
596.220401
 20
93.83997994483165
 30
0.0
 11
597.267757
 21
93.83997994483165
 31
0.0
  0
LINE
  5
787A
330
18
100
AcDbEntity
  8
WARSTWA3
100
AcDbLine
 10
597.185641
 20
93.83997994483165
 30
0.0
 11
597.336461
 21
93.68916094483164
 31
0.0
  0
LINE
  5
787B
330
18
100
AcDbEntity
  8
WARSTWA3
100
AcDbLine
 10
609.487846
 20
93.78970694483165
 30
0.0
 11
608.260771
 21
93.78970694483165
 31
0.0
  0
LINE
  5
787C
330
18
100
AcDbEntity
  8
WARSTWA3
100
AcDbLine
 10
607.829986
 20
94.09134394483165
 30
0.0
 11
609.582951
 21
94.09134394483165
 31
0.0
  0
ELLIPSE
  5
787D
330
18
100
AcDbEntity
  8
WARSTWA3
100
AcDbEllipse
 10
608.173122
 20
94.14161694483165
 30
0.0
 11
0.430783280013279
 21
0.0
 31
0.0
210
0.0
220
0.0
230
1.0
 40
0.700208
 41
3.141592653589793
 42
4.15796605217754
  0
ELLIPSE
  5
787E
330
18
100
AcDbEntity
  8
WARSTWA3
100
AcDbEllipse
 10
608.26077
 20
94.09134394483165
 30
0.0
 11
0.430783280013279
 21
0.0
 31
0.0
210
0.0
220
0.0
230
1.0
 40
0.700208
 41
3.141592653589832
 42
4.712388980384699
  0
ELLIPSE
  5
787F
330
18
100
AcDbEntity
  8
WARSTWA3
100
AcDbEllipse
 10
609.487845
 20
94.09134394483165
 30
0.0
 11
0.0
 21
0.3016376999999999
 31
0.0
210
0.0
220
0.0
230
1.0
 40
0.315299
 41
3.141592653589792
 42
4.712388980384694
  0
LINE
  5
7880
330
18
100
AcDbEntity
  8
WARSTWA3
100
AcDbLine
 10
605.360023
 20
93.83997994483165
 30
0.0
 11
605.188677
 21
93.83997994483165
 31
0.0
  0
LINE
  5
7881
330
18
100
AcDbEntity
  8
WARSTWA3
100
AcDbLine
 10
604.103522
 20
93.83997994483165
 30
0.0
 11
605.188677
 21
93.83997994483165
 31
0.0
  0
LINE
  5
7882
330
18
100
AcDbEntity
  8
WARSTWA3
100
AcDbLine
 10
603.599473
 20
93.83997994483165
 30
0.0
 11
604.103522
 21
93.83997994483165
 31
0.0
  0
LINE
  5
7883
330
18
100
AcDbEntity
  8
WARSTWA3
100
AcDbLine
 10
605.360023
 20
94.14161794483165
 30
0.0
 11
605.561114
 21
94.14161794483165
 31
0.0
  0
LINE
  5
7884
330
18
100
AcDbEntity
  8
WARSTWA3
100
AcDbLine
 10
606.753589
 20
93.83997994483165
 30
0.0
 11
605.412428
 21
93.83997994483165
 31
0.0
  0
ARC
  5
7885
330
18
100
AcDbEntity
  8
WARSTWA3
100
AcDbCircle
 10
605.267675
 20
94.13930494483164
 30
0.0
 40
0.293448
100
AcDbArc
 50
288.3425490000106
 51
0.4515350000019763
  0
LINE
  5
7886
330
18
100
AcDbEntity
  8
WARSTWA3
100
AcDbLine
 10
608.022646
 20
93.83997994483165
 30
0.0
 11
605.360023
 21
93.83997994483165
 31
0.0
  0
LINE
  5
7887
330
18
100
AcDbEntity
  8
WARSTWA3
100
AcDbLine
 10
605.561114
 20
94.14161794483165
 30
0.0
 11
607.742339
 21
94.14161794483165
 31
0.0
  0
LINE
  5
7888
330
18
100
AcDbEntity
  8
WARSTWA3
100
AcDbLine
 10
568.962407
 20
100.0235529448316
 30
0.0
 11
595.204887
 21
100.0235529448316
 31
0.0
  0
LINE
  5
7889
330
18
100
AcDbEntity
  8
WARSTWA3
100
AcDbLine
 10
554.928018
 20
100.0235529448316
 30
0.0
 11
559.812731
 21
100.0235529448316
 31
0.0
  0
LINE
  5
788A
330
18
100
AcDbEntity
  8
WARSTWA3
100
AcDbLine
 10
559.511093
 20
99.72191494483165
 30
0.0
 11
554.832913
 21
99.72191494483165
 31
0.0
  0
LINE
  5
788B
330
18
100
AcDbEntity
  8
WARSTWA3
100
AcDbLine
 10
559.511093
 20
94.89571094483163
 30
0.0
 11
556.673525
 21
94.89571094483163
 31
0.0
  0
LINE
  5
788C
330
18
100
AcDbEntity
  8
WARSTWA3
100
AcDbLine
 10
559.511093
 20
94.89571094483163
 30
0.0
 11
556.585877
 21
94.89571094483163
 31
0.0
  0
ARC
  5
788D
330
18
100
AcDbEntity
  8
WARSTWA3
100
AcDbCircle
 10
548.467668
 20
97.80360594483163
 30
0.0
 40
0.928082
100
AcDbArc
 50
354.2731939999999
 51
83.0038609999987
  0
ARC
  5
788E
330
18
100
AcDbEntity
  8
WARSTWA3
100
AcDbCircle
 10
548.253266
 20
97.83827694483163
 30
0.0
 40
1.275611
100
AcDbArc
 50
354.2735319999999
 51
83.0034279999979
  0
LINE
  5
788F
330
18
100
AcDbEntity
  8
WARSTWA3
100
AcDbLine
 10
549.454532
 20
100.0235529448316
 30
0.0
 11
557.662275
 21
100.0235529448316
 31
0.0
  0
LINE
  5
7890
330
18
100
AcDbEntity
  8
WARSTWA3
100
AcDbLine
 10
545.616613
 20
100.0235529448316
 30
0.0
 11
554.928018
 21
100.0235529448316
 31
0.0
  0
LINE
  5
7891
330
18
100
AcDbEntity
  8
WARSTWA3
100
AcDbLine
 10
554.832913
 20
99.72191494483165
 30
0.0
 11
545.443602
 21
99.72191494483165
 31
0.0
  0
ARC
  5
7892
330
18
100
AcDbEntity
  8
WARSTWA3
100
AcDbCircle
 10
548.467668
 20
96.00965294483164
 30
0.0
 40
0.928082
100
AcDbArc
 50
276.9961370000016
 51
5.726813999999427
  0
LINE
  5
7893
330
18
100
AcDbEntity
  8
WARSTWA3
100
AcDbLine
 10
546.772993
 20
100.0235529448316
 30
0.0
 11
549.454532
 21
100.0235529448316
 31
0.0
  0
LINE
  5
7894
330
18
100
AcDbEntity
  8
WARSTWA3
100
AcDbLine
 10
546.699593
 20
97.71099694483165
 30
0.0
 11
548.491524
 21
97.71099694483165
 31
0.0
  0
LINE
  5
7895
330
18
100
AcDbEntity
  8
WARSTWA3
100
AcDbLine
 10
547.510001
 20
98.70032194483166
 30
0.0
 11
549.068058
 21
98.41481794483165
 31
0.0
  0
LINE
  5
7896
330
18
100
AcDbEntity
  8
WARSTWA3
100
AcDbLine
 10
548.580711
 20
98.70032194483166
 30
0.0
 11
547.510001
 21
98.70032194483166
 31
0.0
  0
LINE
  5
7897
330
18
100
AcDbEntity
  8
WARSTWA3
100
AcDbLine
 10
547.337934
 20
99.07077294483163
 30
0.0
 11
548.408648
 21
99.07077294483163
 31
0.0
  0
ARC
  5
7898
330
18
100
AcDbEntity
  8
WARSTWA3
100
AcDbCircle
 10
547.623043
 20
97.80360594483163
 30
0.0
 40
0.928082
100
AcDbArc
 50
96.99613900000132
 51
185.726806
  0
LINE
  5
7899
330
18
100
AcDbEntity
  8
WARSTWA3
100
AcDbLine
 10
547.510001
 20
98.70032194483166
 30
0.0
 11
547.337934
 21
99.07077294483163
 31
0.0
  0
LINE
  5
789A
330
18
100
AcDbEntity
  8
WARSTWA3
100
AcDbLine
 10
548.580711
 20
98.70032194483166
 30
0.0
 11
548.81864
 21
98.65672294483166
 31
0.0
  0
ARC
  5
789B
330
18
100
AcDbEntity
  8
WARSTWA3
100
AcDbCircle
 10
549.148476
 20
97.77688294483166
 30
0.0
 40
0.660248
100
AcDbArc
 50
96.9959610000016
 51
185.7270720000003
  0
LINE
  5
789C
330
18
100
AcDbEntity
  8
WARSTWA3
100
AcDbLine
 10
549.150244
 20
98.41481794483165
 30
0.0
 11
549.068058
 21
98.41481794483165
 31
0.0
  0
LINE
  5
789D
330
18
100
AcDbEntity
  8
WARSTWA3
100
AcDbLine
 10
548.408648
 20
99.07077294483163
 30
0.0
 11
548.580711
 21
98.70032194483166
 31
0.0
  0
LINE
  5
789E
330
18
100
AcDbEntity
  8
WARSTWA3
100
AcDbLine
 10
549.522511
 20
97.71099694483165
 30
0.0
 11
549.391118
 21
97.71099694483165
 31
0.0
  0
LINE
  5
789F
330
18
100
AcDbEntity
  8
WARSTWA3
100
AcDbLine
 10
545.316487
 20
100.0235529448316
 30
0.0
 11
545.616613
 21
100.0235529448316
 31
0.0
  0
LINE
  5
78A0
330
18
100
AcDbEntity
  8
WARSTWA3
100
AcDbLine
 10
541.299505
 20
100.0235529448316
 30
0.0
 11
545.316487
 21
100.0235529448316
 31
0.0
  0
LINE
  5
78A1
330
18
100
AcDbEntity
  8
WARSTWA3
100
AcDbLine
 10
543.895126
 20
98.79556294483164
 30
0.0
 11
545.014852
 21
98.61715994483164
 31
0.0
  0
LINE
  5
78A2
330
18
100
AcDbEntity
  8
WARSTWA3
100
AcDbLine
 10
545.014852
 20
98.79556294483164
 30
0.0
 11
543.895126
 21
98.79556294483164
 31
0.0
  0
LINE
  5
78A3
330
18
100
AcDbEntity
  8
WARSTWA3
100
AcDbLine
 10
545.443602
 20
99.72191494483165
 30
0.0
 11
545.014852
 21
99.72191494483165
 31
0.0
  0
LINE
  5
78A4
330
18
100
AcDbEntity
  8
WARSTWA3
100
AcDbLine
 10
540.995217
 20
98.41481794483165
 30
0.0
 11
540.913031
 21
98.41481794483165
 31
0.0
  0
LINE
  5
78A5
330
18
100
AcDbEntity
  8
WARSTWA3
100
AcDbLine
 10
541.367484
 20
97.71099694483165
 30
0.0
 11
541.236095
 21
97.71099694483165
 31
0.0
  0
LWPOLYLINE
  5
78A6
330
18
100
AcDbEntity
  8
WARSTWA3
100
AcDbPolyline
 90
        9
 70
   128
 43
0.0
 10
545.443602
 20
99.72191494483165
 10
545.446925
 20
99.78076094483164
 10
545.456772
 20
99.83734694483165
 10
545.472758
 20
99.88949594483164
 10
545.494277
 20
99.93520494483165
 10
545.520492
 20
99.97271694483165
 10
545.550405
 20
100.0005919448316
 10
545.582861
 20
100.0177569448316
 10
545.616613
 20
100.0235529448316
  0
ARC
  5
78A7
330
18
100
AcDbEntity
  8
WARSTWA3
100
AcDbCircle
 10
545.316487
 20
99.72191494483165
 30
0.0
 40
0.301638
100
AcDbArc
 50
90.0
 51
180.0
  0
ARC
  5
78A8
330
18
100
AcDbEntity
  8
WARSTWA3
100
AcDbCircle
 10
547.493316
 20
97.83827694483163
 30
0.0
 40
1.275611
100
AcDbArc
 50
96.99657200000212
 51
185.7264680000001
  0
LINE
  5
78A9
330
18
100
AcDbEntity
  8
WARSTWA3
100
AcDbLine
 10
546.699593
 20
97.71099694483165
 30
0.0
 11
546.224071
 21
97.71099694483165
 31
0.0
  0
LINE
  5
78AA
330
18
100
AcDbEntity
  8
WARSTWA3
100
AcDbLine
 10
546.699593
 20
96.10226294483165
 30
0.0
 11
548.491524
 21
96.10226294483165
 31
0.0
  0
LINE
  5
78AB
330
18
100
AcDbEntity
  8
WARSTWA3
100
AcDbLine
 10
547.510001
 20
95.11293694483165
 30
0.0
 11
549.068058
 21
95.39844094483165
 31
0.0
  0
LINE
  5
78AC
330
18
100
AcDbEntity
  8
WARSTWA3
100
AcDbLine
 10
547.510001
 20
95.11293694483165
 30
0.0
 11
548.580711
 21
95.11293694483165
 31
0.0
  0
LINE
  5
78AD
330
18
100
AcDbEntity
  8
WARSTWA3
100
AcDbLine
 10
548.408648
 20
94.74248594483164
 30
0.0
 11
547.337934
 21
94.74248594483164
 31
0.0
  0
ARC
  5
78AE
330
18
100
AcDbEntity
  8
WARSTWA3
100
AcDbCircle
 10
547.623043
 20
96.00965294483164
 30
0.0
 40
0.928082
100
AcDbArc
 50
174.2731860000006
 51
263.0038629999984
  0
LINE
  5
78AF
330
18
100
AcDbEntity
  8
WARSTWA3
100
AcDbLine
 10
547.510001
 20
95.11293694483165
 30
0.0
 11
547.337934
 21
94.74248594483164
 31
0.0
  0
LINE
  5
78B0
330
18
100
AcDbEntity
  8
WARSTWA3
100
AcDbLine
 10
548.580711
 20
95.11293694483165
 30
0.0
 11
548.81864
 21
95.15653594483165
 31
0.0
  0
ARC
  5
78B1
330
18
100
AcDbEntity
  8
WARSTWA3
100
AcDbCircle
 10
549.148477
 20
96.03637694483164
 30
0.0
 40
0.660249
100
AcDbArc
 50
174.2729830000002
 51
263.0039700000017
  0
LINE
  5
78B2
330
18
100
AcDbEntity
  8
WARSTWA3
100
AcDbLine
 10
549.068058
 20
95.39844094483165
 30
0.0
 11
549.150244
 21
95.39844094483165
 31
0.0
  0
LINE
  5
78B3
330
18
100
AcDbEntity
  8
WARSTWA3
100
AcDbLine
 10
548.408648
 20
94.74248594483164
 30
0.0
 11
548.580711
 21
95.11293694483165
 31
0.0
  0
LINE
  5
78B4
330
18
100
AcDbEntity
  8
WARSTWA3
100
AcDbLine
 10
549.522511
 20
96.10226294483165
 30
0.0
 11
549.391118
 21
96.10226294483165
 31
0.0
  0
LINE
  5
78B5
330
18
100
AcDbEntity
  8
WARSTWA3
100
AcDbLine
 10
543.895126
 20
95.01769694483166
 30
0.0
 11
545.014852
 21
95.19609894483163
 31
0.0
  0
LINE
  5
78B6
330
18
100
AcDbEntity
  8
WARSTWA3
100
AcDbLine
 10
543.895126
 20
95.01769694483166
 30
0.0
 11
545.014852
 21
95.01769694483166
 31
0.0
  0
LINE
  5
78B7
330
18
100
AcDbEntity
  8
WARSTWA3
100
AcDbLine
 10
540.913031
 20
95.39844094483165
 30
0.0
 11
540.995217
 21
95.39844094483165
 31
0.0
  0
LINE
  5
78B8
330
18
100
AcDbEntity
  8
WARSTWA3
100
AcDbLine
 10
541.367484
 20
96.10226294483165
 30
0.0
 11
541.236095
 21
96.10226294483165
 31
0.0
  0
LINE
  5
78B9
330
18
100
AcDbEntity
  8
WARSTWA3
100
AcDbLine
 10
546.699593
 20
96.10226294483165
 30
0.0
 11
546.224071
 21
96.10226294483165
 31
0.0
  0
LINE
  5
78BA
330
18
100
AcDbEntity
  8
WARSTWA3
100
AcDbLine
 10
541.234537
 20
97.77229094483165
 30
0.0
 11
541.234537
 21
96.04096794483165
 31
0.0
  0
LINE
  5
78BB
330
18
100
AcDbEntity
  8
WARSTWA3
100
AcDbLine
 10
541.236095
 20
96.10226294483165
 30
0.0
 11
541.236095
 21
97.71099694483165
 31
0.0
  0
LINE
  5
78BC
330
18
100
AcDbEntity
  8
WARSTWA3
100
AcDbLine
 10
541.367484
 20
97.71099694483165
 30
0.0
 11
541.367484
 21
96.10226294483165
 31
0.0
  0
LINE
  5
78BD
330
18
100
AcDbEntity
  8
WARSTWA3
100
AcDbLine
 10
543.895126
 20
98.79556294483164
 30
0.0
 11
543.895126
 21
95.01769694483166
 31
0.0
  0
LINE
  5
78BE
330
18
100
AcDbEntity
  8
WARSTWA3
100
AcDbLine
 10
549.389564
 20
97.77229094483165
 30
0.0
 11
549.389564
 21
96.04096794483165
 31
0.0
  0
LINE
  5
78BF
330
18
100
AcDbEntity
  8
WARSTWA3
100
AcDbLine
 10
548.491524
 20
97.71099694483165
 30
0.0
 11
548.491524
 21
96.10226294483165
 31
0.0
  0
LINE
  5
78C0
330
18
100
AcDbEntity
  8
WARSTWA3
100
AcDbLine
 10
546.699593
 20
97.71099694483165
 30
0.0
 11
546.699593
 21
96.10226294483165
 31
0.0
  0
LINE
  5
78C1
330
18
100
AcDbEntity
  8
WARSTWA3
100
AcDbLine
 10
549.391118
 20
96.10226294483165
 30
0.0
 11
549.391118
 21
97.71099694483165
 31
0.0
  0
LINE
  5
78C2
330
18
100
AcDbEntity
  8
WARSTWA3
100
AcDbLine
 10
546.224071
 20
96.10226294483165
 30
0.0
 11
546.224071
 21
97.71099694483165
 31
0.0
  0
LINE
  5
78C3
330
18
100
AcDbEntity
  8
WARSTWA3
100
AcDbLine
 10
549.522511
 20
97.71099694483165
 30
0.0
 11
549.522511
 21
96.10226294483165
 31
0.0
  0
LINE
  5
78C4
330
18
100
AcDbEntity
  8
WARSTWA3
100
AcDbLine
 10
553.17772
 20
98.61590994483164
 30
0.0
 11
554.568263
 21
98.61590994483164
 31
0.0
  0
ELLIPSE
  5
78C5
330
18
100
AcDbEntity
  8
WARSTWA3
100
AcDbEllipse
 10
554.928018
 20
99.72191494483165
 30
0.0
 11
0.0
 21
0.3016377000000057
 31
0.0
210
0.0
220
0.0
230
1.0
 40
0.315299
 41
0.0
 42
1.570796326794896
  0
LINE
  5
78C6
330
18
100
AcDbEntity
  8
WARSTWA3
100
AcDbLine
 10
554.568263
 20
98.79556294483164
 30
0.0
 11
552.050154
 21
98.79556294483164
 31
0.0
  0
LINE
  5
78C7
330
18
100
AcDbEntity
  8
WARSTWA3
100
AcDbLine
 10
552.050154
 20
98.79556294483164
 30
0.0
 11
553.17772
 21
98.61590994483164
 31
0.0
  0
LINE
  5
78C8
330
18
100
AcDbEntity
  8
WARSTWA3
100
AcDbLine
 10
554.568263
 20
95.19734894483163
 30
0.0
 11
553.17772
 21
95.19734894483163
 31
0.0
  0
LINE
  5
78C9
330
18
100
AcDbEntity
  8
WARSTWA3
100
AcDbLine
 10
552.050154
 20
95.01769694483166
 30
0.0
 11
554.568263
 21
95.01769694483166
 31
0.0
  0
LINE
  5
78CA
330
18
100
AcDbEntity
  8
WARSTWA3
100
AcDbLine
 10
552.050154
 20
95.01769694483166
 30
0.0
 11
553.17772
 21
95.19734894483163
 31
0.0
  0
LINE
  5
78CB
330
18
100
AcDbEntity
  8
WARSTWA3
100
AcDbLine
 10
554.475312
 20
98.61590994483164
 30
0.0
 11
554.475312
 21
95.19734894483163
 31
0.0
  0
LINE
  5
78CC
330
18
100
AcDbEntity
  8
WARSTWA3
100
AcDbLine
 10
553.17772
 20
95.19734894483163
 30
0.0
 11
553.17772
 21
98.61590994483164
 31
0.0
  0
LINE
  5
78CD
330
18
100
AcDbEntity
  8
WARSTWA3
100
AcDbLine
 10
552.050154
 20
98.79556294483164
 30
0.0
 11
552.050154
 21
95.01769694483166
 31
0.0
  0
LINE
  5
78CE
330
18
100
AcDbEntity
  8
WARSTWA3
100
AcDbLine
 10
554.568263
 20
95.01769694483166
 30
0.0
 11
554.568263
 21
98.79556294483164
 31
0.0
  0
LINE
  5
78CF
330
18
100
AcDbEntity
  8
WARSTWA3
100
AcDbLine
 10
567.755856
 20
94.89571094483163
 30
0.0
 11
566.820779
 21
94.89571094483163
 31
0.0
  0
LINE
  5
78D0
330
18
100
AcDbEntity
  8
WARSTWA3
100
AcDbLine
 10
567.755856
 20
94.89571094483163
 30
0.0
 11
566.886041
 21
94.89571094483163
 31
0.0
  0
LINE
  5
78D1
330
18
100
AcDbEntity
  8
WARSTWA3
100
AcDbLine
 10
559.812731
 20
100.0235529448316
 30
0.0
 11
568.962407
 21
100.0235529448316
 31
0.0
  0
LINE
  5
78D2
330
18
100
AcDbEntity
  8
WARSTWA3
100
AcDbLine
 10
569.264045
 20
99.72191494483165
 30
0.0
 11
559.812731
 21
99.72191494483165
 31
0.0
  0
LINE
  5
78D3
330
18
100
AcDbEntity
  8
WARSTWA3
100
AcDbLine
 10
565.460849
 20
96.90662994483164
 30
0.0
 11
565.461289
 21
96.85635694483163
 31
0.0
  0
LINE
  5
78D4
330
18
100
AcDbEntity
  8
WARSTWA3
100
AcDbLine
 10
566.820779
 20
96.85635694483163
 30
0.0
 11
566.820779
 21
94.89571094483163
 31
0.0
  0
LINE
  5
78D5
330
18
100
AcDbEntity
  8
WARSTWA3
100
AcDbLine
 10
566.868492
 20
96.90662994483164
 30
0.0
 11
566.886041
 21
94.89571094483163
 31
0.0
  0
LINE
  5
78D6
330
18
100
AcDbEntity
  8
WARSTWA3
100
AcDbLine
 10
559.511093
 20
99.72191494483165
 30
0.0
 11
559.812731
 21
99.72191494483165
 31
0.0
  0
LINE
  5
78D7
330
18
100
AcDbEntity
  8
WARSTWA3
100
AcDbLine
 10
559.812731
 20
99.72191494483165
 30
0.0
 11
559.812731
 21
100.0235529448316
 31
0.0
  0
ARC
  5
78D8
330
18
100
AcDbEntity
  8
WARSTWA3
100
AcDbCircle
 10
559.81273
 20
99.72191494483165
 30
0.0
 40
0.301638
100
AcDbArc
 50
90.0
 51
180.0
  0
LINE
  5
78D9
330
18
100
AcDbEntity
  8
WARSTWA3
100
AcDbLine
 10
563.38211
 20
96.90662994483164
 30
0.0
 11
563.884839
 21
96.90662994483164
 31
0.0
  0
LINE
  5
78DA
330
18
100
AcDbEntity
  8
WARSTWA3
100
AcDbLine
 10
563.38211
 20
96.90662994483164
 30
0.0
 11
563.884839
 21
96.90662994483164
 31
0.0
  0
ARC
  5
78DB
330
18
100
AcDbEntity
  8
WARSTWA3
100
AcDbCircle
 10
563.633475
 20
96.90662994483164
 30
0.0
 40
1.608734
100
AcDbArc
 50
358.2092149999999
 51
0.0
  0
LINE
  5
78DC
330
18
100
AcDbEntity
  8
WARSTWA3
100
AcDbLine
 10
560.44617
 20
94.89571094483163
 30
0.0
 11
559.812731
 21
94.89571094483163
 31
0.0
  0
LINE
  5
78DD
330
18
100
AcDbEntity
  8
WARSTWA3
100
AcDbLine
 10
562.125286
 20
96.90662994483164
 30
0.0
 11
560.398457
 21
96.90662994483164
 31
0.0
  0
LINE
  5
78DE
330
18
100
AcDbEntity
  8
WARSTWA3
100
AcDbLine
 10
559.511093
 20
94.89571094483163
 30
0.0
 11
559.812731
 21
94.89571094483163
 31
0.0
  0
LINE
  5
78DF
330
18
100
AcDbEntity
  8
WARSTWA3
100
AcDbLine
 10
559.812731
 20
94.89571094483163
 30
0.0
 11
559.511093
 21
94.89571094483163
 31
0.0
  0
LINE
  5
78E0
330
18
100
AcDbEntity
  8
WARSTWA3
100
AcDbLine
 10
560.380909
 20
94.89571094483163
 30
0.0
 11
559.812731
 21
94.89571094483163
 31
0.0
  0
LINE
  5
78E1
330
18
100
AcDbEntity
  8
WARSTWA3
100
AcDbLine
 10
560.398457
 20
96.90662994483164
 30
0.0
 11
560.380909
 21
94.89571094483163
 31
0.0
  0
LINE
  5
78E2
330
18
100
AcDbEntity
  8
WARSTWA3
100
AcDbLine
 10
560.44617
 20
96.85635694483163
 30
0.0
 11
562.126125
 21
96.85635694483163
 31
0.0
  0
LINE
  5
78E3
330
18
100
AcDbEntity
  8
WARSTWA3
100
AcDbLine
 10
560.44617
 20
96.85635694483163
 30
0.0
 11
560.44617
 21
94.89571094483163
 31
0.0
  0
LINE
  5
78E4
330
18
100
AcDbEntity
  8
WARSTWA3
100
AcDbLine
 10
561.806099
 20
96.90662994483164
 30
0.0
 11
561.805661
 21
96.85635694483163
 31
0.0
  0
ARC
  5
78E5
330
18
100
AcDbEntity
  8
WARSTWA3
100
AcDbCircle
 10
563.633475
 20
96.90662994483164
 30
0.0
 40
1.608734
100
AcDbArc
 50
180.0
 51
181.7907850000001
  0
LINE
  5
78E6
330
18
100
AcDbEntity
  8
WARSTWA3
100
AcDbLine
 10
563.633475
 20
96.65526494483164
 30
0.0
 11
563.633475
 21
97.15799394483163
 31
0.0
  0
CIRCLE
  5
78E7
330
18
100
AcDbEntity
  8
WARSTWA3
100
AcDbCircle
 10
563.633475
 20
96.90662994483164
 30
0.0
 40
1.508189
  0
LINE
  5
78E8
330
18
100
AcDbEntity
  8
WARSTWA3
100
AcDbLine
 10
563.633475
 20
96.65526494483164
 30
0.0
 11
563.633475
 21
97.15799394483163
 31
0.0
  0
LINE
  5
78E9
330
18
100
AcDbEntity
  8
WARSTWA3
100
AcDbLine
 10
559.511093
 20
94.89571094483163
 30
0.0
 11
559.511093
 21
99.72191494483165
 31
0.0
  0
LINE
  5
78EA
330
18
100
AcDbEntity
  8
WARSTWA3
100
AcDbLine
 10
559.812731
 20
99.72191494483165
 30
0.0
 11
559.812731
 21
94.89571094483163
 31
0.0
  0
CIRCLE
  5
78EB
330
18
100
AcDbEntity
  8
WARSTWA3
100
AcDbCircle
 10
563.633475
 20
96.90662994483164
 30
0.0
 40
1.508189
  0
LINE
  5
78EC
330
18
100
AcDbEntity
  8
WARSTWA3
100
AcDbLine
 10
565.140825
 20
96.85635694483163
 30
0.0
 11
566.820779
 21
96.85635694483163
 31
0.0
  0
LINE
  5
78ED
330
18
100
AcDbEntity
  8
WARSTWA3
100
AcDbLine
 10
566.868492
 20
96.90662994483164
 30
0.0
 11
565.141664
 21
96.90662994483164
 31
0.0
  0
LINE
  5
78FB
330
18
100
AcDbEntity
  8
WARSTWA3
100
AcDbLine
 10
569.264045
 20
99.72191494483165
 30
0.0
 11
569.264045
 21
99.42027694483166
 31
0.0
  0
LINE
  5
7900
330
18
100
AcDbEntity
  8
WARSTWA3
100
AcDbLine
 10
569.264045
 20
99.72191494483165
 30
0.0
 11
569.264045
 21
99.42027694483166
 31
0.0
  0
LINE
  5
7901
330
18
100
AcDbEntity
  8
WARSTWA3
100
AcDbLine
 10
568.117822
 20
99.06836594483165
 30
0.0
 11
568.117822
 21
97.15799394483163
 31
0.0
  0
LINE
  5
7902
330
18
100
AcDbEntity
  8
WARSTWA3
100
AcDbLine
 10
568.117822
 20
99.06836594483165
 30
0.0
 11
568.580772
 21
99.06836594483165
 31
0.0
  0
LINE
  5
7903
330
18
100
AcDbEntity
  8
WARSTWA3
100
AcDbLine
 10
569.264045
 20
99.42027694483166
 30
0.0
 11
567.755856
 21
99.42027694483166
 31
0.0
  0
LINE
  5
7904
330
18
100
AcDbEntity
  8
WARSTWA3
100
AcDbLine
 10
568.580772
 20
98.04429594483163
 30
0.0
 11
568.117822
 21
98.04429594483163
 31
0.0
  0
LINE
  5
7905
330
18
100
AcDbEntity
  8
WARSTWA3
100
AcDbLine
 10
568.117822
 20
98.18206394483165
 30
0.0
 11
568.580772
 21
98.18206394483165
 31
0.0
  0
LINE
  5
7906
330
18
100
AcDbEntity
  8
WARSTWA3
100
AcDbLine
 10
568.117822
 20
97.76126994483165
 30
0.0
 11
568.580772
 21
97.76126994483165
 31
0.0
  0
LINE
  5
7907
330
18
100
AcDbEntity
  8
WARSTWA3
100
AcDbLine
 10
568.580772
 20
98.46509094483166
 30
0.0
 11
568.117822
 21
98.46509094483166
 31
0.0
  0
LINE
  5
7908
330
18
100
AcDbEntity
  8
WARSTWA3
100
AcDbLine
 10
568.580772
 20
97.15799394483163
 30
0.0
 11
568.117822
 21
97.15799394483163
 31
0.0
  0
LINE
  5
7909
330
18
100
AcDbEntity
  8
WARSTWA3
100
AcDbLine
 10
568.117822
 20
98.11408894483164
 30
0.0
 11
568.580772
 21
98.11408894483164
 31
0.0
  0
LINE
  5
790A
330
18
100
AcDbEntity
  8
WARSTWA3
100
AcDbLine
 10
568.580772
 20
98.11227194483165
 30
0.0
 11
568.117822
 21
98.11227194483165
 31
0.0
  0
LINE
  5
790B
330
18
100
AcDbEntity
  8
WARSTWA3
100
AcDbLine
 10
569.264045
 20
99.42027694483166
 30
0.0
 11
567.755856
 21
99.42027694483166
 31
0.0
  0
ARC
  5
790C
330
18
100
AcDbEntity
  8
WARSTWA3
100
AcDbCircle
 10
568.962407
 20
99.72191494483165
 30
0.0
 40
0.301638
100
AcDbArc
 50
0.0
 51
90.0
  0
LINE
  5
790D
330
18
100
AcDbEntity
  8
WARSTWA3
100
AcDbLine
 10
567.755856
 20
94.89571094483163
 30
0.0
 11
567.755856
 21
99.42027694483166
 31
0.0
  0
LINE
  5
7937
330
18
100
AcDbEntity
  8
WARSTWA3
100
AcDbLine
 10
597.607934
 20
100.0235529448316
 30
0.0
 11
604.436896
 21
100.0235529448316
 31
0.0
  0
LINE
  5
7938
330
18
100
AcDbEntity
  8
WARSTWA3
100
AcDbLine
 10
597.607934
 20
99.87273394483164
 30
0.0
 11
603.670852
 21
99.87273394483164
 31
0.0
  0
LINE
  5
7939
330
18
100
AcDbEntity
  8
WARSTWA3
100
AcDbLine
 10
597.267757
 20
99.87273394483164
 30
0.0
 11
597.586881
 21
99.87273394483164
 31
0.0
  0
LINE
  5
793A
330
18
100
AcDbEntity
  8
WARSTWA3
100
AcDbLine
 10
597.607934
 20
99.87273394483164
 30
0.0
 11
597.607934
 21
100.0235529448316
 31
0.0
  0
LINE
  5
793B
330
18
100
AcDbEntity
  8
WARSTWA3
100
AcDbLine
 10
595.717671
 20
99.87273394483164
 30
0.0
 11
594.40052
 21
99.87273394483164
 31
0.0
  0
LINE
  5
793C
330
18
100
AcDbEntity
  8
WARSTWA3
100
AcDbLine
 10
596.119855
 20
99.87273394483164
 30
0.0
 11
596.220401
 21
99.87273394483164
 31
0.0
  0
LINE
  5
793D
330
18
100
AcDbEntity
  8
WARSTWA3
100
AcDbLine
 10
595.818218
 20
99.87273394483164
 30
0.0
 11
596.119855
 21
99.87273394483164
 31
0.0
  0
LINE
  5
793E
330
18
100
AcDbEntity
  8
WARSTWA3
100
AcDbLine
 10
595.717671
 20
99.87273394483164
 30
0.0
 11
595.818218
 21
99.87273394483164
 31
0.0
  0
LINE
  5
793F
330
18
100
AcDbEntity
  8
WARSTWA3
100
AcDbLine
 10
593.696699
 20
99.87273394483164
 30
0.0
 11
593.998337
 21
99.87273394483164
 31
0.0
  0
LINE
  5
7940
330
18
100
AcDbEntity
  8
WARSTWA3
100
AcDbLine
 10
593.998337
 20
99.87273394483164
 30
0.0
 11
594.40052
 21
99.87273394483164
 31
0.0
  0
ARC
  5
7941
330
18
100
AcDbEntity
  8
WARSTWA3
100
AcDbCircle
 10
595.204887
 20
99.72191494483165
 30
0.0
 40
0.301638
100
AcDbArc
 50
90.0
 51
149.9999999999909
  0
LINE
  5
7942
330
18
100
AcDbEntity
  8
WARSTWA3
100
AcDbLine
 10
596.220401
 20
99.87273394483164
 30
0.0
 11
597.267757
 21
99.87273394483164
 31
0.0
  0
LINE
  5
7943
330
18
100
AcDbEntity
  8
WARSTWA3
100
AcDbLine
 10
595.204887
 20
100.0235529448316
 30
0.0
 11
597.607934
 21
100.0235529448316
 31
0.0
  0
LINE
  5
7945
330
18
100
AcDbEntity
  8
WARSTWA3
100
AcDbLine
 10
605.259477
 20
100.0235529448316
 30
0.0
 11
604.931405
 21
100.0235529448316
 31
0.0
  0
LINE
  5
7946
330
18
100
AcDbEntity
  8
WARSTWA3
100
AcDbLine
 10
604.875415
 20
100.0235529448316
 30
0.0
 11
604.436896
 21
100.0235529448316
 31
0.0
  0
LINE
  5
7947
330
18
100
AcDbEntity
  8
WARSTWA3
100
AcDbLine
 10
604.960668
 20
100.0235529448316
 30
0.0
 11
604.875415
 21
100.0235529448316
 31
0.0
  0
LINE
  5
7948
330
18
100
AcDbEntity
  8
WARSTWA3
100
AcDbLine
 10
605.259477
 20
100.0235529448316
 30
0.0
 11
609.487846
 21
100.0235529448316
 31
0.0
  0
LINE
  5
7949
330
18
100
AcDbEntity
  8
WARSTWA3
100
AcDbLine
 10
605.188677
 20
99.87273394483164
 30
0.0
 11
605.360023
 21
99.87273394483164
 31
0.0
  0
LINE
  5
794A
330
18
100
AcDbEntity
  8
WARSTWA3
100
AcDbLine
 10
604.103522
 20
99.87273394483164
 30
0.0
 11
605.188677
 21
99.87273394483164
 31
0.0
  0
LINE
  5
794B
330
18
100
AcDbEntity
  8
WARSTWA3
100
AcDbLine
 10
603.599473
 20
99.87273394483164
 30
0.0
 11
604.103522
 21
99.87273394483164
 31
0.0
  0
LINE
  5
794C
330
18
100
AcDbEntity
  8
WARSTWA3
100
AcDbLine
 10
609.582951
 20
99.72191494483165
 30
0.0
 11
605.561114
 21
99.72191494483165
 31
0.0
  0
ARC
  5
794D
330
18
100
AcDbEntity
  8
WARSTWA3
100
AcDbCircle
 10
605.259478
 20
99.72191594483165
 30
0.0
 40
0.301637
100
AcDbArc
 50
359.9061369999986
 51
90.00013800000546
  0
LINE
  5
794E
330
18
100
AcDbEntity
  8
WARSTWA3
100
AcDbLine
 10
604.875415
 20
99.87273394483164
 30
0.0
 11
604.875415
 21
100.0235529448316
 31
0.0
  0
LINE
  5
794F
330
18
100
AcDbEntity
  8
WARSTWA3
100
AcDbLine
 10
604.960668
 20
99.87273394483164
 30
0.0
 11
604.960668
 21
100.0235529448316
 31
0.0
  0
ARC
  5
7950
330
18
100
AcDbEntity
  8
WARSTWA3
100
AcDbCircle
 10
604.406154
 20
99.79556694483163
 30
0.0
 40
0.232967
100
AcDbArc
 50
19.3435949999932
 51
82.41713399998805
  0
ELLIPSE
  5
7951
330
18
100
AcDbEntity
  8
WARSTWA3
100
AcDbEllipse
 10
609.487845
 20
99.72191494483165
 30
0.0
 11
0.0
 21
0.3016377000000057
 31
0.0
210
0.0
220
0.0
230
1.0
 40
0.315299
 41
4.712388980384694
 42
6.283185307179586
  0
LINE
  5
7952
330
18
100
AcDbEntity
  8
WARSTWA3
100
AcDbLine
 10
605.561114
 20
94.89571094483163
 30
0.0
 11
605.360023
 21
94.89571094483163
 31
0.0
  0
LINE
  5
7953
330
18
100
AcDbEntity
  8
WARSTWA3
100
AcDbLine
 10
605.561114
 20
94.89571094483163
 30
0.0
 11
605.360023
 21
94.89571094483163
 31
0.0
  0
LINE
  5
7954
330
18
100
AcDbEntity
  8
WARSTWA3
100
AcDbLine
 10
607.742339
 20
94.89571094483163
 30
0.0
 11
605.561114
 21
94.89571094483163
 31
0.0
  0
LINE
  5
7955
330
18
100
AcDbEntity
  8
WARSTWA3
100
AcDbLine
 10
607.829986
 20
94.89571094483163
 30
0.0
 11
605.561114
 21
94.89571094483163
 31
0.0
  0
LINE
  5
7956
330
18
100
AcDbEntity
  8
WARSTWA3
100
AcDbLine
 10
605.561114
 20
94.89571094483163
 30
0.0
 11
605.561114
 21
99.72191494483165
 31
0.0
  0
LINE
  5
7957
330
18
100
AcDbEntity
  8
WARSTWA3
100
AcDbLine
 10
609.940551
 20
98.61590994483164
 30
0.0
 11
609.940551
 21
95.19734894483163
 31
0.0
  0
LINE
  5
7958
330
18
100
AcDbEntity
  8
WARSTWA3
100
AcDbLine
 10
609.8476
 20
98.79556294483164
 30
0.0
 11
609.8476
 21
95.01769694483166
 31
0.0
  0
ARC
  5
7959
330
18
100
AcDbEntity
  8
WARSTWA3
100
AcDbCircle
 10
633.232595
 20
95.97498694483166
 30
0.0
 40
1.275613
100
AcDbArc
 50
276.9966549999991
 51
5.726279000000479
  0
ARC
  5
795A
330
18
100
AcDbEntity
  8
WARSTWA3
100
AcDbCircle
 10
632.472645
 20
95.97497794483165
 30
0.0
 40
1.275604
100
AcDbArc
 50
174.2732779999999
 51
263.0037239999986
  0
LINE
  5
795B
330
18
100
AcDbEntity
  8
WARSTWA3
100
AcDbLine
 10
618.972261
 20
94.09134394483165
 30
0.0
 11
618.972261
 21
99.72191494483165
 31
0.0
  0
LINE
  5
795C
330
18
100
AcDbEntity
  8
WARSTWA3
100
AcDbLine
 10
619.401012
 20
94.09134394483165
 30
0.0
 11
619.401012
 21
99.72191494483165
 31
0.0
  0
LINE
  5
795D
330
18
100
AcDbEntity
  8
WARSTWA3
100
AcDbLine
 10
627.127288
 20
94.09134394483165
 30
0.0
 11
627.127288
 21
99.72191494483165
 31
0.0
  0
LINE
  5
795E
330
18
100
AcDbEntity
  8
WARSTWA3
100
AcDbLine
 10
627.556039
 20
94.09134394483165
 30
0.0
 11
627.556039
 21
99.72191494483165
 31
0.0
  0
LINE
  5
795F
330
18
100
AcDbEntity
  8
WARSTWA3
100
AcDbLine
 10
634.71384
 20
94.09134394483165
 30
0.0
 11
634.71384
 21
99.72191494483165
 31
0.0
  0
LINE
  5
7960
330
18
100
AcDbEntity
  8
WARSTWA3
100
AcDbLine
 10
635.142591
 20
94.09134394483165
 30
0.0
 11
635.142591
 21
99.72191494483165
 31
0.0
  0
LINE
  5
7961
330
18
100
AcDbEntity
  8
WARSTWA3
100
AcDbLine
 10
627.556039
 20
94.09134394483165
 30
0.0
 11
635.142591
 21
94.09134394483165
 31
0.0
  0
LINE
  5
7962
330
18
100
AcDbEntity
  8
WARSTWA3
100
AcDbLine
 10
634.840953
 20
93.78970694483165
 30
0.0
 11
627.254404
 21
93.78970694483165
 31
0.0
  0
LINE
  5
7963
330
18
100
AcDbEntity
  8
WARSTWA3
100
AcDbLine
 10
618.972261
 20
94.09134394483165
 30
0.0
 11
619.401012
 21
94.09134394483165
 31
0.0
  0
LINE
  5
7964
330
18
100
AcDbEntity
  8
WARSTWA3
100
AcDbLine
 10
619.099377
 20
93.78970694483165
 30
0.0
 11
618.799251
 21
93.78970694483165
 31
0.0
  0
LWPOLYLINE
  5
7965
330
18
100
AcDbEntity
  8
WARSTWA3
100
AcDbPolyline
 90
        9
 70
   128
 43
0.0
 10
618.972261
 20
94.09134394483165
 10
618.968939
 20
94.03249794483163
 10
618.959092
 20
93.97591294483165
 10
618.943105
 20
93.92376294483164
 10
618.921587
 20
93.87805394483165
 10
618.895371
 20
93.84054194483166
 10
618.865458
 20
93.81266794483163
 10
618.833003
 20
93.79550194483166
 10
618.799251
 20
93.78970694483165
  0
LINE
  5
7966
330
18
100
AcDbEntity
  8
WARSTWA3
100
AcDbLine
 10
627.127288
 20
94.09134394483165
 30
0.0
 11
627.556039
 21
94.09134394483165
 31
0.0
  0
LINE
  5
7967
330
18
100
AcDbEntity
  8
WARSTWA3
100
AcDbLine
 10
627.254404
 20
93.78970694483165
 30
0.0
 11
626.954278
 21
93.78970694483165
 31
0.0
  0
LWPOLYLINE
  5
7968
330
18
100
AcDbEntity
  8
WARSTWA3
100
AcDbPolyline
 90
        9
 70
   128
 43
0.0
 10
627.127288
 20
94.09134394483165
 10
627.123962
 20
94.03249794483163
 10
627.114119
 20
93.97591294483165
 10
627.098132
 20
93.92376294483164
 10
627.076614
 20
93.87805394483165
 10
627.050398
 20
93.84054194483166
 10
627.020485
 20
93.81266794483163
 10
626.98803
 20
93.79550194483166
 10
626.954278
 20
93.78970694483165
  0
ARC
  5
7969
330
18
100
AcDbEntity
  8
WARSTWA3
100
AcDbCircle
 10
627.254402
 20
94.09134394483165
 30
0.0
 40
0.301638
100
AcDbArc
 50
270.0
 51
0.0
  0
ARC
  5
796A
330
18
100
AcDbEntity
  8
WARSTWA3
100
AcDbCircle
 10
619.099376
 20
94.09134394483165
 30
0.0
 40
0.301638
100
AcDbArc
 50
270.0
 51
0.0
  0
LINE
  5
796B
330
18
100
AcDbEntity
  8
WARSTWA3
100
AcDbLine
 10
619.401012
 20
94.09134394483165
 30
0.0
 11
627.127288
 21
94.09134394483165
 31
0.0
  0
LINE
  5
796C
330
18
100
AcDbEntity
  8
WARSTWA3
100
AcDbLine
 10
626.954278
 20
93.78970694483165
 30
0.0
 11
619.099377
 21
93.78970694483165
 31
0.0
  0
LINE
  5
796D
330
18
100
AcDbEntity
  8
WARSTWA3
100
AcDbLine
 10
634.840952
 20
93.78970694483165
 30
0.0
 11
634.540826
 21
93.78970694483165
 31
0.0
  0
LWPOLYLINE
  5
796E
330
18
100
AcDbEntity
  8
WARSTWA3
100
AcDbPolyline
 90
        9
 70
   128
 43
0.0
 10
634.71384
 20
94.09134394483165
 10
634.710514
 20
94.03249794483163
 10
634.700671
 20
93.97591294483165
 10
634.684681
 20
93.92376294483164
 10
634.663166
 20
93.87805394483165
 10
634.636946
 20
93.84054194483166
 10
634.607037
 20
93.81266794483163
 10
634.574582
 20
93.79550194483166
 10
634.540826
 20
93.78970694483165
  0
LINE
  5
796F
330
18
100
AcDbEntity
  8
WARSTWA3
100
AcDbLine
 10
634.71384
 20
94.09134394483165
 30
0.0
 11
635.142591
 21
94.09134394483165
 31
0.0
  0
ARC
  5
7970
330
18
100
AcDbEntity
  8
WARSTWA3
100
AcDbCircle
 10
634.840953
 20
94.09134394483165
 30
0.0
 40
0.301638
100
AcDbArc
 50
270.0
 51
0.0
  0
LINE
  5
7971
330
18
100
AcDbEntity
  8
WARSTWA3
100
AcDbLine
 10
628.67576
 20
98.79556294483164
 30
0.0
 11
627.556039
 21
98.61715994483164
 31
0.0
  0
LINE
  5
7972
330
18
100
AcDbEntity
  8
WARSTWA3
100
AcDbLine
 10
628.67576
 20
98.79556294483164
 30
0.0
 11
627.556039
 21
98.79556294483164
 31
0.0
  0
LINE
  5
7973
330
18
100
AcDbEntity
  8
WARSTWA3
100
AcDbLine
 10
635.142591
 20
99.72191494483165
 30
0.0
 11
627.556039
 21
99.72191494483165
 31
0.0
  0
LINE
  5
7974
330
18
100
AcDbEntity
  8
WARSTWA3
100
AcDbLine
 10
625.797898
 20
100.0235529448316
 30
0.0
 11
634.840953
 21
100.0235529448316
 31
0.0
  0
LINE
  5
7975
330
18
100
AcDbEntity
  8
WARSTWA3
100
AcDbLine
 10
628.67576
 20
95.01769694483166
 30
0.0
 11
627.556039
 21
95.19609894483163
 31
0.0
  0
LINE
  5
7976
330
18
100
AcDbEntity
  8
WARSTWA3
100
AcDbLine
 10
627.556039
 20
95.01769694483166
 30
0.0
 11
628.67576
 21
95.01769694483166
 31
0.0
  0
LINE
  5
7977
330
18
100
AcDbEntity
  8
WARSTWA3
100
AcDbLine
 10
618.799251
 20
100.0235529448316
 30
0.0
 11
619.099377
 21
100.0235529448316
 31
0.0
  0
LINE
  5
7978
330
18
100
AcDbEntity
  8
WARSTWA3
100
AcDbLine
 10
619.401012
 20
99.72191494483165
 30
0.0
 11
618.972261
 21
99.72191494483165
 31
0.0
  0
LINE
  5
7979
330
18
100
AcDbEntity
  8
WARSTWA3
100
AcDbLine
 10
617.642871
 20
100.0235529448316
 30
0.0
 11
626.954278
 21
100.0235529448316
 31
0.0
  0
ARC
  5
797A
330
18
100
AcDbEntity
  8
WARSTWA3
100
AcDbCircle
 10
616.771993
 20
97.80323894483165
 30
0.0
 40
0.924432
100
AcDbArc
 50
354.2733669999999
 51
83.00363200000112
  0
ARC
  5
797B
330
18
100
AcDbEntity
  8
WARSTWA3
100
AcDbCircle
 10
616.926802
 20
97.83478294483164
 30
0.0
 40
1.24064
100
AcDbArc
 50
354.2737349999997
 51
83.0031809999979
  0
LINE
  5
797C
330
18
100
AcDbEntity
  8
WARSTWA3
100
AcDbLine
 10
617.077929
 20
99.03348994483166
 30
0.0
 11
616.884595
 21
98.69642494483163
 31
0.0
  0
LINE
  5
797D
330
18
100
AcDbEntity
  8
WARSTWA3
100
AcDbLine
 10
618.161251
 20
97.71099694483165
 30
0.0
 11
617.691811
 21
97.71099694483165
 31
0.0
  0
LWPOLYLINE
  5
797E
330
18
100
AcDbEntity
  8
WARSTWA3
100
AcDbPolyline
 90
        9
 70
   128
 43
0.0
 10
618.799251
 20
100.0235529448316
 10
618.833003
 20
100.0177569448316
 10
618.865458
 20
100.0005919448316
 10
618.895371
 20
99.97271694483165
 10
618.921587
 20
99.93520494483165
 10
618.943105
 20
99.88949594483164
 10
618.959092
 20
99.83734694483165
 10
618.968939
 20
99.78076094483164
 10
618.972261
 20
99.72191494483165
  0
ARC
  5
797F
330
18
100
AcDbEntity
  8
WARSTWA3
100
AcDbCircle
 10
616.771993
 20
96.01002094483165
 30
0.0
 40
0.924432
100
AcDbArc
 50
276.9963790000023
 51
5.726622000000314
  0
ARC
  5
7980
330
18
100
AcDbEntity
  8
WARSTWA3
100
AcDbCircle
 10
616.926802
 20
95.97847694483166
 30
0.0
 40
1.24064
100
AcDbArc
 50
276.9968199999988
 51
5.726267999999978
  0
LINE
  5
7981
330
18
100
AcDbEntity
  8
WARSTWA3
100
AcDbLine
 10
616.884595
 20
95.11683394483164
 30
0.0
 11
617.077929
 21
94.77976894483164
 31
0.0
  0
LINE
  5
7982
330
18
100
AcDbEntity
  8
WARSTWA3
100
AcDbLine
 10
618.161251
 20
96.10226294483165
 30
0.0
 11
617.691811
 21
96.10226294483165
 31
0.0
  0
LINE
  5
7983
330
18
100
AcDbEntity
  8
WARSTWA3
100
AcDbLine
 10
617.691811
 20
96.10226294483165
 30
0.0
 11
617.691811
 21
97.71099694483165
 31
0.0
  0
LINE
  5
7984
330
18
100
AcDbEntity
  8
WARSTWA3
100
AcDbLine
 10
618.161251
 20
97.71099694483165
 30
0.0
 11
618.161251
 21
96.10226294483165
 31
0.0
  0
ARC
  5
7985
330
18
100
AcDbEntity
  8
WARSTWA3
100
AcDbCircle
 10
615.267388
 20
97.77688294483166
 30
0.0
 40
0.660248
100
AcDbArc
 50
354.2729279999997
 51
83.00403899999841
  0
ARC
  5
7986
330
18
100
AcDbEntity
  8
WARSTWA3
100
AcDbCircle
 10
615.926487
 20
97.80323894483165
 30
0.0
 40
0.924432
100
AcDbArc
 50
96.99636799999888
 51
185.7266330000001
  0
ARC
  5
7987
330
18
100
AcDbEntity
  8
WARSTWA3
100
AcDbCircle
 10
616.158331
 20
97.83479294483165
 30
0.0
 40
1.240628
100
AcDbArc
 50
96.99629899999753
 51
185.7267850000004
  0
LINE
  5
7988
330
18
100
AcDbEntity
  8
WARSTWA3
100
AcDbLine
 10
615.248902
 20
98.41481794483165
 30
0.0
 11
615.347806
 21
98.41481794483165
 31
0.0
  0
LINE
  5
7989
330
18
100
AcDbEntity
  8
WARSTWA3
100
AcDbLine
 10
615.006669
 20
97.71099694483165
 30
0.0
 11
614.923894
 21
97.71099694483165
 31
0.0
  0
LINE
  5
798A
330
18
100
AcDbEntity
  8
WARSTWA3
100
AcDbLine
 10
615.813885
 20
98.69642494483163
 30
0.0
 11
615.576892
 21
98.65299794483165
 31
0.0
  0
LINE
  5
798B
330
18
100
AcDbEntity
  8
WARSTWA3
100
AcDbLine
 10
616.007216
 20
99.03348994483166
 30
0.0
 11
615.813885
 21
98.69642494483163
 31
0.0
  0
LINE
  5
798C
330
18
100
AcDbEntity
  8
WARSTWA3
100
AcDbLine
 10
612.36571
 20
98.79556294483164
 30
0.0
 11
611.238143
 21
98.61590994483164
 31
0.0
  0
ARC
  5
798D
330
18
100
AcDbEntity
  8
WARSTWA3
100
AcDbCircle
 10
615.267387
 20
96.03637694483164
 30
0.0
 40
0.660249
100
AcDbArc
 50
276.9960299999983
 51
5.727016999999766
  0
ARC
  5
798E
330
18
100
AcDbEntity
  8
WARSTWA3
100
AcDbCircle
 10
615.926487
 20
96.01002094483165
 30
0.0
 40
0.924432
100
AcDbArc
 50
174.2733779999997
 51
263.0036209999976
  0
ARC
  5
798F
330
18
100
AcDbEntity
  8
WARSTWA3
100
AcDbCircle
 10
616.158331
 20
95.97846594483165
 30
0.0
 40
1.240628
100
AcDbArc
 50
174.2732119999996
 51
263.0037000000025
  0
LINE
  5
7990
330
18
100
AcDbEntity
  8
WARSTWA3
100
AcDbLine
 10
615.347806
 20
95.39844094483165
 30
0.0
 11
615.248902
 21
95.39844094483165
 31
0.0
  0
LINE
  5
7991
330
18
100
AcDbEntity
  8
WARSTWA3
100
AcDbLine
 10
615.006669
 20
96.10226294483165
 30
0.0
 11
614.923894
 21
96.10226294483165
 31
0.0
  0
LINE
  5
7992
330
18
100
AcDbEntity
  8
WARSTWA3
100
AcDbLine
 10
615.813885
 20
95.11683394483164
 30
0.0
 11
615.576892
 21
95.16026194483165
 31
0.0
  0
LINE
  5
7993
330
18
100
AcDbEntity
  8
WARSTWA3
100
AcDbLine
 10
615.813885
 20
95.11683394483164
 30
0.0
 11
616.007216
 21
94.77976894483164
 31
0.0
  0
LINE
  5
7994
330
18
100
AcDbEntity
  8
WARSTWA3
100
AcDbLine
 10
612.36571
 20
95.01769694483166
 30
0.0
 11
611.238143
 21
95.19734894483163
 31
0.0
  0
LINE
  5
7995
330
18
100
AcDbEntity
  8
WARSTWA3
100
AcDbLine
 10
615.0263
 20
97.92700694483163
 30
0.0
 11
615.0263
 21
95.88625194483164
 31
0.0
  0
LINE
  5
7996
330
18
100
AcDbEntity
  8
WARSTWA3
100
AcDbLine
 10
615.006669
 20
97.71099694483165
 30
0.0
 11
615.006669
 21
96.10226294483165
 31
0.0
  0
LINE
  5
7997
330
18
100
AcDbEntity
  8
WARSTWA3
100
AcDbLine
 10
611.238143
 20
98.61590994483164
 30
0.0
 11
611.238143
 21
95.19734894483163
 31
0.0
  0
LINE
  5
7998
330
18
100
AcDbEntity
  8
WARSTWA3
100
AcDbLine
 10
614.923894
 20
96.10226294483165
 30
0.0
 11
614.923894
 21
97.71099694483165
 31
0.0
  0
LINE
  5
7999
330
18
100
AcDbEntity
  8
WARSTWA3
100
AcDbLine
 10
612.36571
 20
95.01769694483166
 30
0.0
 11
612.36571
 21
98.79556294483164
 31
0.0
  0
LINE
  5
799A
330
18
100
AcDbEntity
  8
WARSTWA3
100
AcDbLine
 10
615.92434
 20
97.71099694483165
 30
0.0
 11
615.92434
 21
96.10226294483165
 31
0.0
  0
LINE
  5
799B
330
18
100
AcDbEntity
  8
WARSTWA3
100
AcDbLine
 10
614.961332
 20
100.0235529448316
 30
0.0
 11
617.642871
 21
100.0235529448316
 31
0.0
  0
LINE
  5
799C
330
18
100
AcDbEntity
  8
WARSTWA3
100
AcDbLine
 10
616.884595
 20
95.11683394483164
 30
0.0
 11
615.347806
 21
95.39844094483165
 31
0.0
  0
LINE
  5
799D
330
18
100
AcDbEntity
  8
WARSTWA3
100
AcDbLine
 10
616.884595
 20
98.69642494483163
 30
0.0
 11
615.347806
 21
98.41481794483165
 31
0.0
  0
LINE
  5
799E
330
18
100
AcDbEntity
  8
WARSTWA3
100
AcDbLine
 10
617.691811
 20
96.10226294483165
 30
0.0
 11
615.92434
 21
96.10226294483165
 31
0.0
  0
LINE
  5
799F
330
18
100
AcDbEntity
  8
WARSTWA3
100
AcDbLine
 10
615.813885
 20
95.11683394483164
 30
0.0
 11
616.884595
 21
95.11683394483164
 31
0.0
  0
LINE
  5
79A0
330
18
100
AcDbEntity
  8
WARSTWA3
100
AcDbLine
 10
617.077929
 20
94.77976894483164
 30
0.0
 11
616.007216
 21
94.77976894483164
 31
0.0
  0
LINE
  5
79A1
330
18
100
AcDbEntity
  8
WARSTWA3
100
AcDbLine
 10
617.691811
 20
97.71099694483165
 30
0.0
 11
615.92434
 21
97.71099694483165
 31
0.0
  0
LINE
  5
79A2
330
18
100
AcDbEntity
  8
WARSTWA3
100
AcDbLine
 10
616.884595
 20
98.69642494483163
 30
0.0
 11
615.813885
 21
98.69642494483163
 31
0.0
  0
LINE
  5
79A3
330
18
100
AcDbEntity
  8
WARSTWA3
100
AcDbLine
 10
616.007216
 20
99.03348994483166
 30
0.0
 11
617.077929
 21
99.03348994483166
 31
0.0
  0
LINE
  5
79A4
330
18
100
AcDbEntity
  8
WARSTWA3
100
AcDbLine
 10
626.954278
 20
100.0235529448316
 30
0.0
 11
627.254404
 21
100.0235529448316
 31
0.0
  0
LINE
  5
79A5
330
18
100
AcDbEntity
  8
WARSTWA3
100
AcDbLine
 10
623.116359
 20
100.0235529448316
 30
0.0
 11
625.797898
 21
100.0235529448316
 31
0.0
  0
LINE
  5
79A6
330
18
100
AcDbEntity
  8
WARSTWA3
100
AcDbLine
 10
627.556039
 20
99.72191494483165
 30
0.0
 11
627.127288
 21
99.72191494483165
 31
0.0
  0
ARC
  5
79A7
330
18
100
AcDbEntity
  8
WARSTWA3
100
AcDbCircle
 10
623.422405
 20
97.77687694483164
 30
0.0
 40
0.660257
100
AcDbArc
 50
354.2735050000013
 51
83.00323899999547
  0
LINE
  5
79A8
330
18
100
AcDbEntity
  8
WARSTWA3
100
AcDbLine
 10
625.039622
 20
98.69642494483163
 30
0.0
 11
623.502833
 21
98.41481794483165
 31
0.0
  0
ARC
  5
79A9
330
18
100
AcDbEntity
  8
WARSTWA3
100
AcDbCircle
 10
624.081516
 20
97.80323394483163
 30
0.0
 40
0.924433
100
AcDbArc
 50
96.99649399999784
 51
185.7263469999995
  0
ARC
  5
79AA
330
18
100
AcDbEntity
  8
WARSTWA3
100
AcDbCircle
 10
624.31336
 20
97.83478794483163
 30
0.0
 40
1.24063
100
AcDbArc
 50
96.99639299999887
 51
185.7265719999999
  0
LINE
  5
79AB
330
18
100
AcDbEntity
  8
WARSTWA3
100
AcDbLine
 10
623.403929
 20
98.41481794483165
 30
0.0
 11
623.502833
 21
98.41481794483165
 31
0.0
  0
LINE
  5
79AC
330
18
100
AcDbEntity
  8
WARSTWA3
100
AcDbLine
 10
623.161696
 20
97.71099694483165
 30
0.0
 11
623.078921
 21
97.71099694483165
 31
0.0
  0
LINE
  5
79AD
330
18
100
AcDbEntity
  8
WARSTWA3
100
AcDbLine
 10
625.846838
 20
97.71099694483165
 30
0.0
 11
624.079367
 21
97.71099694483165
 31
0.0
  0
LINE
  5
79AE
330
18
100
AcDbEntity
  8
WARSTWA3
100
AcDbLine
 10
623.968912
 20
98.69642494483163
 30
0.0
 11
623.731915
 21
98.65299794483165
 31
0.0
  0
LINE
  5
79AF
330
18
100
AcDbEntity
  8
WARSTWA3
100
AcDbLine
 10
625.039622
 20
98.69642494483163
 30
0.0
 11
623.968912
 21
98.69642494483163
 31
0.0
  0
LINE
  5
79B0
330
18
100
AcDbEntity
  8
WARSTWA3
100
AcDbLine
 10
625.232953
 20
99.03348994483166
 30
0.0
 11
625.039622
 21
98.69642494483163
 31
0.0
  0
LINE
  5
79B1
330
18
100
AcDbEntity
  8
WARSTWA3
100
AcDbLine
 10
623.968912
 20
98.69642494483163
 30
0.0
 11
624.162243
 21
99.03348994483166
 31
0.0
  0
LINE
  5
79B2
330
18
100
AcDbEntity
  8
WARSTWA3
100
AcDbLine
 10
624.162243
 20
99.03348994483166
 30
0.0
 11
625.232953
 21
99.03348994483166
 31
0.0
  0
ARC
  5
79B3
330
18
100
AcDbEntity
  8
WARSTWA3
100
AcDbCircle
 10
624.927023
 20
97.80323994483165
 30
0.0
 40
0.924428
100
AcDbArc
 50
354.2732819999998
 51
83.00380500000252
  0
ARC
  5
79B4
330
18
100
AcDbEntity
  8
WARSTWA3
100
AcDbCircle
 10
625.081832
 20
97.83478394483164
 30
0.0
 40
1.240636
100
AcDbArc
 50
354.2736599999997
 51
83.00350499999995
  0
LINE
  5
79B5
330
18
100
AcDbEntity
  8
WARSTWA3
100
AcDbLine
 10
626.316278
 20
97.71099694483165
 30
0.0
 11
625.846838
 21
97.71099694483165
 31
0.0
  0
LWPOLYLINE
  5
79B6
330
18
100
AcDbEntity
  8
WARSTWA3
100
AcDbPolyline
 90
        9
 70
   128
 43
0.0
 10
626.954278
 20
100.0235529448316
 10
626.98803
 20
100.0177569448316
 10
627.020485
 20
100.0005919448316
 10
627.050398
 20
99.97271694483165
 10
627.076614
 20
99.93520494483165
 10
627.098132
 20
99.88949594483164
 10
627.114119
 20
99.83734694483165
 10
627.123962
 20
99.78076094483164
 10
627.127288
 20
99.72191494483165
  0
ARC
  5
79B7
330
18
100
AcDbEntity
  8
WARSTWA3
100
AcDbCircle
 10
627.254402
 20
99.72191494483165
 30
0.0
 40
0.301638
100
AcDbArc
 50
0.0
 51
90.0
  0
LINE
  5
79B8
330
18
100
AcDbEntity
  8
WARSTWA3
100
AcDbLine
 10
620.520737
 20
98.79556294483164
 30
0.0
 11
619.401012
 21
98.61715994483164
 31
0.0
  0
LINE
  5
79B9
330
18
100
AcDbEntity
  8
WARSTWA3
100
AcDbLine
 10
620.520737
 20
98.79556294483164
 30
0.0
 11
619.401012
 21
98.79556294483164
 31
0.0
  0
ARC
  5
79BA
330
18
100
AcDbEntity
  8
WARSTWA3
100
AcDbCircle
 10
619.099376
 20
99.72191494483165
 30
0.0
 40
0.301638
100
AcDbArc
 50
0.0
 51
90.0
  0
LINE
  5
79BB
330
18
100
AcDbEntity
  8
WARSTWA3
100
AcDbLine
 10
627.127288
 20
99.72191494483165
 30
0.0
 11
619.401012
 21
99.72191494483165
 31
0.0
  0
LINE
  5
79BC
330
18
100
AcDbEntity
  8
WARSTWA3
100
AcDbLine
 10
619.099377
 20
100.0235529448316
 30
0.0
 11
623.116359
 21
100.0235529448316
 31
0.0
  0
ARC
  5
79BD
330
18
100
AcDbEntity
  8
WARSTWA3
100
AcDbCircle
 10
623.422404
 20
96.03638294483166
 30
0.0
 40
0.660258
100
AcDbArc
 50
276.996830000005
 51
5.726440000000681
  0
LINE
  5
79BE
330
18
100
AcDbEntity
  8
WARSTWA3
100
AcDbLine
 10
625.039622
 20
95.11683394483164
 30
0.0
 11
623.502833
 21
95.39844094483165
 31
0.0
  0
ARC
  5
79BF
330
18
100
AcDbEntity
  8
WARSTWA3
100
AcDbCircle
 10
624.081516
 20
96.01002494483164
 30
0.0
 40
0.924433
100
AcDbArc
 50
174.2736630000004
 51
263.0034950000005
  0
ARC
  5
79C0
330
18
100
AcDbEntity
  8
WARSTWA3
100
AcDbCircle
 10
624.31336
 20
95.97847094483164
 30
0.0
 40
1.24063
100
AcDbArc
 50
174.273425
 51
263.0036060000025
  0
LINE
  5
79C1
330
18
100
AcDbEntity
  8
WARSTWA3
100
AcDbLine
 10
623.502833
 20
95.39844094483165
 30
0.0
 11
623.403929
 21
95.39844094483165
 31
0.0
  0
LINE
  5
79C2
330
18
100
AcDbEntity
  8
WARSTWA3
100
AcDbLine
 10
623.161696
 20
96.10226294483165
 30
0.0
 11
623.078921
 21
96.10226294483165
 31
0.0
  0
LINE
  5
79C3
330
18
100
AcDbEntity
  8
WARSTWA3
100
AcDbLine
 10
625.846838
 20
96.10226294483165
 30
0.0
 11
624.079367
 21
96.10226294483165
 31
0.0
  0
LINE
  5
79C4
330
18
100
AcDbEntity
  8
WARSTWA3
100
AcDbLine
 10
623.968912
 20
95.11683394483164
 30
0.0
 11
623.731915
 21
95.16026194483165
 31
0.0
  0
LINE
  5
79C5
330
18
100
AcDbEntity
  8
WARSTWA3
100
AcDbLine
 10
625.232953
 20
94.77976894483164
 30
0.0
 11
625.039622
 21
95.11683394483164
 31
0.0
  0
LINE
  5
79C6
330
18
100
AcDbEntity
  8
WARSTWA3
100
AcDbLine
 10
623.968912
 20
95.11683394483164
 30
0.0
 11
625.039622
 21
95.11683394483164
 31
0.0
  0
LINE
  5
79C7
330
18
100
AcDbEntity
  8
WARSTWA3
100
AcDbLine
 10
623.968912
 20
95.11683394483164
 30
0.0
 11
624.162243
 21
94.77976894483164
 31
0.0
  0
LINE
  5
79C8
330
18
100
AcDbEntity
  8
WARSTWA3
100
AcDbLine
 10
625.232953
 20
94.77976894483164
 30
0.0
 11
624.162243
 21
94.77976894483164
 31
0.0
  0
ARC
  5
79C9
330
18
100
AcDbEntity
  8
WARSTWA3
100
AcDbCircle
 10
624.927023
 20
96.01001994483165
 30
0.0
 40
0.924429
100
AcDbArc
 50
276.9962049999976
 51
5.726708000000526
  0
ARC
  5
79CA
330
18
100
AcDbEntity
  8
WARSTWA3
100
AcDbCircle
 10
625.081832
 20
95.97847494483163
 30
0.0
 40
1.240636
100
AcDbArc
 50
276.9964969999985
 51
5.726342999999222
  0
LINE
  5
79CB
330
18
100
AcDbEntity
  8
WARSTWA3
100
AcDbLine
 10
626.316278
 20
96.10226294483165
 30
0.0
 11
625.846838
 21
96.10226294483165
 31
0.0
  0
LINE
  5
79CC
330
18
100
AcDbEntity
  8
WARSTWA3
100
AcDbLine
 10
620.520737
 20
95.01769694483166
 30
0.0
 11
619.401012
 21
95.19609894483163
 31
0.0
  0
LINE
  5
79CD
330
18
100
AcDbEntity
  8
WARSTWA3
100
AcDbLine
 10
619.401012
 20
95.01769694483166
 30
0.0
 11
620.520737
 21
95.01769694483166
 31
0.0
  0
LINE
  5
79CE
330
18
100
AcDbEntity
  8
WARSTWA3
100
AcDbLine
 10
623.181327
 20
97.92700694483163
 30
0.0
 11
623.181327
 21
95.88625194483164
 31
0.0
  0
LINE
  5
79CF
330
18
100
AcDbEntity
  8
WARSTWA3
100
AcDbLine
 10
623.161696
 20
97.71099694483165
 30
0.0
 11
623.161696
 21
96.10226294483165
 31
0.0
  0
LINE
  5
79D0
330
18
100
AcDbEntity
  8
WARSTWA3
100
AcDbLine
 10
623.078921
 20
96.10226294483165
 30
0.0
 11
623.078921
 21
97.71099694483165
 31
0.0
  0
LINE
  5
79D1
330
18
100
AcDbEntity
  8
WARSTWA3
100
AcDbLine
 10
620.520737
 20
95.01769694483166
 30
0.0
 11
620.520737
 21
98.79556294483164
 31
0.0
  0
LINE
  5
79D2
330
18
100
AcDbEntity
  8
WARSTWA3
100
AcDbLine
 10
624.079367
 20
97.71099694483165
 30
0.0
 11
624.079367
 21
96.10226294483165
 31
0.0
  0
LINE
  5
79D3
330
18
100
AcDbEntity
  8
WARSTWA3
100
AcDbLine
 10
625.846838
 20
96.10226294483165
 30
0.0
 11
625.846838
 21
97.71099694483165
 31
0.0
  0
LINE
  5
79D4
330
18
100
AcDbEntity
  8
WARSTWA3
100
AcDbLine
 10
626.316278
 20
97.71099694483165
 30
0.0
 11
626.316278
 21
96.10226294483165
 31
0.0
  0
LINE
  5
79D5
330
18
100
AcDbEntity
  8
WARSTWA3
100
AcDbLine
 10
634.540826
 20
100.0235529448316
 30
0.0
 11
634.840952
 21
100.0235529448316
 31
0.0
  0
ARC
  5
79D6
330
18
100
AcDbEntity
  8
WARSTWA3
100
AcDbCircle
 10
633.102867
 20
97.80360094483164
 30
0.0
 40
0.928089
100
AcDbArc
 50
354.2735200000001
 51
83.00346499999927
  0
ARC
  5
79D7
330
18
100
AcDbEntity
  8
WARSTWA3
100
AcDbCircle
 10
633.232595
 20
97.83827194483165
 30
0.0
 40
1.275613
100
AcDbArc
 50
354.2737380000001
 51
83.00333700000249
  0
LINE
  5
79D8
330
18
100
AcDbEntity
  8
WARSTWA3
100
AcDbLine
 10
633.38798
 20
99.07077294483163
 30
0.0
 11
633.215917
 21
98.70032194483166
 31
0.0
  0
LINE
  5
79D9
330
18
100
AcDbEntity
  8
WARSTWA3
100
AcDbLine
 10
632.31727
 20
99.07077294483163
 30
0.0
 11
633.38798
 21
99.07077294483163
 31
0.0
  0
LINE
  5
79DA
330
18
100
AcDbEntity
  8
WARSTWA3
100
AcDbLine
 10
634.026324
 20
97.71099694483165
 30
0.0
 11
634.501843
 21
97.71099694483165
 31
0.0
  0
ARC
  5
79DB
330
18
100
AcDbEntity
  8
WARSTWA3
100
AcDbCircle
 10
632.258256
 20
97.80359994483165
 30
0.0
 40
0.928092
100
AcDbArc
 50
96.99670800000345
 51
185.7263949999997
  0
LINE
  5
79DC
330
18
100
AcDbEntity
  8
WARSTWA3
100
AcDbLine
 10
631.575673
 20
98.41481794483165
 30
0.0
 11
631.657856
 21
98.41481794483165
 31
0.0
  0
LINE
  5
79DD
330
18
100
AcDbEntity
  8
WARSTWA3
100
AcDbLine
 10
631.203407
 20
97.71099694483165
 30
0.0
 11
631.334796
 21
97.71099694483165
 31
0.0
  0
LINE
  5
79DE
330
18
100
AcDbEntity
  8
WARSTWA3
100
AcDbLine
 10
632.145203
 20
98.70032194483166
 30
0.0
 11
631.907273
 21
98.65672294483166
 31
0.0
  0
ARC
  5
79DF
330
18
100
AcDbEntity
  8
WARSTWA3
100
AcDbCircle
 10
631.577432
 20
97.77687694483164
 30
0.0
 40
0.660257
100
AcDbArc
 50
354.2734840000008
 51
83.00360299999932
  0
LINE
  5
79E0
330
18
100
AcDbEntity
  8
WARSTWA3
100
AcDbLine
 10
633.215917
 20
98.70032194483166
 30
0.0
 11
631.657856
 21
98.41481794483165
 31
0.0
  0
ARC
  5
79E1
330
18
100
AcDbEntity
  8
WARSTWA3
100
AcDbCircle
 10
632.472645
 20
97.83828094483165
 30
0.0
 40
1.275605
100
AcDbArc
 50
96.9962839999991
 51
185.7267049999999
  0
LINE
  5
79E2
330
18
100
AcDbEntity
  8
WARSTWA3
100
AcDbLine
 10
634.026324
 20
97.71099694483165
 30
0.0
 11
632.234394
 21
97.71099694483165
 31
0.0
  0
LINE
  5
79E3
330
18
100
AcDbEntity
  8
WARSTWA3
100
AcDbLine
 10
633.215917
 20
98.70032194483166
 30
0.0
 11
632.145203
 21
98.70032194483166
 31
0.0
  0
LINE
  5
79E4
330
18
100
AcDbEntity
  8
WARSTWA3
100
AcDbLine
 10
632.31727
 20
99.07077294483163
 30
0.0
 11
632.145203
 21
98.70032194483166
 31
0.0
  0
LWPOLYLINE
  5
79E5
330
18
100
AcDbEntity
  8
WARSTWA3
100
AcDbPolyline
 90
        9
 70
   128
 43
0.0
 10
634.540826
 20
100.0235529448316
 10
634.574582
 20
100.0177569448316
 10
634.607037
 20
100.0005919448316
 10
634.636946
 20
99.97271694483165
 10
634.663166
 20
99.93520494483165
 10
634.684681
 20
99.88949594483164
 10
634.700671
 20
99.83734694483165
 10
634.710514
 20
99.78076094483164
 10
634.71384
 20
99.72191494483165
  0
ARC
  5
79E6
330
18
100
AcDbEntity
  8
WARSTWA3
100
AcDbCircle
 10
634.840953
 20
99.72191494483165
 30
0.0
 40
0.301638
100
AcDbArc
 50
0.0
 51
90.0
  0
LINE
  5
79E7
330
18
100
AcDbEntity
  8
WARSTWA3
100
AcDbLine
 10
635.142591
 20
99.72191494483165
 30
0.0
 11
634.71384
 21
99.72191494483165
 31
0.0
  0
ARC
  5
79E8
330
18
100
AcDbEntity
  8
WARSTWA3
100
AcDbCircle
 10
633.102867
 20
96.00965794483166
 30
0.0
 40
0.928089
100
AcDbArc
 50
276.9965330000003
 51
5.726488000000019
  0
LINE
  5
79E9
330
18
100
AcDbEntity
  8
WARSTWA3
100
AcDbLine
 10
633.215917
 20
95.11293694483165
 30
0.0
 11
633.38798
 21
94.74248594483164
 31
0.0
  0
LINE
  5
79EA
330
18
100
AcDbEntity
  8
WARSTWA3
100
AcDbLine
 10
633.38798
 20
94.74248594483164
 30
0.0
 11
632.31727
 21
94.74248594483164
 31
0.0
  0
LINE
  5
79EB
330
18
100
AcDbEntity
  8
WARSTWA3
100
AcDbLine
 10
634.026324
 20
96.10226294483165
 30
0.0
 11
634.501843
 21
96.10226294483165
 31
0.0
  0
ARC
  5
79EC
330
18
100
AcDbEntity
  8
WARSTWA3
100
AcDbCircle
 10
632.258256
 20
96.00965894483166
 30
0.0
 40
0.928092
100
AcDbArc
 50
174.2735970000005
 51
263.0032939999983
  0
LINE
  5
79ED
330
18
100
AcDbEntity
  8
WARSTWA3
100
AcDbLine
 10
631.657856
 20
95.39844094483165
 30
0.0
 11
631.575673
 21
95.39844094483165
 31
0.0
  0
LINE
  5
79EE
330
18
100
AcDbEntity
  8
WARSTWA3
100
AcDbLine
 10
631.203407
 20
96.10226294483165
 30
0.0
 11
631.334796
 21
96.10226294483165
 31
0.0
  0
LINE
  5
79EF
330
18
100
AcDbEntity
  8
WARSTWA3
100
AcDbLine
 10
632.145203
 20
95.11293694483165
 30
0.0
 11
631.907273
 21
95.15653594483165
 31
0.0
  0
ARC
  5
79F0
330
18
100
AcDbEntity
  8
WARSTWA3
100
AcDbCircle
 10
631.577431
 20
96.03638194483163
 30
0.0
 40
0.660258
100
AcDbArc
 50
276.9964660000015
 51
5.726461999998527
  0
LINE
  5
79F1
330
18
100
AcDbEntity
  8
WARSTWA3
100
AcDbLine
 10
633.215917
 20
95.11293694483165
 30
0.0
 11
631.657856
 21
95.39844094483165
 31
0.0
  0
LINE
  5
79F2
330
18
100
AcDbEntity
  8
WARSTWA3
100
AcDbLine
 10
634.026324
 20
96.10226294483165
 30
0.0
 11
632.234394
 21
96.10226294483165
 31
0.0
  0
LINE
  5
79F3
330
18
100
AcDbEntity
  8
WARSTWA3
100
AcDbLine
 10
632.145203
 20
95.11293694483165
 30
0.0
 11
633.215917
 21
95.11293694483165
 31
0.0
  0
LINE
  5
79F4
330
18
100
AcDbEntity
  8
WARSTWA3
100
AcDbLine
 10
632.145203
 20
95.11293694483165
 30
0.0
 11
632.31727
 21
94.74248594483164
 31
0.0
  0
LINE
  5
79F5
330
18
100
AcDbEntity
  8
WARSTWA3
100
AcDbLine
 10
631.336354
 20
97.77229094483165
 30
0.0
 11
631.336354
 21
96.04096794483165
 31
0.0
  0
LINE
  5
79F6
330
18
100
AcDbEntity
  8
WARSTWA3
100
AcDbLine
 10
631.334796
 20
97.71099694483165
 30
0.0
 11
631.334796
 21
96.10226294483165
 31
0.0
  0
LINE
  5
79F7
330
18
100
AcDbEntity
  8
WARSTWA3
100
AcDbLine
 10
631.203407
 20
96.10226294483165
 30
0.0
 11
631.203407
 21
97.71099694483165
 31
0.0
  0
LINE
  5
79F8
330
18
100
AcDbEntity
  8
WARSTWA3
100
AcDbLine
 10
628.67576
 20
95.01769694483166
 30
0.0
 11
628.67576
 21
98.79556294483164
 31
0.0
  0
LINE
  5
79F9
330
18
100
AcDbEntity
  8
WARSTWA3
100
AcDbLine
 10
632.234394
 20
97.71099694483165
 30
0.0
 11
632.234394
 21
96.10226294483165
 31
0.0
  0
LINE
  5
79FA
330
18
100
AcDbEntity
  8
WARSTWA3
100
AcDbLine
 10
634.026324
 20
96.10226294483165
 30
0.0
 11
634.026324
 21
97.71099694483165
 31
0.0
  0
LINE
  5
79FB
330
18
100
AcDbEntity
  8
WARSTWA3
100
AcDbLine
 10
634.501843
 20
97.71099694483165
 30
0.0
 11
634.501843
 21
96.10226294483165
 31
0.0
  0
TEXT
  5
7D23
330
18
100
AcDbEntity
  8
1
100
AcDbText
 10
566.830759
 20
272.086064
 30
0.0
 40
5.0
  1
PIR6WB-1PS
 41
0.8
 51
15.0
  7
ITALIC
100
AcDbText
  0
LINE
  5
7DAC
330
18
100
AcDbEntity
  8
WYMIARY
 62
     3
100
AcDbLine
 10
568.580772
 20
99.42027694483166
 30
0.0
 11
568.580772
 21
94.34270894483164
 31
0.0
  0
LINE
  5
7DAD
330
18
100
AcDbEntity
  8
WYMIARY
 62
     3
100
AcDbLine
 10
594.292381
 20
99.42027694483166
 30
0.0
 11
594.292381
 21
94.34270894483164
 31
0.0
  0
LINE
  5
7DAE
330
18
100
AcDbEntity
  8
WYMIARY
 62
     3
100
AcDbLine
 10
568.580772
 20
99.42027694483166
 30
0.0
 11
599.589554
 21
99.42027694483166
 31
0.0
  0
LINE
  5
7DAF
330
18
100
AcDbEntity
  8
WYMIARY
 62
     3
100
AcDbLine
 10
568.580772
 20
94.34270894483164
 30
0.0
 11
599.537395
 21
94.34270894483164
 31
0.0
  0
LINE
  5
7DB3
330
18
100
AcDbEntity
  8
WARSTWA3
100
AcDbLine
 10
593.696699
 20
94.34270894483164
 30
0.0
 11
593.696699
 21
93.83997994483165
 31
0.0
  0
LINE
  5
7DB4
330
18
100
AcDbEntity
  8
WARSTWA3
100
AcDbLine
 10
593.998337
 20
99.42027694483166
 30
0.0
 11
593.998337
 21
99.87273394483164
 31
0.0
  0
TEXT
  5
7DB5
330
18
100
AcDbEntity
  8
1
100
AcDbText
 10
549.73932
 20
97.69672294483165
 30
0.0
 40
2.0
  1
A1
 50
270.0
 41
0.6
  7
ITALIC
100
AcDbText
  0
TEXT
  5
7DB6
330
18
100
AcDbEntity
  8
1
100
AcDbText
 10
541.698768
 20
98.07863494483165
 30
0.0
 40
2.0
  1
A2
 50
270.0
 41
0.6
  7
ITALIC
100
AcDbText
  0
TEXT
  5
7DB7
330
18
100
AcDbEntity
  8
1
100
AcDbText
 10
614.61668
 20
96.01076694483164
 30
0.0
 40
2.0
  1
11
 50
90.0
 41
0.6
  7
ITALIC
100
AcDbText
  0
TEXT
  5
7DB8
330
18
100
AcDbEntity
  8
1
100
AcDbText
 10
622.766223
 20
95.60846994483164
 30
0.0
 40
2.0
  1
14
 50
90.0
 41
0.6
  7
ITALIC
100
AcDbText
  0
TEXT
  5
7DB9
330
18
100
AcDbEntity
  8
1
100
AcDbText
 10
630.973709
 20
95.62591594483165
 30
0.0
 40
2.0
  1
12
 50
90.0
 41
0.6
  7
ITALIC
100
AcDbText
  0
TEXT
  5
8093
330
18
100
AcDbEntity
  8
1
100
AcDbText
 10
532.854571
 20
260.337887
 30
0.0
 40
5.0
  1
z zaciskami sprężynowymi  (CAGE CLAMP )
 41
0.8
 51
15.0
  7
ITALIC
100
AcDbText
  0
TEXT
  5
8094
330
18
100
AcDbEntity
  8
1
100
AcDbText
 10
532.854571
 20
249.895063
 30
0.0
 40
5.0
  1
with spring terminals (CAGE CLAMP )
 41
0.8
 51
15.0
  7
ITALIC
100
AcDbText
  0
CIRCLE
  5
8095
330
18
100
AcDbEntity
  8
WYMIARY
 62
     3
100
AcDbCircle
 10
665.124255
 20
264.089578
 30
0.0
 40
1.200585
  0
TEXT
  5
8096
330
18
100
AcDbEntity
  8
1
100
AcDbText
 10
664.674148
 20
263.367345
 30
0.0
 40
1.5
  1
R
 41
0.5
 51
15.0
  7
ITALIC
100
AcDbText
  0
TEXT
  5
8097
330
18
100
AcDbEntity
  8
1
100
AcDbText
 10
645.703252
 20
252.925381
 30
0.0
 40
1.5
  1
R
 41
0.5
 51
15.0
  7
ITALIC
100
AcDbText
  0
CIRCLE
  5
8098
330
18
100
AcDbEntity
  8
WYMIARY
 62
     3
100
AcDbCircle
 10
646.153358
 20
253.647614
 30
0.0
 40
1.200585
  0
TEXT
  5
8320
330
18
100
AcDbEntity
  8
1
100
AcDbText
 10
614.900748
 20
100.6754469448316
 30
0.0
 40
1.5
  1
(13+)
 50
90.0
 41
0.5
  7
ITALIC
100
AcDbText
  0
DIMENSION
  5
8F74
330
18
100
AcDbEntity
  8
WYMIARY
 62
     1
100
AcDbDimension
  2
*D3
 10
645.82771
 20
93.81266794483163
 30
0.0
 11
645.82771
 21
84.31266794483163
 31
0.0
 70
   160
  3
STANDARD
100
AcDbAlignedDimension
 13
634.540826
 23
100.0235529448316
 33
0.0
 14
634.607037
 24
93.81266794483163
 34
0.0
 50
90.0
100
AcDbRotatedDimension
1001
ACAD
1000
DSTYLE
1002
{
1070
   172
1070
     1
1070
   140
1040
3.0
1070
   147
1040
0.5
1070
   271
1070
     1
1070
    41
1040
3.0
1002
}
  0
DIMENSION
  5
8F81
330
18
100
AcDbEntity
  8
WYMIARY
 62
     1
100
AcDbDimension
  2
*D4
 10
635.142591
 20
84.77744894483165
 30
0.0
 11
586.0012075
 21
86.77744894483165
 31
0.0
 70
    32
  3
STANDARD
100
AcDbAlignedDimension
 13
536.859824
 23
94.09134394483165
 33
0.0
 14
635.142591
 24
94.09134394483165
 34
0.0
100
AcDbRotatedDimension
1001
ACAD
1000
DSTYLE
1002
{
1070
   140
1040
3.0
1070
   147
1040
0.5
1070
   271
1070
     1
1070
    41
1040
3.0
1002
}
  0
LINE
  5
92DF
330
18
100
AcDbEntity
  8
1
100
AcDbLine
 10
629.2259770349001
 20
144.9265774117438
 30
0.0
 11
600.2484208807682
 21
144.9265774117438
 31
0.0
  0
LINE
  5
92E0
330
18
100
AcDbEntity
  8
1
100
AcDbLine
 10
623.7432251587843
 20
162.2868660615412
 30
0.0
 11
622.3092864171003
 21
160.2389845775095
 31
0.0
  0
LINE
  5
92E1
330
18
100
AcDbEntity
  8
1
100
AcDbLine
 10
615.8649104550814
 20
182.8188501076428
 30
0.0
 11
626.5765692010855
 21
175.3184661047188
 31
0.0
  0
LINE
  5
92E2
330
18
100
AcDbEntity
  8
1
100
AcDbLine
 10
623.046521367166
 20
159.7227673755613
 30
0.0
 11
624.4804638341402
 21
161.770648859593
 31
0.0
  0
LINE
  5
92E3
330
18
100
AcDbEntity
  8
1
100
AcDbLine
 10
600.2484208807682
 20
145.2265787647692
 30
0.0
 11
628.925979407165
 21
145.2265787647692
 31
0.0
  0
LINE
  5
92E4
330
18
100
AcDbEntity
  8
1
100
AcDbLine
 10
622.5633661166166
 20
164.0111204014746
 30
0.0
 11
623.5472152844404
 21
164.0111204014746
 31
0.0
  0
LINE
  5
92E5
330
18
100
AcDbEntity
  8
1
100
AcDbLine
 10
623.9756609216665
 20
163.7111227737394
 30
0.0
 11
622.6162652388548
 21
163.7111227737394
 31
0.0
  0
LINE
  5
92E6
330
18
100
AcDbEntity
  8
1
100
AcDbLine
 10
620.9237391963934
 20
167.2453876362768
 30
0.0
 11
626.5765692010855
 21
175.3184661047188
 31
0.0
  0
LINE
  5
92E7
330
18
100
AcDbEntity
  8
1
100
AcDbLine
 10
626.8223154262041
 20
175.1463930831877
 30
0.0
 11
621.1152302936052
 21
166.9958304391829
 31
0.0
  0
LINE
  5
92E8
330
18
100
AcDbEntity
  8
1
100
AcDbLine
 10
623.7841847256159
 20
162.2581887768236
 30
0.0
 11
622.3502422586416
 21
160.210307292792
 31
0.0
  0
LINE
  5
92E9
330
18
100
AcDbEntity
  8
1
100
AcDbLine
 10
624.4395042673086
 20
161.7993261443106
 30
0.0
 11
623.0055655256247
 21
159.7514446602789
 31
0.0
  0
LINE
  5
92EA
330
18
100
AcDbEntity
  8
1
100
AcDbLine
 10
622.5007439866995
 20
160.1049262808291
 30
0.0
 11
623.9346827283835
 21
162.1528077648607
 31
0.0
  0
LINE
  5
92EB
330
18
100
AcDbEntity
  8
1
100
AcDbLine
 10
610.8353885725473
 20
140.7265770958391
 30
0.0
 11
626.625977726314
 21
140.7265770958391
 31
0.0
  0
LINE
  5
92EC
330
18
100
AcDbEntity
  8
1
100
AcDbLine
 10
626.625977726314
 20
142.3265781031576
 30
0.0
 11
613.4353878811335
 21
142.3265781031576
 31
0.0
  0
LINE
  5
92ED
330
18
100
AcDbEntity
  8
1
100
AcDbLine
 10
617.2670836463903
 20
183.118849598023
 30
0.0
 11
626.6054178491568
 21
176.5800785051314
 31
0.0
  0
LINE
  5
92EE
330
18
100
AcDbEntity
  8
1
100
AcDbLine
 10
615.9520822480654
 20
182.8188501076428
 30
0.0
 11
626.605246485803
 21
175.3594238089052
 31
0.0
  0
LINE
  5
92EF
330
18
100
AcDbEntity
  8
1
100
AcDbLine
 10
626.4333466902708
 20
176.3343341426579
 30
0.0
 11
617.1724948004221
 21
182.8188501076428
 31
0.0
  0
LINE
  5
92F0
330
18
100
AcDbEntity
  8
1
100
AcDbLine
 10
541.2965233341192
 20
164.0111204014746
 30
0.0
 11
549.2275024667715
 21
161.1244823561636
 31
0.0
  0
LINE
  5
92F1
330
18
100
AcDbEntity
  8
1
100
AcDbLine
 10
537.4394471660589
 20
161.9992661999193
 30
0.0
 11
539.8842285290693
 21
163.7111227737394
 31
0.0
  0
LINE
  5
92F2
330
18
100
AcDbEntity
  8
1
100
AcDbLine
 10
549.4068044141268
 20
160.7399690674273
 30
0.0
 11
541.2436242118811
 21
163.7111227737394
 31
0.0
  0
LINE
  5
92F3
330
18
100
AcDbEntity
  8
1
100
AcDbLine
 10
550.7406837210392
 20
164.4047681020228
 30
0.0
 11
549.4068044141268
 21
160.7399690674273
 31
0.0
  0
LINE
  5
92F4
330
18
100
AcDbEntity
  8
1
100
AcDbLine
 10
549.2275024667715
 20
161.1244823561636
 30
0.0
 11
550.356172294948
 21
164.2254661546675
 31
0.0
  0
LINE
  5
92F5
330
18
100
AcDbEntity
  8
1
100
AcDbLine
 10
614.6323869839644
 20
161.1244823561636
 30
0.0
 11
622.5633661166166
 21
164.0111204014746
 31
0.0
  0
LINE
  5
92F6
330
18
100
AcDbEntity
  8
1
100
AcDbLine
 10
622.6162652388548
 20
163.7111227737394
 30
0.0
 11
614.4530850366091
 21
160.7399690674273
 31
0.0
  0
LINE
  5
92F7
330
18
100
AcDbEntity
  8
1
100
AcDbLine
 10
614.4530850366091
 20
160.7399690674273
 30
0.0
 11
613.1192057296967
 21
164.4047681020228
 31
0.0
  0
LINE
  5
92F8
330
18
100
AcDbEntity
  8
1
100
AcDbLine
 10
613.5037171557879
 20
164.2254661546675
 30
0.0
 11
614.6323869839644
 21
161.1244823561636
 31
0.0
  0
LINE
  5
92F9
330
18
100
AcDbEntity
  8
1
100
AcDbLine
 10
537.4281558111643
 20
162.0524000154463
 30
0.0
 11
539.7970567360853
 21
163.7111227737394
 31
0.0
  0
ARC
  5
92FA
330
18
100
AcDbEntity
  8
1
100
AcDbCircle
 10
538.0510808275294
 20
162.4885757704341
 30
0.0
 40
1.000000000000015
100
AcDbArc
 50
125.0000000000046
 51
192.0000000000045
  0
ARC
  5
92FB
330
18
100
AcDbEntity
  8
1
100
AcDbCircle
 10
538.0510808275294
 20
162.4885757704341
 30
0.0
 40
0.7000000000000179
100
AcDbArc
 50
125.0000000000068
 51
191.9999999999994
  0
LINE
  5
92FC
330
18
100
AcDbEntity
  8
1
100
AcDbLine
 10
595.2986062407826
 20
144.9265774117438
 30
0.0
 11
540.761657328937
 21
144.9265774117438
 31
0.0
  0
LINE
  5
92FD
330
18
100
AcDbEntity
  8
1
100
AcDbLine
 10
541.0045946851706
 20
145.2265787647692
 30
0.0
 11
595.2986062407826
 21
145.2265787647692
 31
0.0
  0
ARC
  5
92FE
102
{ACAD_REACTORS
102
}
330
18
100
AcDbEntity
  8
1
100
AcDbCircle
 10
539.3353892053678
 20
141.2265787945715
 30
0.0
 40
2.0
100
AcDbArc
 50
180.0
 51
270.0
  0
LINE
  5
92FF
330
18
100
AcDbEntity
  8
1
100
AcDbLine
 10
539.3353889599775
 20
139.2265777812925
 30
0.0
 11
543.1353899553751
 21
139.2265777812925
 31
0.0
  0
LINE
  5
9300
330
18
100
AcDbEntity
  8
1
100
AcDbLine
 10
542.3883723929857
 20
142.5642069207159
 30
0.0
 11
541.9011118725275
 21
144.8565792070357
 31
0.0
  0
LINE
  5
9301
330
18
100
AcDbEntity
  8
1
100
AcDbLine
 10
540.761657328937
 20
144.9265774117438
 30
0.0
 11
537.1724816874002
 21
161.8123348580328
 31
0.0
  0
LINE
  5
9302
330
18
100
AcDbEntity
  8
1
100
AcDbLine
 10
537.4394471660589
 20
161.9992661999193
 30
0.0
 11
541.0045946851706
 21
145.2265787647692
 31
0.0
  0
LINE
  5
9303
330
18
100
AcDbEntity
  8
1
100
AcDbLine
 10
538.635388286445
 20
144.9265774117438
 30
0.0
 11
537.335388632152
 21
144.9265774117438
 31
0.0
  0
LINE
  5
9304
330
18
100
AcDbEntity
  8
1
100
AcDbLine
 10
537.335388632152
 20
144.9265774117438
 30
0.0
 11
537.335388632152
 21
141.2265781091181
 31
0.0
  0
ARC
  5
9305
330
18
100
AcDbEntity
  8
1
100
AcDbCircle
 10
539.4353892053679
 20
142.6265787945715
 30
0.0
 40
0.3
100
AcDbArc
 50
180.0
 51
270.0
  0
ARC
  5
9306
330
18
100
AcDbEntity
  8
1
100
AcDbCircle
 10
540.943835839295
 20
142.6265787945715
 30
0.0
 40
0.3000000000000161
100
AcDbArc
 50
270.0
 51
12.00000000000069
  0
LINE
  5
9307
330
18
100
AcDbEntity
  8
1
100
AcDbLine
 10
539.135389299724
 20
141.1265801416365
 30
0.0
 11
539.135389299724
 21
144.4265801237551
 31
0.0
  0
LINE
  5
9308
330
18
100
AcDbEntity
  8
1
100
AcDbLine
 10
540.776536138389
 20
144.8565792070357
 30
0.0
 11
541.5561164632772
 21
141.1889526771036
 31
0.0
  0
LINE
  5
9309
330
18
100
AcDbEntity
  8
1
100
AcDbLine
 10
540.9438352004026
 20
142.3265781031576
 30
0.0
 11
539.4353906527494
 21
142.3265781031576
 31
0.0
  0
LINE
  5
930A
330
18
100
AcDbEntity
  8
1
100
AcDbLine
 10
539.4353906527494
 20
140.826578788611
 30
0.0
 11
541.2626716211771
 21
140.826578788611
 31
0.0
  0
ARC
  5
930B
330
18
100
AcDbEntity
  8
1
100
AcDbCircle
 10
539.4353892053679
 20
141.1265787945715
 30
0.0
 40
0.3
100
AcDbArc
 50
180.0
 51
270.0
  0
ARC
  5
930C
330
18
100
AcDbEntity
  8
1
100
AcDbCircle
 10
541.2626706818
 20
141.1265787945715
 30
0.0
 40
0.3
100
AcDbArc
 50
270.0
 51
12.000000000006
  0
ARC
  5
930D
330
18
100
AcDbEntity
  8
1
100
AcDbCircle
 10
538.6353892053678
 20
144.4265787945715
 30
0.0
 40
0.5
100
AcDbArc
 50
0.0
 51
90.0
  0
LWPOLYLINE
  5
930E
330
18
100
AcDbEntity
  8
1
100
AcDbPolyline
 90
       10
 70
   128
 43
0.0
 10
541.0045946851706
 20
145.2265787647692
 10
540.9624094978308
 20
145.1744843052355
 10
540.9215058103537
 20
145.1239730940787
 10
540.8831241444086
 20
145.0765799509016
 10
540.8484379664396
 20
145.0337428377596
 10
540.8184940830206
 20
144.9967656062571
 10
540.7942051902746
 20
144.9667695687739
 10
540.7763088956808
 20
144.9446711467234
 10
540.7653490916227
 20
144.9311371670691
 10
540.761657328937
 20
144.9265774117438
  0
LINE
  5
930F
330
18
100
AcDbEntity
  8
1
100
AcDbLine
 10
541.8862330630755
 20
144.9265774117438
 30
0.0
 11
541.9011118725275
 21
144.8565792070357
 31
0.0
  0
LINE
  5
9310
330
18
100
AcDbEntity
  8
1
100
AcDbLine
 10
540.761657328937
 20
144.9265774117438
 30
0.0
 11
540.776536138389
 21
144.8565792070357
 31
0.0
  0
LINE
  5
9311
330
18
100
AcDbEntity
  8
1
100
AcDbLine
 10
541.9011118725275
 20
144.8565792070357
 30
0.0
 11
540.776536138389
 21
144.8565792070357
 31
0.0
  0
LWPOLYLINE
  5
9312
330
18
100
AcDbEntity
  8
1
100
AcDbPolyline
 90
       10
 70
   128
 43
0.0
 10
537.1724816874002
 20
161.8123348580328
 10
537.176534803245
 20
161.8151735292402
 10
537.1885786667799
 20
161.823607586476
 10
537.2082481995558
 20
161.8373799847094
 10
537.2349399045443
 20
161.8560697661368
 10
537.2678453937506
 20
161.8791106866327
 10
537.3059625640844
 20
161.9058023916212
 10
537.3481403008436
 20
161.9353327678171
 10
537.3930896535849
 20
161.9668077455488
 10
537.4394471660589
 20
161.9992661999193
  0
LINE
  5
9313
330
18
100
AcDbEntity
  8
1
100
AcDbLine
 10
537.1611866072153
 20
161.8654649482695
 30
0.0
 11
537.1724816874002
 21
161.8123348580328
 31
0.0
  0
LINE
  5
9314
330
18
100
AcDbEntity
  8
1
100
AcDbLine
 10
537.1611866072153
 20
161.8654649482695
 30
0.0
 11
537.0729344800448
 21
162.2806634531943
 31
0.0
  0
LWPOLYLINE
  5
9315
330
18
100
AcDbEntity
  8
1
100
AcDbPolyline
 90
        9
 70
   128
 43
0.0
 10
537.4281558111643
 20
162.0524000154463
 10
537.3760725275015
 20
162.0159294234244
 10
537.325989724729
 20
161.9808632658449
 10
537.279833377931
 20
161.9485426472155
 10
537.23938045058
 20
161.920215539786
 10
537.2061769381498
 20
161.8969697283236
 10
537.1815080657934
 20
161.8796955572096
 10
537.1663163319563
 20
161.8690561281172
 10
537.1611866072153
 20
161.8654649482695
  0
LINE
  5
9316
330
18
100
AcDbEntity
  8
1
100
AcDbLine
 10
537.3663793221449
 20
162.3430359886614
 30
0.0
 11
537.4281558111643
 21
162.0524000154463
 31
0.0
  0
LWPOLYLINE
  5
9317
330
18
100
AcDbEntity
  8
1
100
AcDbPolyline
 90
        9
 70
   128
 43
0.0
 10
537.3663793221449
 20
162.3430359886614
 10
537.3091290608381
 20
162.3308691905466
 10
537.2540804460978
 20
162.3191680537192
 10
537.2033494428133
 20
162.3083833383051
 10
537.1588806525206
 20
162.2989322768179
 10
537.1223877087568
 20
162.2911762224165
 10
537.0952713206743
 20
162.2854131983248
 10
537.0785708442663
 20
162.2818629966704
 10
537.0729344800448
 20
162.2806634531943
  0
LINE
  5
9318
330
18
100
AcDbEntity
  8
1
100
AcDbLine
 10
540.958792240951
 20
159.50719227657
 30
0.0
 11
541.6960309163069
 21
160.0234132038084
 31
0.0
  0
LINE
  5
9319
330
18
100
AcDbEntity
  8
1
100
AcDbLine
 10
539.524853499267
 20
161.5550737606016
 30
0.0
 11
540.958792240951
 21
159.50719227657
 31
0.0
  0
LINE
  5
931A
330
18
100
AcDbEntity
  8
1
100
AcDbLine
 10
540.2620884493326
 20
162.0712946878401
 30
0.0
 11
539.524853499267
 21
161.5550737606016
 31
0.0
  0
LINE
  5
931B
330
18
100
AcDbEntity
  8
1
100
AcDbLine
 10
541.6960309163069
 20
160.0234132038084
 30
0.0
 11
540.2620884493326
 21
162.0712946878401
 31
0.0
  0
LINE
  5
931C
330
18
100
AcDbEntity
  8
1
100
AcDbLine
 10
540.2211326077913
 20
162.0426136778322
 30
0.0
 11
541.6550713494753
 21
159.9947359190909
 31
0.0
  0
LINE
  5
931D
330
18
100
AcDbEntity
  8
1
100
AcDbLine
 10
540.0706308797335
 20
161.9372326658693
 30
0.0
 11
541.5045733467077
 21
159.889354907128
 31
0.0
  0
LINE
  5
931E
330
18
100
AcDbEntity
  8
1
100
AcDbLine
 10
546.4513341799711
 20
148.3765799330202
 30
0.0
 11
546.4513341799711
 21
147.4765795992342
 31
0.0
  0
LINE
  5
931F
330
18
100
AcDbEntity
  8
1
100
AcDbLine
 10
548.9513355210756
 20
147.4765795992342
 30
0.0
 11
548.9513355210756
 21
148.3765799330202
 31
0.0
  0
LINE
  5
9320
330
18
100
AcDbEntity
  8
1
100
AcDbLine
 10
546.4513341799711
 20
147.4815789388147
 30
0.0
 11
548.9513355210756
 21
147.4815789388147
 31
0.0
  0
LINE
  5
9321
330
18
100
AcDbEntity
  8
1
100
AcDbLine
 10
546.4513341799711
 20
147.4765795992342
 30
0.0
 11
548.9513355210756
 21
147.4765795992342
 31
0.0
  0
LINE
  5
9322
330
18
100
AcDbEntity
  8
1
100
AcDbLine
 10
548.9513355210756
 20
147.5265804456202
 30
0.0
 11
546.4513341799711
 21
147.5265804456202
 31
0.0
  0
LINE
  5
9323
330
18
100
AcDbEntity
  8
1
100
AcDbLine
 10
548.9513355210756
 20
147.7103043125597
 30
0.0
 11
546.4513341799711
 21
147.7103043125597
 31
0.0
  0
LINE
  5
9324
330
18
100
AcDbEntity
  8
1
100
AcDbLine
 10
548.9513355210756
 20
148.3765799330202
 30
0.0
 11
546.4513341799711
 21
148.3765799330202
 31
0.0
  0
LINE
  5
9325
330
18
100
AcDbEntity
  8
1
100
AcDbLine
 10
552.1299506441092
 20
159.4580333457914
 30
0.0
 11
549.6299493030047
 21
159.4580333457914
 31
0.0
  0
LINE
  5
9326
330
18
100
AcDbEntity
  8
1
100
AcDbLine
 10
549.6299493030047
 20
158.5580330120054
 30
0.0
 11
552.1299506441092
 21
158.5580330120054
 31
0.0
  0
LINE
  5
9327
330
18
100
AcDbEntity
  8
1
100
AcDbLine
 10
552.1299506441092
 20
158.6080301331011
 30
0.0
 11
549.6299493030047
 21
158.6080301331011
 31
0.0
  0
LINE
  5
9328
330
18
100
AcDbEntity
  8
1
100
AcDbLine
 10
552.1299506441092
 20
158.7917577253309
 30
0.0
 11
549.6299493030047
 21
158.7917577253309
 31
0.0
  0
LINE
  5
9329
330
18
100
AcDbEntity
  8
1
100
AcDbLine
 10
549.6299493030047
 20
159.4580333457914
 30
0.0
 11
549.6299493030047
 21
158.5580330120054
 31
0.0
  0
LWPOLYLINE
  5
932A
330
18
100
AcDbEntity
  8
1
100
AcDbPolyline
 90
       10
 70
   128
 43
0.0
 10
549.2275024667715
 20
161.1244823561636
 10
549.23022937927
 20
161.1186411009756
 10
549.238316984508
 20
161.1012924240557
 10
549.2515268639063
 20
161.0729653166262
 10
549.2694529608225
 20
161.0345203207461
 10
549.291551382873
 20
160.987127177569
 10
549.3171553030943
 20
160.9322238491503
 10
549.3454824105238
 20
160.8714792655436
 10
549.3756721631025
 20
160.8067374454466
 10
549.4068044141268
 20
160.7399690674273
  0
LINE
  5
932B
330
18
100
AcDbEntity
  8
1
100
AcDbLine
 10
552.1299506441092
 20
158.5580330120054
 30
0.0
 11
552.1299506441092
 21
159.4580333457914
 31
0.0
  0
LINE
  5
932C
330
18
100
AcDbEntity
  8
1
100
AcDbLine
 10
580.2853892460798
 20
147.4815789388147
 30
0.0
 11
582.7853891902005
 21
147.4815789388147
 31
0.0
  0
LINE
  5
932D
330
18
100
AcDbEntity
  8
1
100
AcDbLine
 10
582.7853891902005
 20
148.3765799330202
 30
0.0
 11
580.2853892460798
 21
148.3765799330202
 31
0.0
  0
LINE
  5
932E
330
18
100
AcDbEntity
  8
1
100
AcDbLine
 10
580.2853892460798
 20
147.4765795992342
 30
0.0
 11
582.7853891902005
 21
147.4765795992342
 31
0.0
  0
LINE
  5
932F
330
18
100
AcDbEntity
  8
1
100
AcDbLine
 10
582.7853891902005
 20
147.5265804456202
 30
0.0
 11
580.2853892460798
 21
147.5265804456202
 31
0.0
  0
LINE
  5
9330
330
18
100
AcDbEntity
  8
1
100
AcDbLine
 10
582.7853891902005
 20
147.7103043125597
 30
0.0
 11
580.2853892460798
 21
147.7103043125597
 31
0.0
  0
LINE
  5
9331
330
18
100
AcDbEntity
  8
1
100
AcDbLine
 10
580.2853892460798
 20
148.3765799330202
 30
0.0
 11
580.2853892460798
 21
147.4765795992342
 31
0.0
  0
LINE
  5
9332
330
18
100
AcDbEntity
  8
1
100
AcDbLine
 10
582.7853891902005
 20
147.4765795992342
 30
0.0
 11
582.7853891902005
 21
148.3765799330202
 31
0.0
  0
LINE
  5
9333
330
18
100
AcDbEntity
  8
1
100
AcDbLine
 10
600.2484208807682
 20
144.9265774117438
 30
0.0
 11
595.2986062407826
 21
144.9265774117438
 31
0.0
  0
LINE
  5
9334
330
18
100
AcDbEntity
  8
1
100
AcDbLine
 10
595.2986062407826
 20
145.2265787647692
 30
0.0
 11
600.2484208807682
 21
145.2265787647692
 31
0.0
  0
LINE
  5
9335
330
18
100
AcDbEntity
  8
1
100
AcDbLine
 10
595.2986062407826
 20
145.2265787647692
 30
0.0
 11
595.2986062407826
 21
144.9265774117438
 31
0.0
  0
LINE
  5
9336
330
18
100
AcDbEntity
  8
1
100
AcDbLine
 10
600.2484208807682
 20
144.9265774117438
 30
0.0
 11
600.2484208807682
 21
145.2265787647692
 31
0.0
  0
LINE
  5
9337
330
18
100
AcDbEntity
  8
1
100
AcDbLine
 10
611.6353890762066
 20
144.0265770779577
 30
0.0
 11
610.0353899315332
 21
143.444224797341
 31
0.0
  0
LINE
  5
9338
330
18
100
AcDbEntity
  8
1
100
AcDbLine
 10
613.4353878811335
 20
142.3265781031576
 30
0.0
 11
613.4353878811335
 21
144.8565792070357
 31
0.0
  0
LINE
  5
9339
330
18
100
AcDbEntity
  8
1
100
AcDbLine
 10
613.4353878811335
 20
144.8565792070357
 30
0.0
 11
611.6353890762066
 21
144.8565792070357
 31
0.0
  0
LINE
  5
933A
330
18
100
AcDbEntity
  8
1
100
AcDbLine
 10
611.6353890762066
 20
144.9265774117438
 30
0.0
 11
611.6353890762066
 21
144.8565792070357
 31
0.0
  0
LINE
  5
933B
330
18
100
AcDbEntity
  8
1
100
AcDbLine
 10
611.6353890762066
 20
144.8565792070357
 30
0.0
 11
611.6353890762066
 21
144.0265770779577
 31
0.0
  0
LINE
  5
933C
330
18
100
AcDbEntity
  8
1
100
AcDbLine
 10
613.4353878811335
 20
144.9265774117438
 30
0.0
 11
613.4353878811335
 21
144.8565792070357
 31
0.0
  0
LINE
  5
933D
330
18
100
AcDbEntity
  8
1
100
AcDbLine
 10
611.7299388066267
 20
158.563032351586
 30
0.0
 11
614.2299401477312
 21
158.563032351586
 31
0.0
  0
LINE
  5
933E
330
18
100
AcDbEntity
  8
1
100
AcDbLine
 10
611.7299388066267
 20
158.5580330120054
 30
0.0
 11
614.2299401477312
 21
158.5580330120054
 31
0.0
  0
LINE
  5
933F
330
18
100
AcDbEntity
  8
1
100
AcDbLine
 10
614.2299401477312
 20
159.4580333457914
 30
0.0
 11
611.7299388066267
 21
159.4580333457914
 31
0.0
  0
LINE
  5
9340
330
18
100
AcDbEntity
  8
1
100
AcDbLine
 10
611.7299388066267
 20
158.6080301331011
 30
0.0
 11
614.2299401477312
 21
158.6080301331011
 31
0.0
  0
LINE
  5
9341
330
18
100
AcDbEntity
  8
1
100
AcDbLine
 10
614.2299401477312
 20
158.7917577253309
 30
0.0
 11
611.7299388066267
 21
158.7917577253309
 31
0.0
  0
LINE
  5
9342
330
18
100
AcDbEntity
  8
1
100
AcDbLine
 10
611.7299388066267
 20
159.4580333457914
 30
0.0
 11
611.7299388066267
 21
158.5580330120054
 31
0.0
  0
LINE
  5
9343
330
18
100
AcDbEntity
  8
1
100
AcDbLine
 10
614.2299401477312
 20
158.5580330120054
 30
0.0
 11
614.2299401477312
 21
159.4580333457914
 31
0.0
  0
LWPOLYLINE
  5
9344
330
18
100
AcDbEntity
  8
1
100
AcDbPolyline
 90
        9
 70
   128
 43
0.0
 10
614.6323869839644
 20
161.1244823561636
 10
614.6289410904383
 20
161.1170913802115
 10
614.6187375203108
 20
161.0952127502886
 10
614.6021674290632
 20
161.0596772061316
 10
614.5798678413366
 20
161.0118593798605
 10
614.55269929919
 20
160.9535921143023
 10
614.5217011586165
 20
160.8871143089262
 10
614.4880655125116
 20
160.8149815128771
 10
614.4530850366091
 20
160.7399690674273
  0
LINE
  5
9345
330
18
100
AcDbEntity
  8
1
100
AcDbLine
 10
622.3092864171003
 20
160.2389845775095
 30
0.0
 11
623.046521367166
 21
159.7227673755613
 31
0.0
  0
LINE
  5
9346
330
18
100
AcDbEntity
  8
1
100
AcDbLine
 10
557.7406997695898
 20
177.6657603459088
 30
0.0
 11
560.2407011106943
 21
177.6657603459088
 31
0.0
  0
LINE
  5
9347
330
18
100
AcDbEntity
  8
1
100
AcDbLine
 10
560.2407011106943
 20
178.5657606796948
 30
0.0
 11
557.7406997695898
 21
178.5657606796948
 31
0.0
  0
LINE
  5
9348
330
18
100
AcDbEntity
  8
1
100
AcDbLine
 10
559.6563353106712
 20
201.9265787803223
 30
0.0
 11
556.1057294622397
 21
201.9265787803223
 31
0.0
  0
LINE
  5
9349
330
18
100
AcDbEntity
  8
1
100
AcDbLine
 10
556.5341732368206
 20
202.2265787945715
 30
0.0
 11
559.356335820291
 21
202.2265787945715
 31
0.0
  0
LINE
  5
934A
330
18
100
AcDbEntity
  8
1
100
AcDbLine
 10
558.466920898888
 20
183.3331953512159
 30
0.0
 11
550.8554096237158
 21
186.1035577730862
 31
0.0
  0
LINE
  5
934B
330
18
100
AcDbEntity
  8
1
100
AcDbLine
 10
551.0469007209276
 20
186.3531149701801
 30
0.0
 11
558.8514341876244
 21
183.5124972985712
 31
0.0
  0
LINE
  5
934C
330
18
100
AcDbEntity
  8
1
100
AcDbLine
 10
558.8514341876244
 20
183.5124972985712
 30
0.0
 11
557.5175548807119
 21
179.8476964013306
 31
0.0
  0
LINE
  5
934D
330
18
100
AcDbEntity
  8
1
100
AcDbLine
 10
557.3382529333567
 20
180.2322096900669
 30
0.0
 11
558.466920898888
 21
183.3331953512159
 31
0.0
  0
LINE
  5
934E
330
18
100
AcDbEntity
  8
1
100
AcDbLine
 10
560.2407011106943
 20
177.7157593296496
 30
0.0
 11
557.7406997695898
 21
177.7157593296496
 31
0.0
  0
LINE
  5
934F
330
18
100
AcDbEntity
  8
1
100
AcDbLine
 10
560.2407011106943
 20
177.8994869218794
 30
0.0
 11
557.7406997695898
 21
177.8994869218794
 31
0.0
  0
LINE
  5
9350
330
18
100
AcDbEntity
  8
1
100
AcDbLine
 10
537.2833202496504
 20
175.3184661047188
 30
0.0
 11
547.9949789956545
 21
182.8188501076428
 31
0.0
  0
LINE
  5
9351
330
18
100
AcDbEntity
  8
1
100
AcDbLine
 10
542.7446591571306
 20
166.9958304391829
 30
0.0
 11
537.0375740245318
 21
175.1463930831877
 31
0.0
  0
LINE
  5
9352
330
18
100
AcDbEntity
  8
1
100
AcDbLine
 10
537.2833202496504
 20
175.3184661047188
 30
0.0
 11
542.9361502543425
 21
167.2453876362768
 31
0.0
  0
LINE
  5
9353
330
18
100
AcDbEntity
  8
1
100
AcDbLine
 10
537.2546429649328
 20
175.3594238089052
 30
0.0
 11
547.9078072026705
 21
182.8188501076428
 31
0.0
  0
LINE
  5
9354
330
18
100
AcDbEntity
  8
1
100
AcDbLine
 10
537.2544716015791
 20
176.5800785051314
 30
0.0
 11
546.5928058043455
 21
183.118849598023
 31
0.0
  0
LINE
  5
9355
330
18
100
AcDbEntity
  8
1
100
AcDbLine
 10
546.6873946503138
 20
182.8188501076428
 30
0.0
 11
537.426542760465
 21
176.3343341426579
 31
0.0
  0
LINE
  5
9356
330
18
100
AcDbEntity
  8
1
100
AcDbLine
 10
537.477504731748
 20
163.3077259884802
 30
0.0
 11
538.4820553377604
 21
164.0111204014746
 31
0.0
  0
LINE
  5
9357
330
18
100
AcDbEntity
  8
1
100
AcDbLine
 10
538.5766441837286
 20
163.7111227737394
 30
0.0
 11
537.649575890634
 21
163.0619834886519
 31
0.0
  0
LWPOLYLINE
  5
9358
330
18
100
AcDbEntity
  8
1
100
AcDbPolyline
 90
        9
 70
   128
 43
0.0
 10
537.649575890634
 20
163.0619834886519
 10
537.6160072997545
 20
163.1099242495028
 10
537.5837276593184
 20
163.1560247169462
 10
537.5539774909948
 20
163.1985116528002
 10
537.5279041841959
 20
163.2357496546236
 10
537.5065023914312
 20
163.2663119362322
 10
537.4906028524374
 20
163.2890213058916
 10
537.4808090642427
 20
163.303006045672
 10
537.477504731748
 20
163.3077259884802
  0
LWPOLYLINE
  5
9359
330
18
100
AcDbEntity
  8
1
100
AcDbPolyline
 90
        9
 70
   128
 43
0.0
 10
539.8842285290693
 20
163.7111227737394
 10
539.9678165927862
 20
163.7696508096186
 10
540.0481897309755
 20
163.8259287701574
 10
540.1222596779799
 20
163.8777922616926
 10
540.1871877625917
 20
163.9232557044951
 10
540.2404668644404
 20
163.9605644868342
 10
540.2800592497324
 20
163.988284371945
 10
540.3044412747358
 20
164.0053573773829
 10
540.3126741662954
 20
164.0111204014746
  0
LINE
  5
935A
330
18
100
AcDbEntity
  8
1
100
AcDbLine
 10
541.2436242118811
 20
163.7111227737394
 30
0.0
 11
539.8842285290693
 21
163.7111227737394
 31
0.0
  0
LWPOLYLINE
  5
935B
330
18
100
AcDbEntity
  8
1
100
AcDbPolyline
 90
       10
 70
   128
 43
0.0
 10
540.2255023733114
 20
164.0111204014746
 10
540.21899429116
 20
164.0065643714396
 10
540.1996637598013
 20
163.9930303917853
 10
540.1681031003927
 20
163.9709282444445
 10
540.1252659872507
 20
163.9409359322516
 10
540.0724562719797
 20
163.903958700749
 10
540.0112795546984
 20
163.861121587607
 10
539.9435947552656
 20
163.81372844443
 10
539.8714545086359
 20
163.7632172332731
 10
539.7970567360853
 20
163.7111227737394
  0
LINE
  5
935C
330
18
100
AcDbEntity
  8
1
100
AcDbLine
 10
538.4820553377604
 20
164.0111204014746
 30
0.0
 11
540.2255023733114
 21
164.0111204014746
 31
0.0
  0
LWPOLYLINE
  5
935D
330
18
100
AcDbEntity
  8
1
100
AcDbPolyline
 90
       10
 70
   128
 43
0.0
 10
538.5766441837286
 20
163.7111227737394
 10
538.5602193788027
 20
163.7632172332731
 10
538.5442937627768
 20
163.81372844443
 10
538.5293516233896
 20
163.861121587607
 10
538.5158437207674
 20
163.903958700749
 10
538.5041835621332
 20
163.9409359322516
 10
538.4947287753557
 20
163.9709282444445
 10
538.4877587572073
 20
163.9930303917853
 10
538.4834932998156
 20
164.0065643714396
 10
538.4820553377604
 20
164.0111204014746
  0
LINE
  5
935E
330
18
100
AcDbEntity
  8
1
100
AcDbLine
 10
539.7970567360853
 20
163.7111227737394
 30
0.0
 11
538.5766441837286
 21
163.7111227737394
 31
0.0
  0
LWPOLYLINE
  5
935F
330
18
100
AcDbEntity
  8
1
100
AcDbPolyline
 90
        9
 70
   128
 43
0.0
 10
541.2965233341192
 20
164.0111204014746
 10
541.2955063298677
 20
164.0053573773829
 10
541.2924962953066
 20
163.988284371945
 10
541.287608714435
 20
163.9605644868342
 10
541.2810298517679
 20
163.9232557044951
 10
541.2730130270456
 20
163.8777922616926
 10
541.2638674393629
 20
163.8259287701574
 10
541.2539469912981
 20
163.7696508096186
 10
541.2436242118811
 20
163.7111227737394
  0
LINE
  5
9360
330
18
100
AcDbEntity
  8
1
100
AcDbLine
 10
540.3126741662954
 20
164.0111204014746
 30
0.0
 11
541.2965233341192
 21
164.0111204014746
 31
0.0
  0
LINE
  5
9361
330
18
100
AcDbEntity
  8
1
100
AcDbLine
 10
540.3126741662954
 20
164.0111204014746
 30
0.0
 11
540.2255023733114
 21
164.0111204014746
 31
0.0
  0
LWPOLYLINE
  5
9362
330
18
100
AcDbEntity
  8
1
100
AcDbPolyline
 90
        9
 70
   128
 43
0.0
 10
537.0375740245318
 20
175.1463930831877
 10
537.0422976926302
 20
175.1496992783276
 10
537.0562824324106
 20
175.1594912038771
 10
537.07899180207
 20
175.1753926055161
 10
537.1095503583883
 20
175.1967925356356
 10
537.146792085502
 20
175.2228677050797
 10
537.189279021356
 20
175.252616010758
 10
537.2353794887995
 20
175.2848956511942
 10
537.2833202496504
 20
175.3184661047188
  0
LINE
  5
9363
330
18
100
AcDbEntity
  8
1
100
AcDbLine
 10
537.0088967398142
 20
175.1873507873741
 30
0.0
 11
537.0375740245318
 21
175.1463930831877
 31
0.0
  0
ARC
  5
9364
330
18
100
AcDbEntity
  8
1
100
AcDbCircle
 10
537.82804796128
 20
175.7609269521423
 30
0.0
 40
1.000000000000005
100
AcDbArc
 50
125.0000000000046
 51
215.0
  0
LWPOLYLINE
  5
9365
330
18
100
AcDbEntity
  8
1
100
AcDbPolyline
 90
        9
 70
   128
 43
0.0
 10
537.2546429649328
 20
175.3594238089052
 10
537.2066984787916
 20
175.3258533553806
 10
537.1605980113482
 20
175.2935737149445
 10
537.1181110754942
 20
175.2638254092661
 10
537.0808730736708
 20
175.237750239822
 10
537.0503107920622
 20
175.2163503097025
 10
537.0276014224028
 20
175.2004489080635
 10
537.0136166826223
 20
175.190656982514
 10
537.0088967398142
 20
175.1873507873741
  0
ARC
  5
9366
330
18
100
AcDbEntity
  8
1
100
AcDbCircle
 10
537.82804796128
 20
175.7609269521423
 30
0.0
 40
0.7000000000000127
100
AcDbArc
 50
124.9999999999966
 51
214.9999999999971
  0
LWPOLYLINE
  5
9367
330
18
100
AcDbEntity
  8
1
100
AcDbPolyline
 90
        9
 70
   128
 43
0.0
 10
537.426542760465
 20
176.3343341426579
 10
537.3929741695856
 20
176.3822767661539
 10
537.3606945291494
 20
176.4283753709522
 10
537.3309443608259
 20
176.4708623068062
 10
537.304871054027
 20
176.5081021712748
 10
537.2834692612623
 20
176.5386625902382
 10
537.2675697222685
 20
176.5613719598976
 10
537.2577796593641
 20
176.5753566996781
 10
537.2544716015791
 20
176.5800785051314
  0
LINE
  5
9368
330
18
100
AcDbEntity
  8
1
100
AcDbLine
 10
542.9361502543425
 20
167.2453876362768
 30
0.0
 11
550.7406837210392
 21
164.4047681020228
 31
0.0
  0
LINE
  5
9369
330
18
100
AcDbEntity
  8
1
100
AcDbLine
 10
550.356172294948
 20
164.2254661546675
 30
0.0
 11
542.7446591571306
 21
166.9958304391829
 31
0.0
  0
LINE
  5
936A
330
18
100
AcDbEntity
  8
1
100
AcDbLine
 10
546.3612939134573
 20
168.9788732455698
 30
0.0
 11
547.7952326551413
 21
166.9309954868284
 31
0.0
  0
LINE
  5
936B
330
18
100
AcDbEntity
  8
1
100
AcDbLine
 10
548.5324713304972
 20
167.4472126887766
 30
0.0
 11
547.0985288635229
 21
169.4950941728083
 31
0.0
  0
LINE
  5
936C
330
18
100
AcDbEntity
  8
1
100
AcDbLine
 10
547.8361922219729
 20
166.959672771546
 30
0.0
 11
546.4022497549986
 21
169.0075542555777
 31
0.0
  0
LINE
  5
936D
330
18
100
AcDbEntity
  8
1
100
AcDbLine
 10
547.9866902247404
 20
167.0650537835089
 30
0.0
 11
546.5527514830565
 21
169.1129352675406
 31
0.0
  0
LWPOLYLINE
  5
936E
330
18
100
AcDbEntity
  8
1
100
AcDbPolyline
 90
        9
 70
   128
 43
0.0
 10
542.7446591571306
 20
166.9958304391829
 10
542.7483397439455
 20
167.000624887797
 10
542.7592362180685
 20
167.0148256944147
 10
542.7769313469862
 20
167.0378889666525
 10
542.8007471278643
 20
167.068924360129
 10
542.829763413999
 20
167.1067397819487
 10
542.8628700688814
 20
167.1498860941855
 10
542.8987930432295
 20
167.1967018173662
 10
542.9361502543425
 20
167.2453876362768
  0
LINE
  5
936F
330
18
100
AcDbEntity
  8
1
100
AcDbLine
 10
547.7952326551413
 20
166.9309954868284
 30
0.0
 11
548.5324713304972
 21
167.4472126887766
 31
0.0
  0
LINE
  5
9370
330
18
100
AcDbEntity
  8
1
100
AcDbLine
 10
547.0985288635229
 20
169.4950941728083
 30
0.0
 11
546.3612939134573
 21
168.9788732455698
 31
0.0
  0
LWPOLYLINE
  5
9371
330
18
100
AcDbEntity
  8
1
100
AcDbPolyline
 90
        9
 70
   128
 43
0.0
 10
550.356172294948
 20
164.2254661546675
 10
550.3635595456099
 20
164.2289120481936
 10
550.3854381755327
 20
164.2391156183211
 10
550.4209737196898
 20
164.2556857095686
 10
550.4687915459608
 20
164.2779815720049
 10
550.527058811519
 20
164.3051538394419
 10
550.5935366168951
 20
164.3361519800154
 10
550.6656694129442
 20
164.3697876261202
 10
550.7406837210392
 20
164.4047681020228
  0
LINE
  5
9372
330
18
100
AcDbEntity
  8
1
100
AcDbLine
 10
557.5175548807119
 20
179.8476964013306
 30
0.0
 11
549.3543746784662
 21
182.8188501076428
 31
0.0
  0
LINE
  5
9373
330
18
100
AcDbEntity
  8
1
100
AcDbLine
 10
549.4072738007044
 20
183.118849598023
 30
0.0
 11
557.3382529333567
 21
180.2322096900669
 31
0.0
  0
LINE
  5
9374
330
18
100
AcDbEntity
  8
1
100
AcDbLine
 10
549.6613535002207
 20
179.3467156367031
 30
0.0
 11
548.2274110332464
 21
181.3945952580897
 31
0.0
  0
LINE
  5
9375
330
18
100
AcDbEntity
  8
1
100
AcDbLine
 10
547.4901760831808
 20
180.8783761934963
 30
0.0
 11
548.9241185501551
 21
178.8304965721098
 31
0.0
  0
LINE
  5
9376
330
18
100
AcDbEntity
  8
1
100
AcDbLine
 10
549.6203976586794
 20
179.3180364893404
 30
0.0
 11
548.1864551917051
 21
181.3659161107269
 31
0.0
  0
LINE
  5
9377
330
18
100
AcDbEntity
  8
1
100
AcDbLine
 10
547.5311319247221
 20
180.907055340859
 30
0.0
 11
548.9650743916964
 21
178.8591738568274
 31
0.0
  0
LINE
  5
9378
330
18
100
AcDbEntity
  8
1
100
AcDbLine
 10
548.0359571889376
 20
181.2605350987641
 30
0.0
 11
549.4698959306215
 21
179.2126554773775
 31
0.0
  0
LINE
  5
9379
330
18
100
AcDbEntity
  8
1
100
AcDbLine
 10
548.9241185501551
 20
178.8304965721098
 30
0.0
 11
549.6613535002207
 21
179.3467156367031
 31
0.0
  0
LINE
  5
937A
330
18
100
AcDbEntity
  8
1
100
AcDbLine
 10
548.2274110332464
 20
181.3945952580897
 30
0.0
 11
547.4901760831808
 21
180.8783761934963
 31
0.0
  0
LWPOLYLINE
  5
937B
330
18
100
AcDbEntity
  8
1
100
AcDbPolyline
 90
        9
 70
   128
 43
0.0
 10
547.9949789956545
 20
182.8188501076428
 10
548.0785633340811
 20
182.8773781435219
 10
548.1589364722704
 20
182.9336561040608
 10
548.233010144565
 20
182.9855214582411
 10
548.2979345038866
 20
183.0309830383984
 10
548.3512173310255
 20
183.0682918207375
 10
548.3908097163176
 20
183.0960135684935
 10
548.415191741321
 20
183.1130865739313
 10
548.4234246328806
 20
183.118849598023
  0
LINE
  5
937C
330
18
100
AcDbEntity
  8
1
100
AcDbLine
 10
549.3543746784662
 20
182.8188501076428
 30
0.0
 11
547.9949789956545
 21
182.8188501076428
 31
0.0
  0
LWPOLYLINE
  5
937D
330
18
100
AcDbEntity
  8
1
100
AcDbPolyline
 90
        9
 70
   128
 43
0.0
 10
548.3362528398966
 20
183.118849598023
 10
548.328019948337
 20
183.1130865739313
 10
548.3036379233336
 20
183.0960135684935
 10
548.2640455380415
 20
183.0682918207375
 10
548.2107627109026
 20
183.0309830383984
 10
548.145838351581
 20
182.9855214582411
 10
548.0717646792864
 20
182.9336561040608
 10
547.9913915410971
 20
182.8773781435219
 10
547.9078072026705
 20
182.8188501076428
  0
LINE
  5
937E
330
18
100
AcDbEntity
  8
1
100
AcDbLine
 10
546.5928058043455
 20
183.118849598023
 30
0.0
 11
548.3362528398966
 21
183.118849598023
 31
0.0
  0
LWPOLYLINE
  5
937F
330
18
100
AcDbEntity
  8
1
100
AcDbPolyline
 90
       10
 70
   128
 43
0.0
 10
546.6873946503138
 20
182.8188501076428
 10
546.6709698453878
 20
182.8709445671765
 10
546.6550442293619
 20
182.9214557783333
 10
546.6400983646845
 20
182.9688507841555
 10
546.6265941873526
 20
183.0116860346523
 10
546.6149340287184
 20
183.0486632661549
 10
546.6054792419409
 20
183.0786574409929
 10
546.5985092237925
 20
183.1007577256886
 10
546.5942400411104
 20
183.114293567988
 10
546.5928058043455
 20
183.118849598023
  0
LINE
  5
9380
330
18
100
AcDbEntity
  8
1
100
AcDbLine
 10
547.9078072026705
 20
182.8188501076428
 30
0.0
 11
546.6873946503138
 21
182.8188501076428
 31
0.0
  0
LINE
  5
9381
330
18
100
AcDbEntity
  8
1
100
AcDbLine
 10
548.4234246328806
 20
183.118849598023
 30
0.0
 11
549.4072738007044
 21
183.118849598023
 31
0.0
  0
LWPOLYLINE
  5
9382
330
18
100
AcDbEntity
  8
1
100
AcDbPolyline
 90
        9
 70
   128
 43
0.0
 10
549.4072738007044
 20
183.118849598023
 10
549.4062567964529
 20
183.1130865739313
 10
549.4032467618918
 20
183.0960135684935
 10
549.3983591810202
 20
183.0682918207375
 10
549.3917803183531
 20
183.0309830383984
 10
549.3837634936308
 20
182.9855214582411
 10
549.3746179059481
 20
182.9336561040608
 10
549.364693732593
 20
182.8773781435219
 10
549.3543746784662
 20
182.8188501076428
  0
LINE
  5
9383
330
18
100
AcDbEntity
  8
1
100
AcDbLine
 10
548.4234246328806
 20
183.118849598023
 30
0.0
 11
548.3362528398966
 21
183.118849598023
 31
0.0
  0
LINE
  5
9384
330
18
100
AcDbEntity
  8
1
100
AcDbLine
 10
557.7406997695898
 20
178.5657606796948
 30
0.0
 11
557.7406997695898
 21
177.6657603459088
 31
0.0
  0
LWPOLYLINE
  5
9385
330
18
100
AcDbEntity
  8
1
100
AcDbPolyline
 90
       10
 70
   128
 43
0.0
 10
557.3382529333567
 20
180.2322096900669
 10
557.34097798321
 20
180.2263684348789
 10
557.3490674510931
 20
180.209019757959
 10
557.3622754678463
 20
180.1806945131746
 10
557.3802015647625
 20
180.1422513799397
 10
557.4023018494581
 20
180.0948563741175
 10
557.4279039070343
 20
180.0399530456988
 10
557.4562310144638
 20
179.9792065994469
 10
557.4864207670425
 20
179.9144666419951
 10
557.5175548807119
 20
179.8476964013306
  0
LINE
  5
9386
330
18
100
AcDbEntity
  8
1
100
AcDbLine
 10
545.3940707162355
 20
194.4261943699447
 30
0.0
 11
556.1057294622397
 21
201.9265787803223
 31
0.0
  0
LINE
  5
9387
330
18
100
AcDbEntity
  8
1
100
AcDbLine
 10
545.3652220681643
 20
195.6878072360185
 30
0.0
 11
554.7035544082855
 21
202.2265787945715
 31
0.0
  0
LINE
  5
9388
330
18
100
AcDbEntity
  8
1
100
AcDbLine
 10
545.3653897062277
 20
194.4671520741311
 30
0.0
 11
556.0185558066105
 21
201.9265787803223
 31
0.0
  0
LINE
  5
9389
330
18
100
AcDbEntity
  8
1
100
AcDbLine
 10
554.7981432542538
 20
201.9265787803223
 30
0.0
 11
545.5372932270502
 21
195.4420619422225
 31
0.0
  0
LINE
  5
938A
330
18
100
AcDbEntity
  8
1
100
AcDbLine
 10
550.8554096237158
 20
186.1035577730862
 30
0.0
 11
545.1483244911169
 21
194.2541213484136
 31
0.0
  0
LINE
  5
938B
330
18
100
AcDbEntity
  8
1
100
AcDbLine
 10
545.3940707162355
 20
194.4261943699447
 30
0.0
 11
551.0469007209276
 21
186.3531149701801
 31
0.0
  0
LWPOLYLINE
  5
938C
330
18
100
AcDbEntity
  8
1
100
AcDbPolyline
 90
        9
 70
   128
 43
0.0
 10
545.1483244911169
 20
194.2541213484136
 10
545.1530444339251
 20
194.2574275435535
 10
545.1670291737055
 20
194.267219469103
 10
545.1897385433649
 20
194.283120870742
 10
545.2203008249735
 20
194.3045198695389
 10
545.2575425520872
 20
194.3305959703056
 10
545.3000257626509
 20
194.3603452073065
 10
545.3461262300943
 20
194.3926248477427
 10
545.3940707162355
 20
194.4261943699447
  0
LINE
  5
938D
330
18
100
AcDbEntity
  8
1
100
AcDbLine
 10
545.1196472063993
 20
194.2950790526
 30
0.0
 11
545.1483244911169
 21
194.2541213484136
 31
0.0
  0
LWPOLYLINE
  5
938E
330
18
100
AcDbEntity
  8
1
100
AcDbPolyline
 90
        9
 70
   128
 43
0.0
 10
545.3653897062277
 20
194.4671520741311
 10
545.3174489453768
 20
194.4335820862678
 10
545.2713484779333
 20
194.4013019801704
 10
545.2288615420794
 20
194.371553674492
 10
545.1916235402559
 20
194.3454775737253
 10
545.1610612586474
 20
194.3240785749284
 10
545.1383518889879
 20
194.3081771732894
 10
545.1243671492075
 20
194.2983852477399
 10
545.1196472063993
 20
194.2950790526
  0
LWPOLYLINE
  5
938F
330
18
100
AcDbEntity
  8
1
100
AcDbPolyline
 90
        9
 70
   128
 43
0.0
 10
545.5372932270502
 20
195.4420619422225
 10
545.5037246361708
 20
195.4900045657185
 10
545.4714449957346
 20
195.5361045675007
 10
545.4416948274111
 20
195.5785905720321
 10
545.4156215206121
 20
195.6158299708394
 10
545.3942197278475
 20
195.6463917867867
 10
545.3783201888536
 20
195.6691011564461
 10
545.368526400659
 20
195.6830854305652
 10
545.3652220681643
 20
195.6878072360185
  0
ARC
  5
9390
330
18
100
AcDbEntity
  8
1
100
AcDbCircle
 10
545.9387974718243
 20
194.8686553758806
 30
0.0
 40
1.000000000000001
100
AcDbArc
 50
124.9999999999974
 51
215.0
  0
ARC
  5
9391
330
18
100
AcDbEntity
  8
1
100
AcDbCircle
 10
545.9387974718243
 20
194.8686553758806
 30
0.0
 40
0.699999999999996
100
AcDbArc
 50
124.9999999999876
 51
215.0000000000043
  0
LWPOLYLINE
  5
9392
330
18
100
AcDbEntity
  8
1
100
AcDbPolyline
 90
        9
 70
   128
 43
0.0
 10
551.0469007209276
 20
186.3531149701801
 10
551.0095435098146
 20
186.3044291512695
 10
550.9736205354666
 20
186.2576134280888
 10
550.9405138805841
 20
186.2144689784971
 10
550.9114957318043
 20
186.1766516940323
 10
550.8876818135714
 20
186.1456163005558
 10
550.8699866846537
 20
186.1225548909632
 10
550.8590883478855
 20
186.1083540843455
 10
550.8554096237158
 20
186.1035577730862
  0
LINE
  5
9393
330
18
100
AcDbEntity
  8
1
100
AcDbLine
 10
556.6432199344372
 20
186.5549418853251
 30
0.0
 11
555.2092793301081
 21
188.6028224380342
 31
0.0
  0
LINE
  5
9394
330
18
100
AcDbEntity
  8
1
100
AcDbLine
 10
555.2092793301081
 20
188.6028224380342
 30
0.0
 11
554.4720425173973
 21
188.0866033734409
 31
0.0
  0
LINE
  5
9395
330
18
100
AcDbEntity
  8
1
100
AcDbLine
 10
556.0974406913256
 20
186.1727829800573
 30
0.0
 11
554.6635000869965
 21
188.2206635327665
 31
0.0
  0
LINE
  5
9396
330
18
100
AcDbEntity
  8
1
100
AcDbLine
 10
555.9059831217264
 20
186.0387228207317
 30
0.0
 11
556.6432199344372
 21
186.5549418853251
 31
0.0
  0
LINE
  5
9397
330
18
100
AcDbEntity
  8
1
100
AcDbLine
 10
554.4720425173973
 20
188.0866033734409
 30
0.0
 11
555.9059831217264
 21
186.0387228207317
 31
0.0
  0
LINE
  5
9398
330
18
100
AcDbEntity
  8
1
100
AcDbLine
 10
555.9469408259129
 20
186.0674019680945
 30
0.0
 11
554.5130002215838
 21
188.1152825208036
 31
0.0
  0
LINE
  5
9399
330
18
100
AcDbEntity
  8
1
100
AcDbLine
 10
557.7721039668058
 20
198.4544432034371
 30
0.0
 11
556.3381614998316
 21
200.5023232904849
 31
0.0
  0
LINE
  5
939A
330
18
100
AcDbEntity
  8
1
100
AcDbLine
 10
555.6009246871208
 20
199.9861044587222
 30
0.0
 11
557.0348671540951
 21
197.9382243716744
 31
0.0
  0
LINE
  5
939B
330
18
100
AcDbEntity
  8
1
100
AcDbLine
 10
557.7311462626194
 20
198.425764288905
 30
0.0
 11
556.2972037956451
 21
200.4736443759528
 31
0.0
  0
LINE
  5
939C
330
18
100
AcDbEntity
  8
1
100
AcDbLine
 10
555.6418823913073
 20
200.0147833732543
 30
0.0
 11
557.0758248582815
 21
197.9669030533758
 31
0.0
  0
LINE
  5
939D
330
18
100
AcDbEntity
  8
1
100
AcDbLine
 10
556.1467057928776
 20
200.3682633639899
 30
0.0
 11
557.5806463972067
 21
198.3203832769421
 31
0.0
  0
LINE
  5
939E
330
18
100
AcDbEntity
  8
1
100
AcDbLine
 10
557.0348671540951
 20
197.9382243716744
 30
0.0
 11
557.7721039668058
 21
198.4544432034371
 31
0.0
  0
LINE
  5
939F
330
18
100
AcDbEntity
  8
1
100
AcDbLine
 10
556.3381614998316
 20
200.5023232904849
 30
0.0
 11
555.6009246871208
 21
199.9861044587222
 31
0.0
  0
LWPOLYLINE
  5
93A0
330
18
100
AcDbEntity
  8
1
100
AcDbPolyline
 90
       10
 70
   128
 43
0.0
 10
556.1057294622397
 20
201.9265787803223
 10
556.1801272347902
 20
201.978673239856
 10
556.2522656187748
 20
202.0291848439145
 10
556.3199504182076
 20
202.0765787874469
 10
556.3811271354889
 20
202.1194150784057
 10
556.4339368507599
 20
202.1563921280093
 10
556.4767721012568
 20
202.1863864156247
 10
556.5083346233105
 20
202.208486580267
 10
556.5276651546692
 20
202.2220211206248
 10
556.5341732368206
 20
202.2265787945715
  0
LWPOLYLINE
  5
93A1
330
18
100
AcDbEntity
  8
1
100
AcDbPolyline
 90
        9
 70
   128
 43
0.0
 10
556.4470014438366
 20
202.2265787945715
 10
556.438768552277
 20
202.2208143784981
 10
556.4143883899187
 20
202.2037426540836
 10
556.3747960046267
 20
202.1760196785097
 10
556.3215131774878
 20
202.138710830687
 10
556.256586955521
 20
202.0932498689861
 10
556.1825151458715
 20
202.0413838308658
 10
556.1021420076822
 20
201.9851058848788
 10
556.0185558066105
 20
201.9265787803223
  0
LINE
  5
93A2
330
18
100
AcDbEntity
  8
1
100
AcDbLine
 10
554.7035544082855
 20
202.2265787945715
 30
0.0
 11
556.4470014438366
 21
202.2265787945715
 31
0.0
  0
LWPOLYLINE
  5
93A3
330
18
100
AcDbEntity
  8
1
100
AcDbPolyline
 90
       10
 70
   128
 43
0.0
 10
554.7981432542538
 20
201.9265787803223
 10
554.7817184493279
 20
201.978673239856
 10
554.7657928333019
 20
202.0291848439145
 10
554.7508488312696
 20
202.0765787874469
 10
554.7373427912926
 20
202.1194150784057
 10
554.7256844953035
 20
202.1563921280093
 10
554.7162278458809
 20
202.1863864156247
 10
554.7092596903776
 20
202.208486580267
 10
554.7049905076956
 20
202.2220211206248
 10
554.7035544082855
 20
202.2265787945715
  0
LINE
  5
93A4
330
18
100
AcDbEntity
  8
1
100
AcDbLine
 10
556.0185558066105
 20
201.9265787803223
 30
0.0
 11
554.7981432542538
 21
201.9265787803223
 31
0.0
  0
LINE
  5
93A5
330
18
100
AcDbEntity
  8
1
100
AcDbLine
 10
556.5341732368206
 20
202.2265787945715
 30
0.0
 11
556.4470014438366
 21
202.2265787945715
 31
0.0
  0
LINE
  5
93A6
330
18
100
AcDbEntity
  8
1
100
AcDbLine
 10
569.0563351750707
 20
218.9265783654181
 30
0.0
 11
569.0563351750707
 21
203.6265787446526
 31
0.0
  0
LINE
  5
93A7
330
18
100
AcDbEntity
  8
1
100
AcDbLine
 10
568.7563347533678
 20
203.326578788611
 30
0.0
 11
568.7563347533678
 21
218.6265788750378
 31
0.0
  0
LINE
  5
93A8
330
18
100
AcDbEntity
  8
1
100
AcDbLine
 10
559.6563353106712
 20
218.6265788750378
 30
0.0
 11
559.6563353106712
 21
201.9265787803223
 31
0.0
  0
LINE
  5
93A9
330
18
100
AcDbEntity
  8
1
100
AcDbLine
 10
559.356335820291
 20
202.2265787945715
 30
0.0
 11
559.356335820291
 21
218.6265788750378
 31
0.0
  0
LINE
  5
93AA
330
18
100
AcDbEntity
  8
1
100
AcDbLine
 10
594.8563351199364
 20
218.6265788750378
 30
0.0
 11
594.8563351199364
 21
203.326578788611
 31
0.0
  0
LINE
  5
93AB
330
18
100
AcDbEntity
  8
1
100
AcDbLine
 10
594.5563346982335
 20
203.6265787446526
 30
0.0
 11
594.5563346982335
 21
218.9265783654181
 31
0.0
  0
LINE
  5
93AC
330
18
100
AcDbEntity
  8
1
100
AcDbLine
 10
605.1563343867992
 20
217.0247040466992
 30
0.0
 11
605.1563343867992
 21
202.2265787945715
 31
0.0
  0
LINE
  5
93AD
330
18
100
AcDbEntity
  8
1
100
AcDbLine
 10
604.856334896419
 20
201.9265787803223
 30
0.0
 11
604.856334896419
 21
216.8399026395408
 31
0.0
  0
LINE
  5
93AE
330
18
100
AcDbEntity
  8
1
100
AcDbLine
 10
594.8563351199364
 20
203.326578788611
 30
0.0
 11
568.7563347533678
 21
203.326578788611
 31
0.0
  0
LINE
  5
93AF
330
18
100
AcDbEntity
  8
1
100
AcDbLine
 10
569.0563351750707
 20
203.6265787446526
 30
0.0
 11
594.5563346982335
 21
203.6265787446526
 31
0.0
  0
LINE
  5
93B0
330
18
100
AcDbEntity
  8
1
100
AcDbLine
 10
560.2407011106943
 20
177.6657603459088
 30
0.0
 11
560.2407011106943
 21
178.5657606796948
 31
0.0
  0
LWPOLYLINE
  5
93B1
330
18
100
AcDbEntity
  8
1
100
AcDbPolyline
 90
        9
 70
   128
 43
0.0
 10
558.466920898888
 20
183.3331953512159
 10
558.4743081495499
 20
183.336641244742
 10
558.4961886421179
 20
183.3468429522244
 10
558.5317223236298
 20
183.3634130434719
 10
558.579542012546
 20
183.3857107685534
 10
558.6378092781042
 20
183.4128830359903
 10
558.7042870834803
 20
183.4438811765638
 10
558.7764180168842
 20
183.4775168226687
 10
558.8514341876244
 20
183.5124972985712
  0
LWPOLYLINE
  5
93B2
330
18
100
AcDbEntity
  8
1
100
AcDbPolyline
 90
        9
 70
   128
 43
0.0
 10
559.356335820291
 20
202.2265787945715
 10
559.3620988443827
 20
202.2208143784981
 10
559.3791718498205
 20
202.2037426540836
 10
559.4068935975765
 20
202.1760196785097
 10
559.4442023799156
 20
202.138710830687
 10
559.4896639600729
 20
202.0932498689861
 10
559.5415293142532
 20
202.0413838308658
 10
559.5978072747921
 20
201.9851058848788
 10
559.6563353106712
 20
201.9265787803223
  0
LINE
  5
93B3
330
18
100
AcDbEntity
  8
1
100
AcDbLine
 10
577.7463352211153
 20
201.7265787708228
 30
0.0
 11
575.2463352769946
 21
201.7265787708228
 31
0.0
  0
LINE
  5
93B4
330
18
100
AcDbEntity
  8
1
100
AcDbLine
 10
575.2463352769946
 20
200.8265788444904
 30
0.0
 11
577.7463352211153
 21
200.8265788444904
 31
0.0
  0
LINE
  5
93B5
330
18
100
AcDbEntity
  8
1
100
AcDbLine
 10
575.2463352769946
 20
201.6765787975517
 30
0.0
 11
577.7463352211153
 21
201.6765787975517
 31
0.0
  0
LINE
  5
93B6
330
18
100
AcDbEntity
  8
1
100
AcDbLine
 10
575.2463352769946
 20
201.4928526023058
 30
0.0
 11
577.7463352211153
 21
201.4928526023058
 31
0.0
  0
LINE
  5
93B7
330
18
100
AcDbEntity
  8
1
100
AcDbLine
 10
575.2463352769946
 20
201.7265787708228
 30
0.0
 11
575.2463352769946
 21
200.8265788444904
 31
0.0
  0
LINE
  5
93B8
330
18
100
AcDbEntity
  8
1
100
AcDbLine
 10
577.7463352211153
 20
200.8265788444904
 30
0.0
 11
577.7463352211153
 21
201.7265787708228
 31
0.0
  0
LINE
  5
93B9
330
18
100
AcDbEntity
  8
1
100
AcDbLine
 10
585.3463351164346
 20
203.8765787856308
 30
0.0
 11
582.9663351547306
 21
203.8765787856308
 31
0.0
  0
LINE
  5
93BA
330
18
100
AcDbEntity
  8
1
100
AcDbLine
 10
582.9663351547306
 20
203.8765787856308
 30
0.0
 11
582.997031197544
 21
203.6265787446526
 31
0.0
  0
LINE
  5
93BB
330
18
100
AcDbEntity
  8
1
100
AcDbLine
 10
585.3463351164346
 20
203.6265787446526
 30
0.0
 11
585.3463351164346
 21
203.8765787856308
 31
0.0
  0
LINE
  5
93BC
330
18
100
AcDbEntity
  8
1
100
AcDbLine
 10
605.0084552631115
 20
183.5124972985712
 30
0.0
 11
612.8129887298082
 21
186.3531149701801
 31
0.0
  0
LINE
  5
93BD
330
18
100
AcDbEntity
  8
1
100
AcDbLine
 10
613.0044798270201
 20
186.1035577730862
 30
0.0
 11
605.3929685518478
 21
183.3331953512159
 31
0.0
  0
LINE
  5
93BE
330
18
100
AcDbEntity
  8
1
100
AcDbLine
 10
606.5216365173792
 20
180.2322096900669
 30
0.0
 11
614.4526156500315
 21
183.118849598023
 31
0.0
  0
LINE
  5
93BF
330
18
100
AcDbEntity
  8
1
100
AcDbLine
 10
614.5055147722696
 20
182.8188501076428
 30
0.0
 11
606.3423345700239
 21
179.8476964013306
 31
0.0
  0
LINE
  5
93C0
330
18
100
AcDbEntity
  8
1
100
AcDbLine
 10
603.6191883400415
 20
177.6657603459088
 30
0.0
 11
606.119189681146
 21
177.6657603459088
 31
0.0
  0
LINE
  5
93C1
330
18
100
AcDbEntity
  8
1
100
AcDbLine
 10
606.119189681146
 20
178.5657606796948
 30
0.0
 11
603.6191883400415
 21
178.5657606796948
 31
0.0
  0
LINE
  5
93C2
330
18
100
AcDbEntity
  8
1
100
AcDbLine
 10
606.119189681146
 20
177.7157593296496
 30
0.0
 11
603.6191883400415
 21
177.7157593296496
 31
0.0
  0
LINE
  5
93C3
330
18
100
AcDbEntity
  8
1
100
AcDbLine
 10
606.119189681146
 20
177.8994869218794
 30
0.0
 11
603.6191883400415
 21
177.8994869218794
 31
0.0
  0
LINE
  5
93C4
330
18
100
AcDbEntity
  8
1
100
AcDbLine
 10
603.6191883400415
 20
178.5657606796948
 30
0.0
 11
603.6191883400415
 21
177.6657603459088
 31
0.0
  0
LINE
  5
93C5
330
18
100
AcDbEntity
  8
1
100
AcDbLine
 10
606.119189681146
 20
177.6657603459088
 30
0.0
 11
606.119189681146
 21
178.5657606796948
 31
0.0
  0
LINE
  5
93C6
330
18
100
AcDbEntity
  8
1
100
AcDbLine
 10
606.3423345700239
 20
179.8476964013306
 30
0.0
 11
605.0084552631115
 21
183.5124972985712
 31
0.0
  0
LINE
  5
93C7
330
18
100
AcDbEntity
  8
1
100
AcDbLine
 10
605.3929685518478
 20
183.3331953512159
 30
0.0
 11
606.5216365173792
 21
180.2322096900669
 31
0.0
  0
LWPOLYLINE
  5
93C8
330
18
100
AcDbEntity
  8
1
100
AcDbPolyline
 90
        9
 70
   128
 43
0.0
 10
606.5216365173792
 20
180.2322096900669
 10
606.5181906238531
 20
180.2248205767599
 10
606.5079870537256
 20
180.2029400841919
 10
606.4914188251232
 20
180.1674082653252
 10
606.4691192373966
 20
180.119588576409
 10
606.4419488326048
 20
180.0613194482056
 10
606.4109506920313
 20
179.9948435054747
 10
606.3773150459265
 20
179.9227107094256
 10
606.3423345700239
 20
179.8476964013306
  0
LWPOLYLINE
  5
93C9
330
18
100
AcDbEntity
  8
1
100
AcDbPolyline
 90
        9
 70
   128
 43
0.0
 10
605.3929685518478
 20
183.3331953512159
 10
605.385581301186
 20
183.336641244742
 10
605.363700808618
 20
183.3468429522244
 10
605.3281671271061
 20
183.3634130434719
 10
605.2803474381899
 20
183.3857107685534
 10
605.2220801726316
 20
183.4128830359903
 10
605.1556023672556
 20
183.4438811765638
 10
605.0834714338516
 20
183.4775168226687
 10
605.0084552631115
 20
183.5124972985712
  0
LINE
  5
93CA
330
18
100
AcDbEntity
  8
1
100
AcDbLine
 10
613.1192057296967
 20
164.4047681020228
 30
0.0
 11
620.9237391963934
 21
167.2453876362768
 31
0.0
  0
LINE
  5
93CB
330
18
100
AcDbEntity
  8
1
100
AcDbLine
 10
621.1152302936052
 20
166.9958304391829
 30
0.0
 11
613.5037171557879
 21
164.2254661546675
 31
0.0
  0
LWPOLYLINE
  5
93CC
330
18
100
AcDbEntity
  8
1
100
AcDbPolyline
 90
        9
 70
   128
 43
0.0
 10
613.5037171557879
 20
164.2254661546675
 10
613.496329905126
 20
164.2289120481936
 10
613.4744512752031
 20
164.2391156183211
 10
613.4389157310461
 20
164.2556857095686
 10
613.391097904775
 20
164.2779815720049
 10
613.3328306392168
 20
164.3051538394419
 10
613.2663528338408
 20
164.3361519800154
 10
613.1942200377916
 20
164.3697876261202
 10
613.1192057296967
 20
164.4047681020228
  0
LINE
  5
93CD
330
18
100
AcDbEntity
  8
1
100
AcDbLine
 10
616.0646567955946
 20
166.9309954868284
 30
0.0
 11
617.4985955372786
 21
168.9788732455698
 31
0.0
  0
LINE
  5
93CE
330
18
100
AcDbEntity
  8
1
100
AcDbLine
 10
616.761360587213
 20
169.4950941728083
 30
0.0
 11
615.3274181202387
 21
167.4472126887766
 31
0.0
  0
LINE
  5
93CF
330
18
100
AcDbEntity
  8
1
100
AcDbLine
 10
617.4576396957373
 20
169.0075542555777
 30
0.0
 11
616.023697228763
 21
166.959672771546
 31
0.0
  0
LINE
  5
93D0
330
18
100
AcDbEntity
  8
1
100
AcDbLine
 10
617.3071379676794
 20
169.1129352675406
 30
0.0
 11
615.8731992259954
 21
167.0650537835089
 31
0.0
  0
LINE
  5
93D1
330
18
100
AcDbEntity
  8
1
100
AcDbLine
 10
615.3274181202387
 20
167.4472126887766
 30
0.0
 11
616.0646567955946
 21
166.9309954868284
 31
0.0
  0
LWPOLYLINE
  5
93D2
330
18
100
AcDbEntity
  8
1
100
AcDbPolyline
 90
        9
 70
   128
 43
0.0
 10
622.6162652388548
 20
163.7111227737394
 10
622.6059424594378
 20
163.7696508096186
 10
622.596022011373
 20
163.8259287701574
 10
622.5868764236902
 20
163.8777922616926
 10
622.5788595989679
 20
163.9232557044951
 10
622.5722807363009
 20
163.9605644868342
 10
622.5673931554293
 20
163.988284371945
 10
622.5643831208681
 20
164.0053573773829
 10
622.5633661166166
 20
164.0111204014746
  0
LWPOLYLINE
  5
93D3
330
18
100
AcDbEntity
  8
1
100
AcDbPolyline
 90
       10
 70
   128
 43
0.0
 10
621.1152302936052
 20
166.9958304391829
 10
621.1123208418821
 20
166.9996227847067
 10
621.10368189368
 20
167.0108806119887
 10
621.0895742193197
 20
167.0292649196116
 10
621.0704299524759
 20
167.0542169140307
 10
621.0468265131449
 20
167.0849729107348
 10
621.0194828823542
 20
167.1206090377298
 10
620.9892335251307
 20
167.1600337849585
 10
620.9569911375975
 20
167.2020513342348
 10
620.9237391963934
 20
167.2453876362768
  0
LINE
  5
93D4
330
18
100
AcDbEntity
  8
1
100
AcDbLine
 10
617.4985955372786
 20
168.9788732455698
 30
0.0
 11
616.761360587213
 21
169.4950941728083
 31
0.0
  0
LINE
  5
93D5
330
18
100
AcDbEntity
  8
1
100
AcDbLine
 10
615.6324784174894
 20
181.3945952580897
 30
0.0
 11
614.1985359505152
 21
179.3467156367031
 31
0.0
  0
LINE
  5
93D6
330
18
100
AcDbEntity
  8
1
100
AcDbLine
 10
614.9357709005808
 20
178.8304965721098
 30
0.0
 11
616.369713367555
 21
180.8783761934963
 31
0.0
  0
LINE
  5
93D7
330
18
100
AcDbEntity
  8
1
100
AcDbLine
 10
614.4526156500315
 20
183.118849598023
 30
0.0
 11
615.4364648178553
 21
183.118849598023
 31
0.0
  0
LINE
  5
93D8
330
18
100
AcDbEntity
  8
1
100
AcDbLine
 10
615.8649104550814
 20
182.8188501076428
 30
0.0
 11
614.5055147722696
 21
182.8188501076428
 31
0.0
  0
LINE
  5
93D9
330
18
100
AcDbEntity
  8
1
100
AcDbLine
 10
615.6734342590307
 20
181.3659161107269
 30
0.0
 11
614.2394917920565
 21
179.3180364893404
 31
0.0
  0
LINE
  5
93DA
330
18
100
AcDbEntity
  8
1
100
AcDbLine
 10
616.3287575260138
 20
180.907055340859
 30
0.0
 11
614.8948150590395
 21
178.8591738568274
 31
0.0
  0
LINE
  5
93DB
330
18
100
AcDbEntity
  8
1
100
AcDbLine
 10
614.3899935201143
 20
179.2126554773775
 30
0.0
 11
615.8239322617983
 21
181.2605350987641
 31
0.0
  0
LINE
  5
93DC
330
18
100
AcDbEntity
  8
1
100
AcDbLine
 10
614.1985359505152
 20
179.3467156367031
 30
0.0
 11
614.9357709005808
 21
178.8304965721098
 31
0.0
  0
LWPOLYLINE
  5
93DD
330
18
100
AcDbEntity
  8
1
100
AcDbPolyline
 90
       10
 70
   128
 43
0.0
 10
614.4526156500315
 20
183.118849598023
 10
614.453420312736
 20
183.114293567988
 10
614.455804498527
 20
183.1007577256886
 10
614.4597011521792
 20
183.0786574409929
 10
614.464991064403
 20
183.0486632661549
 10
614.4715103224253
 20
183.0116860346523
 10
614.4790652111506
 20
182.9688507841555
 10
614.48742103729
 20
182.9214557783333
 10
614.4963282063936
 20
182.8709445671765
 10
614.5055147722696
 20
182.8188501076428
  0
LINE
  5
93DE
330
18
100
AcDbEntity
  8
1
100
AcDbLine
 10
616.369713367555
 20
180.8783761934963
 30
0.0
 11
615.6324784174894
 21
181.3945952580897
 31
0.0
  0
LINE
  5
93DF
330
18
100
AcDbEntity
  8
1
100
AcDbLine
 10
615.5236366108393
 20
183.118849598023
 30
0.0
 11
617.2670836463903
 21
183.118849598023
 31
0.0
  0
LINE
  5
93E0
330
18
100
AcDbEntity
  8
1
100
AcDbLine
 10
617.1724948004221
 20
182.8188501076428
 30
0.0
 11
615.9520822480654
 21
182.8188501076428
 31
0.0
  0
LWPOLYLINE
  5
93E1
330
18
100
AcDbEntity
  8
1
100
AcDbPolyline
 90
       10
 70
   128
 43
0.0
 10
615.4364648178553
 20
183.118849598023
 10
615.4429729000067
 20
183.114293567988
 10
615.4623034313654
 20
183.1007577256886
 10
615.4938678160643
 20
183.0786574409929
 10
615.536701203916
 20
183.0486632661549
 10
615.589510919187
 20
183.0116860346523
 10
615.6506876364683
 20
182.9688507841555
 10
615.7183724359011
 20
182.9214557783333
 10
615.7905126825308
 20
182.8709445671765
 10
615.8649104550814
 20
182.8188501076428
  0
LINE
  5
93E2
330
18
100
AcDbEntity
  8
1
100
AcDbLine
 10
615.5236366108393
 20
183.118849598023
 30
0.0
 11
615.4364648178553
 21
183.118849598023
 31
0.0
  0
LWPOLYLINE
  5
93E3
330
18
100
AcDbEntity
  8
1
100
AcDbPolyline
 90
        9
 70
   128
 43
0.0
 10
615.9520822480654
 20
182.8188501076428
 10
615.8684979096388
 20
182.8773781435219
 10
615.7881247714495
 20
182.9336561040608
 10
615.7140510991549
 20
182.9855214582411
 10
615.6491267398333
 20
183.0309830383984
 10
615.5958439126944
 20
183.0682918207375
 10
615.5562515274023
 20
183.0960135684935
 10
615.5318695023989
 20
183.1130865739313
 10
615.5236366108393
 20
183.118849598023
  0
LWPOLYLINE
  5
93E4
330
18
100
AcDbEntity
  8
1
100
AcDbPolyline
 90
       10
 70
   128
 43
0.0
 10
617.2670836463903
 20
183.118849598023
 10
617.2656494096254
 20
183.114293567988
 10
617.2613802269434
 20
183.1007577256886
 10
617.254410208795
 20
183.0786574409929
 10
617.2449554220175
 20
183.0486632661549
 10
617.2332952633833
 20
183.0116860346523
 10
617.2197910860514
 20
182.9688507841555
 10
617.204845221374
 20
182.9214557783333
 10
617.188919605348
 20
182.8709445671765
 10
617.1724948004221
 20
182.8188501076428
  0
LINE
  5
93E5
330
18
100
AcDbEntity
  8
1
100
AcDbLine
 10
607.5217279509043
 20
200.5023232904849
 30
0.0
 11
606.08778548393
 21
198.4544432034371
 31
0.0
  0
LINE
  5
93E6
330
18
100
AcDbEntity
  8
1
100
AcDbLine
 10
606.8250222966408
 20
197.9382243716744
 30
0.0
 11
608.258964763615
 21
199.9861044587222
 31
0.0
  0
LINE
  5
93E7
330
18
100
AcDbEntity
  8
1
100
AcDbLine
 10
605.1563343867992
 20
202.2265787945715
 30
0.0
 11
607.3257162139153
 21
202.2265787945715
 31
0.0
  0
LINE
  5
93E8
330
18
100
AcDbEntity
  8
1
100
AcDbLine
 10
607.7541599884962
 20
201.9265787803223
 30
0.0
 11
604.856334896419
 21
201.9265787803223
 31
0.0
  0
LINE
  5
93E9
330
18
100
AcDbEntity
  8
1
100
AcDbLine
 10
608.2180070594286
 20
200.0147833732543
 30
0.0
 11
606.7840645924543
 21
197.9669030533758
 31
0.0
  0
LINE
  5
93EA
330
18
100
AcDbEntity
  8
1
100
AcDbLine
 10
607.5626856550907
 20
200.4736443759528
 30
0.0
 11
606.1287431881165
 21
198.425764288905
 31
0.0
  0
LINE
  5
93EB
330
18
100
AcDbEntity
  8
1
100
AcDbLine
 10
606.2792430535292
 20
198.3203832769421
 30
0.0
 11
607.7131836578583
 21
200.3682633639899
 31
0.0
  0
CIRCLE
  5
93EC
330
18
100
AcDbEntity
  8
1
100
AcDbCircle
 10
597.6663351103679
 20
201.5265787945715
 30
0.0
 40
1.030000000000007
  0
CIRCLE
  5
93ED
330
18
100
AcDbEntity
  8
1
100
AcDbCircle
 10
597.6663351103679
 20
201.5265787945715
 30
0.0
 40
0.9900000000000091
  0
LINE
  5
93EE
330
18
100
AcDbEntity
  8
1
100
AcDbLine
 10
597.6663351103679
 20
201.2765787945715
 30
0.0
 11
597.6663351103679
 21
201.7765787945715
 31
0.0
  0
LINE
  5
93EF
330
18
100
AcDbEntity
  8
1
100
AcDbLine
 10
597.4163351103679
 20
201.5265787945715
 30
0.0
 11
597.9163351103679
 21
201.5265787945715
 31
0.0
  0
CIRCLE
  5
93F0
330
18
100
AcDbEntity
  8
1
100
AcDbCircle
 10
597.6663351103679
 20
201.5265787945715
 30
0.0
 40
0.6900000000000092
  0
LINE
  5
93F1
330
18
100
AcDbEntity
  8
1
100
AcDbLine
 10
606.08778548393
 20
198.4544432034371
 30
0.0
 11
606.8250222966408
 21
197.9382243716744
 31
0.0
  0
LWPOLYLINE
  5
93F2
330
18
100
AcDbEntity
  8
1
100
AcDbPolyline
 90
        9
 70
   128
 43
0.0
 10
604.856334896419
 20
201.9265787803223
 10
604.9148629322981
 20
201.9851058848788
 10
604.971140892837
 20
202.0413838308658
 10
605.0230062470173
 20
202.0932498689861
 10
605.0684678271746
 20
202.138710830687
 10
605.1057766095137
 20
202.1760196785097
 10
605.1334983572697
 20
202.2037426540836
 10
605.1505713627075
 20
202.2208143784981
 10
605.1563343867992
 20
202.2265787945715
  0
LINE
  5
93F3
330
18
100
AcDbEntity
  8
1
100
AcDbLine
 10
607.7541599884962
 20
201.9265787803223
 30
0.0
 11
618.4658187345003
 21
194.4261943699447
 31
0.0
  0
LINE
  5
93F4
330
18
100
AcDbEntity
  8
1
100
AcDbLine
 10
609.1563350424503
 20
202.2265787945715
 30
0.0
 11
618.4946673825716
 21
195.6878072360185
 31
0.0
  0
LINE
  5
93F5
330
18
100
AcDbEntity
  8
1
100
AcDbLine
 10
607.8413336441254
 20
201.9265787803223
 30
0.0
 11
618.4944997445082
 21
194.4671520741311
 31
0.0
  0
LINE
  5
93F6
330
18
100
AcDbEntity
  8
1
100
AcDbLine
 10
618.3225962236857
 20
195.4420619422225
 30
0.0
 11
609.0617461964821
 21
201.9265787803223
 31
0.0
  0
LINE
  5
93F7
330
18
100
AcDbEntity
  8
1
100
AcDbLine
 10
612.8129887298082
 20
186.3531149701801
 30
0.0
 11
618.4658187345003
 21
194.4261943699447
 31
0.0
  0
LINE
  5
93F8
330
18
100
AcDbEntity
  8
1
100
AcDbLine
 10
618.711564959619
 20
194.2541213484136
 30
0.0
 11
613.0044798270201
 21
186.1035577730862
 31
0.0
  0
LINE
  5
93F9
330
18
100
AcDbEntity
  8
1
100
AcDbLine
 10
608.6506101206278
 20
188.6028224380342
 30
0.0
 11
607.2166695162987
 21
186.5549418853251
 31
0.0
  0
LINE
  5
93FA
330
18
100
AcDbEntity
  8
1
100
AcDbLine
 10
609.3878469333386
 20
188.0866033734409
 30
0.0
 11
608.6506101206278
 21
188.6028224380342
 31
0.0
  0
LINE
  5
93FB
330
18
100
AcDbEntity
  8
1
100
AcDbLine
 10
609.1963893637394
 20
188.2206635327665
 30
0.0
 11
607.7624487594103
 21
186.1727829800573
 31
0.0
  0
LINE
  5
93FC
330
18
100
AcDbEntity
  8
1
100
AcDbLine
 10
607.9539063290094
 20
186.0387228207317
 30
0.0
 11
609.3878469333386
 21
188.0866033734409
 31
0.0
  0
LINE
  5
93FD
330
18
100
AcDbEntity
  8
1
100
AcDbLine
 10
609.3468892291521
 20
188.1152825208036
 30
0.0
 11
607.912948624823
 21
186.0674019680945
 31
0.0
  0
LINE
  5
93FE
330
18
100
AcDbEntity
  8
1
100
AcDbLine
 10
607.2166695162987
 20
186.5549418853251
 30
0.0
 11
607.9539063290094
 21
186.0387228207317
 31
0.0
  0
LWPOLYLINE
  5
93FF
330
18
100
AcDbEntity
  8
1
100
AcDbPolyline
 90
       10
 70
   128
 43
0.0
 10
613.0044798270201
 20
186.1035577730862
 10
613.001570375297
 20
186.10735011861
 10
612.9929314270948
 20
186.118607945892
 10
612.9788256153797
 20
186.1369922535149
 10
612.9596794858908
 20
186.161944247934
 10
612.9360760465597
 20
186.1927039699284
 10
612.9087342784142
 20
186.2283363716332
 10
612.8784830585455
 20
186.2677611188618
 10
612.8462406710123
 20
186.3097805307833
 10
612.8129887298082
 20
186.3531149701801
  0
LWPOLYLINE
  5
9400
330
18
100
AcDbEntity
  8
1
100
AcDbPolyline
 90
        9
 70
   128
 43
0.0
 10
618.4658187345003
 20
194.4261943699447
 10
618.5137632206415
 20
194.3926248477427
 10
618.559863688085
 20
194.3603452073065
 10
618.6023468986486
 20
194.3305959703056
 10
618.6395886257624
 20
194.3045198695389
 10
618.670150907371
 20
194.283120870742
 10
618.6928602770304
 20
194.267219469103
 10
618.7068450168108
 20
194.2574275435535
 10
618.711564959619
 20
194.2541213484136
  0
LINE
  5
9401
330
18
100
AcDbEntity
  8
1
100
AcDbLine
 10
618.711564959619
 20
194.2541213484136
 30
0.0
 11
618.7402422443365
 21
194.2950790526
 31
0.0
  0
LWPOLYLINE
  5
9402
330
18
100
AcDbEntity
  8
1
100
AcDbPolyline
 90
        9
 70
   128
 43
0.0
 10
618.7402422443365
 20
194.2950790526
 10
618.7355223015284
 20
194.2983852477399
 10
618.7215375617479
 20
194.3081771732894
 10
618.6988281920885
 20
194.3240785749284
 10
618.6682659104799
 20
194.3454775737253
 10
618.6310279086565
 20
194.371553674492
 10
618.5885409728025
 20
194.4013019801704
 10
618.5424405053591
 20
194.4335820862678
 10
618.4944997445082
 20
194.4671520741311
  0
ARC
  5
9403
330
18
100
AcDbEntity
  8
1
100
AcDbCircle
 10
617.9210919789114
 20
194.8686553758806
 30
0.0
 40
1.0
100
AcDbArc
 50
325.0000000000013
 51
55.00000000000264
  0
LWPOLYLINE
  5
9404
330
18
100
AcDbEntity
  8
1
100
AcDbPolyline
 90
        9
 70
   128
 43
0.0
 10
618.4946673825716
 20
195.6878072360185
 10
618.4913630500769
 20
195.6830854305652
 10
618.4815692618822
 20
195.6691011564461
 10
618.4656697228884
 20
195.6463917867867
 10
618.4442679301237
 20
195.6158299708394
 10
618.4181946233248
 20
195.5785905720321
 10
618.3884444550013
 20
195.5361045675007
 10
618.3561648145651
 20
195.4900045657185
 10
618.3225962236857
 20
195.4420619422225
  0
ARC
  5
9405
330
18
100
AcDbEntity
  8
1
100
AcDbCircle
 10
617.9210919789114
 20
194.8686553758806
 30
0.0
 40
0.7000000000000212
100
AcDbArc
 50
324.9999999999937
 51
54.99999999999315
  0
LINE
  5
9406
330
18
100
AcDbEntity
  8
1
100
AcDbLine
 10
607.4128880068993
 20
202.2265787945715
 30
0.0
 11
609.1563350424503
 21
202.2265787945715
 31
0.0
  0
LINE
  5
9407
330
18
100
AcDbEntity
  8
1
100
AcDbLine
 10
609.0617461964821
 20
201.9265787803223
 30
0.0
 11
607.8413336441254
 21
201.9265787803223
 31
0.0
  0
LINE
  5
9408
330
18
100
AcDbEntity
  8
1
100
AcDbLine
 10
608.258964763615
 20
199.9861044587222
 30
0.0
 11
607.5217279509043
 21
200.5023232904849
 31
0.0
  0
LWPOLYLINE
  5
9409
330
18
100
AcDbEntity
  8
1
100
AcDbPolyline
 90
       10
 70
   128
 43
0.0
 10
607.3257162139153
 20
202.2265787945715
 10
607.3322242960667
 20
202.2220211206248
 10
607.3515548274254
 20
202.208486580267
 10
607.3831173494791
 20
202.1863864156247
 10
607.425952599976
 20
202.1563921280093
 10
607.478762315247
 20
202.1194150784057
 10
607.5399390325283
 20
202.0765787874469
 10
607.6076238319611
 20
202.0291848439145
 10
607.6797622159456
 20
201.978673239856
 10
607.7541599884962
 20
201.9265787803223
  0
LINE
  5
940A
330
18
100
AcDbEntity
  8
1
100
AcDbLine
 10
607.4128880068993
 20
202.2265787945715
 30
0.0
 11
607.3257162139153
 21
202.2265787945715
 31
0.0
  0
LWPOLYLINE
  5
940B
330
18
100
AcDbEntity
  8
1
100
AcDbPolyline
 90
        9
 70
   128
 43
0.0
 10
607.8413336441254
 20
201.9265787803223
 10
607.7577474430536
 20
201.9851058848788
 10
607.6773743048643
 20
202.0413838308658
 10
607.6033024952148
 20
202.0932498689861
 10
607.5383762732481
 20
202.138710830687
 10
607.4850934461092
 20
202.1760196785097
 10
607.4455010608172
 20
202.2037426540836
 10
607.4211208984589
 20
202.2208143784981
 10
607.4128880068993
 20
202.2265787945715
  0
LWPOLYLINE
  5
940C
330
18
100
AcDbEntity
  8
1
100
AcDbPolyline
 90
       10
 70
   128
 43
0.0
 10
609.1563350424503
 20
202.2265787945715
 10
609.1548989430403
 20
202.2220211206248
 10
609.1506297603582
 20
202.208486580267
 10
609.143661604855
 20
202.1863864156247
 10
609.1342049554323
 20
202.1563921280093
 10
609.1225466594433
 20
202.1194150784057
 10
609.1090406194662
 20
202.0765787874469
 10
609.0940966174339
 20
202.0291848439145
 10
609.078171001408
 20
201.978673239856
 10
609.0617461964821
 20
201.9265787803223
  0
ARC
  5
940D
330
18
100
AcDbEntity
  8
1
100
AcDbCircle
 10
563.456335110368
 20
219.2265787945715
 30
0.0
 40
1.5
100
AcDbArc
 50
0.0
 51
180.0
  0
LINE
  5
940E
330
18
100
AcDbEntity
  8
1
100
AcDbLine
 10
566.2063344285225
 20
210.9765788318244
 30
0.0
 11
567.1063347623085
 21
210.9765788318244
 31
0.0
  0
LINE
  5
940F
330
18
100
AcDbEntity
  8
1
100
AcDbLine
 10
567.1063347623085
 20
213.4765792416063
 30
0.0
 11
566.2063344285225
 21
213.4765792416063
 31
0.0
  0
LINE
  5
9410
330
18
100
AcDbEntity
  8
1
100
AcDbLine
 10
568.7563347533678
 20
218.6265788750378
 30
0.0
 11
559.6563353106712
 21
218.6265788750378
 31
0.0
  0
LINE
  5
9411
330
18
100
AcDbEntity
  8
1
100
AcDbLine
 10
559.6563353106712
 20
218.9265783654181
 30
0.0
 11
569.0563351750707
 21
218.9265783654181
 31
0.0
  0
LINE
  5
9412
330
18
100
AcDbEntity
  8
1
100
AcDbLine
 10
560.7063344583248
 20
210.9765788318244
 30
0.0
 11
560.7063344583248
 21
213.4765792416063
 31
0.0
  0
LINE
  5
9413
330
18
100
AcDbEntity
  8
1
100
AcDbLine
 10
559.806335987184
 20
213.4765792416063
 30
0.0
 11
559.806335987184
 21
210.9765788318244
 31
0.0
  0
LINE
  5
9414
330
18
100
AcDbEntity
  8
1
100
AcDbLine
 10
560.656335474584
 20
213.4765792416063
 30
0.0
 11
560.656335474584
 21
210.9765788318244
 31
0.0
  0
LINE
  5
9415
330
18
100
AcDbEntity
  8
1
100
AcDbLine
 10
560.4726097449993
 20
213.4765792416063
 30
0.0
 11
560.4726097449993
 21
210.9765788318244
 31
0.0
  0
LINE
  5
9416
330
18
100
AcDbEntity
  8
1
100
AcDbLine
 10
559.806335987184
 20
210.9765788318244
 30
0.0
 11
560.7063344583248
 21
210.9765788318244
 31
0.0
  0
LINE
  5
9417
330
18
100
AcDbEntity
  8
1
100
AcDbLine
 10
560.7063344583248
 20
213.4765792416063
 30
0.0
 11
559.806335987184
 21
213.4765792416063
 31
0.0
  0
LINE
  5
9418
330
18
100
AcDbEntity
  8
1
100
AcDbLine
 10
566.2063344285225
 20
213.4765792416063
 30
0.0
 11
566.2063344285225
 21
210.9765788318244
 31
0.0
  0
LINE
  5
9419
330
18
100
AcDbEntity
  8
1
100
AcDbLine
 10
566.2563352749085
 20
210.9765788318244
 30
0.0
 11
566.2563352749085
 21
213.4765792416063
 31
0.0
  0
LINE
  5
941A
330
18
100
AcDbEntity
  8
1
100
AcDbLine
 10
564.9563356206154
 20
219.2265797184435
 30
0.0
 11
561.9563351288771
 21
219.2265797184435
 31
0.0
  0
ARC
  5
941B
330
18
100
AcDbEntity
  8
1
100
AcDbCircle
 10
559.6563351103679
 20
218.6265787945715
 30
0.0
 40
0.3000000000000227
100
AcDbArc
 50
90.0
 51
180.0
  0
LINE
  5
941C
330
18
100
AcDbEntity
  8
1
100
AcDbLine
 10
559.356335820291
 20
218.6265788750378
 30
0.0
 11
559.6563353106712
 21
218.6265788750378
 31
0.0
  0
LINE
  5
941D
330
18
100
AcDbEntity
  8
1
100
AcDbLine
 10
559.6563353106712
 20
218.9265783654181
 30
0.0
 11
559.6563353106712
 21
218.6265788750378
 31
0.0
  0
LINE
  5
941E
330
18
100
AcDbEntity
  8
1
100
AcDbLine
 10
561.9563351288771
 20
219.2265797184435
 30
0.0
 11
561.9563351288771
 21
218.9265783654181
 31
0.0
  0
LINE
  5
941F
330
18
100
AcDbEntity
  8
1
100
AcDbLine
 10
564.9563356206154
 20
218.9265783654181
 30
0.0
 11
564.9563356206154
 21
219.2265797184435
 31
0.0
  0
LINE
  5
9420
330
18
100
AcDbEntity
  8
1
100
AcDbLine
 10
567.1063347623085
 20
210.9765788318244
 30
0.0
 11
567.1063347623085
 21
213.4765792416063
 31
0.0
  0
LINE
  5
9421
330
18
100
AcDbEntity
  8
1
100
AcDbLine
 10
566.4400610044931
 20
210.9765788318244
 30
0.0
 11
566.4400610044931
 21
213.4765792416063
 31
0.0
  0
LWPOLYLINE
  5
9422
330
18
100
AcDbEntity
  8
1
100
AcDbPolyline
 90
        9
 70
   128
 43
0.0
 10
569.0563351750707
 20
218.9265783654181
 10
569.0505702883338
 20
218.9208134786812
 10
569.0334991455411
 20
218.9037423358885
 10
569.00577553514
 20
218.8760205881325
 10
568.9684667528009
 20
218.8387099431482
 10
568.9230061039661
 20
218.7932502256361
 10
568.8711398184632
 20
218.7413830088106
 10
568.8148618579244
 20
218.6851050482718
 10
568.7563347533678
 20
218.6265788750378
  0
LINE
  5
9423
330
18
100
AcDbEntity
  8
1
100
AcDbLine
 10
593.6563352957701
 20
220.5265793727366
 30
0.0
 11
593.6563352957701
 21
219.1265780256716
 31
0.0
  0
LINE
  5
9424
330
18
100
AcDbEntity
  8
1
100
AcDbLine
 10
604.9563347265457
 20
218.0130813048807
 30
0.0
 11
604.9563347265457
 21
220.9707699494091
 31
0.0
  0
LINE
  5
9425
330
18
100
AcDbEntity
  8
1
100
AcDbLine
 10
603.2763349727129
 20
219.4874170945612
 30
0.0
 11
603.4461709574198
 21
220.3537221775976
 31
0.0
  0
ARC
  5
9426
330
18
100
AcDbEntity
  8
1
100
AcDbCircle
 10
597.5063351103679
 20
203.3265787945715
 30
0.0
 40
17.16
100
AcDbArc
 50
70.35160953515393
 51
92.50544895426883
  0
ARC
  5
9427
330
18
100
AcDbEntity
  8
1
100
AcDbCircle
 10
597.2463351103679
 20
201.5265787945715
 30
0.0
 40
17.40000000000002
100
AcDbArc
 50
66.24137687834937
 51
90.0
  0
ARC
  5
9428
330
18
100
AcDbEntity
  8
1
100
AcDbCircle
 10
597.2463351103679
 20
201.5265787945715
 30
0.0
 40
17.1
100
AcDbArc
 50
63.57479046142231
 51
90.0
  0
ARC
  5
9429
330
18
100
AcDbEntity
  8
1
100
AcDbCircle
 10
597.1528156403679
 20
201.9665787945715
 30
0.0
 40
17.16000000000001
100
AcDbArc
 50
81.38991133311227
 51
90.0
  0
LINE
  5
942A
330
18
100
AcDbEntity
  8
1
100
AcDbLine
 10
597.9063345954155
 20
210.9765788318244
 30
0.0
 11
597.9063345954155
 21
213.4765792416063
 31
0.0
  0
LINE
  5
942B
330
18
100
AcDbEntity
  8
1
100
AcDbLine
 10
597.0063351929521
 20
213.4765792416063
 30
0.0
 11
597.0063351929521
 21
210.9765788318244
 31
0.0
  0
LINE
  5
942C
330
18
100
AcDbEntity
  8
1
100
AcDbLine
 10
597.0563351080154
 20
213.4765792416063
 30
0.0
 11
597.0563351080154
 21
210.9765788318244
 31
0.0
  0
LINE
  5
942D
330
18
100
AcDbEntity
  8
1
100
AcDbLine
 10
597.2400617689227
 20
210.9765788318244
 30
0.0
 11
597.2400617689227
 21
213.4765792416063
 31
0.0
  0
LINE
  5
942E
330
18
100
AcDbEntity
  8
1
100
AcDbLine
 10
597.0063351929521
 20
210.9765788318244
 30
0.0
 11
597.9063345954155
 21
210.9765788318244
 31
0.0
  0
LINE
  5
942F
330
18
100
AcDbEntity
  8
1
100
AcDbLine
 10
597.9063345954155
 20
213.4765792416063
 30
0.0
 11
597.0063351929521
 21
213.4765792416063
 31
0.0
  0
LINE
  5
9430
330
18
100
AcDbEntity
  8
1
100
AcDbLine
 10
594.5563346982335
 20
218.9265783654181
 30
0.0
 11
597.2463351577853
 21
218.9265783654181
 31
0.0
  0
LWPOLYLINE
  5
9431
330
18
100
AcDbEntity
  8
1
100
AcDbPolyline
 90
        9
 70
   128
 43
0.0
 10
594.5563346982335
 20
218.9265783654181
 10
594.5620995849704
 20
218.9208134786812
 10
594.5791716590857
 20
218.9037423358885
 10
594.6068943381642
 20
218.8760205881325
 10
594.6442031205033
 20
218.8387099431482
 10
594.689663769338
 20
218.7932502256361
 10
594.741530054841
 20
218.7413830088106
 10
594.7978080153798
 20
218.6851050482718
 10
594.8563351199364
 20
218.6265788750378
  0
LINE
  5
9432
330
18
100
AcDbEntity
  8
1
100
AcDbLine
 10
593.6563352957701
 20
219.1265780256716
 30
0.0
 11
597.1528154701327
 21
219.1265780256716
 31
0.0
  0
LINE
  5
9433
330
18
100
AcDbEntity
  8
1
100
AcDbLine
 10
597.2463351577853
 20
218.6265788750378
 30
0.0
 11
594.8563351199364
 21
218.6265788750378
 31
0.0
  0
LINE
  5
9434
330
18
100
AcDbEntity
  8
1
100
AcDbLine
 10
596.2663351461624
 20
219.1265780256716
 30
0.0
 11
596.2663351461624
 21
218.9265783654181
 31
0.0
  0
LINE
  5
9435
330
18
100
AcDbEntity
  8
1
100
AcDbLine
 10
597.2463351577853
 20
218.9265783654181
 30
0.0
 11
597.2463351577853
 21
218.6265788750378
 31
0.0
  0
LINE
  5
9436
330
18
100
AcDbEntity
  8
1
100
AcDbLine
 10
603.9063355788921
 20
213.4765792416063
 30
0.0
 11
603.9063355788921
 21
210.9765788318244
 31
0.0
  0
LINE
  5
9437
330
18
100
AcDbEntity
  8
1
100
AcDbLine
 10
604.8063359126782
 20
210.9765788318244
 30
0.0
 11
604.8063359126782
 21
213.4765792416063
 31
0.0
  0
LINE
  5
9438
330
18
100
AcDbEntity
  8
1
100
AcDbLine
 10
603.956334562633
 20
210.9765788318244
 30
0.0
 11
603.956334562633
 21
213.4765792416063
 31
0.0
  0
LINE
  5
9439
330
18
100
AcDbEntity
  8
1
100
AcDbLine
 10
604.1400621548628
 20
210.9765788318244
 30
0.0
 11
604.1400621548628
 21
213.4765792416063
 31
0.0
  0
LINE
  5
943A
330
18
100
AcDbEntity
  8
1
100
AcDbLine
 10
603.9063355788921
 20
210.9765788318244
 30
0.0
 11
604.8063359126782
 21
210.9765788318244
 31
0.0
  0
LINE
  5
943B
330
18
100
AcDbEntity
  8
1
100
AcDbLine
 10
604.8063359126782
 20
213.4765792416063
 30
0.0
 11
603.9063355788921
 21
213.4765792416063
 31
0.0
  0
ARC
  5
943C
330
18
100
AcDbEntity
  8
1
100
AcDbCircle
 10
597.1363351103678
 20
202.3065787945715
 30
0.0
 40
17.16000000000001
100
AcDbArc
 50
67.43926161457993
 51
80.59506117008708
  0
LINE
  5
943D
330
18
100
AcDbEntity
  8
1
100
AcDbLine
 10
599.7511784449553
 20
218.7453411297527
 30
0.0
 11
599.7218287453388
 21
218.9331870304075
 31
0.0
  0
LINE
  5
943E
330
18
100
AcDbEntity
  8
1
100
AcDbLine
 10
599.7218287453388
 20
218.9331870304075
 30
0.0
 11
599.7101834878658
 21
219.0077300892798
 31
0.0
  0
ARC
  5
943F
330
18
100
AcDbEntity
  8
1
100
AcDbCircle
 10
599.9077857214816
 20
219.0386038217509
 30
0.0
 40
0.2000000000000135
100
AcDbArc
 50
80.59506117009825
 51
188.8800000000004
  0
LWPOLYLINE
  5
9440
330
18
100
AcDbEntity
  8
1
100
AcDbPolyline
 90
        7
 70
   128
 43
0.0
 10
604.856334896419
 20
216.8399026395408
 10
604.8594473764633
 20
216.8418314085928
 10
604.9868243649935
 20
216.9205579684702
 10
605.0684678271746
 20
216.970806546661
 10
605.1233506664967
 20
217.00449434683
 10
605.1531585768198
 20
217.0227585138408
 10
605.1563343867992
 20
217.0247040466992
  0
ARC
  5
9441
330
18
100
AcDbEntity
  8
1
100
AcDbCircle
 10
597.2463351103679
 20
201.5265787945715
 30
0.0
 40
17.40000000000001
100
AcDbArc
 50
62.96094739224275
 51
65.25351555194126
  0
LINE
  5
9442
330
18
100
AcDbEntity
  8
1
100
AcDbLine
 10
604.9563347265457
 20
218.0130813048807
 30
0.0
 11
604.6434196547007
 21
217.9915938304392
 31
0.0
  0
LWPOLYLINE
  5
9443
330
18
100
AcDbEntity
  8
1
100
AcDbPolyline
 90
       18
 70
   128
 43
0.0
 10
604.2565240428185
 20
217.4519436211911
 10
604.2566767797207
 20
217.4518747033206
 10
604.2572392985558
 20
217.4516213835803
 10
604.2587629422878
 20
217.4509349988428
 10
604.2650624081825
 20
217.448097258958
 10
604.2974593952631
 20
217.4335015715686
 10
604.4288820490574
 20
217.3742927388874
 10
604.462527008388
 20
217.3591354639856
 10
604.485169322822
 20
217.3489346878258
 10
604.5004020348524
 20
217.3420717717734
 10
604.510644720528
 20
217.3374570684162
 10
604.5175290569996
 20
217.3343557642428
 10
604.5221484169697
 20
217.3322742582885
 10
604.5252404079174
 20
217.3308819310394
 10
604.5281107440924
 20
217.3295883239833
 10
604.5291501000856
 20
217.3291198687283
 10
604.5298988834356
 20
217.3287827299563
 10
604.5300441697573
 20
217.3287166060535
  0
LINE
  5
9444
330
18
100
AcDbEntity
  8
1
100
AcDbLine
 10
604.5300441697573
 20
217.3287166060535
 30
0.0
 11
604.559148000214
 21
217.6452871190039
 31
0.0
  0
ARC
  5
9445
330
18
100
AcDbEntity
  8
1
100
AcDbCircle
 10
597.2463351103679
 20
201.5265787945715
 30
0.0
 40
17.70000000000001
100
AcDbArc
 50
65.59692735039606
 51
65.89796507989479
  0
LINE
  5
9446
330
18
100
AcDbEntity
  8
1
100
AcDbLine
 10
604.4743585303759
 20
217.6834871770469
 30
0.0
 11
604.2565240428185
 21
217.4519436211911
 31
0.0
  0
ARC
  5
9447
330
18
100
AcDbEntity
  8
1
100
AcDbCircle
 10
604.2063351103678
 20
218.2130806472404
 30
0.0
 40
0.4900000000000087
100
AcDbArc
 50
186.9980465964653
 51
333.1270301155621
  0
LINE
  5
9448
330
18
100
AcDbEntity
  8
1
100
AcDbLine
 10
595.3663348123764
 20
223.5265780018297
 30
0.0
 11
594.0563355475997
 21
223.5265780018297
 31
0.0
  0
LINE
  5
9449
330
18
100
AcDbEntity
  8
1
100
AcDbLine
 10
593.3563348740672
 20
222.5065786169497
 30
0.0
 11
593.3563348740672
 21
222.2065791265694
 31
0.0
  0
LINE
  5
944A
330
18
100
AcDbEntity
  8
1
100
AcDbLine
 10
593.6563352957701
 20
221.0265785233704
 30
0.0
 11
593.3563348740672
 21
220.9265786932436
 31
0.0
  0
LINE
  5
944B
330
18
100
AcDbEntity
  8
1
100
AcDbLine
 10
593.6563352957701
 20
222.1065792964426
 30
0.0
 11
593.6563352957701
 21
221.8165784852234
 31
0.0
  0
LINE
  5
944C
330
18
100
AcDbEntity
  8
1
100
AcDbLine
 10
593.3563348740672
 20
222.2065791265694
 30
0.0
 11
593.6563352957701
 21
222.1065792964426
 31
0.0
  0
LINE
  5
944D
330
18
100
AcDbEntity
  8
1
100
AcDbLine
 10
593.6563352957701
 20
221.8165784852234
 30
0.0
 11
593.3563348740672
 21
221.7165786550966
 31
0.0
  0
LINE
  5
944E
330
18
100
AcDbEntity
  8
1
100
AcDbLine
 10
593.3563348740672
 20
221.7165786550966
 30
0.0
 11
593.3563348740672
 21
221.4165791647164
 31
0.0
  0
LINE
  5
944F
330
18
100
AcDbEntity
  8
1
100
AcDbLine
 10
593.3563348740672
 20
221.4165791647164
 30
0.0
 11
593.6563352957701
 21
221.3165793345896
 31
0.0
  0
LINE
  5
9450
330
18
100
AcDbEntity
  8
1
100
AcDbLine
 10
593.6563352957701
 20
221.3165793345896
 30
0.0
 11
593.6563352957701
 21
221.0265785233704
 31
0.0
  0
LINE
  5
9451
330
18
100
AcDbEntity
  8
1
100
AcDbLine
 10
593.3563348740672
 20
220.9265786932436
 30
0.0
 11
593.3563348740672
 21
220.6265792028633
 31
0.0
  0
LINE
  5
9452
330
18
100
AcDbEntity
  8
1
100
AcDbLine
 10
593.3563348740672
 20
220.6265792028633
 30
0.0
 11
593.6563352957701
 21
220.5265793727366
 31
0.0
  0
ARC
  5
9453
330
18
100
AcDbEntity
  8
1
100
AcDbCircle
 10
594.0563351103679
 20
223.1265787945715
 30
0.0
 40
0.4
100
AcDbArc
 50
90.0
 51
180.0
  0
LINE
  5
9454
330
18
100
AcDbEntity
  8
1
100
AcDbLine
 10
593.6563352957701
 20
223.1265786813227
 30
0.0
 11
593.6563352957701
 21
222.6065784470764
 31
0.0
  0
LINE
  5
9455
330
18
100
AcDbEntity
  8
1
100
AcDbLine
 10
593.6563352957701
 20
222.6065784470764
 30
0.0
 11
593.3563348740672
 21
222.5065786169497
 31
0.0
  0
LINE
  5
9456
330
18
100
AcDbEntity
  8
1
100
AcDbLine
 10
595.706335538659
 20
222.5265797005621
 30
0.0
 11
596.9080052242016
 21
222.3468474821774
 31
0.0
  0
LINE
  5
9457
330
18
100
AcDbEntity
  8
1
100
AcDbLine
 10
596.8456177875732
 20
221.3152941094366
 30
0.0
 11
596.756195919249
 21
220.4701747523276
 31
0.0
  0
LINE
  5
9458
330
18
100
AcDbEntity
  8
1
100
AcDbLine
 10
597.2253962323402
 20
221.5544149057594
 30
0.0
 11
596.8456177875732
 21
221.3152941094366
 31
0.0
  0
LINE
  5
9459
330
18
100
AcDbEntity
  8
1
100
AcDbLine
 10
596.9080052242016
 20
222.3468474821774
 30
0.0
 11
597.2253962323402
 21
221.5544149057594
 31
0.0
  0
LINE
  5
945A
330
18
100
AcDbEntity
  8
1
100
AcDbLine
 10
595.8663348943328
 20
223.5265780018297
 30
0.0
 11
595.706335538659
 21
222.5265797005621
 31
0.0
  0
LINE
  5
945B
330
18
100
AcDbEntity
  8
1
100
AcDbLine
 10
595.8663348943328
 20
223.5265780018297
 30
0.0
 11
595.766335064206
 21
223.8265793548552
 31
0.0
  0
LINE
  5
945C
102
{ACAD_REACTORS
102
}
330
18
100
AcDbEntity
  8
1
100
AcDbLine
 10
595.766335064206
 20
223.8265793548552
 30
0.0
 11
595.4663355738257
 21
223.8265793548552
 31
0.0
  0
LINE
  5
945D
330
18
100
AcDbEntity
  8
1
100
AcDbLine
 10
595.4663355738257
 20
223.8265793548552
 30
0.0
 11
595.3663348123764
 21
223.5265780018297
 31
0.0
  0
ARC
  5
945E
330
18
100
AcDbEntity
  8
1
100
AcDbCircle
 10
604.7563351103679
 20
220.9707694538175
 30
0.0
 40
0.2000000000000143
100
AcDbArc
 50
0.0
 51
81.49347849845054
  0
LINE
  5
945F
330
18
100
AcDbEntity
  8
1
100
AcDbLine
 10
603.7066562936043
 20
221.3299922423092
 30
0.0
 11
604.7859194591974
 21
221.1685698257414
 31
0.0
  0
LINE
  5
9460
330
18
100
AcDbEntity
  8
1
100
AcDbLine
 10
603.2053439781403
 20
220.6547554360357
 30
0.0
 11
603.7066562936043
 21
221.3299922423092
 31
0.0
  0
LINE
  5
9461
330
18
100
AcDbEntity
  8
1
100
AcDbLine
 10
603.4461709574198
 20
220.3537221775976
 30
0.0
 11
603.2053439781403
 21
220.6547554360357
 31
0.0
  0
LINE
  5
9462
330
18
100
AcDbEntity
  8
1
100
AcDbLine
 10
623.9756609216665
 20
163.7111227737394
 30
0.0
 11
634.6873196676706
 21
156.2107387708155
 31
0.0
  0
LINE
  5
9463
330
18
100
AcDbEntity
  8
1
100
AcDbLine
 10
624.0628327146505
 20
163.7111227737394
 30
0.0
 11
634.7159969523882
 21
156.2516946123568
 31
0.0
  0
LINE
  5
9464
330
18
100
AcDbEntity
  8
1
100
AcDbLine
 10
634.5440934315657
 20
157.2266068087546
 30
0.0
 11
625.2832452670073
 21
163.7111227737394
 31
0.0
  0
LINE
  5
9465
330
18
100
AcDbEntity
  8
1
100
AcDbLine
 10
625.3778341129755
 20
164.0111204014746
 30
0.0
 11
634.7161683157419
 21
157.4723493085829
 31
0.0
  0
LINE
  5
9466
330
18
100
AcDbEntity
  8
1
100
AcDbLine
 10
628.925979407165
 20
147.9826900886027
 30
0.0
 11
634.6873196676706
 21
156.2107387708155
 31
0.0
  0
LINE
  5
9467
330
18
100
AcDbEntity
  8
1
100
AcDbLine
 10
634.9330658927893
 20
156.0386638866392
 30
0.0
 11
629.2259770349001
 21
147.8881012426344
 31
0.0
  0
LINE
  5
9468
330
18
100
AcDbEntity
  8
1
100
AcDbLine
 10
629.2259770349001
 20
147.8881012426344
 30
0.0
 11
629.2259770349001
 21
144.9265774117438
 31
0.0
  0
LINE
  5
9469
330
18
100
AcDbEntity
  8
1
100
AcDbLine
 10
628.925979407165
 20
145.2265787647692
 30
0.0
 11
628.925979407165
 21
147.9826900886027
 31
0.0
  0
ARC
  5
946A
330
18
100
AcDbEntity
  8
1
100
AcDbCircle
 10
626.6259786807785
 20
143.3265787945715
 30
0.0
 40
2.6
100
AcDbArc
 50
270.0000000000025
 51
0.0
  0
ARC
  5
946B
330
18
100
AcDbEntity
  8
1
100
AcDbCircle
 10
626.6259786807785
 20
143.3265787945715
 30
0.0
 40
1.0
100
AcDbArc
 50
270.0000000000065
 51
0.0
  0
LWPOLYLINE
  5
946C
330
18
100
AcDbEntity
  8
1
100
AcDbPolyline
 90
        9
 70
   128
 43
0.0
 10
628.925979407165
 20
145.2265787647692
 10
628.9845074430441
 20
145.1680507288901
 10
629.040785403583
 20
145.1117727683512
 10
629.0926488951181
 20
145.059909276816
 10
629.1381123379206
 20
145.0144458340136
 10
629.1754211202597
 20
144.9771370516745
 10
629.2031410053705
 20
144.9494134412733
 10
629.2202140108084
 20
144.9323441611258
 10
629.2259770349001
 20
144.9265774117438
  0
LINE
  5
946D
330
18
100
AcDbEntity
  8
1
100
AcDbLine
 10
629.2259770349001
 20
144.8565792070357
 30
0.0
 11
627.6259797528719
 21
144.8565792070357
 31
0.0
  0
LINE
  5
946E
330
18
100
AcDbEntity
  8
1
100
AcDbLine
 10
627.6259797528719
 20
144.8565792070357
 30
0.0
 11
627.6259797528719
 21
144.9265774117438
 31
0.0
  0
LINE
  5
946F
330
18
100
AcDbEntity
  8
1
100
AcDbLine
 10
627.6259797528719
 20
144.8565792070357
 30
0.0
 11
627.6259797528719
 21
143.3265801297156
 31
0.0
  0
LINE
  5
9470
330
18
100
AcDbEntity
  8
1
100
AcDbLine
 10
629.2259770349001
 20
144.8565792070357
 30
0.0
 11
629.2259770349001
 21
144.9265774117438
 31
0.0
  0
LINE
  5
9471
330
18
100
AcDbEntity
  8
1
100
AcDbLine
 10
629.2259770349001
 20
143.3265801297156
 30
0.0
 11
629.2259770349001
 21
144.8565792070357
 31
0.0
  0
LINE
  5
9472
330
18
100
AcDbEntity
  8
1
100
AcDbLine
 10
624.1754035368895
 20
147.82326629028
 30
0.0
 11
625.6093460038637
 21
149.8711477743117
 31
0.0
  0
LINE
  5
9473
330
18
100
AcDbEntity
  8
1
100
AcDbLine
 10
623.4381685868238
 20
148.3394834922281
 30
0.0
 11
624.1754035368895
 21
147.82326629028
 31
0.0
  0
LINE
  5
9474
330
18
100
AcDbEntity
  8
1
100
AcDbLine
 10
625.5683901623224
 20
149.8998250590292
 30
0.0
 11
624.1344476953482
 21
147.8519435749975
 31
0.0
  0
LINE
  5
9475
330
18
100
AcDbEntity
  8
1
100
AcDbLine
 10
625.4178884342646
 20
150.0052060709921
 30
0.0
 11
623.9839459672903
 21
147.9573245869604
 31
0.0
  0
LINE
  5
9476
330
18
100
AcDbEntity
  8
1
100
AcDbLine
 10
625.6093460038637
 20
149.8711477743117
 30
0.0
 11
624.8721073285078
 21
150.3873649762598
 31
0.0
  0
LINE
  5
9477
330
18
100
AcDbEntity
  8
1
100
AcDbLine
 10
624.8721073285078
 20
150.3873649762598
 30
0.0
 11
623.4381685868238
 21
148.3394834922281
 31
0.0
  0
LWPOLYLINE
  5
9478
330
18
100
AcDbEntity
  8
1
100
AcDbPolyline
 90
       10
 70
   128
 43
0.0
 10
629.2259770349001
 20
147.8881012426344
 10
629.2214210048651
 20
147.8895392046896
 10
629.2078870252108
 20
147.8938046620814
 10
629.18578487787
 20
147.9007746802298
 10
629.1557925656771
 20
147.9102331922976
 10
629.1188153341745
 20
147.9218896256415
 10
629.0759782210325
 20
147.9353975282637
 10
629.0285850778555
 20
147.9503396676508
 10
628.9780738666987
 20
147.9662652836767
 10
628.925979407165
 20
147.9826900886027
  0
LINE
  5
9479
330
18
100
AcDbEntity
  8
1
100
AcDbLine
 10
624.4804638341402
 20
161.770648859593
 30
0.0
 11
623.7432251587843
 21
162.2868660615412
 31
0.0
  0
ARC
  5
947A
330
18
100
AcDbEntity
  8
1
100
AcDbCircle
 10
634.142591
 20
156.653198528404
 30
0.0
 40
1.0
100
AcDbArc
 50
325.0000000000013
 51
55.00000000000264
  0
ARC
  5
947B
330
18
100
AcDbEntity
  8
1
100
AcDbCircle
 10
634.142591
 20
156.653198528404
 30
0.0
 40
0.7000000000000146
100
AcDbArc
 50
324.9999999999937
 51
55.00000000001373
  0
LWPOLYLINE
  5
947C
330
18
100
AcDbEntity
  8
1
100
AcDbPolyline
 90
        9
 70
   128
 43
0.0
 10
634.6873196676706
 20
156.2107387708155
 10
634.7352604285215
 20
156.1771664546457
 10
634.781360895965
 20
156.1448868142096
 10
634.823847831819
 20
156.1151403711764
 10
634.8610858336424
 20
156.0890633390871
 10
634.891648115251
 20
156.0676652716128
 10
634.9143574849104
 20
156.0517620073286
 10
634.9283422246908
 20
156.0419719444243
 10
634.9330658927893
 20
156.0386638866392
  0
LINE
  5
947D
330
18
100
AcDbEntity
  8
1
100
AcDbLine
 10
634.9330658927893
 20
156.0386638866392
 30
0.0
 11
634.9617431775068
 21
156.0796234534708
 31
0.0
  0
LWPOLYLINE
  5
947E
330
18
100
AcDbEntity
  8
1
100
AcDbPolyline
 90
        9
 70
   128
 43
0.0
 10
634.9617431775068
 20
156.0796234534708
 10
634.9570195094084
 20
156.0829277859656
 10
634.9430384949183
 20
156.0927215741602
 10
634.9203291252588
 20
156.108621113154
 10
634.8897668436502
 20
156.1300229059187
 10
634.8525251165365
 20
156.1560962127176
 10
634.8100419059729
 20
156.1858463810412
 10
634.7639414385294
 20
156.2181260214773
 10
634.7159969523882
 20
156.2516946123568
  0
LWPOLYLINE
  5
947F
330
18
100
AcDbEntity
  8
1
100
AcDbPolyline
 90
        9
 70
   128
 43
0.0
 10
634.7161683157419
 20
157.4723493085829
 10
634.7128602579569
 20
157.4676293657747
 10
634.7030701950525
 20
157.4536446259943
 10
634.6871669307684
 20
157.4309352563349
 10
634.665768863294
 20
157.4003729747263
 10
634.6396918312048
 20
157.3631349729029
 10
634.6099453881716
 20
157.3206480370489
 10
634.5776657477354
 20
157.2745475696055
 10
634.5440934315657
 20
157.2266068087546
  0
LINE
  5
9480
330
18
100
AcDbEntity
  8
1
100
AcDbLine
 10
625.2832452670073
 20
163.7111227737394
 30
0.0
 11
624.0628327146505
 21
163.7111227737394
 31
0.0
  0
LINE
  5
9481
330
18
100
AcDbEntity
  8
1
100
AcDbLine
 10
623.6343870774244
 20
164.0111204014746
 30
0.0
 11
625.3778341129755
 21
164.0111204014746
 31
0.0
  0
LWPOLYLINE
  5
9482
330
18
100
AcDbEntity
  8
1
100
AcDbPolyline
 90
       10
 70
   128
 43
0.0
 10
623.5472152844404
 20
164.0111204014746
 10
623.5537233665918
 20
164.0065643714396
 10
623.5730538979506
 20
163.9930303917853
 10
623.6046145573591
 20
163.9709282444445
 10
623.6474516705011
 20
163.9409359322516
 10
623.7002613857721
 20
163.903958700749
 10
623.7614381030535
 20
163.861121587607
 10
623.8291229024862
 20
163.81372844443
 10
623.9012594238256
 20
163.7632172332731
 10
623.9756609216665
 20
163.7111227737394
  0
LINE
  5
9483
330
18
100
AcDbEntity
  8
1
100
AcDbLine
 10
623.6343870774244
 20
164.0111204014746
 30
0.0
 11
623.5472152844404
 21
164.0111204014746
 31
0.0
  0
LWPOLYLINE
  5
9484
330
18
100
AcDbEntity
  8
1
100
AcDbPolyline
 90
        9
 70
   128
 43
0.0
 10
624.0628327146505
 20
163.7111227737394
 10
623.9792446509337
 20
163.7696508096186
 10
623.8988715127443
 20
163.8259287701574
 10
623.82480156574
 20
163.8777922616926
 10
623.7598772064184
 20
163.9232557044951
 10
623.7065943792795
 20
163.9605644868342
 10
623.6670019939875
 20
163.988284371945
 10
623.642619968984
 20
164.0053573773829
 10
623.6343870774244
 20
164.0111204014746
  0
LWPOLYLINE
  5
9485
330
18
100
AcDbEntity
  8
1
100
AcDbPolyline
 90
       10
 70
   128
 43
0.0
 10
625.3778341129755
 20
164.0111204014746
 10
625.3763961509203
 20
164.0065643714396
 10
625.3721306935286
 20
163.9930303917853
 10
625.3651606753801
 20
163.9709282444445
 10
625.3557058886026
 20
163.9409359322516
 10
625.3440457299685
 20
163.903958700749
 10
625.3305378273462
 20
163.861121587607
 10
625.3155956879591
 20
163.81372844443
 10
625.2996700719332
 20
163.7632172332731
 10
625.2832452670073
 20
163.7111227737394
  0
LWPOLYLINE
  5
9486
330
18
100
AcDbEntity
  8
1
100
AcDbPolyline
 90
        9
 70
   128
 43
0.0
 10
626.5765692010855
 20
175.3184661047188
 10
626.6245099619364
 20
175.2848956511942
 10
626.6706104293798
 20
175.252616010758
 10
626.7130973652338
 20
175.2228677050797
 10
626.7503390923475
 20
175.1967925356356
 10
626.7808976486658
 20
175.1753926055161
 10
626.8036070183252
 20
175.1594912038771
 10
626.8175917581057
 20
175.1496992783276
 10
626.8223154262041
 20
175.1463930831877
  0
LINE
  5
9487
330
18
100
AcDbEntity
  8
1
100
AcDbLine
 10
626.8223154262041
 20
175.1463930831877
 30
0.0
 11
626.8509927109217
 21
175.1873507873741
 31
0.0
  0
LWPOLYLINE
  5
9488
330
18
100
AcDbEntity
  8
1
100
AcDbPolyline
 90
        9
 70
   128
 43
0.0
 10
626.8509927109217
 20
175.1873507873741
 10
626.8462727681135
 20
175.190656982514
 10
626.8322880283331
 20
175.2004489080635
 10
626.8095786586737
 20
175.2163503097025
 10
626.7790163770651
 20
175.237750239822
 10
626.7417783752417
 20
175.2638254092661
 10
626.6992914393877
 20
175.2935737149445
 10
626.6531909719442
 20
175.3258533553806
 10
626.605246485803
 20
175.3594238089052
  0
ARC
  5
9489
330
18
100
AcDbEntity
  8
1
100
AcDbCircle
 10
626.0318414894557
 20
175.7609269521423
 30
0.0
 40
1.00000000000001
100
AcDbArc
 50
325.0
 51
55.00000000000264
  0
LWPOLYLINE
  5
948A
330
18
100
AcDbEntity
  8
1
100
AcDbPolyline
 90
        9
 70
   128
 43
0.0
 10
626.6054178491568
 20
176.5800785051314
 10
626.6021097913717
 20
176.5753566996781
 10
626.5923197284674
 20
176.5613719598976
 10
626.5764201894735
 20
176.5386625902382
 10
626.5550183967089
 20
176.5081021712748
 10
626.5289450899099
 20
176.4708623068062
 10
626.4991949215864
 20
176.4283753709522
 10
626.4669152811502
 20
176.3822767661539
 10
626.4333466902708
 20
176.3343341426579
  0
ARC
  5
948B
330
18
100
AcDbEntity
  8
1
100
AcDbCircle
 10
626.0318414894557
 20
175.7609269521423
 30
0.0
 40
0.699999999999996
100
AcDbArc
 50
324.9999999999956
 51
55.0000000000021
  0
LINE
  5
948C
330
18
100
AcDbEntity
  8
1
100
AcDbLine
 10
541.8862333089508
 20
144.9265774117438
 30
0.0
 11
596.8818216502636
 21
144.9265774117438
 31
0.0
  0
LINE
  5
948D
330
18
100
AcDbEntity
  8
1
100
AcDbLine
 10
558.4360469906784
 20
144.9265774117438
 30
0.0
 11
557.4860476731516
 21
144.9265774117438
 31
0.0
  0
LINE
  5
948E
330
18
100
AcDbEntity
  8
1
100
AcDbLine
 10
562.590693133276
 20
142.3265781031576
 30
0.0
 11
556.0846443061146
 21
142.3265781031576
 31
0.0
  0
LINE
  5
948F
330
18
100
AcDbEntity
  8
1
100
AcDbLine
 10
556.0846443061146
 20
140.7265770958391
 30
0.0
 11
563.3854060530178
 21
140.7265770958391
 31
0.0
  0
LINE
  5
9490
330
18
100
AcDbEntity
  8
1
100
AcDbLine
 10
559.2900230645649
 20
144.9265774117438
 30
0.0
 11
556.0846443061146
 21
144.9265774117438
 31
0.0
  0
LINE
  5
9491
330
18
100
AcDbEntity
  8
1
100
AcDbLine
 10
556.0846443061146
 20
144.9265774117438
 30
0.0
 11
543.901335717771
 21
144.9265774117438
 31
0.0
  0
LINE
  5
9492
330
18
100
AcDbEntity
  8
1
100
AcDbLine
 10
544.1353882566427
 20
140.7265770958391
 30
0.0
 11
556.0846443061146
 21
140.7265770958391
 31
0.0
  0
LINE
  5
9493
330
18
100
AcDbEntity
  8
1
100
AcDbLine
 10
556.0846443061146
 20
142.3265781031576
 30
0.0
 11
542.6818135097956
 21
142.3265781031576
 31
0.0
  0
LINE
  5
9494
330
18
100
AcDbEntity
  8
1
100
AcDbLine
 10
537.335388632152
 20
144.9265774117438
 30
0.0
 11
537.335388632152
 21
141.2265781091181
 31
0.0
  0
LINE
  5
9495
330
18
100
AcDbEntity
  8
1
100
AcDbLine
 10
542.3883723929857
 20
142.5642069207159
 30
0.0
 11
541.9011118725275
 21
144.8565792070357
 31
0.0
  0
LINE
  5
9496
330
18
100
AcDbEntity
  8
1
100
AcDbLine
 10
539.135389299724
 20
141.1265801416365
 30
0.0
 11
539.135389299724
 21
144.4265801237551
 31
0.0
  0
LINE
  5
9497
330
18
100
AcDbEntity
  8
1
100
AcDbLine
 10
540.776536138389
 20
144.8565792070357
 30
0.0
 11
541.5561164632772
 21
141.1889526771036
 31
0.0
  0
ARC
  5
9498
330
18
100
AcDbEntity
  8
1
100
AcDbCircle
 10
539.3353892053678
 20
141.2265787945715
 30
0.0
 40
2.0
100
AcDbArc
 50
180.0
 51
270.0
  0
ARC
  5
9499
330
18
100
AcDbEntity
  8
1
100
AcDbCircle
 10
544.1353892053678
 20
140.2265787945715
 30
0.0
 40
0.5
100
AcDbArc
 50
90.0
 51
180.0
  0
LINE
  5
949A
330
18
100
AcDbEntity
  8
1
100
AcDbLine
 10
539.3353889599775
 20
139.2265777812925
 30
0.0
 11
543.1353899553751
 21
139.2265777812925
 31
0.0
  0
ARC
  5
949B
330
18
100
AcDbEntity
  8
1
100
AcDbCircle
 10
543.1353892053678
 20
139.7265787945715
 30
0.0
 40
0.5
100
AcDbArc
 50
270.0
 51
0.0
  0
LINE
  5
949C
330
18
100
AcDbEntity
  8
1
100
AcDbLine
 10
543.6353909686541
 20
139.7265787945715
 30
0.0
 11
543.6353909686541
 21
140.2265798078505
 31
0.0
  0
LINE
  5
949D
330
18
100
AcDbEntity
  8
1
100
AcDbLine
 10
540.9438352004026
 20
142.3265781031576
 30
0.0
 11
539.4353906527494
 21
142.3265781031576
 31
0.0
  0
ARC
  5
949E
330
18
100
AcDbEntity
  8
1
100
AcDbCircle
 10
539.4353892053678
 20
142.6265787945715
 30
0.0
 40
0.3000000000000114
100
AcDbArc
 50
180.0
 51
270.0
  0
ARC
  5
949F
330
18
100
AcDbEntity
  8
1
100
AcDbCircle
 10
539.4353892053678
 20
141.1265787945715
 30
0.0
 40
0.3000000000000114
100
AcDbArc
 50
180.0
 51
270.0
  0
LINE
  5
94A0
330
18
100
AcDbEntity
  8
1
100
AcDbLine
 10
539.4353906527494
 20
140.826578788611
 30
0.0
 11
541.2626716211771
 21
140.826578788611
 31
0.0
  0
ARC
  5
94A1
330
18
100
AcDbEntity
  8
1
100
AcDbCircle
 10
540.9438358174057
 20
142.6265787945715
 30
0.0
 40
0.3000000214110371
100
AcDbArc
 50
270.0
 51
11.99999913080749
  0
ARC
  5
94A2
330
18
100
AcDbEntity
  8
1
100
AcDbCircle
 10
541.2626706818
 20
141.1265787945715
 30
0.0
 40
0.3000000000000114
100
AcDbArc
 50
270.0
 51
11.99999999999538
  0
ARC
  5
94A3
330
18
100
AcDbEntity
  8
1
100
AcDbCircle
 10
542.6818148286761
 20
142.6265787945715
 30
0.0
 40
0.3000000000000114
100
AcDbArc
 50
191.9999999999954
 51
270.0
  0
ARC
  5
94A4
330
18
100
AcDbEntity
  8
1
100
AcDbCircle
 10
538.6353892053678
 20
144.4265787945714
 30
0.0
 40
0.5000000000000284
100
AcDbArc
 50
0.0
 51
90.0
  0
LINE
  5
94A5
330
18
100
AcDbEntity
  8
1
100
AcDbLine
 10
538.635388286445
 20
144.9265774117438
 30
0.0
 11
537.335388632152
 21
144.9265774117438
 31
0.0
  0
LINE
  5
94A6
330
18
100
AcDbEntity
  8
1
100
AcDbLine
 10
541.9011118725275
 20
144.8565792070357
 30
0.0
 11
540.776536138389
 21
144.8565792070357
 31
0.0
  0
LINE
  5
94A7
330
18
100
AcDbEntity
  8
1
100
AcDbLine
 10
540.7616575736255
 20
144.9265774117438
 30
0.0
 11
540.776536138389
 21
144.8565792070357
 31
0.0
  0
LINE
  5
94A8
330
18
100
AcDbEntity
  8
1
100
AcDbLine
 10
541.8862333089508
 20
144.9265774117438
 30
0.0
 11
541.9011118725275
 21
144.8565792070357
 31
0.0
  0
LINE
  5
94A9
330
18
100
AcDbEntity
  8
1
100
AcDbLine
 10
554.9560484319187
 20
144.9265774117438
 30
0.0
 11
553.3760485082126
 21
144.9265774117438
 31
0.0
  0
LINE
  5
94AA
330
18
100
AcDbEntity
  8
1
100
AcDbLine
 10
553.3760485082126
 20
144.9265774117438
 30
0.0
 11
552.4260473280407
 21
144.9265774117438
 31
0.0
  0
LINE
  5
94AB
330
18
100
AcDbEntity
  8
1
100
AcDbLine
 10
555.9060477494455
 20
144.9265774117438
 30
0.0
 11
554.9560484319187
 21
144.9265774117438
 31
0.0
  0
LINE
  5
94AC
330
18
100
AcDbEntity
  8
1
100
AcDbLine
 10
557.4860476731516
 20
144.9265774117438
 30
0.0
 11
555.9060477494455
 21
144.9265774117438
 31
0.0
  0
LINE
  5
94AD
330
18
100
AcDbEntity
  8
1
100
AcDbLine
 10
566.4906932603084
 20
144.9265774117438
 30
0.0
 11
578.5353891920631
 21
144.9265774117438
 31
0.0
  0
LINE
  5
94AE
330
18
100
AcDbEntity
  8
1
100
AcDbLine
 10
563.6414270944409
 20
144.8565792070357
 30
0.0
 11
563.6900230407231
 21
143.4649672137228
 31
0.0
  0
ARC
  5
94AF
330
18
100
AcDbEntity
  8
1
100
AcDbCircle
 10
560.9900231833342
 20
144.2265787945715
 30
0.0
 40
1.100000000000023
100
AcDbArc
 50
270.0
 51
0.0
  0
LINE
  5
94B0
330
18
100
AcDbEntity
  8
1
100
AcDbLine
 10
560.190023398351
 20
143.126580469462
 30
0.0
 11
559.2900230645649
 21
144.9265774117438
 31
0.0
  0
LINE
  5
94B1
102
{ACAD_REACTORS
102
}
330
18
100
AcDbEntity
  8
1
100
AcDbLine
 10
565.990693178352
 20
143.0914919601408
 30
0.0
 11
564.8906934171431
 21
143.7265794502226
 31
0.0
  0
ARC
  5
94B2
330
18
100
AcDbEntity
  8
1
100
AcDbCircle
 10
563.8747537827644
 20
141.4265787945714
 30
0.0
 40
0.9999999999999978
100
AcDbArc
 50
270.0
 51
330.0000000000009
  0
LINE
  5
94B3
330
18
100
AcDbEntity
  8
1
100
AcDbLine
 10
563.3854060530178
 20
140.7265770958391
 30
0.0
 11
563.3696508690231
 21
140.426579468104
 31
0.0
  0
LINE
  5
94B4
330
18
100
AcDbEntity
  8
1
100
AcDbLine
 10
563.3696508690231
 20
140.426579468104
 30
0.0
 11
563.8747536673658
 21
140.426579468104
 31
0.0
  0
LINE
  5
94B5
330
18
100
AcDbEntity
  8
1
100
AcDbLine
 10
560.9900229706876
 20
143.126580469462
 30
0.0
 11
560.190023398351
 21
143.126580469462
 31
0.0
  0
ARC
  5
94B6
330
18
100
AcDbEntity
  8
1
100
AcDbCircle
 10
562.5906932736132
 20
143.4265787945714
 30
0.0
 40
1.100000000000002
100
AcDbArc
 50
270.0
 51
1.999999999999693
  0
LINE
  5
94B7
330
18
100
AcDbEntity
  8
1
100
AcDbLine
 10
564.7407793536298
 20
140.926580481383
 30
0.0
 11
565.990693178352
 21
143.0914919601408
 31
0.0
  0
LINE
  5
94B8
330
18
100
AcDbEntity
  8
1
100
AcDbLine
 10
564.8906934171431
 20
144.8565792070357
 30
0.0
 11
563.6414270944409
 21
144.8565792070357
 31
0.0
  0
LINE
  5
94B9
330
18
100
AcDbEntity
  8
1
100
AcDbLine
 10
559.2900230645649
 20
144.9265774117438
 30
0.0
 11
559.2900230645649
 21
144.9265774117438
 31
0.0
  0
LINE
  5
94BA
330
18
100
AcDbEntity
  8
1
100
AcDbLine
 10
563.6414270944409
 20
144.8565792070357
 30
0.0
 11
563.6389827016801
 21
144.9265774117438
 31
0.0
  0
ARC
  5
94BB
330
18
100
AcDbEntity
  8
1
100
AcDbCircle
 10
561.7900231833341
 20
144.6265787945715
 30
0.0
 40
0.3000000000000114
100
AcDbArc
 50
0.0
 51
90.0
  0
LINE
  5
94BC
330
18
100
AcDbEntity
  8
1
100
AcDbLine
 10
562.0900229647272
 20
144.6265797840086
 30
0.0
 11
562.0900229647272
 21
144.2265804635016
 31
0.0
  0
LINE
  5
94BD
330
18
100
AcDbEntity
  8
1
100
AcDbLine
 10
561.5695440306775
 20
144.9265774117438
 30
0.0
 11
561.7900234743469
 21
144.9265774117438
 31
0.0
  0
LINE
  5
94BE
330
18
100
AcDbEntity
  8
1
100
AcDbLine
 10
564.8906934171431
 20
144.8565792070357
 30
0.0
 11
564.8906934171431
 21
144.9265774117438
 31
0.0
  0
LINE
  5
94BF
330
18
100
AcDbEntity
  8
1
100
AcDbLine
 10
564.8906934171431
 20
143.7265794502226
 30
0.0
 11
564.8906934171431
 21
144.8565792070357
 31
0.0
  0
LINE
  5
94C0
330
18
100
AcDbEntity
  8
1
100
AcDbLine
 10
598.4219768052072
 20
140.7265770958391
 30
0.0
 11
626.625978745368
 21
140.7265787945715
 31
0.0
  0
LINE
  5
94C1
330
18
100
AcDbEntity
  8
1
100
AcDbLine
 10
596.8818216502636
 20
144.9265774117438
 30
0.0
 11
613.4353878811335
 21
144.9265774117438
 31
0.0
  0
LINE
  5
94C2
330
18
100
AcDbEntity
  8
1
100
AcDbLine
 10
602.4219768052071
 20
142.3265770958392
 30
0.0
 11
610.0353899315332
 21
142.3265770958391
 31
0.0
  0
LINE
  5
94C3
102
{ACAD_REACTORS
102
}
330
18
100
AcDbEntity
  8
1
100
AcDbLine
 10
597.6219768052072
 20
143.2987582393812
 30
0.0
 11
599.6219768052072
 21
144.0266987079136
 31
0.0
  0
LINE
  5
94C4
330
18
100
AcDbEntity
  8
1
100
AcDbLine
 10
601.4219768052071
 20
143.3265770958392
 30
0.0
 11
601.4219768052071
 21
144.9043102950106
 31
0.0
  0
ARC
  5
94C5
330
18
100
AcDbEntity
  8
1
100
AcDbCircle
 10
602.4219768052071
 20
143.3265770958392
 30
0.0
 40
1.0
100
AcDbArc
 50
180.0
 51
270.0
  0
ARC
  5
94C6
330
18
100
AcDbEntity
  8
1
100
AcDbCircle
 10
598.4219768052071
 20
141.5265770958391
 30
0.0
 40
0.8
100
AcDbArc
 50
180.0
 51
270.0
  0
LINE
  5
94C7
330
18
100
AcDbEntity
  8
1
100
AcDbLine
 10
597.6219768052072
 20
143.2987582393812
 30
0.0
 11
597.6219768052072
 21
141.5265770958391
 31
0.0
  0
POINT
  5
94C8
330
18
100
AcDbEntity
  8
1
100
AcDbPoint
 10
596.4237354991903
 20
143.7191816232682
 30
0.0
  0
LINE
  5
94C9
330
18
100
AcDbEntity
  8
1
100
AcDbLine
 10
598.7238871347947
 20
144.9265774117437
 30
0.0
 11
598.6977057945771
 21
144.9265774117437
 31
0.0
  0
LINE
  5
94CA
330
18
100
AcDbEntity
  8
1
100
AcDbLine
 10
599.6219768052072
 20
144.0266987079136
 30
0.0
 11
599.6219768052072
 21
144.9043102950106
 31
0.0
  0
LINE
  5
94CB
330
18
100
AcDbEntity
  8
1
100
AcDbLine
 10
599.6219768052072
 20
144.7043102950106
 30
0.0
 11
601.4219768052071
 21
144.7043102950106
 31
0.0
  0
LINE
  5
94CC
330
18
100
AcDbEntity
  8
1
100
AcDbLine
 10
626.625977726314
 20
142.3265781031576
 30
0.0
 11
613.4353878811335
 21
142.3265781031576
 31
0.0
  0
LINE
  5
94CD
330
18
100
AcDbEntity
  8
1
100
AcDbLine
 10
627.6259797528719
 20
144.9265774117438
 30
0.0
 11
613.4353878811335
 21
144.9265774117438
 31
0.0
  0
LINE
  5
94CE
330
18
100
AcDbEntity
  8
1
 48
0.6
100
AcDbLine
 10
611.6353890762066
 20
144.0265770779577
 30
0.0
 11
610.0353899315332
 21
143.444224797341
 31
0.0
  0
LINE
  5
94CF
330
18
100
AcDbEntity
  8
1
100
AcDbLine
 10
613.4353878811335
 20
142.3265781031576
 30
0.0
 11
613.4353878811335
 21
144.8565792070357
 31
0.0
  0
LINE
  5
94D0
330
18
100
AcDbEntity
  8
1
100
AcDbLine
 10
610.0353899315332
 20
142.3265770958391
 30
0.0
 11
610.0353899315332
 21
142.3265770958391
 31
0.0
  0
LINE
  5
94D1
330
18
100
AcDbEntity
  8
1
100
AcDbLine
 10
610.0353899315331
 20
142.3265770958391
 30
0.0
 11
610.0353899315332
 21
142.3265770958391
 31
0.0
  0
LINE
  5
94D2
330
18
100
AcDbEntity
  8
1
 48
0.6
100
AcDbLine
 10
610.0353899315332
 20
143.444224797341
 30
0.0
 11
610.0353899315331
 21
142.3265770958391
 31
0.0
  0
LINE
  5
94D3
330
18
100
AcDbEntity
  8
1
100
AcDbLine
 10
613.4353878811335
 20
144.8565792070357
 30
0.0
 11
611.6353890762066
 21
144.8565792070357
 31
0.0
  0
LINE
  5
94D4
330
18
100
AcDbEntity
  8
1
100
AcDbLine
 10
611.6353890762066
 20
144.9265774117438
 30
0.0
 11
611.6353890762066
 21
144.8565792070357
 31
0.0
  0
LINE
  5
94D5
330
18
100
AcDbEntity
  8
1
100
AcDbLine
 10
611.6353890762066
 20
144.8565792070357
 30
0.0
 11
611.6353890762066
 21
144.0265770779577
 31
0.0
  0
LINE
  5
94D6
330
18
100
AcDbEntity
  8
1
100
AcDbLine
 10
611.6353890762065
 20
144.0265770779577
 30
0.0
 11
611.6353890762065
 21
144.0265770779577
 31
0.0
  0
LINE
  5
94D7
330
18
100
AcDbEntity
  8
1
100
AcDbLine
 10
611.6353890762065
 20
144.0265770779577
 30
0.0
 11
611.6353890762065
 21
144.0265770779577
 31
0.0
  0
LINE
  5
94D8
330
18
100
AcDbEntity
  8
1
100
AcDbLine
 10
613.4353878811335
 20
144.9265774117438
 30
0.0
 11
613.4353878811335
 21
144.8565792070357
 31
0.0
  0
LINE
  5
94D9
330
18
100
AcDbEntity
  8
1
100
AcDbLine
 10
627.6259797528719
 20
144.8565792070357
 30
0.0
 11
627.6259797528719
 21
143.3265801297156
 31
0.0
  0
LINE
  5
94DA
330
18
100
AcDbEntity
  8
1
100
AcDbLine
 10
629.2259770349001
 20
143.3265801297156
 30
0.0
 11
629.2259770349001
 21
144.8565792070357
 31
0.0
  0
ARC
  5
94DB
330
18
100
AcDbEntity
  8
1
100
AcDbCircle
 10
626.6259787453679
 20
143.3265787945715
 30
0.0
 40
2.599999999999994
100
AcDbArc
 50
270.0000000000025
 51
0.0
  0
ARC
  5
94DC
330
18
100
AcDbEntity
  8
1
100
AcDbCircle
 10
626.6259787453679
 20
143.3265787945715
 30
0.0
 40
1.0
100
AcDbArc
 50
270.0
 51
0.0
  0
LINE
  5
94DD
330
18
100
AcDbEntity
  8
1
100
AcDbLine
 10
629.2259770349001
 20
144.8565792070357
 30
0.0
 11
627.6259797528719
 21
144.8565792070357
 31
0.0
  0
LINE
  5
94DE
330
18
100
AcDbEntity
  8
1
100
AcDbLine
 10
627.6259797528719
 20
144.8565792070357
 30
0.0
 11
627.6259797528719
 21
144.9265774117438
 31
0.0
  0
LINE
  5
94E5
330
18
100
AcDbEntity
  8
1
100
AcDbLine
 10
597.118508894141
 20
223.2831060802294
 30
0.0
 11
596.1120478298174
 21
223.4340943764339
 31
0.0
  0
CIRCLE
  5
94E6
330
18
100
AcDbEntity
  8
1
100
AcDbCircle
 10
597.470120227757
 20
221.0229117359035
 30
0.0
 40
0.6006643636228477
  0
LINE
  5
94E7
330
18
100
AcDbEntity
  8
1
100
AcDbLine
 10
606.8728187046503
 20
220.7894970995035
 30
0.0
 11
596.16090984738
 21
222.3943061323218
 31
0.0
  0
LINE
  5
94E8
330
18
100
AcDbEntity
  8
1
100
AcDbLine
 10
595.8079520589918
 20
222.7551289572396
 30
0.0
 11
596.1629263571167
 21
222.3922446882524
 31
0.0
  0
ARC
  5
94E9
330
18
100
AcDbEntity
  8
1
100
AcDbCircle
 10
596.0823760613305
 20
223.2363076575803
 30
0.0
 40
0.2
100
AcDbArc
 50
81.46816896006578
 51
171.4681689600968
  0
LINE
  5
94EA
330
18
100
AcDbEntity
  8
1
100
AcDbLine
 10
595.8845893424769
 20
223.265979426067
 30
0.0
 11
595.8079520589918
 21
222.7551289572396
 31
0.0
  0
LINE
  5
94EB
330
18
100
AcDbEntity
  8
1
100
AcDbLine
 10
597.118508894141
 20
223.2831060802294
 30
0.0
 11
607.2261702246869
 21
221.7691379339832
 31
0.0
  0
LINE
  5
94EC
330
18
100
AcDbEntity
  8
1
100
AcDbLine
 10
600.1900392937205
 20
221.0662085456332
 30
0.0
 11
600.5519643245977
 21
223.482015064912
 31
0.0
  0
CIRCLE
  5
94ED
330
18
100
AcDbEntity
  8
1
100
AcDbCircle
 10
602.7765474285069
 20
220.2261314374524
 30
0.0
 40
0.6006643636228477
  0
LINE
  5
94EE
330
18
100
AcDbEntity
  8
1
100
AcDbLine
 10
597.5593124080519
 20
221.61691715061
 30
0.0
 11
597.6421989782127
 21
222.1709280377146
 31
0.0
  0
LINE
  5
94EF
330
18
100
AcDbEntity
  8
OSIE
100
AcDbLine
 10
597.4405272336019
 20
220.8251132154415
 30
0.0
 11
597.4997132219121
 21
221.2207102563654
 31
0.0
  0
LINE
  5
94F0
330
18
100
AcDbEntity
  8
OSIE
100
AcDbLine
 10
597.2723217072951
 20
221.0525047300586
 30
0.0
 11
597.6679187482189
 21
220.9933187417484
 31
0.0
  0
LINE
  5
94F1
330
18
100
AcDbEntity
  8
1
100
AcDbLine
 10
598.064172839851
 20
220.934034450894
 30
0.0
 11
598.2359366825337
 21
222.0820978666262
 31
0.0
  0
LINE
  5
94F2
330
18
100
AcDbEntity
  8
1
100
AcDbLine
 10
602.1824948164128
 20
220.3150087224618
 30
0.0
 11
602.3546795417783
 21
221.4658853030766
 31
0.0
  0
LINE
  5
94F3
330
18
100
AcDbEntity
  8
1
100
AcDbLine
 10
603.6400913593019
 20
221.2672417937019
 30
0.0
 11
604.9762638813618
 21
221.0673346076257
 31
0.0
  0
LINE
  5
94F4
330
18
100
AcDbEntity
  8
OSIE
100
AcDbLine
 10
602.7469544343518
 20
220.0283329169904
 30
0.0
 11
602.8061404226621
 21
220.4239299579143
 31
0.0
  0
LINE
  5
94F5
330
18
100
AcDbEntity
  8
1
100
AcDbLine
 10
602.8654247135164
 20
220.8201840495464
 30
0.0
 11
602.9487321538724
 21
221.3770080180671
 31
0.0
  0
LINE
  5
94F6
330
18
100
AcDbEntity
  8
1
100
AcDbLine
 10
603.4532819049264
 20
221.3015214178689
 30
0.0
 11
604.2533951568812
 21
221.1818150280877
 31
0.0
  0
POINT
  5
94F7
330
18
100
AcDbEntity
  8
1
100
AcDbPoint
 10
603.4532819049264
 20
221.3015214178689
 30
0.0
  0
LINE
  5
94F8
330
18
100
AcDbEntity
  8
OSIE
100
AcDbLine
 10
602.578748908045
 20
220.2557244316075
 30
0.0
 11
602.9743459489689
 21
220.1965384432972
 31
0.0
  0
LINE
  5
94F9
330
18
100
AcDbEntity
  8
1
100
AcDbLine
 10
607.394342396369
 20
221.5417514124871
 30
0.0
 11
607.3181417592075
 21
221.0324290637647
 31
0.0
  0
ARC
  5
94FA
330
18
100
AcDbEntity
  8
1
100
AcDbCircle
 10
607.1965438759071
 20
221.5713444066422
 30
0.0
 40
0.2
100
AcDbArc
 50
351.4909879949324
 51
81.48132612619109
  0
LINE
  5
94FB
330
18
100
AcDbEntity
  8
1
100
AcDbLine
 10
607.3181417592075
 20
221.0324290637647
 30
0.0
 11
606.8728187046503
 21
220.7894970995035
 31
0.0
  0
INSERT
  5
94FC
330
18
100
AcDbEntity
  8
1
100
AcDbBlockReference
  2
A$C33365191
 10
561.9563349992515
 20
200.4965789338756
 30
0.0
 41
0.1
 42
0.1
 43
0.1
  0
DIMENSION
  5
952D
102
{ACAD_REACTORS
102
}
102
{ACAD_XDICTIONARY
360
952E
102
}
330
18
100
AcDbEntity
  8
WYMIARY
100
AcDbDimension
  2
*D15
 10
564.8906934171431
 20
132.0368977907962
 30
0.0
 11
550.8669668127054
 21
134.0368977907962
 31
0.0
 70
    32
  3
STANDARD
100
AcDbAlignedDimension
 13
536.8432402082678
 23
175.9345751298092
 33
0.0
 14
564.8906934171431
 24
143.7265794502226
 34
0.0
100
AcDbRotatedDimension
1001
ACAD
1000
DSTYLE
1002
{
1070
   287
1070
     5
1070
   271
1070
     0
1070
    41
1040
3.0
1070
   147
1040
0.5
1070
   279
1070
     2
1070
   140
1040
3.0
1002
}
  0
DIMENSION
  5
953C
102
{ACAD_REACTORS
102
}
102
{ACAD_XDICTIONARY
360
953D
102
}
330
18
100
AcDbEntity
  8
WYMIARY
100
AcDbDimension
  2
*D16
 10
599.6219768052072
 20
132.0368977907962
 30
0.0
 11
582.2563351111751
 21
134.0368977907962
 31
0.0
 70
    32
  3
STANDARD
100
AcDbAlignedDimension
 13
564.8906934171431
 23
143.7265794502226
 33
0.0
 14
599.6219768052072
 24
144.0266987079136
 34
0.0
100
AcDbRotatedDimension
1001
ACAD
1000
DSTYLE
1002
{
1070
   287
1070
     5
1070
   271
1070
     1
1070
    41
1040
3.0
1070
   147
1040
0.5
1070
   279
1070
     2
1070
   140
1040
3.0
1002
}
  0
DIMENSION
  5
954B
102
{ACAD_REACTORS
102
}
102
{ACAD_XDICTIONARY
360
954C
102
}
330
18
100
AcDbEntity
  8
WYMIARY
100
AcDbDimension
  2
*D17
 10
521.6026458415785
 20
139.2265787945715
 30
0.0
 11
519.6026458415785
 21
181.5265790747133
 31
0.0
 70
    32
  3
STANDARD
100
AcDbAlignedDimension
 13
595.4663355738257
 23
223.8265793548552
 33
0.0
 14
539.3353892053678
 24
139.2265787945715
 34
0.0
 50
90.0
100
AcDbRotatedDimension
1001
ACAD
1000
DSTYLE
1002
{
1070
   287
1070
     5
1070
    41
1040
3.0
1070
   147
1040
0.5
1070
   279
1070
     2
1070
   140
1040
3.0
1002
}
  0
ENDSEC
  0
SECTION
  2
OBJECTS
  0
DICTIONARY
  5
C
330
0
100
AcDbDictionary
  3
ACAD_GROUP
350
D
  3
ACAD_IMAGE_VARS
350
902D
  3
ACAD_MLINESTYLE
350
E
  3
ACAD_SCALELIST
350
8FE5
  3
ACDBVARIABLEDICTIONARY
350
C1B
  3
APPDATA
350
902B
  3
DWGPROPS
350
955E
  0
DICTIONARY
  5
92D8
330
2
100
AcDbDictionary
280
     1
  3
ACAD_LAYERSTATES
360
92D9
  0
DICTIONARY
  5
952E
330
952D
100
AcDbDictionary
280
     1
  0
DICTIONARY
  5
953D
330
953C
100
AcDbDictionary
280
     1
  0
DICTIONARY
  5
954C
330
954B
100
AcDbDictionary
280
     1
  0
DICTIONARY
  5
D
102
{ACAD_REACTORS
330
C
102
}
330
C
100
AcDbDictionary
  0
RASTERVARIABLES
  5
902D
102
{ACAD_REACTORS
330
C
102
}
330
C
100
AcDbRasterVariables
 90
        0
 70
     1
 71
     1
 72
     0
  0
DICTIONARY
  5
E
102
{ACAD_REACTORS
330
C
102
}
330
C
100
AcDbDictionary
  3
STANDARD
350
1B
  0
DICTIONARY
  5
8FE5
102
{ACAD_REACTORS
330
C
102
}
330
C
100
AcDbDictionary
  0
DICTIONARY
  5
C1B
102
{ACAD_REACTORS
330
C
102
}
330
C
100
AcDbDictionary
  3
SORTENTS
350
C1C
  0
DICTIONARY
  5
902B
102
{ACAD_REACTORS
330
C
102
}
330
C
100
AcDbDictionary
  0
XRECORD
  5
955E
102
{ACAD_REACTORS
330
C
102
}
330
C
100
AcDbXrecord
  1
DWGPROPS COOKIE
  2

  3

  4

  6

  7

  8
pikusl
  9

300
=
301
=
302
=
303
=
304
=
305
=
306
=
307
=
308
=
309
=
 40
0.0
 41
2448721.315803356
 42
2457520.524871065
  1

 90
        0
  0
DICTIONARY
  5
92D9
102
{ACAD_REACTORS
330
92D8
102
}
330
92D8
100
AcDbDictionary
  0
MLINESTYLE
  5
1B
102
{ACAD_REACTORS
330
E
102
}
330
E
100
AcDbMlineStyle
  2
STANDARD
 70
     0
  3

 62
     0
 51
90.0
 52
90.0
 71
     2
 49
0.5
 62
   256
  6
BYLAYER
 49
-0.5
 62
   256
  6
BYLAYER
  0
DICTIONARYVAR
  5
C1C
102
{ACAD_REACTORS
330
C1B
102
}
330
C1B
100
DictionaryVariables
280
     0
  1
96
  0
ENDSEC
  0
EOF
