  0
SECTION
  2
HEADER
  9
$ACADVER
  1
AC1014
  9
$ACADMAINTVER
 70
     9
  9
$DWGCODEPAGE
  3
ANSI_1250
  9
$INSBASE
 10
0.0
 20
0.0
 30
0.0
  9
$EXTMIN
 10
486.4399922538362
 20
5.438438760343104
 30
0.0
  9
$EXTMAX
 10
688.0703992538363
 20
302.4384387603431
 30
0.0
  9
$LIMMIN
 10
0.0
 20
0.0
  9
$LIMMAX
 10
210.0
 20
297.0
  9
$ORTHOMODE
 70
     0
  9
$REGENMODE
 70
     1
  9
$FILLMODE
 70
     1
  9
$QTEXTMODE
 70
     0
  9
$MIRRTEXT
 70
     1
  9
$DRAGMODE
 70
     2
  9
$LTSCALE
 40
1.0
  9
$OSMODE
 70
  9143
  9
$ATTMODE
 70
     1
  9
$TEXTSIZE
 40
2.5
  9
$TRACEWID
 40
1.0
  9
$TEXTSTYLE
  7
STANDARD
  9
$CLAYER
  8
WY
  9
$CELTYPE
  6
BYLAYER
  9
$CECOLOR
 62
   256
  9
$CELTSCALE
 40
1.0
  9
$DELOBJ
 70
     1
  9
$DISPSILH
 70
     0
  9
$DIMSCALE
 40
1.0
  9
$DIMASZ
 40
1.5
  9
$DIMEXO
 40
1.0
  9
$DIMDLI
 40
3.75
  9
$DIMRND
 40
0.0
  9
$DIMDLE
 40
0.0
  9
$DIMEXE
 40
1.0
  9
$DIMTP
 40
0.0
  9
$DIMTM
 40
0.0
  9
$DIMTXT
 40
1.5
  9
$DIMCEN
 40
2.5
  9
$DIMTSZ
 40
0.0
  9
$DIMTOL
 70
     0
  9
$DIMLIM
 70
     0
  9
$DIMTIH
 70
     0
  9
$DIMTOH
 70
     1
  9
$DIMSE1
 70
     0
  9
$DIMSE2
 70
     0
  9
$DIMTAD
 70
     3
  9
$DIMZIN
 70
     8
  9
$DIMBLK
  1

  9
$DIMASO
 70
     1
  9
$DIMSHO
 70
     1
  9
$DIMPOST
  1

  9
$DIMAPOST
  1

  9
$DIMALT
 70
     0
  9
$DIMALTD
 70
     3
  9
$DIMALTF
 40
0.0393700787401575
  9
$DIMLFAC
 40
1.0
  9
$DIMTOFL
 70
     1
  9
$DIMTVP
 40
0.0
  9
$DIMTIX
 70
     1
  9
$DIMSOXD
 70
     0
  9
$DIMSAH
 70
     0
  9
$DIMBLK1
  1

  9
$DIMBLK2
  1

  9
$DIMSTYLE
  2
ISO-25
  9
$DIMCLRD
 70
     0
  9
$DIMCLRE
 70
     0
  9
$DIMCLRT
 70
     0
  9
$DIMTFAC
 40
1.0
  9
$DIMGAP
 40
1.0
  9
$DIMJUST
 70
     0
  9
$DIMSD1
 70
     0
  9
$DIMSD2
 70
     0
  9
$DIMTOLJ
 70
     0
  9
$DIMTZIN
 70
     8
  9
$DIMALTZ
 70
     0
  9
$DIMALTTZ
 70
     0
  9
$DIMFIT
 70
     5
  9
$DIMUPT
 70
     0
  9
$DIMUNIT
 70
     2
  9
$DIMDEC
 70
     1
  9
$DIMTDEC
 70
     2
  9
$DIMALTU
 70
     2
  9
$DIMALTTD
 70
     3
  9
$DIMTXSTY
  7
STANDARD
  9
$DIMAUNIT
 70
     0
  9
$LUNITS
 70
     2
  9
$LUPREC
 70
     2
  9
$SKETCHINC
 40
1.0
  9
$FILLETRAD
 40
10.0
  9
$AUNITS
 70
     0
  9
$AUPREC
 70
     2
  9
$MENU
  1
.
  9
$ELEVATION
 40
0.0
  9
$PELEVATION
 40
0.0
  9
$THICKNESS
 40
0.0
  9
$LIMCHECK
 70
     0
  9
$CHAMFERA
 40
0.0
  9
$CHAMFERB
 40
0.0
  9
$CHAMFERC
 40
0.0
  9
$CHAMFERD
 40
0.0
  9
$SKPOLY
 70
     0
  9
$TDCREATE
 40
2457520.476818843
  9
$TDUPDATE
 40
2457520.531201378
  9
$TDINDWG
 40
0.0102247917
  9
$TDUSRTIMER
 40
2457520.432869526
  9
$USRTIMER
 70
     1
  9
$ANGBASE
 50
0.0
  9
$ANGDIR
 70
     0
  9
$PDMODE
 70
     0
  9
$PDSIZE
 40
-1.0
  9
$PLINEWID
 40
0.0
  9
$COORDS
 70
     1
  9
$SPLFRAME
 70
     0
  9
$SPLINETYPE
 70
     6
  9
$SPLINESEGS
 70
     8
  9
$ATTDIA
 70
     0
  9
$ATTREQ
 70
     1
  9
$HANDLING
 70
     1
  9
$HANDSEED
  5
1301
  9
$SURFTAB1
 70
     6
  9
$SURFTAB2
 70
     6
  9
$SURFTYPE
 70
     6
  9
$SURFU
 70
     6
  9
$SURFV
 70
     6
  9
$UCSNAME
  2

  9
$UCSORG
 10
0.0
 20
0.0
 30
0.0
  9
$UCSXDIR
 10
1.0
 20
0.0
 30
0.0
  9
$UCSYDIR
 10
0.0
 20
1.0
 30
0.0
  9
$PUCSNAME
  2

  9
$PUCSORG
 10
0.0
 20
0.0
 30
0.0
  9
$PUCSXDIR
 10
1.0
 20
0.0
 30
0.0
  9
$PUCSYDIR
 10
0.0
 20
1.0
 30
0.0
  9
$USERI1
 70
     0
  9
$USERI2
 70
     0
  9
$USERI3
 70
     0
  9
$USERI4
 70
     0
  9
$USERI5
 70
     0
  9
$USERR1
 40
0.0
  9
$USERR2
 40
0.0
  9
$USERR3
 40
0.0
  9
$USERR4
 40
0.0
  9
$USERR5
 40
0.0
  9
$WORLDVIEW
 70
     1
  9
$SHADEDGE
 70
     3
  9
$SHADEDIF
 70
    70
  9
$TILEMODE
 70
     1
  9
$MAXACTVP
 70
    64
  9
$PINSBASE
 10
0.0
 20
0.0
 30
0.0
  9
$PLIMCHECK
 70
     0
  9
$PEXTMIN
 10
1.000000000000000E+20
 20
1.000000000000000E+20
 30
1.000000000000000E+20
  9
$PEXTMAX
 10
-1.000000000000000E+20
 20
-1.000000000000000E+20
 30
-1.000000000000000E+20
  9
$PLIMMIN
 10
0.0
 20
0.0
  9
$PLIMMAX
 10
0.0
 20
0.0
  9
$UNITMODE
 70
     0
  9
$VISRETAIN
 70
     1
  9
$PLINEGEN
 70
     0
  9
$PSLTSCALE
 70
     1
  9
$TREEDEPTH
 70
  3020
  9
$PICKSTYLE
 70
     1
  9
$CMLSTYLE
  2
STANDARD
  9
$CMLJUST
 70
     0
  9
$CMLSCALE
 40
20.0
  9
$PROXYGRAPHICS
 70
     1
  9
$MEASUREMENT
 70
     1
  0
ENDSEC
  0
SECTION
  2
CLASSES
  0
CLASS
  1
ACDBDICTIONARYWDFLT
  2
AcDbDictionaryWithDefault
  3
ObjectDBX Classes
 90
        0
280
     0
281
     0
  0
CLASS
  1
VISUALSTYLE
  2
AcDbVisualStyle
  3
ObjectDBX Classes
 90
     4095
280
     0
281
     0
  0
CLASS
  1
MATERIAL
  2
AcDbMaterial
  3
ObjectDBX Classes
 90
     1153
280
     0
281
     0
  0
CLASS
  1
SCALE
  2
AcDbScale
  3
ObjectDBX Classes
 90
     1153
280
     0
281
     0
  0
CLASS
  1
TABLESTYLE
  2
AcDbTableStyle
  3
ObjectDBX Classes
 90
     4095
280
     0
281
     0
  0
CLASS
  1
MLEADERSTYLE
  2
AcDbMLeaderStyle
  3
ACDB_MLEADERSTYLE_CLASS
 90
     4095
280
     0
281
     0
  0
CLASS
  1
SUN
  2
AcDbSun
  3
SCENEOE
 90
     1153
280
     0
281
     0
  0
CLASS
  1
ACDBPLACEHOLDER
  2
AcDbPlaceHolder
  3
ObjectDBX Classes
 90
        0
280
     0
281
     0
  0
CLASS
  1
LAYOUT
  2
AcDbLayout
  3
ObjectDBX Classes
 90
        0
280
     0
281
     0
  0
CLASS
  1
RASTERVARIABLES
  2
AcDbRasterVariables
  3
ISM
 90
        0
280
     0
281
     0
  0
CLASS
  1
DICTIONARYVAR
  2
AcDbDictionaryVar
  3
ObjectDBX Classes
 90
        0
280
     0
281
     0
  0
CLASS
  1
DIMASSOC
  2
AcDbDimAssoc
  3
"AcDbDimAssoc|Product Desc:     AcDim ARX App For Dimension|Company:          Autodesk, Inc.|WEB Address:      www.autodesk.com"
 90
        0
280
     0
281
     0
  0
CLASS
  1
XRECORD
  2
AcDbXrecord
  3
ObjectDBX Classes
 90
        0
280
     0
281
     0
  0
CLASS
  1
LWPOLYLINE
  2
AcDbPolyline
  3
ObjectDBX Classes
 90
        0
280
     0
281
     1
  0
CLASS
  1
HATCH
  2
AcDbHatch
  3
ObjectDBX Classes
 90
        0
280
     0
281
     1
  0
ENDSEC
  0
SECTION
  2
TABLES
  0
TABLE
  2
VPORT
  5
8
330
0
100
AcDbSymbolTable
 70
     1
  0
VPORT
  5
29
330
8
100
AcDbSymbolTableRecord
100
AcDbViewportTableRecord
  2
*ACTIVE
 70
     0
 10
0.0
 20
0.0
 11
1.0
 21
1.0
 12
587.2551957538362
 22
153.9384387603431
 13
0.0
 23
0.0
 14
10.0
 24
10.0
 15
10.0
 25
10.0
 16
0.0
 26
0.0
 36
1.0
 17
0.0
 27
0.0
 37
0.0
 40
302.94
 41
2.811127379209371
 42
50.0
 43
0.0
 44
0.0
 50
0.0
 51
0.0
 71
    16
 72
  2000
 73
     1
 74
     3
 75
     0
 76
     0
 77
     0
 78
     0
  0
ENDTAB
  0
TABLE
  2
LTYPE
  5
5
330
0
100
AcDbSymbolTable
 70
     6
  0
LTYPE
  5
14
330
5
100
AcDbSymbolTableRecord
100
AcDbLinetypeTableRecord
  2
BYBLOCK
 70
     0
  3

 72
    65
 73
     0
 40
0.0
  0
LTYPE
  5
15
330
5
100
AcDbSymbolTableRecord
100
AcDbLinetypeTableRecord
  2
BYLAYER
 70
     0
  3

 72
    65
 73
     0
 40
0.0
  0
LTYPE
  5
16
330
5
100
AcDbSymbolTableRecord
100
AcDbLinetypeTableRecord
  2
CONTINUOUS
 70
     0
  3
Solid line
 72
    65
 73
     0
 40
0.0
  0
LTYPE
  5
6E
330
5
100
AcDbSymbolTableRecord
100
AcDbLinetypeTableRecord
  2
HIDDEN
 70
     0
  3
Hidden __ __ __ __ __ __ __ __ __ __ __ __ __ __
 72
    65
 73
     2
 40
1.905
 49
1.27
 74
     0
 49
-0.635
 74
     0
  0
LTYPE
  5
6F
330
5
100
AcDbSymbolTableRecord
100
AcDbLinetypeTableRecord
  2
PHANTOM
 70
     0
  3
Phantom ______  __  __  ______  __  __  ______
 72
    65
 73
     6
 40
12.7
 49
6.35
 74
     0
 49
-1.27
 74
     0
 49
1.27
 74
     0
 49
-1.27
 74
     0
 49
1.27
 74
     0
 49
-1.27
 74
     0
  0
LTYPE
  5
70
330
5
100
AcDbSymbolTableRecord
100
AcDbLinetypeTableRecord
  2
CENTER
 70
     0
  3
Center ____ _ ____ _ ____ _ ____ _ ____ _ ____
 72
    65
 73
     4
 40
10.16
 49
6.35
 74
     0
 49
-1.27
 74
     0
 49
1.27
 74
     0
 49
-1.27
 74
     0
  0
LTYPE
  5
71
330
5
100
AcDbSymbolTableRecord
100
AcDbLinetypeTableRecord
  2
CENTERX2
 70
     0
  3
Center (2x) ________  __  ________  __  _____
 72
    65
 73
     4
 40
20.32
 49
12.7
 74
     0
 49
-2.54
 74
     0
 49
2.54
 74
     0
 49
-2.54
 74
     0
  0
LTYPE
  5
72
330
5
100
AcDbSymbolTableRecord
100
AcDbLinetypeTableRecord
  2
DOT2
 70
     0
  3
Dot (.5x) ........................................
 72
    65
 73
     2
 40
0.635
 49
0.0
 74
     0
 49
-0.635
 74
     0
  0
ENDTAB
  0
TABLE
  2
LAYER
  5
2
102
{ACAD_XDICTIONARY
360
81B
102
}
330
0
100
AcDbSymbolTable
 70
     8
  0
LAYER
  5
10
330
2
100
AcDbSymbolTableRecord
100
AcDbLayerTableRecord
  2
0
 70
     0
 62
     7
  6
CONTINUOUS
  0
LAYER
  5
73
330
2
100
AcDbSymbolTableRecord
100
AcDbLayerTableRecord
  2
FORMAT
 70
     0
 62
     7
  6
CONTINUOUS
  0
LAYER
  5
516
330
2
100
AcDbSymbolTableRecord
100
AcDbLayerTableRecord
  2
DEFPOINTS
 70
     0
 62
     7
  6
CONTINUOUS
  0
LAYER
  5
517
330
2
100
AcDbSymbolTableRecord
100
AcDbLayerTableRecord
  2
1
 70
     0
 62
     3
  6
CONTINUOUS
  0
LAYER
  5
519
330
2
100
AcDbSymbolTableRecord
100
AcDbLayerTableRecord
  2
2
 70
     0
 62
     6
  6
CONTINUOUS
  0
LAYER
  5
51A
330
2
100
AcDbSymbolTableRecord
100
AcDbLayerTableRecord
  2
WY
 70
     0
 62
     1
  6
CONTINUOUS
  0
LAYER
  5
51B
330
2
100
AcDbSymbolTableRecord
100
AcDbLayerTableRecord
  2
WYMIARY
 70
     0
 62
     1
  6
CONTINUOUS
  0
LAYER
  5
827
330
2
100
AcDbSymbolTableRecord
100
AcDbLayerTableRecord
  2
OŚ
 70
     0
 62
     2
  6
CENTER
1001
ACAECLAYERSTANDARD
1000

1000

  0
ENDTAB
  0
TABLE
  2
STYLE
  5
3
330
0
100
AcDbSymbolTable
 70
     5
  0
STYLE
  5
11
330
3
100
AcDbSymbolTableRecord
100
AcDbTextStyleTableRecord
  2
STANDARD
 70
     0
 40
0.0
 41
1.0
 50
0.0
 71
     0
 42
2.5
  3
txt
  4

  0
STYLE
  5
125
330
3
100
AcDbSymbolTableRecord
100
AcDbTextStyleTableRecord
  2
SLDTEXTSTYLE0
 70
     0
 40
0.0
 41
0.75
 50
0.0
 71
     0
 42
2.5
  3
TXT
  4

  0
STYLE
  5
127
330
3
100
AcDbSymbolTableRecord
100
AcDbTextStyleTableRecord
  2
SLDTEXTSTYLE1
 70
     0
 40
0.0
 41
0.75
 50
0.0
 71
     0
 42
2.5
  3
TXT
  4
bigfont
  0
STYLE
  5
146
330
3
100
AcDbSymbolTableRecord
100
AcDbTextStyleTableRecord
  2
SLDTEXTSTYLE2
 70
     0
 40
0.0
 41
0.605
 50
0.0
 71
     0
 42
2.5
  3
TXT
  4

  0
STYLE
  5
51E
330
3
100
AcDbSymbolTableRecord
100
AcDbTextStyleTableRecord
  2
ITALIC
 70
     0
 40
0.0
 41
1.0
 50
15.0
 71
     0
 42
2.5
  3
simplex
  4

  0
ENDTAB
  0
TABLE
  2
VIEW
  5
6
330
0
100
AcDbSymbolTable
 70
     0
  0
ENDTAB
  0
TABLE
  2
UCS
  5
7
330
0
100
AcDbSymbolTable
 70
     0
  0
ENDTAB
  0
TABLE
  2
APPID
  5
9
330
0
100
AcDbSymbolTable
 70
     2
  0
APPID
  5
12
330
9
100
AcDbSymbolTableRecord
100
AcDbRegAppTableRecord
  2
ACAD
 70
     0
  0
APPID
  5
828
330
9
100
AcDbSymbolTableRecord
100
AcDbRegAppTableRecord
  2
ACAECLAYERSTANDARD
 70
     0
  0
ENDTAB
  0
TABLE
  2
DIMSTYLE
  5
A
330
0
100
AcDbSymbolTable
 70
     2
  0
DIMSTYLE
105
27
102
{ACAD_REACTORS
330
1120
330
112F
330
113E
330
114D
330
1175
330
118C
330
119B
330
11AA
330
11BB
330
11CA
330
11D9
330
11E8
330
11FB
330
120A
330
120D
330
1210
330
1237
330
123A
330
123D
330
1240
330
1276
330
1285
330
1294
330
12A5
330
12B4
330
12C3
330
12D2
330
12E1
330
12F0
102
}
330
A
100
AcDbSymbolTableRecord
100
AcDbDimStyleTableRecord
  2
ISO-25
 70
     0
  3

  4

  5

  6

  7

 40
1.0
 41
2.5
 42
0.625
 43
3.75
 44
1.25
 45
0.0
 46
0.0
 47
0.0
 48
0.0
140
2.5
141
2.5
142
0.0
143
0.03937007874016
144
1.0
145
0.0
146
1.0
147
0.625
 71
     0
 72
     0
 73
     0
 74
     0
 75
     0
 76
     0
 77
     1
 78
     8
170
     0
171
     3
172
     1
173
     0
174
     0
175
     0
176
     0
177
     0
178
     0
270
     2
271
     2
272
     2
273
     2
274
     3
340
11
275
     0
280
     0
281
     0
282
     0
283
     0
284
     8
285
     0
286
     0
287
     3
288
     0
  0
DIMSTYLE
105
51C
330
A
100
AcDbSymbolTableRecord
100
AcDbDimStyleTableRecord
  2
STANDARD
 70
     0
  3

  4

  5

  6

  7

 40
1.0
 41
3.5
 42
1.5
 43
7.0
 44
1.5
 45
0.0
 46
0.0
 47
0.1
 48
0.0
140
3.6
141
-1.0
142
0.0
143
25.4
144
1.0
145
0.0
146
1.0
147
1.5
 71
     0
 72
     0
 73
     0
 74
     0
 75
     0
 76
     0
 77
     1
 78
     0
170
     0
171
     2
172
     0
173
     0
174
     0
175
     0
176
     0
177
     0
178
     0
270
     2
271
     2
272
     4
273
     2
274
     2
340
11
275
     0
280
     0
281
     0
282
     0
283
     1
284
     0
285
     0
286
     0
287
     3
288
     0
  0
ENDTAB
  0
TABLE
  2
BLOCK_RECORD
  5
1
330
0
100
AcDbSymbolTable
 70
    61
  0
BLOCK_RECORD
  5
1F
330
1
100
AcDbSymbolTableRecord
100
AcDbBlockTableRecord
  2
*MODEL_SPACE
  0
BLOCK_RECORD
  5
1B
330
1
100
AcDbSymbolTableRecord
100
AcDbBlockTableRecord
  2
*PAPER_SPACE
  0
BLOCK_RECORD
  5
23
330
1
100
AcDbSymbolTableRecord
100
AcDbBlockTableRecord
  2
*PAPER_SPACE0
  0
BLOCK_RECORD
  5
14E
330
1
100
AcDbSymbolTableRecord
100
AcDbBlockTableRecord
  2
SW_NOTE_0
  0
BLOCK_RECORD
  5
86A
330
1
100
AcDbSymbolTableRecord
100
AcDbBlockTableRecord
  2
*D2
  0
BLOCK_RECORD
  5
879
330
1
100
AcDbSymbolTableRecord
100
AcDbBlockTableRecord
  2
*D3
  0
BLOCK_RECORD
  5
888
330
1
100
AcDbSymbolTableRecord
100
AcDbBlockTableRecord
  2
*D4
  0
BLOCK_RECORD
  5
899
330
1
100
AcDbSymbolTableRecord
100
AcDbBlockTableRecord
  2
*D5
  0
BLOCK_RECORD
  5
8B0
330
1
100
AcDbSymbolTableRecord
100
AcDbBlockTableRecord
  2
*D6
  0
BLOCK_RECORD
  5
8D0
330
1
100
AcDbSymbolTableRecord
100
AcDbBlockTableRecord
  2
*D7
  0
BLOCK_RECORD
  5
8E1
330
1
100
AcDbSymbolTableRecord
100
AcDbBlockTableRecord
  2
*D8
  0
BLOCK_RECORD
  5
8F0
330
1
100
AcDbSymbolTableRecord
100
AcDbBlockTableRecord
  2
*D9
  0
BLOCK_RECORD
  5
8FF
330
1
100
AcDbSymbolTableRecord
100
AcDbBlockTableRecord
  2
*D10
  0
BLOCK_RECORD
  5
910
330
1
100
AcDbSymbolTableRecord
100
AcDbBlockTableRecord
  2
*D11
  0
BLOCK_RECORD
  5
91F
330
1
100
AcDbSymbolTableRecord
100
AcDbBlockTableRecord
  2
*D12
  0
BLOCK_RECORD
  5
92F
330
1
100
AcDbSymbolTableRecord
100
AcDbBlockTableRecord
  2
*D13
  0
BLOCK_RECORD
  5
A0C
330
1
100
AcDbSymbolTableRecord
100
AcDbBlockTableRecord
  2
*D14
  0
BLOCK_RECORD
  5
A18
330
1
100
AcDbSymbolTableRecord
100
AcDbBlockTableRecord
  2
*D15
  0
BLOCK_RECORD
  5
A24
330
1
100
AcDbSymbolTableRecord
100
AcDbBlockTableRecord
  2
*D16
  0
BLOCK_RECORD
  5
A32
330
1
100
AcDbSymbolTableRecord
100
AcDbBlockTableRecord
  2
*D17
  0
BLOCK_RECORD
  5
A40
330
1
100
AcDbSymbolTableRecord
100
AcDbBlockTableRecord
  2
*D18
  0
BLOCK_RECORD
  5
A58
330
1
100
AcDbSymbolTableRecord
100
AcDbBlockTableRecord
  2
*D19
  0
BLOCK_RECORD
  5
A64
330
1
100
AcDbSymbolTableRecord
100
AcDbBlockTableRecord
  2
*D20
  0
BLOCK_RECORD
  5
A70
330
1
100
AcDbSymbolTableRecord
100
AcDbBlockTableRecord
  2
*D21
  0
BLOCK_RECORD
  5
A7E
330
1
100
AcDbSymbolTableRecord
100
AcDbBlockTableRecord
  2
*D22
  0
BLOCK_RECORD
  5
A8A
330
1
100
AcDbSymbolTableRecord
100
AcDbBlockTableRecord
  2
*D23
  0
BLOCK_RECORD
  5
A96
330
1
100
AcDbSymbolTableRecord
100
AcDbBlockTableRecord
  2
*D24
  0
BLOCK_RECORD
  5
E4C
330
1
100
AcDbSymbolTableRecord
100
AcDbBlockTableRecord
  2
SW_CENTERMARKSYMBOL_0
  0
BLOCK_RECORD
  5
F1E
330
1
100
AcDbSymbolTableRecord
100
AcDbBlockTableRecord
  2
SW_CENTERMARKSYMBOL_1
  0
BLOCK_RECORD
  5
F2A
330
1
100
AcDbSymbolTableRecord
100
AcDbBlockTableRecord
  2
SW_CENTERMARKSYMBOL_2
  0
BLOCK_RECORD
  5
1110
330
1
100
AcDbSymbolTableRecord
100
AcDbBlockTableRecord
  2
*D30
  0
BLOCK_RECORD
  5
1123
330
1
100
AcDbSymbolTableRecord
100
AcDbBlockTableRecord
  2
*D31
  0
BLOCK_RECORD
  5
1132
330
1
100
AcDbSymbolTableRecord
100
AcDbBlockTableRecord
  2
*D32
  0
BLOCK_RECORD
  5
1141
330
1
100
AcDbSymbolTableRecord
100
AcDbBlockTableRecord
  2
*D33
  0
BLOCK_RECORD
  5
1150
330
1
100
AcDbSymbolTableRecord
100
AcDbBlockTableRecord
  2
*D34
  0
BLOCK_RECORD
  5
115F
330
1
100
AcDbSymbolTableRecord
100
AcDbBlockTableRecord
  2
*D35
  0
BLOCK_RECORD
  5
1178
330
1
100
AcDbSymbolTableRecord
100
AcDbBlockTableRecord
  2
*D36
  0
BLOCK_RECORD
  5
118F
330
1
100
AcDbSymbolTableRecord
100
AcDbBlockTableRecord
  2
*D37
  0
BLOCK_RECORD
  5
119E
330
1
100
AcDbSymbolTableRecord
100
AcDbBlockTableRecord
  2
*D38
  0
BLOCK_RECORD
  5
11AD
330
1
100
AcDbSymbolTableRecord
100
AcDbBlockTableRecord
  2
*D39
  0
BLOCK_RECORD
  5
11BE
330
1
100
AcDbSymbolTableRecord
100
AcDbBlockTableRecord
  2
*D40
  0
BLOCK_RECORD
  5
11CD
330
1
100
AcDbSymbolTableRecord
100
AcDbBlockTableRecord
  2
*D41
  0
BLOCK_RECORD
  5
11DC
330
1
100
AcDbSymbolTableRecord
100
AcDbBlockTableRecord
  2
*D42
  0
BLOCK_RECORD
  5
11EB
330
1
100
AcDbSymbolTableRecord
100
AcDbBlockTableRecord
  2
*D43
  0
BLOCK_RECORD
  5
11FE
330
1
100
AcDbSymbolTableRecord
100
AcDbBlockTableRecord
  2
*D44
  0
BLOCK_RECORD
  5
1213
330
1
100
AcDbSymbolTableRecord
100
AcDbBlockTableRecord
  2
*D45
  0
BLOCK_RECORD
  5
121F
330
1
100
AcDbSymbolTableRecord
100
AcDbBlockTableRecord
  2
*D46
  0
BLOCK_RECORD
  5
122B
330
1
100
AcDbSymbolTableRecord
100
AcDbBlockTableRecord
  2
*D47
  0
BLOCK_RECORD
  5
1243
330
1
100
AcDbSymbolTableRecord
100
AcDbBlockTableRecord
  2
*D48
  0
BLOCK_RECORD
  5
124F
330
1
100
AcDbSymbolTableRecord
100
AcDbBlockTableRecord
  2
*D49
  0
BLOCK_RECORD
  5
125B
330
1
100
AcDbSymbolTableRecord
100
AcDbBlockTableRecord
  2
*D50
  0
BLOCK_RECORD
  5
126A
330
1
100
AcDbSymbolTableRecord
100
AcDbBlockTableRecord
  2
*D51
  0
BLOCK_RECORD
  5
1279
330
1
100
AcDbSymbolTableRecord
100
AcDbBlockTableRecord
  2
*D52
  0
BLOCK_RECORD
  5
1288
330
1
100
AcDbSymbolTableRecord
100
AcDbBlockTableRecord
  2
*D53
  0
BLOCK_RECORD
  5
1297
330
1
100
AcDbSymbolTableRecord
100
AcDbBlockTableRecord
  2
*D54
  0
BLOCK_RECORD
  5
12A8
330
1
100
AcDbSymbolTableRecord
100
AcDbBlockTableRecord
  2
*D55
  0
BLOCK_RECORD
  5
12B7
330
1
100
AcDbSymbolTableRecord
100
AcDbBlockTableRecord
  2
*D56
  0
BLOCK_RECORD
  5
12C6
330
1
100
AcDbSymbolTableRecord
100
AcDbBlockTableRecord
  2
*D57
  0
BLOCK_RECORD
  5
12D5
330
1
100
AcDbSymbolTableRecord
100
AcDbBlockTableRecord
  2
*D58
  0
BLOCK_RECORD
  5
12E4
330
1
100
AcDbSymbolTableRecord
100
AcDbBlockTableRecord
  2
*D59
  0
BLOCK_RECORD
  5
12F3
330
1
100
AcDbSymbolTableRecord
100
AcDbBlockTableRecord
  2
*D60
  0
ENDTAB
  0
ENDSEC
  0
SECTION
  2
BLOCKS
  0
BLOCK
  5
20
330
1F
100
AcDbEntity
  8
0
100
AcDbBlockBegin
  2
*MODEL_SPACE
 70
     0
 10
0.0
 20
0.0
 30
0.0
  3
*MODEL_SPACE
  1

  0
ENDBLK
  5
21
330
1F
100
AcDbEntity
  8
0
100
AcDbBlockEnd
  0
BLOCK
  5
1C
330
1B
100
AcDbEntity
 67
     1
  8
0
100
AcDbBlockBegin
  2
*PAPER_SPACE
 70
     0
 10
0.0
 20
0.0
 30
0.0
  3
*PAPER_SPACE
  1

  0
ENDBLK
  5
1D
330
1B
100
AcDbEntity
 67
     1
  8
0
100
AcDbBlockEnd
  0
BLOCK
  5
24
330
23
100
AcDbEntity
  8
0
100
AcDbBlockBegin
  2
*PAPER_SPACE0
 70
     0
 10
0.0
 20
0.0
 30
0.0
  3
*PAPER_SPACE0
  1
*PAPER_SPACE0
  0
ENDBLK
  5
25
330
23
100
AcDbEntity
  8
0
100
AcDbBlockEnd
  0
BLOCK
  5
14F
330
14E
100
AcDbEntity
  8
0
100
AcDbBlockBegin
  2
SW_NOTE_0
 70
     0
 10
0.0
 20
0.0
 30
0.0
  3
SW_NOTE_0
  1
SW_NOTE_0
  0
MTEXT
  5
151
330
14E
100
AcDbEntity
  8
0
  6
CONTINUOUS
 62
     0
100
AcDbMText
 10
0.0
 20
3.867203219315898
 30
0.0
 40
3.0
 41
0.0
 71
     1
 72
     1
  1
%%p
  7
SLDTEXTSTYLE2
  0
MTEXT
  5
152
330
14E
100
AcDbEntity
  8
0
  6
CONTINUOUS
 62
     0
100
AcDbMText
 10
2.762499963864684
 20
3.867203219315898
 30
0.0
 40
3.0
 41
0.0
 71
     1
 72
     1
  1
0,03
  7
SLDTEXTSTYLE2
  0
ENDBLK
  5
150
330
14E
100
AcDbEntity
  8
0
100
AcDbBlockEnd
  0
BLOCK
  5
86B
330
86A
100
AcDbEntity
  8
0
100
AcDbBlockBegin
  2
*D2
 70
     1
 10
0.0
 20
0.0
 30
0.0
  3
*D2
  1
*D19
  0
LINE
  5
86D
330
86A
100
AcDbEntity
  8
WY
 62
     0
100
AcDbLine
 10
608.4124505380175
 20
196.4940831687075
 30
0.0
 11
597.3061068053858
 21
196.4940831687075
 31
0.0
  0
LINE
  5
86E
330
86A
100
AcDbEntity
  8
WY
 62
     0
100
AcDbLine
 10
606.5124505380174
 20
214.1940831687075
 30
0.0
 11
597.3061068053858
 21
214.1940831687075
 31
0.0
  0
LINE
  5
86F
330
86A
100
AcDbEntity
  8
WY
 62
     0
100
AcDbLine
 10
598.3061068053858
 20
197.9940831687075
 30
0.0
 11
598.3061068053858
 21
212.6940831687075
 31
0.0
  0
SOLID
  5
870
330
86A
100
AcDbEntity
  8
WY
 62
     0
100
AcDbTrace
 10
598.0561068053858
 20
197.9940831687075
 30
0.0
 11
598.5561068053858
 21
197.9940831687075
 31
0.0
 12
598.3061068053858
 22
196.4940831687075
 32
0.0
 13
598.3061068053858
 23
196.4940831687075
 33
0.0
  0
SOLID
  5
871
330
86A
100
AcDbEntity
  8
WY
 62
     0
100
AcDbTrace
 10
598.5561068053858
 20
212.6940831687075
 30
0.0
 11
598.0561068053858
 21
212.6940831687075
 31
0.0
 12
598.3061068053858
 22
214.1940831687075
 32
0.0
 13
598.3061068053858
 23
214.1940831687075
 33
0.0
  0
MTEXT
  5
872
330
86A
100
AcDbEntity
  8
WY
 62
     0
100
AcDbMText
 10
596.4311068053858
 20
205.3440831687075
 30
0.0
 40
1.5
 41
0.0
 71
     5
 72
     1
  1
17,7
 11
0.0
 21
1.0
 31
0.0
  0
POINT
  5
873
330
86A
100
AcDbEntity
  8
DEFPOINTS
 62
     0
100
AcDbPoint
 10
609.4124505380175
 20
196.4940831687075
 30
0.0
  0
POINT
  5
874
330
86A
100
AcDbEntity
  8
DEFPOINTS
 62
     0
100
AcDbPoint
 10
607.5124505380174
 20
214.1940831687075
 30
0.0
  0
POINT
  5
875
330
86A
100
AcDbEntity
  8
DEFPOINTS
 62
     0
100
AcDbPoint
 10
598.3061068053858
 20
214.1940831687075
 30
0.0
  0
ENDBLK
  5
86C
330
86A
100
AcDbEntity
  8
0
100
AcDbBlockEnd
  0
BLOCK
  5
87A
330
879
100
AcDbEntity
  8
0
100
AcDbBlockBegin
  2
*D3
 70
     1
 10
0.0
 20
0.0
 30
0.0
  3
*D3
  1
*D20
  0
LINE
  5
87C
330
879
100
AcDbEntity
  8
WY
 62
     0
100
AcDbLine
 10
606.5124505380174
 20
198.4940831687075
 30
0.0
 11
601.9569942642437
 21
198.4940831687075
 31
0.0
  0
LINE
  5
87D
330
879
100
AcDbEntity
  8
WY
 62
     0
100
AcDbLine
 10
606.5124505380174
 20
214.1940831687075
 30
0.0
 11
601.9569942642437
 21
214.1940831687075
 31
0.0
  0
LINE
  5
87E
330
879
100
AcDbEntity
  8
WY
 62
     0
100
AcDbLine
 10
602.9569942642437
 20
199.9940831687075
 30
0.0
 11
602.9569942642437
 21
212.6940831687075
 31
0.0
  0
SOLID
  5
87F
330
879
100
AcDbEntity
  8
WY
 62
     0
100
AcDbTrace
 10
602.7069942642437
 20
199.9940831687075
 30
0.0
 11
603.2069942642437
 21
199.9940831687075
 31
0.0
 12
602.9569942642437
 22
198.4940831687075
 32
0.0
 13
602.9569942642437
 23
198.4940831687075
 33
0.0
  0
SOLID
  5
880
330
879
100
AcDbEntity
  8
WY
 62
     0
100
AcDbTrace
 10
603.2069942642437
 20
212.6940831687075
 30
0.0
 11
602.7069942642437
 21
212.6940831687075
 31
0.0
 12
602.9569942642437
 22
214.1940831687075
 32
0.0
 13
602.9569942642437
 23
214.1940831687075
 33
0.0
  0
MTEXT
  5
881
330
879
100
AcDbEntity
  8
WY
 62
     0
100
AcDbMText
 10
601.0819942642437
 20
206.3440831687075
 30
0.0
 40
1.5
 41
0.0
 71
     5
 72
     1
  1
15,7
 11
0.0
 21
1.0
 31
0.0
  0
POINT
  5
882
330
879
100
AcDbEntity
  8
DEFPOINTS
 62
     0
100
AcDbPoint
 10
607.5124505380174
 20
198.4940831687075
 30
0.0
  0
POINT
  5
883
330
879
100
AcDbEntity
  8
DEFPOINTS
 62
     0
100
AcDbPoint
 10
607.5124505380174
 20
214.1940831687075
 30
0.0
  0
POINT
  5
884
330
879
100
AcDbEntity
  8
DEFPOINTS
 62
     0
100
AcDbPoint
 10
602.9569942642437
 20
214.1940831687075
 30
0.0
  0
ENDBLK
  5
87B
330
879
100
AcDbEntity
  8
0
100
AcDbBlockEnd
  0
BLOCK
  5
889
330
888
100
AcDbEntity
  8
0
100
AcDbBlockBegin
  2
*D4
 70
     1
 10
0.0
 20
0.0
 30
0.0
  3
*D4
  1
*D21
  0
LINE
  5
88B
330
888
100
AcDbEntity
  8
WY
 62
     0
100
AcDbLine
 10
609.4124505380175
 20
195.4940831687075
 30
0.0
 11
609.4124505380175
 21
189.0160102618493
 31
0.0
  0
LINE
  5
88C
330
888
100
AcDbEntity
  8
WY
 62
     0
100
AcDbLine
 10
610.0124505380174
 20
195.4940831687075
 30
0.0
 11
610.0124505380174
 21
189.0160102618493
 31
0.0
  0
LINE
  5
88D
330
888
100
AcDbEntity
  8
WY
 62
     0
100
AcDbLine
 10
611.5124505380174
 20
190.0160102618493
 30
0.0
 11
622.5124505380174
 21
190.0160102618493
 31
0.0
  0
LINE
  5
88E
330
888
100
AcDbEntity
  8
WY
 62
     0
100
AcDbLine
 10
609.4124505380175
 20
190.0160102618493
 30
0.0
 11
610.0124505380174
 21
190.0160102618493
 31
0.0
  0
LINE
  5
88F
330
888
100
AcDbEntity
  8
WY
 62
     0
100
AcDbLine
 10
607.9124505380175
 20
190.0160102618493
 30
0.0
 11
606.4124505380175
 21
190.0160102618493
 31
0.0
  0
SOLID
  5
890
330
888
100
AcDbEntity
  8
WY
 62
     0
100
AcDbTrace
 10
607.9124505380175
 20
189.7660102618493
 30
0.0
 11
607.9124505380175
 21
190.2660102618493
 31
0.0
 12
609.4124505380175
 22
190.0160102618493
 32
0.0
 13
609.4124505380175
 23
190.0160102618493
 33
0.0
  0
SOLID
  5
891
330
888
100
AcDbEntity
  8
WY
 62
     0
100
AcDbTrace
 10
611.5124505380174
 20
190.2660102618493
 30
0.0
 11
611.5124505380174
 21
189.7660102618493
 31
0.0
 12
610.0124505380174
 22
190.0160102618493
 32
0.0
 13
610.0124505380174
 23
190.0160102618493
 33
0.0
  0
MTEXT
  5
892
330
888
100
AcDbEntity
  8
WY
 62
     0
100
AcDbMText
 10
617.7624505380174
 20
191.8910102618493
 30
0.0
 40
1.5
 41
0.0
 71
     5
 72
     1
  1
0,6-0,1
  0
POINT
  5
893
330
888
100
AcDbEntity
  8
DEFPOINTS
 62
     0
100
AcDbPoint
 10
609.4124505380175
 20
196.4940831687075
 30
0.0
  0
POINT
  5
894
330
888
100
AcDbEntity
  8
DEFPOINTS
 62
     0
100
AcDbPoint
 10
610.0124505380174
 20
196.4940831687075
 30
0.0
  0
POINT
  5
895
330
888
100
AcDbEntity
  8
DEFPOINTS
 62
     0
100
AcDbPoint
 10
610.0124505380174
 20
190.0160102618493
 30
0.0
  0
ENDBLK
  5
88A
330
888
100
AcDbEntity
  8
0
100
AcDbBlockEnd
  0
BLOCK
  5
89A
330
899
100
AcDbEntity
  8
0
100
AcDbBlockBegin
  2
*D5
 70
     1
 10
0.0
 20
0.0
 30
0.0
  3
*D5
  1
*D22
  0
LINE
  5
89C
330
899
100
AcDbEntity
  8
WY
 62
     0
100
AcDbLine
 10
634.4624505380174
 20
195.4940831687075
 30
0.0
 11
634.4624505380174
 21
189.0160102618493
 31
0.0
  0
LINE
  5
89D
330
899
100
AcDbEntity
  8
WY
 62
     0
100
AcDbLine
 10
635.3624505380175
 20
195.4940831687075
 30
0.0
 11
635.3624505380175
 21
189.0160102618493
 31
0.0
  0
LINE
  5
89E
330
899
100
AcDbEntity
  8
WY
 62
     0
100
AcDbLine
 10
636.8624505380175
 20
190.0160102618493
 30
0.0
 11
647.8624505380175
 21
190.0160102618493
 31
0.0
  0
LINE
  5
89F
330
899
100
AcDbEntity
  8
WY
 62
     0
100
AcDbLine
 10
634.4624505380174
 20
190.0160102618493
 30
0.0
 11
635.3624505380175
 21
190.0160102618493
 31
0.0
  0
LINE
  5
8A0
330
899
100
AcDbEntity
  8
WY
 62
     0
100
AcDbLine
 10
632.9624505380174
 20
190.0160102618493
 30
0.0
 11
631.4624505380174
 21
190.0160102618493
 31
0.0
  0
SOLID
  5
8A1
330
899
100
AcDbEntity
  8
WY
 62
     0
100
AcDbTrace
 10
632.9624505380174
 20
189.7660102618493
 30
0.0
 11
632.9624505380174
 21
190.2660102618493
 31
0.0
 12
634.4624505380174
 22
190.0160102618493
 32
0.0
 13
634.4624505380174
 23
190.0160102618493
 33
0.0
  0
SOLID
  5
8A2
330
899
100
AcDbEntity
  8
WY
 62
     0
100
AcDbTrace
 10
636.8624505380175
 20
190.2660102618493
 30
0.0
 11
636.8624505380175
 21
189.7660102618493
 31
0.0
 12
635.3624505380175
 22
190.0160102618493
 32
0.0
 13
635.3624505380175
 23
190.0160102618493
 33
0.0
  0
MTEXT
  5
8A3
330
899
100
AcDbEntity
  8
WY
 62
     0
100
AcDbMText
 10
643.1124505380175
 20
191.8910102618493
 30
0.0
 40
1.5
 41
0.0
 71
     5
 72
     1
  1
0,9-0,1
  0
POINT
  5
8A4
330
899
100
AcDbEntity
  8
DEFPOINTS
 62
     0
100
AcDbPoint
 10
634.4624505380174
 20
196.4940831687075
 30
0.0
  0
POINT
  5
8A5
330
899
100
AcDbEntity
  8
DEFPOINTS
 62
     0
100
AcDbPoint
 10
635.3624505380175
 20
196.4940831687075
 30
0.0
  0
POINT
  5
8A6
330
899
100
AcDbEntity
  8
DEFPOINTS
 62
     0
100
AcDbPoint
 10
635.3624505380175
 20
190.0160102618493
 30
0.0
  0
ENDBLK
  5
89B
330
899
100
AcDbEntity
  8
0
100
AcDbBlockEnd
  0
BLOCK
  5
8B1
330
8B0
100
AcDbEntity
  8
0
100
AcDbBlockBegin
  2
*D6
 70
     1
 10
0.0
 20
0.0
 30
0.0
  3
*D6
  1
*D23
  0
LINE
  5
8B3
330
8B0
100
AcDbEntity
  8
WY
 62
     0
100
AcDbLine
 10
559.6838552294602
 20
196.2523810410479
 30
0.0
 11
559.6838552294602
 21
187.3897647748786
 31
0.0
  0
LINE
  5
8B4
330
8B0
100
AcDbEntity
  8
WY
 62
     0
100
AcDbLine
 10
572.8838552294602
 20
196.252381041048
 30
0.0
 11
572.8838552294602
 21
187.3897647748786
 31
0.0
  0
LINE
  5
8B5
330
8B0
100
AcDbEntity
  8
WY
 62
     0
100
AcDbLine
 10
561.1838552294602
 20
188.3897647748786
 30
0.0
 11
571.3838552294602
 21
188.3897647748786
 31
0.0
  0
SOLID
  5
8B6
330
8B0
100
AcDbEntity
  8
WY
 62
     0
100
AcDbTrace
 10
561.1838552294602
 20
188.6397647748786
 30
0.0
 11
561.1838552294602
 21
188.1397647748786
 31
0.0
 12
559.6838552294602
 22
188.3897647748786
 32
0.0
 13
559.6838552294602
 23
188.3897647748786
 33
0.0
  0
SOLID
  5
8B7
330
8B0
100
AcDbEntity
  8
WY
 62
     0
100
AcDbTrace
 10
571.3838552294602
 20
188.1397647748786
 30
0.0
 11
571.3838552294602
 21
188.6397647748786
 31
0.0
 12
572.8838552294602
 22
188.3897647748786
 32
0.0
 13
572.8838552294602
 23
188.3897647748786
 33
0.0
  0
MTEXT
  5
8B8
330
8B0
100
AcDbEntity
  8
WY
 62
     0
100
AcDbMText
 10
566.2838552294602
 20
190.2647647748786
 30
0.0
 40
1.5
 41
0.0
 71
     5
 72
     1
  1
max. 13,2
  0
POINT
  5
8B9
330
8B0
100
AcDbEntity
  8
DEFPOINTS
 62
     0
100
AcDbPoint
 10
559.6838552294602
 20
197.2523810410479
 30
0.0
  0
POINT
  5
8BA
330
8B0
100
AcDbEntity
  8
DEFPOINTS
 62
     0
100
AcDbPoint
 10
572.8838552294602
 20
197.252381041048
 30
0.0
  0
POINT
  5
8BB
330
8B0
100
AcDbEntity
  8
DEFPOINTS
 62
     0
100
AcDbPoint
 10
572.8838552294602
 20
188.3897647748786
 30
0.0
  0
ENDBLK
  5
8B2
330
8B0
100
AcDbEntity
  8
0
100
AcDbBlockEnd
  0
BLOCK
  5
8D1
330
8D0
100
AcDbEntity
  8
0
100
AcDbBlockBegin
  2
*D7
 70
     1
 10
0.0
 20
0.0
 30
0.0
  3
*D7
  1
*D25
  0
LINE
  5
8D3
330
8D0
100
AcDbEntity
  8
WY
 62
     0
100
AcDbLine
 10
624.9124505380174
 20
234.0445333826096
 30
0.0
 11
624.9124505380174
 21
229.1815617289227
 31
0.0
  0
LINE
  5
8D4
330
8D0
100
AcDbEntity
  8
WY
 62
     0
100
AcDbLine
 10
629.910777955269
 20
234.0311460145526
 30
0.0
 11
629.910777955269
 21
229.1815617289227
 31
0.0
  0
LINE
  5
8D5
330
8D0
100
AcDbEntity
  8
WY
 62
     0
100
AcDbLine
 10
626.4124505380174
 20
230.1815617289227
 30
0.0
 11
628.410777955269
 21
230.1815617289227
 31
0.0
  0
SOLID
  5
8D6
330
8D0
100
AcDbEntity
  8
WY
 62
     0
100
AcDbTrace
 10
626.4124505380174
 20
230.4315617289227
 30
0.0
 11
626.4124505380174
 21
229.9315617289227
 31
0.0
 12
624.9124505380174
 22
230.1815617289227
 32
0.0
 13
624.9124505380174
 23
230.1815617289227
 33
0.0
  0
SOLID
  5
8D7
330
8D0
100
AcDbEntity
  8
WY
 62
     0
100
AcDbTrace
 10
628.410777955269
 20
229.9315617289227
 30
0.0
 11
628.410777955269
 21
230.4315617289227
 31
0.0
 12
629.910777955269
 22
230.1815617289227
 32
0.0
 13
629.910777955269
 23
230.1815617289227
 33
0.0
  0
MTEXT
  5
8D8
330
8D0
100
AcDbEntity
  8
WY
 62
     0
100
AcDbMText
 10
627.4116142466432
 20
231.9315617289227
 30
0.0
 40
1.5
 41
0.0
 71
     5
 72
     1
  1
5
  0
POINT
  5
8D9
330
8D0
100
AcDbEntity
  8
DEFPOINTS
 62
     0
100
AcDbPoint
 10
624.9124505380174
 20
235.0445333826096
 30
0.0
  0
POINT
  5
8DA
330
8D0
100
AcDbEntity
  8
DEFPOINTS
 62
     0
100
AcDbPoint
 10
629.910777955269
 20
235.0311460145526
 30
0.0
  0
POINT
  5
8DB
330
8D0
100
AcDbEntity
  8
DEFPOINTS
 62
     0
100
AcDbPoint
 10
629.910777955269
 20
230.1815617289227
 30
0.0
  0
ENDBLK
  5
8D2
330
8D0
100
AcDbEntity
  8
0
100
AcDbBlockEnd
  0
BLOCK
  5
8E2
330
8E1
100
AcDbEntity
  8
0
100
AcDbBlockBegin
  2
*D8
 70
     1
 10
0.0
 20
0.0
 30
0.0
  3
*D8
  1
*D26
  0
LINE
  5
8E4
330
8E1
100
AcDbEntity
  8
WY
 62
     0
100
AcDbLine
 10
629.910777955269
 20
234.0311460145526
 30
0.0
 11
629.910777955269
 21
229.1815617289227
 31
0.0
  0
LINE
  5
8E5
330
8E1
100
AcDbEntity
  8
WY
 62
     0
100
AcDbLine
 10
634.9124505380174
 20
234.0445333826096
 30
0.0
 11
634.9124505380174
 21
229.1815617289227
 31
0.0
  0
LINE
  5
8E6
330
8E1
100
AcDbEntity
  8
WY
 62
     0
100
AcDbLine
 10
631.410777955269
 20
230.1815617289227
 30
0.0
 11
633.4124505380174
 21
230.1815617289227
 31
0.0
  0
SOLID
  5
8E7
330
8E1
100
AcDbEntity
  8
WY
 62
     0
100
AcDbTrace
 10
631.410777955269
 20
230.4315617289227
 30
0.0
 11
631.410777955269
 21
229.9315617289227
 31
0.0
 12
629.910777955269
 22
230.1815617289227
 32
0.0
 13
629.910777955269
 23
230.1815617289227
 33
0.0
  0
SOLID
  5
8E8
330
8E1
100
AcDbEntity
  8
WY
 62
     0
100
AcDbTrace
 10
633.4124505380174
 20
229.9315617289227
 30
0.0
 11
633.4124505380174
 21
230.4315617289227
 31
0.0
 12
634.9124505380174
 22
230.1815617289227
 32
0.0
 13
634.9124505380174
 23
230.1815617289227
 33
0.0
  0
MTEXT
  5
8E9
330
8E1
100
AcDbEntity
  8
WY
 62
     0
100
AcDbMText
 10
632.4116142466432
 20
231.9315617289227
 30
0.0
 40
1.5
 41
0.0
 71
     5
 72
     1
  1
5
  0
POINT
  5
8EA
330
8E1
100
AcDbEntity
  8
DEFPOINTS
 62
     0
100
AcDbPoint
 10
629.910777955269
 20
235.0311460145526
 30
0.0
  0
POINT
  5
8EB
330
8E1
100
AcDbEntity
  8
DEFPOINTS
 62
     0
100
AcDbPoint
 10
634.9124505380174
 20
235.0445333826096
 30
0.0
  0
POINT
  5
8EC
330
8E1
100
AcDbEntity
  8
DEFPOINTS
 62
     0
100
AcDbPoint
 10
634.9124505380174
 20
230.1815617289227
 30
0.0
  0
ENDBLK
  5
8E3
330
8E1
100
AcDbEntity
  8
0
100
AcDbBlockEnd
  0
BLOCK
  5
8F1
330
8F0
100
AcDbEntity
  8
0
100
AcDbBlockBegin
  2
*D9
 70
     1
 10
0.0
 20
0.0
 30
0.0
  3
*D9
  1
*D27
  0
LINE
  5
8F3
330
8F0
100
AcDbEntity
  8
WY
 62
     0
100
AcDbLine
 10
609.7124505380175
 20
234.0445333826096
 30
0.0
 11
609.7124505380175
 21
229.1815617289227
 31
0.0
  0
LINE
  5
8F4
330
8F0
100
AcDbEntity
  8
WY
 62
     0
100
AcDbLine
 10
624.9124505380174
 20
234.0445333826096
 30
0.0
 11
624.9124505380174
 21
229.1815617289227
 31
0.0
  0
LINE
  5
8F5
330
8F0
100
AcDbEntity
  8
WY
 62
     0
100
AcDbLine
 10
611.2124505380175
 20
230.1815617289227
 30
0.0
 11
623.4124505380174
 21
230.1815617289227
 31
0.0
  0
SOLID
  5
8F6
330
8F0
100
AcDbEntity
  8
WY
 62
     0
100
AcDbTrace
 10
611.2124505380175
 20
230.4315617289227
 30
0.0
 11
611.2124505380175
 21
229.9315617289227
 31
0.0
 12
609.7124505380175
 22
230.1815617289227
 32
0.0
 13
609.7124505380175
 23
230.1815617289227
 33
0.0
  0
SOLID
  5
8F7
330
8F0
100
AcDbEntity
  8
WY
 62
     0
100
AcDbTrace
 10
623.4124505380174
 20
229.9315617289227
 30
0.0
 11
623.4124505380174
 21
230.4315617289227
 31
0.0
 12
624.9124505380174
 22
230.1815617289227
 32
0.0
 13
624.9124505380174
 23
230.1815617289227
 33
0.0
  0
MTEXT
  5
8F8
330
8F0
100
AcDbEntity
  8
WY
 62
     0
100
AcDbMText
 10
617.3124505380174
 20
232.0565617289227
 30
0.0
 40
1.5
 41
0.0
 71
     5
 72
     1
  1
15,2
  0
POINT
  5
8F9
330
8F0
100
AcDbEntity
  8
DEFPOINTS
 62
     0
100
AcDbPoint
 10
609.7124505380175
 20
235.0445333826096
 30
0.0
  0
POINT
  5
8FA
330
8F0
100
AcDbEntity
  8
DEFPOINTS
 62
     0
100
AcDbPoint
 10
624.9124505380174
 20
235.0445333826096
 30
0.0
  0
POINT
  5
8FB
330
8F0
100
AcDbEntity
  8
DEFPOINTS
 62
     0
100
AcDbPoint
 10
624.9124505380174
 20
230.1815617289227
 30
0.0
  0
ENDBLK
  5
8F2
330
8F0
100
AcDbEntity
  8
0
100
AcDbBlockEnd
  0
BLOCK
  5
900
330
8FF
100
AcDbEntity
  8
0
100
AcDbBlockBegin
  2
*D10
 70
     1
 10
0.0
 20
0.0
 30
0.0
  3
*D10
  1
*D28
  0
LINE
  5
902
330
8FF
100
AcDbEntity
  8
WY
 62
     0
100
AcDbLine
 10
609.7124505380175
 20
234.0445333826096
 30
0.0
 11
609.7124505380175
 21
229.1815617289227
 31
0.0
  0
LINE
  5
903
330
8FF
100
AcDbEntity
  8
WY
 62
     0
100
AcDbLine
 10
607.2124505380175
 20
236.4797028191857
 30
0.0
 11
607.2124505380175
 21
229.1815617289227
 31
0.0
  0
LINE
  5
904
330
8FF
100
AcDbEntity
  8
WY
 62
     0
100
AcDbLine
 10
605.7124505380175
 20
230.1815617289227
 30
0.0
 11
598.9624505380175
 21
230.1815617289227
 31
0.0
  0
LINE
  5
905
330
8FF
100
AcDbEntity
  8
WY
 62
     0
100
AcDbLine
 10
609.7124505380175
 20
230.1815617289227
 30
0.0
 11
607.2124505380175
 21
230.1815617289227
 31
0.0
  0
LINE
  5
906
330
8FF
100
AcDbEntity
  8
WY
 62
     0
100
AcDbLine
 10
611.2124505380175
 20
230.1815617289227
 30
0.0
 11
612.7124505380175
 21
230.1815617289227
 31
0.0
  0
SOLID
  5
907
330
8FF
100
AcDbEntity
  8
WY
 62
     0
100
AcDbTrace
 10
611.2124505380175
 20
230.4315617289227
 30
0.0
 11
611.2124505380175
 21
229.9315617289227
 31
0.0
 12
609.7124505380175
 22
230.1815617289227
 32
0.0
 13
609.7124505380175
 23
230.1815617289227
 33
0.0
  0
SOLID
  5
908
330
8FF
100
AcDbEntity
  8
WY
 62
     0
100
AcDbTrace
 10
605.7124505380175
 20
229.9315617289227
 30
0.0
 11
605.7124505380175
 21
230.4315617289227
 31
0.0
 12
607.2124505380175
 22
230.1815617289227
 32
0.0
 13
607.2124505380175
 23
230.1815617289227
 33
0.0
  0
MTEXT
  5
909
330
8FF
100
AcDbEntity
  8
WY
 62
     0
100
AcDbMText
 10
601.5874505380175
 20
232.0565617289227
 30
0.0
 40
1.5
 41
0.0
 71
     5
 72
     1
  1
2,5
  0
POINT
  5
90A
330
8FF
100
AcDbEntity
  8
DEFPOINTS
 62
     0
100
AcDbPoint
 10
609.7124505380175
 20
235.0445333826096
 30
0.0
  0
POINT
  5
90B
330
8FF
100
AcDbEntity
  8
DEFPOINTS
 62
     0
100
AcDbPoint
 10
607.2124505380175
 20
237.4797028191857
 30
0.0
  0
POINT
  5
90C
330
8FF
100
AcDbEntity
  8
DEFPOINTS
 62
     0
100
AcDbPoint
 10
607.2124505380175
 20
230.1815617289227
 30
0.0
  0
ENDBLK
  5
901
330
8FF
100
AcDbEntity
  8
0
100
AcDbBlockEnd
  0
BLOCK
  5
911
330
910
100
AcDbEntity
  8
0
100
AcDbBlockBegin
  2
*D11
 70
     1
 10
0.0
 20
0.0
 30
0.0
  3
*D11
  1
*D29
  0
LINE
  5
913
330
910
100
AcDbEntity
  8
WY
 62
     0
100
AcDbLine
 10
607.2124505380175
 20
250.5797028191857
 30
0.0
 11
607.2124505380175
 21
258.8666391449163
 31
0.0
  0
LINE
  5
914
330
910
100
AcDbEntity
  8
WY
 62
     0
100
AcDbLine
 10
636.2124505380175
 20
250.5797028191857
 30
0.0
 11
636.2124505380175
 21
258.8666391449163
 31
0.0
  0
LINE
  5
915
330
910
100
AcDbEntity
  8
WY
 62
     0
100
AcDbLine
 10
608.7124505380175
 20
257.8666391449163
 30
0.0
 11
634.7124505380175
 21
257.8666391449163
 31
0.0
  0
SOLID
  5
916
330
910
100
AcDbEntity
  8
WY
 62
     0
100
AcDbTrace
 10
608.7124505380175
 20
258.1166391449163
 30
0.0
 11
608.7124505380175
 21
257.6166391449163
 31
0.0
 12
607.2124505380175
 22
257.8666391449163
 32
0.0
 13
607.2124505380175
 23
257.8666391449163
 33
0.0
  0
SOLID
  5
917
330
910
100
AcDbEntity
  8
WY
 62
     0
100
AcDbTrace
 10
634.7124505380175
 20
257.6166391449163
 30
0.0
 11
634.7124505380175
 21
258.1166391449163
 31
0.0
 12
636.2124505380175
 22
257.8666391449163
 32
0.0
 13
636.2124505380175
 23
257.8666391449163
 33
0.0
  0
MTEXT
  5
918
330
910
100
AcDbEntity
  8
WY
 62
     0
100
AcDbMText
 10
621.7124505380175
 20
259.6166391449163
 30
0.0
 40
1.5
 41
0.0
 71
     5
 72
     1
  1
29
  0
POINT
  5
919
330
910
100
AcDbEntity
  8
DEFPOINTS
 62
     0
100
AcDbPoint
 10
607.2124505380175
 20
249.5797028191857
 30
0.0
  0
POINT
  5
91A
330
910
100
AcDbEntity
  8
DEFPOINTS
 62
     0
100
AcDbPoint
 10
636.2124505380175
 20
249.5797028191857
 30
0.0
  0
POINT
  5
91B
330
910
100
AcDbEntity
  8
DEFPOINTS
 62
     0
100
AcDbPoint
 10
636.2124505380175
 20
257.8666391449163
 30
0.0
  0
ENDBLK
  5
912
330
910
100
AcDbEntity
  8
0
100
AcDbBlockEnd
  0
BLOCK
  5
920
330
91F
100
AcDbEntity
  8
0
100
AcDbBlockBegin
  2
*D12
 70
     1
 10
0.0
 20
0.0
 30
0.0
  3
*D12
  1
*D30
  0
LINE
  5
922
330
91F
100
AcDbEntity
  8
WY
 62
     0
100
AcDbLine
 10
608.4624505380175
 20
246.8297028191857
 30
0.0
 11
600.0351355772591
 21
246.8297028191857
 31
0.0
  0
LINE
  5
923
330
91F
100
AcDbEntity
  8
WY
 62
     0
100
AcDbLine
 10
608.4624505380175
 20
240.2297028191857
 30
0.0
 11
600.0351355772591
 21
240.2297028191857
 31
0.0
  0
LINE
  5
924
330
91F
100
AcDbEntity
  8
WY
 62
     0
100
AcDbLine
 10
601.0351355772591
 20
245.3297028191857
 30
0.0
 11
601.0351355772591
 21
241.7297028191857
 31
0.0
  0
SOLID
  5
925
330
91F
100
AcDbEntity
  8
WY
 62
     0
100
AcDbTrace
 10
601.2851355772591
 20
245.3297028191857
 30
0.0
 11
600.7851355772591
 21
245.3297028191857
 31
0.0
 12
601.0351355772591
 22
246.8297028191857
 32
0.0
 13
601.0351355772591
 23
246.8297028191857
 33
0.0
  0
SOLID
  5
926
330
91F
100
AcDbEntity
  8
WY
 62
     0
100
AcDbTrace
 10
600.7851355772591
 20
241.7297028191857
 30
0.0
 11
601.2851355772591
 21
241.7297028191857
 31
0.0
 12
601.0351355772591
 22
240.2297028191857
 32
0.0
 13
601.0351355772591
 23
240.2297028191857
 33
0.0
  0
MTEXT
  5
927
330
91F
100
AcDbEntity
  8
WY
 62
     0
100
AcDbMText
 10
599.1601355772591
 20
243.5297028191857
 30
0.0
 40
1.5
 41
0.0
 71
     5
 72
     1
  1
6,6
 11
0.0
 21
1.0
 31
0.0
  0
POINT
  5
928
330
91F
100
AcDbEntity
  8
DEFPOINTS
 62
     0
100
AcDbPoint
 10
609.4624505380175
 20
246.8297028191857
 30
0.0
  0
POINT
  5
929
330
91F
100
AcDbEntity
  8
DEFPOINTS
 62
     0
100
AcDbPoint
 10
609.4624505380175
 20
240.2297028191857
 30
0.0
  0
POINT
  5
92A
330
91F
100
AcDbEntity
  8
DEFPOINTS
 62
     0
100
AcDbPoint
 10
601.0351355772591
 20
240.2297028191857
 30
0.0
  0
ENDBLK
  5
921
330
91F
100
AcDbEntity
  8
0
100
AcDbBlockEnd
  0
BLOCK
  5
930
330
92F
100
AcDbEntity
  8
0
100
AcDbBlockBegin
  2
*D13
 70
     1
 10
0.0
 20
0.0
 30
0.0
  3
*D13
  1
*D31
  0
LINE
  5
932
330
92F
100
AcDbEntity
  8
WY
 62
     0
100
AcDbLine
 10
558.6838552294602
 20
197.2523810410479
 30
0.0
 11
550.5851744476361
 21
197.2523810410479
 31
0.0
  0
LINE
  5
933
330
92F
100
AcDbEntity
  8
WY
 62
     0
100
AcDbLine
 10
558.6838552294602
 20
197.8523810410478
 30
0.0
 11
550.5851744476361
 21
197.8523810410478
 31
0.0
  0
LINE
  5
934
330
92F
100
AcDbEntity
  8
WY
 62
     0
100
AcDbLine
 10
551.5851744476361
 20
199.3523810410478
 30
0.0
 11
551.5851744476361
 21
210.3523810410478
 31
0.0
  0
LINE
  5
935
330
92F
100
AcDbEntity
  8
WY
 62
     0
100
AcDbLine
 10
551.5851744476361
 20
197.2523810410479
 30
0.0
 11
551.5851744476361
 21
197.8523810410478
 31
0.0
  0
LINE
  5
936
330
92F
100
AcDbEntity
  8
WY
 62
     0
100
AcDbLine
 10
551.5851744476361
 20
195.7523810410479
 30
0.0
 11
551.5851744476361
 21
194.2523810410479
 31
0.0
  0
SOLID
  5
937
330
92F
100
AcDbEntity
  8
WY
 62
     0
100
AcDbTrace
 10
551.8351744476361
 20
195.7523810410479
 30
0.0
 11
551.3351744476361
 21
195.7523810410479
 31
0.0
 12
551.5851744476361
 22
197.2523810410479
 32
0.0
 13
551.5851744476361
 23
197.2523810410479
 33
0.0
  0
SOLID
  5
938
330
92F
100
AcDbEntity
  8
WY
 62
     0
100
AcDbTrace
 10
551.3351744476361
 20
199.3523810410478
 30
0.0
 11
551.8351744476361
 21
199.3523810410478
 31
0.0
 12
551.5851744476361
 22
197.8523810410478
 32
0.0
 13
551.5851744476361
 23
197.8523810410478
 33
0.0
  0
MTEXT
  5
939
330
92F
100
AcDbEntity
  8
WY
 62
     0
100
AcDbMText
 10
549.7101744476361
 20
205.6023810410478
 30
0.0
 40
1.5
 41
0.0
 71
     5
 72
     1
  1
0,6-0,1
 11
0.0
 21
1.0
 31
0.0
  0
POINT
  5
93A
330
92F
100
AcDbEntity
  8
DEFPOINTS
 62
     0
100
AcDbPoint
 10
559.6838552294602
 20
197.2523810410479
 30
0.0
  0
POINT
  5
93B
330
92F
100
AcDbEntity
  8
DEFPOINTS
 62
     0
100
AcDbPoint
 10
559.6838552294602
 20
197.8523810410478
 30
0.0
  0
POINT
  5
93C
330
92F
100
AcDbEntity
  8
DEFPOINTS
 62
     0
100
AcDbPoint
 10
551.5851744476361
 20
197.8523810410478
 30
0.0
  0
ENDBLK
  5
931
330
92F
100
AcDbEntity
  8
0
100
AcDbBlockEnd
  0
BLOCK
  5
A0D
330
A0C
100
AcDbEntity
  8
0
100
AcDbBlockBegin
  2
*D14
 70
     1
 10
0.0
 20
0.0
 30
0.0
  3
*D14
  1
*D32
  0
LINE
  5
A0F
330
A0C
100
AcDbEntity
  8
WY
 62
     0
100
AcDbLine
 10
608.4124505380175
 20
89.24418850554376
 30
0.0
 11
597.3061068053858
 21
89.24418850554376
 31
0.0
  0
LINE
  5
A10
330
A0C
100
AcDbEntity
  8
WY
 62
     0
100
AcDbLine
 10
606.5124505380174
 20
106.9441885055438
 30
0.0
 11
597.3061068053858
 21
106.9441885055438
 31
0.0
  0
LINE
  5
A11
330
A0C
100
AcDbEntity
  8
WY
 62
     0
100
AcDbLine
 10
598.3061068053858
 20
90.74418850554376
 30
0.0
 11
598.3061068053858
 21
105.4441885055438
 31
0.0
  0
SOLID
  5
A12
330
A0C
100
AcDbEntity
  8
WY
 62
     0
100
AcDbTrace
 10
598.0561068053858
 20
90.74418850554376
 30
0.0
 11
598.5561068053858
 21
90.74418850554376
 31
0.0
 12
598.3061068053858
 22
89.24418850554376
 32
0.0
 13
598.3061068053858
 23
89.24418850554376
 33
0.0
  0
SOLID
  5
A13
330
A0C
100
AcDbEntity
  8
WY
 62
     0
100
AcDbTrace
 10
598.5561068053858
 20
105.4441885055438
 30
0.0
 11
598.0561068053858
 21
105.4441885055438
 31
0.0
 12
598.3061068053858
 22
106.9441885055438
 32
0.0
 13
598.3061068053858
 23
106.9441885055438
 33
0.0
  0
MTEXT
  5
A14
330
A0C
100
AcDbEntity
  8
WY
 62
     0
100
AcDbMText
 10
596.4311068053858
 20
98.09418850554376
 30
0.0
 40
1.5
 41
0.0
 71
     5
 72
     1
  1
17,7
 11
0.0
 21
1.0
 31
0.0
  0
POINT
  5
A15
330
A0C
100
AcDbEntity
  8
DEFPOINTS
 62
     0
100
AcDbPoint
 10
609.4124505380175
 20
89.24418850554376
 30
0.0
  0
POINT
  5
A16
330
A0C
100
AcDbEntity
  8
DEFPOINTS
 62
     0
100
AcDbPoint
 10
607.5124505380174
 20
106.9441885055438
 30
0.0
  0
POINT
  5
A17
330
A0C
100
AcDbEntity
  8
DEFPOINTS
 62
     0
100
AcDbPoint
 10
598.3061068053858
 20
106.9441885055438
 30
0.0
  0
ENDBLK
  5
A0E
330
A0C
100
AcDbEntity
  8
0
100
AcDbBlockEnd
  0
BLOCK
  5
A19
330
A18
100
AcDbEntity
  8
0
100
AcDbBlockBegin
  2
*D15
 70
     1
 10
0.0
 20
0.0
 30
0.0
  3
*D15
  1
*D33
  0
LINE
  5
A1B
330
A18
100
AcDbEntity
  8
WY
 62
     0
100
AcDbLine
 10
606.5124505380174
 20
91.24418850554376
 30
0.0
 11
601.9569942642437
 21
91.24418850554376
 31
0.0
  0
LINE
  5
A1C
330
A18
100
AcDbEntity
  8
WY
 62
     0
100
AcDbLine
 10
606.5124505380174
 20
106.9441885055437
 30
0.0
 11
601.9569942642437
 21
106.9441885055437
 31
0.0
  0
LINE
  5
A1D
330
A18
100
AcDbEntity
  8
WY
 62
     0
100
AcDbLine
 10
602.9569942642437
 20
92.74418850554376
 30
0.0
 11
602.9569942642437
 21
105.4441885055437
 31
0.0
  0
SOLID
  5
A1E
330
A18
100
AcDbEntity
  8
WY
 62
     0
100
AcDbTrace
 10
602.7069942642437
 20
92.74418850554376
 30
0.0
 11
603.2069942642437
 21
92.74418850554376
 31
0.0
 12
602.9569942642437
 22
91.24418850554376
 32
0.0
 13
602.9569942642437
 23
91.24418850554376
 33
0.0
  0
SOLID
  5
A1F
330
A18
100
AcDbEntity
  8
WY
 62
     0
100
AcDbTrace
 10
603.2069942642437
 20
105.4441885055437
 30
0.0
 11
602.7069942642437
 21
105.4441885055437
 31
0.0
 12
602.9569942642437
 22
106.9441885055437
 32
0.0
 13
602.9569942642437
 23
106.9441885055437
 33
0.0
  0
MTEXT
  5
A20
330
A18
100
AcDbEntity
  8
WY
 62
     0
100
AcDbMText
 10
601.0819942642437
 20
99.09418850554376
 30
0.0
 40
1.5
 41
0.0
 71
     5
 72
     1
  1
15,7
 11
0.0
 21
1.0
 31
0.0
  0
POINT
  5
A21
330
A18
100
AcDbEntity
  8
DEFPOINTS
 62
     0
100
AcDbPoint
 10
607.5124505380174
 20
91.24418850554376
 30
0.0
  0
POINT
  5
A22
330
A18
100
AcDbEntity
  8
DEFPOINTS
 62
     0
100
AcDbPoint
 10
607.5124505380174
 20
106.9441885055437
 30
0.0
  0
POINT
  5
A23
330
A18
100
AcDbEntity
  8
DEFPOINTS
 62
     0
100
AcDbPoint
 10
602.9569942642437
 20
106.9441885055437
 30
0.0
  0
ENDBLK
  5
A1A
330
A18
100
AcDbEntity
  8
0
100
AcDbBlockEnd
  0
BLOCK
  5
A25
330
A24
100
AcDbEntity
  8
0
100
AcDbBlockBegin
  2
*D16
 70
     1
 10
0.0
 20
0.0
 30
0.0
  3
*D16
  1
*D34
  0
LINE
  5
A27
330
A24
100
AcDbEntity
  8
WY
 62
     0
100
AcDbLine
 10
609.4124505380175
 20
88.24418850554376
 30
0.0
 11
609.4124505380175
 21
81.76611559868563
 31
0.0
  0
LINE
  5
A28
330
A24
100
AcDbEntity
  8
WY
 62
     0
100
AcDbLine
 10
610.0124505380174
 20
88.24418850554376
 30
0.0
 11
610.0124505380174
 21
81.76611559868563
 31
0.0
  0
LINE
  5
A29
330
A24
100
AcDbEntity
  8
WY
 62
     0
100
AcDbLine
 10
611.5124505380174
 20
82.76611559868563
 30
0.0
 11
622.5124505380174
 21
82.76611559868563
 31
0.0
  0
LINE
  5
A2A
330
A24
100
AcDbEntity
  8
WY
 62
     0
100
AcDbLine
 10
609.4124505380175
 20
82.76611559868563
 30
0.0
 11
610.0124505380174
 21
82.76611559868563
 31
0.0
  0
LINE
  5
A2B
330
A24
100
AcDbEntity
  8
WY
 62
     0
100
AcDbLine
 10
607.9124505380175
 20
82.76611559868563
 30
0.0
 11
606.4124505380175
 21
82.76611559868563
 31
0.0
  0
SOLID
  5
A2C
330
A24
100
AcDbEntity
  8
WY
 62
     0
100
AcDbTrace
 10
607.9124505380175
 20
82.51611559868563
 30
0.0
 11
607.9124505380175
 21
83.01611559868563
 31
0.0
 12
609.4124505380175
 22
82.76611559868563
 32
0.0
 13
609.4124505380175
 23
82.76611559868563
 33
0.0
  0
SOLID
  5
A2D
330
A24
100
AcDbEntity
  8
WY
 62
     0
100
AcDbTrace
 10
611.5124505380174
 20
83.01611559868563
 30
0.0
 11
611.5124505380174
 21
82.51611559868563
 31
0.0
 12
610.0124505380174
 22
82.76611559868563
 32
0.0
 13
610.0124505380174
 23
82.76611559868563
 33
0.0
  0
MTEXT
  5
A2E
330
A24
100
AcDbEntity
  8
WY
 62
     0
100
AcDbMText
 10
617.7624505380174
 20
84.64111559868563
 30
0.0
 40
1.5
 41
0.0
 71
     5
 72
     1
  1
0,6-0,1
  0
POINT
  5
A2F
330
A24
100
AcDbEntity
  8
DEFPOINTS
 62
     0
100
AcDbPoint
 10
609.4124505380175
 20
89.24418850554376
 30
0.0
  0
POINT
  5
A30
330
A24
100
AcDbEntity
  8
DEFPOINTS
 62
     0
100
AcDbPoint
 10
610.0124505380174
 20
89.24418850554376
 30
0.0
  0
POINT
  5
A31
330
A24
100
AcDbEntity
  8
DEFPOINTS
 62
     0
100
AcDbPoint
 10
610.0124505380174
 20
82.76611559868563
 30
0.0
  0
ENDBLK
  5
A26
330
A24
100
AcDbEntity
  8
0
100
AcDbBlockEnd
  0
BLOCK
  5
A33
330
A32
100
AcDbEntity
  8
0
100
AcDbBlockBegin
  2
*D17
 70
     1
 10
0.0
 20
0.0
 30
0.0
  3
*D17
  1
*D35
  0
LINE
  5
A35
330
A32
100
AcDbEntity
  8
WY
 62
     0
100
AcDbLine
 10
634.4624505380174
 20
88.24418850554376
 30
0.0
 11
634.4624505380174
 21
81.76611559868563
 31
0.0
  0
LINE
  5
A36
330
A32
100
AcDbEntity
  8
WY
 62
     0
100
AcDbLine
 10
635.3624505380175
 20
88.24418850554376
 30
0.0
 11
635.3624505380175
 21
81.76611559868563
 31
0.0
  0
LINE
  5
A37
330
A32
100
AcDbEntity
  8
WY
 62
     0
100
AcDbLine
 10
636.8624505380175
 20
82.76611559868563
 30
0.0
 11
647.8624505380175
 21
82.76611559868563
 31
0.0
  0
LINE
  5
A38
330
A32
100
AcDbEntity
  8
WY
 62
     0
100
AcDbLine
 10
634.4624505380174
 20
82.76611559868563
 30
0.0
 11
635.3624505380175
 21
82.76611559868563
 31
0.0
  0
LINE
  5
A39
330
A32
100
AcDbEntity
  8
WY
 62
     0
100
AcDbLine
 10
632.9624505380174
 20
82.76611559868563
 30
0.0
 11
631.4624505380174
 21
82.76611559868563
 31
0.0
  0
SOLID
  5
A3A
330
A32
100
AcDbEntity
  8
WY
 62
     0
100
AcDbTrace
 10
632.9624505380174
 20
82.51611559868563
 30
0.0
 11
632.9624505380174
 21
83.01611559868563
 31
0.0
 12
634.4624505380174
 22
82.76611559868563
 32
0.0
 13
634.4624505380174
 23
82.76611559868563
 33
0.0
  0
SOLID
  5
A3B
330
A32
100
AcDbEntity
  8
WY
 62
     0
100
AcDbTrace
 10
636.8624505380175
 20
83.01611559868563
 30
0.0
 11
636.8624505380175
 21
82.51611559868563
 31
0.0
 12
635.3624505380175
 22
82.76611559868563
 32
0.0
 13
635.3624505380175
 23
82.76611559868563
 33
0.0
  0
MTEXT
  5
A3C
330
A32
100
AcDbEntity
  8
WY
 62
     0
100
AcDbMText
 10
643.1124505380175
 20
84.64111559868563
 30
0.0
 40
1.5
 41
0.0
 71
     5
 72
     1
  1
0,9-0,1
  0
POINT
  5
A3D
330
A32
100
AcDbEntity
  8
DEFPOINTS
 62
     0
100
AcDbPoint
 10
634.4624505380174
 20
89.24418850554376
 30
0.0
  0
POINT
  5
A3E
330
A32
100
AcDbEntity
  8
DEFPOINTS
 62
     0
100
AcDbPoint
 10
635.3624505380175
 20
89.24418850554376
 30
0.0
  0
POINT
  5
A3F
330
A32
100
AcDbEntity
  8
DEFPOINTS
 62
     0
100
AcDbPoint
 10
635.3624505380175
 20
82.76611559868563
 30
0.0
  0
ENDBLK
  5
A34
330
A32
100
AcDbEntity
  8
0
100
AcDbBlockEnd
  0
BLOCK
  5
A41
330
A40
100
AcDbEntity
  8
0
100
AcDbBlockBegin
  2
*D18
 70
     1
 10
0.0
 20
0.0
 30
0.0
  3
*D18
  1
*D36
  0
LINE
  5
A43
330
A40
100
AcDbEntity
  8
WY
 62
     0
100
AcDbLine
 10
559.6838552294602
 20
89.00248637788415
 30
0.0
 11
559.6838552294602
 21
80.1398701117149
 31
0.0
  0
LINE
  5
A44
330
A40
100
AcDbEntity
  8
WY
 62
     0
100
AcDbLine
 10
572.8838552294602
 20
89.00248637788427
 30
0.0
 11
572.8838552294602
 21
80.1398701117149
 31
0.0
  0
LINE
  5
A45
330
A40
100
AcDbEntity
  8
WY
 62
     0
100
AcDbLine
 10
561.1838552294602
 20
81.1398701117149
 30
0.0
 11
571.3838552294602
 21
81.1398701117149
 31
0.0
  0
SOLID
  5
A46
330
A40
100
AcDbEntity
  8
WY
 62
     0
100
AcDbTrace
 10
561.1838552294602
 20
81.3898701117149
 30
0.0
 11
561.1838552294602
 21
80.8898701117149
 31
0.0
 12
559.6838552294602
 22
81.1398701117149
 32
0.0
 13
559.6838552294602
 23
81.1398701117149
 33
0.0
  0
SOLID
  5
A47
330
A40
100
AcDbEntity
  8
WY
 62
     0
100
AcDbTrace
 10
571.3838552294602
 20
80.8898701117149
 30
0.0
 11
571.3838552294602
 21
81.3898701117149
 31
0.0
 12
572.8838552294602
 22
81.1398701117149
 32
0.0
 13
572.8838552294602
 23
81.1398701117149
 33
0.0
  0
MTEXT
  5
A48
330
A40
100
AcDbEntity
  8
WY
 62
     0
100
AcDbMText
 10
566.2838552294602
 20
83.0148701117149
 30
0.0
 40
1.5
 41
0.0
 71
     5
 72
     1
  1
max. 13,2
  0
POINT
  5
A49
330
A40
100
AcDbEntity
  8
DEFPOINTS
 62
     0
100
AcDbPoint
 10
559.6838552294602
 20
90.00248637788415
 30
0.0
  0
POINT
  5
A4A
330
A40
100
AcDbEntity
  8
DEFPOINTS
 62
     0
100
AcDbPoint
 10
572.8838552294602
 20
90.00248637788427
 30
0.0
  0
POINT
  5
A4B
330
A40
100
AcDbEntity
  8
DEFPOINTS
 62
     0
100
AcDbPoint
 10
572.8838552294602
 20
81.1398701117149
 30
0.0
  0
ENDBLK
  5
A42
330
A40
100
AcDbEntity
  8
0
100
AcDbBlockEnd
  0
BLOCK
  5
A59
330
A58
100
AcDbEntity
  8
0
100
AcDbBlockBegin
  2
*D19
 70
     1
 10
0.0
 20
0.0
 30
0.0
  3
*D19
  1
*D38
  0
LINE
  5
A5B
330
A58
100
AcDbEntity
  8
WY
 62
     0
100
AcDbLine
 10
629.910777955269
 20
126.7812513513889
 30
0.0
 11
629.910777955269
 21
121.931667065759
 31
0.0
  0
LINE
  5
A5C
330
A58
100
AcDbEntity
  8
WY
 62
     0
100
AcDbLine
 10
634.9124505380174
 20
126.7946387194459
 30
0.0
 11
634.9124505380174
 21
121.931667065759
 31
0.0
  0
LINE
  5
A5D
330
A58
100
AcDbEntity
  8
WY
 62
     0
100
AcDbLine
 10
631.410777955269
 20
122.931667065759
 30
0.0
 11
633.4124505380174
 21
122.931667065759
 31
0.0
  0
SOLID
  5
A5E
330
A58
100
AcDbEntity
  8
WY
 62
     0
100
AcDbTrace
 10
631.410777955269
 20
123.181667065759
 30
0.0
 11
631.410777955269
 21
122.681667065759
 31
0.0
 12
629.910777955269
 22
122.931667065759
 32
0.0
 13
629.910777955269
 23
122.931667065759
 33
0.0
  0
SOLID
  5
A5F
330
A58
100
AcDbEntity
  8
WY
 62
     0
100
AcDbTrace
 10
633.4124505380174
 20
122.681667065759
 30
0.0
 11
633.4124505380174
 21
123.181667065759
 31
0.0
 12
634.9124505380174
 22
122.931667065759
 32
0.0
 13
634.9124505380174
 23
122.931667065759
 33
0.0
  0
MTEXT
  5
A60
330
A58
100
AcDbEntity
  8
WY
 62
     0
100
AcDbMText
 10
632.4116142466432
 20
124.681667065759
 30
0.0
 40
1.5
 41
0.0
 71
     5
 72
     1
  1
5
  0
POINT
  5
A61
330
A58
100
AcDbEntity
  8
DEFPOINTS
 62
     0
100
AcDbPoint
 10
629.910777955269
 20
127.7812513513889
 30
0.0
  0
POINT
  5
A62
330
A58
100
AcDbEntity
  8
DEFPOINTS
 62
     0
100
AcDbPoint
 10
634.9124505380174
 20
127.7946387194459
 30
0.0
  0
POINT
  5
A63
330
A58
100
AcDbEntity
  8
DEFPOINTS
 62
     0
100
AcDbPoint
 10
634.9124505380174
 20
122.931667065759
 30
0.0
  0
ENDBLK
  5
A5A
330
A58
100
AcDbEntity
  8
0
100
AcDbBlockEnd
  0
BLOCK
  5
A65
330
A64
100
AcDbEntity
  8
0
100
AcDbBlockBegin
  2
*D20
 70
     1
 10
0.0
 20
0.0
 30
0.0
  3
*D20
  1
*D39
  0
LINE
  5
A67
330
A64
100
AcDbEntity
  8
WY
 62
     0
100
AcDbLine
 10
609.7124505380175
 20
126.7946387194459
 30
0.0
 11
609.7124505380175
 21
121.931667065759
 31
0.0
  0
LINE
  5
A68
330
A64
100
AcDbEntity
  8
WY
 62
     0
100
AcDbLine
 10
629.910777955269
 20
126.7812513513889
 30
0.0
 11
629.910777955269
 21
121.931667065759
 31
0.0
  0
LINE
  5
A69
330
A64
100
AcDbEntity
  8
WY
 62
     0
100
AcDbLine
 10
611.2124505380175
 20
122.931667065759
 30
0.0
 11
628.410777955269
 21
122.931667065759
 31
0.0
  0
SOLID
  5
A6A
330
A64
100
AcDbEntity
  8
WY
 62
     0
100
AcDbTrace
 10
611.2124505380175
 20
123.181667065759
 30
0.0
 11
611.2124505380175
 21
122.681667065759
 31
0.0
 12
609.7124505380175
 22
122.931667065759
 32
0.0
 13
609.7124505380175
 23
122.931667065759
 33
0.0
  0
SOLID
  5
A6B
330
A64
100
AcDbEntity
  8
WY
 62
     0
100
AcDbTrace
 10
628.410777955269
 20
122.681667065759
 30
0.0
 11
628.410777955269
 21
123.181667065759
 31
0.0
 12
629.910777955269
 22
122.931667065759
 32
0.0
 13
629.910777955269
 23
122.931667065759
 33
0.0
  0
MTEXT
  5
A6C
330
A64
100
AcDbEntity
  8
WY
 62
     0
100
AcDbMText
 10
619.8116142466433
 20
124.806667065759
 30
0.0
 40
1.5
 41
0.0
 71
     5
 72
     1
  1
20,2
  0
POINT
  5
A6D
330
A64
100
AcDbEntity
  8
DEFPOINTS
 62
     0
100
AcDbPoint
 10
609.7124505380175
 20
127.7946387194459
 30
0.0
  0
POINT
  5
A6E
330
A64
100
AcDbEntity
  8
DEFPOINTS
 62
     0
100
AcDbPoint
 10
629.910777955269
 20
127.7812513513889
 30
0.0
  0
POINT
  5
A6F
330
A64
100
AcDbEntity
  8
DEFPOINTS
 62
     0
100
AcDbPoint
 10
629.910777955269
 20
122.931667065759
 30
0.0
  0
ENDBLK
  5
A66
330
A64
100
AcDbEntity
  8
0
100
AcDbBlockEnd
  0
BLOCK
  5
A71
330
A70
100
AcDbEntity
  8
0
100
AcDbBlockBegin
  2
*D21
 70
     1
 10
0.0
 20
0.0
 30
0.0
  3
*D21
  1
*D40
  0
LINE
  5
A73
330
A70
100
AcDbEntity
  8
WY
 62
     0
100
AcDbLine
 10
609.7124505380175
 20
126.7946387194459
 30
0.0
 11
609.7124505380175
 21
121.931667065759
 31
0.0
  0
LINE
  5
A74
330
A70
100
AcDbEntity
  8
WY
 62
     0
100
AcDbLine
 10
607.2124505380175
 20
129.229808156022
 30
0.0
 11
607.2124505380175
 21
121.931667065759
 31
0.0
  0
LINE
  5
A75
330
A70
100
AcDbEntity
  8
WY
 62
     0
100
AcDbLine
 10
605.7124505380175
 20
122.931667065759
 30
0.0
 11
598.9624505380175
 21
122.931667065759
 31
0.0
  0
LINE
  5
A76
330
A70
100
AcDbEntity
  8
WY
 62
     0
100
AcDbLine
 10
609.7124505380175
 20
122.931667065759
 30
0.0
 11
607.2124505380175
 21
122.931667065759
 31
0.0
  0
LINE
  5
A77
330
A70
100
AcDbEntity
  8
WY
 62
     0
100
AcDbLine
 10
611.2124505380175
 20
122.931667065759
 30
0.0
 11
612.7124505380175
 21
122.931667065759
 31
0.0
  0
SOLID
  5
A78
330
A70
100
AcDbEntity
  8
WY
 62
     0
100
AcDbTrace
 10
611.2124505380175
 20
123.181667065759
 30
0.0
 11
611.2124505380175
 21
122.681667065759
 31
0.0
 12
609.7124505380175
 22
122.931667065759
 32
0.0
 13
609.7124505380175
 23
122.931667065759
 33
0.0
  0
SOLID
  5
A79
330
A70
100
AcDbEntity
  8
WY
 62
     0
100
AcDbTrace
 10
605.7124505380175
 20
122.681667065759
 30
0.0
 11
605.7124505380175
 21
123.181667065759
 31
0.0
 12
607.2124505380175
 22
122.931667065759
 32
0.0
 13
607.2124505380175
 23
122.931667065759
 33
0.0
  0
MTEXT
  5
A7A
330
A70
100
AcDbEntity
  8
WY
 62
     0
100
AcDbMText
 10
601.5874505380175
 20
124.806667065759
 30
0.0
 40
1.5
 41
0.0
 71
     5
 72
     1
  1
2,5
  0
POINT
  5
A7B
330
A70
100
AcDbEntity
  8
DEFPOINTS
 62
     0
100
AcDbPoint
 10
609.7124505380175
 20
127.7946387194459
 30
0.0
  0
POINT
  5
A7C
330
A70
100
AcDbEntity
  8
DEFPOINTS
 62
     0
100
AcDbPoint
 10
607.2124505380175
 20
130.229808156022
 30
0.0
  0
POINT
  5
A7D
330
A70
100
AcDbEntity
  8
DEFPOINTS
 62
     0
100
AcDbPoint
 10
607.2124505380175
 20
122.931667065759
 30
0.0
  0
ENDBLK
  5
A72
330
A70
100
AcDbEntity
  8
0
100
AcDbBlockEnd
  0
BLOCK
  5
A7F
330
A7E
100
AcDbEntity
  8
0
100
AcDbBlockBegin
  2
*D22
 70
     1
 10
0.0
 20
0.0
 30
0.0
  3
*D22
  1
*D41
  0
LINE
  5
A81
330
A7E
100
AcDbEntity
  8
WY
 62
     0
100
AcDbLine
 10
607.2124505380175
 20
143.329808156022
 30
0.0
 11
607.2124505380175
 21
151.6167444817526
 31
0.0
  0
LINE
  5
A82
330
A7E
100
AcDbEntity
  8
WY
 62
     0
100
AcDbLine
 10
636.2124505380175
 20
143.329808156022
 30
0.0
 11
636.2124505380175
 21
151.6167444817526
 31
0.0
  0
LINE
  5
A83
330
A7E
100
AcDbEntity
  8
WY
 62
     0
100
AcDbLine
 10
608.7124505380175
 20
150.6167444817526
 30
0.0
 11
634.7124505380175
 21
150.6167444817526
 31
0.0
  0
SOLID
  5
A84
330
A7E
100
AcDbEntity
  8
WY
 62
     0
100
AcDbTrace
 10
608.7124505380175
 20
150.8667444817526
 30
0.0
 11
608.7124505380175
 21
150.3667444817526
 31
0.0
 12
607.2124505380175
 22
150.6167444817526
 32
0.0
 13
607.2124505380175
 23
150.6167444817526
 33
0.0
  0
SOLID
  5
A85
330
A7E
100
AcDbEntity
  8
WY
 62
     0
100
AcDbTrace
 10
634.7124505380175
 20
150.3667444817526
 30
0.0
 11
634.7124505380175
 21
150.8667444817526
 31
0.0
 12
636.2124505380175
 22
150.6167444817526
 32
0.0
 13
636.2124505380175
 23
150.6167444817526
 33
0.0
  0
MTEXT
  5
A86
330
A7E
100
AcDbEntity
  8
WY
 62
     0
100
AcDbMText
 10
621.7124505380175
 20
152.3667444817526
 30
0.0
 40
1.5
 41
0.0
 71
     5
 72
     1
  1
29
  0
POINT
  5
A87
330
A7E
100
AcDbEntity
  8
DEFPOINTS
 62
     0
100
AcDbPoint
 10
607.2124505380175
 20
142.329808156022
 30
0.0
  0
POINT
  5
A88
330
A7E
100
AcDbEntity
  8
DEFPOINTS
 62
     0
100
AcDbPoint
 10
636.2124505380175
 20
142.329808156022
 30
0.0
  0
POINT
  5
A89
330
A7E
100
AcDbEntity
  8
DEFPOINTS
 62
     0
100
AcDbPoint
 10
636.2124505380175
 20
150.6167444817526
 30
0.0
  0
ENDBLK
  5
A80
330
A7E
100
AcDbEntity
  8
0
100
AcDbBlockEnd
  0
BLOCK
  5
A8B
330
A8A
100
AcDbEntity
  8
0
100
AcDbBlockBegin
  2
*D23
 70
     1
 10
0.0
 20
0.0
 30
0.0
  3
*D23
  1
*D42
  0
LINE
  5
A8D
330
A8A
100
AcDbEntity
  8
WY
 62
     0
100
AcDbLine
 10
608.4624505380175
 20
139.579808156022
 30
0.0
 11
600.0351355772591
 21
139.579808156022
 31
0.0
  0
LINE
  5
A8E
330
A8A
100
AcDbEntity
  8
WY
 62
     0
100
AcDbLine
 10
608.4624505380175
 20
132.979808156022
 30
0.0
 11
600.0351355772591
 21
132.979808156022
 31
0.0
  0
LINE
  5
A8F
330
A8A
100
AcDbEntity
  8
WY
 62
     0
100
AcDbLine
 10
601.0351355772591
 20
138.079808156022
 30
0.0
 11
601.0351355772591
 21
134.479808156022
 31
0.0
  0
SOLID
  5
A90
330
A8A
100
AcDbEntity
  8
WY
 62
     0
100
AcDbTrace
 10
601.2851355772591
 20
138.079808156022
 30
0.0
 11
600.7851355772591
 21
138.079808156022
 31
0.0
 12
601.0351355772591
 22
139.579808156022
 32
0.0
 13
601.0351355772591
 23
139.579808156022
 33
0.0
  0
SOLID
  5
A91
330
A8A
100
AcDbEntity
  8
WY
 62
     0
100
AcDbTrace
 10
600.7851355772591
 20
134.479808156022
 30
0.0
 11
601.2851355772591
 21
134.479808156022
 31
0.0
 12
601.0351355772591
 22
132.979808156022
 32
0.0
 13
601.0351355772591
 23
132.979808156022
 33
0.0
  0
MTEXT
  5
A92
330
A8A
100
AcDbEntity
  8
WY
 62
     0
100
AcDbMText
 10
599.1601355772591
 20
136.279808156022
 30
0.0
 40
1.5
 41
0.0
 71
     5
 72
     1
  1
6,6
 11
0.0
 21
1.0
 31
0.0
  0
POINT
  5
A93
330
A8A
100
AcDbEntity
  8
DEFPOINTS
 62
     0
100
AcDbPoint
 10
609.4624505380175
 20
139.579808156022
 30
0.0
  0
POINT
  5
A94
330
A8A
100
AcDbEntity
  8
DEFPOINTS
 62
     0
100
AcDbPoint
 10
609.4624505380175
 20
132.979808156022
 30
0.0
  0
POINT
  5
A95
330
A8A
100
AcDbEntity
  8
DEFPOINTS
 62
     0
100
AcDbPoint
 10
601.0351355772591
 20
132.979808156022
 30
0.0
  0
ENDBLK
  5
A8C
330
A8A
100
AcDbEntity
  8
0
100
AcDbBlockEnd
  0
BLOCK
  5
A97
330
A96
100
AcDbEntity
  8
0
100
AcDbBlockBegin
  2
*D24
 70
     1
 10
0.0
 20
0.0
 30
0.0
  3
*D24
  1
*D43
  0
LINE
  5
A99
330
A96
100
AcDbEntity
  8
WY
 62
     0
100
AcDbLine
 10
558.6838552294602
 20
90.00248637788415
 30
0.0
 11
550.5851744476361
 21
90.00248637788415
 31
0.0
  0
LINE
  5
A9A
330
A96
100
AcDbEntity
  8
WY
 62
     0
100
AcDbLine
 10
558.6838552294602
 20
90.60248637788412
 30
0.0
 11
550.5851744476361
 21
90.60248637788412
 31
0.0
  0
LINE
  5
A9B
330
A96
100
AcDbEntity
  8
WY
 62
     0
100
AcDbLine
 10
551.5851744476361
 20
92.10248637788412
 30
0.0
 11
551.5851744476361
 21
103.1024863778841
 31
0.0
  0
LINE
  5
A9C
330
A96
100
AcDbEntity
  8
WY
 62
     0
100
AcDbLine
 10
551.5851744476361
 20
90.00248637788415
 30
0.0
 11
551.5851744476361
 21
90.60248637788412
 31
0.0
  0
LINE
  5
A9D
330
A96
100
AcDbEntity
  8
WY
 62
     0
100
AcDbLine
 10
551.5851744476361
 20
88.50248637788415
 30
0.0
 11
551.5851744476361
 21
87.00248637788415
 31
0.0
  0
SOLID
  5
A9E
330
A96
100
AcDbEntity
  8
WY
 62
     0
100
AcDbTrace
 10
551.8351744476361
 20
88.50248637788415
 30
0.0
 11
551.3351744476361
 21
88.50248637788415
 31
0.0
 12
551.5851744476361
 22
90.00248637788415
 32
0.0
 13
551.5851744476361
 23
90.00248637788415
 33
0.0
  0
SOLID
  5
A9F
330
A96
100
AcDbEntity
  8
WY
 62
     0
100
AcDbTrace
 10
551.3351744476361
 20
92.10248637788412
 30
0.0
 11
551.8351744476361
 21
92.10248637788412
 31
0.0
 12
551.5851744476361
 22
90.60248637788412
 32
0.0
 13
551.5851744476361
 23
90.60248637788412
 33
0.0
  0
MTEXT
  5
AA0
330
A96
100
AcDbEntity
  8
WY
 62
     0
100
AcDbMText
 10
549.7101744476361
 20
98.35248637788412
 30
0.0
 40
1.5
 41
0.0
 71
     5
 72
     1
  1
0,6-0,1
 11
0.0
 21
1.0
 31
0.0
  0
POINT
  5
AA1
330
A96
100
AcDbEntity
  8
DEFPOINTS
 62
     0
100
AcDbPoint
 10
559.6838552294602
 20
90.00248637788415
 30
0.0
  0
POINT
  5
AA2
330
A96
100
AcDbEntity
  8
DEFPOINTS
 62
     0
100
AcDbPoint
 10
559.6838552294602
 20
90.60248637788412
 30
0.0
  0
POINT
  5
AA3
330
A96
100
AcDbEntity
  8
DEFPOINTS
 62
     0
100
AcDbPoint
 10
551.5851744476361
 20
90.60248637788412
 30
0.0
  0
ENDBLK
  5
A98
330
A96
100
AcDbEntity
  8
0
100
AcDbBlockEnd
  0
BLOCK
  5
E4D
330
E4C
100
AcDbEntity
  8
0
100
AcDbBlockBegin
  2
SW_CENTERMARKSYMBOL_0
 70
     0
 10
0.0
 20
0.0
 30
0.0
  3
SW_CENTERMARKSYMBOL_0
  1
SW_CENTERMARKSYMBOL_0
  0
LINE
  5
E4E
330
E4C
100
AcDbEntity
  8
0
  6
CONTINUOUS
 62
     0
100
AcDbLine
 10
0.0
 20
0.0
 30
0.0
 11
0.0
 21
2.499999999999974
 31
0.0
  0
LINE
  5
E4F
330
E4C
100
AcDbEntity
  8
0
  6
CONTINUOUS
 62
     0
100
AcDbLine
 10
0.0
 20
0.0
 30
0.0
 11
-2.500000000000002
 21
0.0
 31
0.0
  0
LINE
  5
E50
330
E4C
100
AcDbEntity
  8
0
  6
CONTINUOUS
 62
     0
100
AcDbLine
 10
0.0
 20
0.0
 30
0.0
 11
0.0
 21
-2.500000000000002
 31
0.0
  0
LINE
  5
E51
330
E4C
100
AcDbEntity
  8
0
  6
CONTINUOUS
 62
     0
100
AcDbLine
 10
0.0
 20
0.0
 30
0.0
 11
2.500000000000002
 21
0.0
 31
0.0
  0
LINE
  5
E52
330
E4C
100
AcDbEntity
  8
0
  6
CONTINUOUS
 62
     0
100
AcDbLine
 10
0.0
 20
2.499999999999974
 30
0.0
 11
0.0
 21
3.449999999999981
 31
0.0
  0
LINE
  5
E53
330
E4C
100
AcDbEntity
  8
0
  6
CONTINUOUS
 62
     0
100
AcDbLine
 10
-2.500000000000002
 20
0.0
 30
0.0
 11
-3.450000000000009
 21
0.0
 31
0.0
  0
LINE
  5
E54
330
E4C
100
AcDbEntity
  8
0
  6
CONTINUOUS
 62
     0
100
AcDbLine
 10
0.0
 20
-2.500000000000002
 30
0.0
 11
0.0
 21
-3.450000000000009
 31
0.0
  0
LINE
  5
E55
330
E4C
100
AcDbEntity
  8
0
  6
CONTINUOUS
 62
     0
100
AcDbLine
 10
2.500000000000002
 20
0.0
 30
0.0
 11
3.450000000000009
 21
0.0
 31
0.0
  0
ENDBLK
  5
E56
330
E4C
100
AcDbEntity
  8
0
100
AcDbBlockEnd
  0
BLOCK
  5
F1F
330
F1E
100
AcDbEntity
  8
0
100
AcDbBlockBegin
  2
SW_CENTERMARKSYMBOL_1
 70
     0
 10
0.0
 20
0.0
 30
0.0
  3
SW_CENTERMARKSYMBOL_1
  1
SW_CENTERMARKSYMBOL_1
  0
LINE
  5
F20
330
F1E
100
AcDbEntity
  8
0
  6
CONTINUOUS
 62
     0
100
AcDbLine
 10
0.0
 20
0.0
 30
0.0
 11
0.0000000000000139
 21
-2.500000000000002
 31
0.0
  0
LINE
  5
F21
330
F1E
100
AcDbEntity
  8
0
  6
CONTINUOUS
 62
     0
100
AcDbLine
 10
0.0
 20
0.0
 30
0.0
 11
2.500000000000002
 21
0.0000000000000278
 31
0.0
  0
LINE
  5
F22
330
F1E
100
AcDbEntity
  8
0
  6
CONTINUOUS
 62
     0
100
AcDbLine
 10
0.0
 20
0.0
 30
0.0
 11
-0.0000000000000139
 21
2.500000000000002
 31
0.0
  0
LINE
  5
F23
330
F1E
100
AcDbEntity
  8
0
  6
CONTINUOUS
 62
     0
100
AcDbLine
 10
0.0
 20
0.0
 30
0.0
 11
-2.500000000000002
 21
0.0
 31
0.0
  0
LINE
  5
F24
330
F1E
100
AcDbEntity
  8
0
  6
CONTINUOUS
 62
     0
100
AcDbLine
 10
0.0000000000000139
 20
-2.500000000000002
 30
0.0
 11
0.0000000000000139
 21
-2.799999999999997
 31
0.0
  0
LINE
  5
F25
330
F1E
100
AcDbEntity
  8
0
  6
CONTINUOUS
 62
     0
100
AcDbLine
 10
2.500000000000002
 20
0.0000000000000278
 30
0.0
 11
2.799999999999997
 21
0.0000000000000278
 31
0.0
  0
LINE
  5
F26
330
F1E
100
AcDbEntity
  8
0
  6
CONTINUOUS
 62
     0
100
AcDbLine
 10
-0.0000000000000139
 20
2.500000000000002
 30
0.0
 11
-0.0000000000000139
 21
2.799999999999997
 31
0.0
  0
LINE
  5
F27
330
F1E
100
AcDbEntity
  8
0
  6
CONTINUOUS
 62
     0
100
AcDbLine
 10
-2.500000000000002
 20
0.0
 30
0.0
 11
-2.799999999999997
 21
0.0
 31
0.0
  0
ENDBLK
  5
F28
330
F1E
100
AcDbEntity
  8
0
100
AcDbBlockEnd
  0
BLOCK
  5
F2B
330
F2A
100
AcDbEntity
  8
0
100
AcDbBlockBegin
  2
SW_CENTERMARKSYMBOL_2
 70
     0
 10
0.0
 20
0.0
 30
0.0
  3
SW_CENTERMARKSYMBOL_2
  1
SW_CENTERMARKSYMBOL_2
  0
LINE
  5
F2C
330
F2A
100
AcDbEntity
  8
0
  6
CONTINUOUS
 62
     0
100
AcDbLine
 10
0.0
 20
0.0
 30
0.0
 11
0.0000000000000139
 21
-2.500000000000002
 31
0.0
  0
LINE
  5
F2D
330
F2A
100
AcDbEntity
  8
0
  6
CONTINUOUS
 62
     0
100
AcDbLine
 10
0.0
 20
0.0
 30
0.0
 11
2.500000000000002
 21
0.0
 31
0.0
  0
LINE
  5
F2E
330
F2A
100
AcDbEntity
  8
0
  6
CONTINUOUS
 62
     0
100
AcDbLine
 10
0.0
 20
0.0
 30
0.0
 11
-0.0000000000000139
 21
2.500000000000002
 31
0.0
  0
LINE
  5
F2F
330
F2A
100
AcDbEntity
  8
0
  6
CONTINUOUS
 62
     0
100
AcDbLine
 10
0.0
 20
0.0
 30
0.0
 11
-2.500000000000002
 21
-0.0000000000000278
 31
0.0
  0
LINE
  5
F30
330
F2A
100
AcDbEntity
  8
0
  6
CONTINUOUS
 62
     0
100
AcDbLine
 10
0.0000000000000139
 20
-2.500000000000002
 30
0.0
 11
0.0000000000000139
 21
-2.799999999999997
 31
0.0
  0
LINE
  5
F31
330
F2A
100
AcDbEntity
  8
0
  6
CONTINUOUS
 62
     0
100
AcDbLine
 10
2.500000000000002
 20
0.0
 30
0.0
 11
2.799999999999997
 21
0.0
 31
0.0
  0
LINE
  5
F32
330
F2A
100
AcDbEntity
  8
0
  6
CONTINUOUS
 62
     0
100
AcDbLine
 10
-0.0000000000000139
 20
2.500000000000002
 30
0.0
 11
-0.0000000000000139
 21
2.799999999999997
 31
0.0
  0
LINE
  5
F33
330
F2A
100
AcDbEntity
  8
0
  6
CONTINUOUS
 62
     0
100
AcDbLine
 10
-2.500000000000002
 20
-0.0000000000000278
 30
0.0
 11
-2.799999999999997
 21
-0.0000000000000278
 31
0.0
  0
ENDBLK
  5
F34
330
F2A
100
AcDbEntity
  8
0
100
AcDbBlockEnd
  0
BLOCK
  5
1111
330
1110
100
AcDbEntity
  8
0
100
AcDbBlockBegin
  2
*D30
 70
     1
 10
0.0
 20
0.0
 30
0.0
  3
*D30
  1
*D30
  0
LINE
  5
1113
330
1110
100
AcDbEntity
  8
WY
 62
     0
100
AcDbLine
 10
587.0449312213974
 20
246.6236355580613
 30
0.0
 11
599.4135468101047
 21
246.6236355580613
 31
0.0
  0
LINE
  5
1114
330
1110
100
AcDbEntity
  8
WY
 62
     0
100
AcDbLine
 10
587.0449312213974
 20
239.1136355580613
 30
0.0
 11
599.4135468101047
 21
239.1136355580613
 31
0.0
  0
LINE
  5
1115
330
1110
100
AcDbEntity
  8
WY
 62
     0
100
AcDbLine
 10
598.4135468101047
 20
245.1236355580613
 30
0.0
 11
598.4135468101047
 21
240.6136355580613
 31
0.0
  0
SOLID
  5
1116
330
1110
100
AcDbEntity
  8
WY
 62
     0
100
AcDbTrace
 10
598.6635468101047
 20
245.1236355580613
 30
0.0
 11
598.1635468101047
 21
245.1236355580613
 31
0.0
 12
598.4135468101047
 22
246.6236355580613
 32
0.0
 13
598.4135468101047
 23
246.6236355580613
 33
0.0
  0
SOLID
  5
1117
330
1110
100
AcDbEntity
  8
WY
 62
     0
100
AcDbTrace
 10
598.1635468101047
 20
240.6136355580613
 30
0.0
 11
598.6635468101047
 21
240.6136355580613
 31
0.0
 12
598.4135468101047
 22
239.1136355580613
 32
0.0
 13
598.4135468101047
 23
239.1136355580613
 33
0.0
  0
MTEXT
  5
1118
330
1110
100
AcDbEntity
  8
WY
 62
     0
100
AcDbMText
 10
596.6635468101047
 20
242.8686355580613
 30
0.0
 40
1.5
 41
0.0
 71
     5
 72
     1
  1
7.51
 11
0.0
 21
1.0
 31
0.0
  0
POINT
  5
1119
330
1110
100
AcDbEntity
  8
DEFPOINTS
 62
     0
100
AcDbPoint
 10
586.0449312213974
 20
246.6236355580613
 30
0.0
  0
POINT
  5
111A
330
1110
100
AcDbEntity
  8
DEFPOINTS
 62
     0
100
AcDbPoint
 10
586.0449312213974
 20
239.1136355580613
 30
0.0
  0
POINT
  5
111B
330
1110
100
AcDbEntity
  8
DEFPOINTS
 62
     0
100
AcDbPoint
 10
598.4135468101047
 20
239.1136355580613
 30
0.0
  0
ENDBLK
  5
1112
330
1110
100
AcDbEntity
  8
0
100
AcDbBlockEnd
  0
BLOCK
  5
1124
330
1123
100
AcDbEntity
  8
0
100
AcDbBlockBegin
  2
*D31
 70
     1
 10
0.0
 20
0.0
 30
0.0
  3
*D31
  1
*D31
  0
LINE
  5
1126
330
1123
100
AcDbEntity
  8
WY
 62
     0
100
AcDbLine
 10
587.0449312213974
 20
246.6236355580613
 30
0.0
 11
597.2930145592494
 21
246.6236355580613
 31
0.0
  0
LINE
  5
1127
330
1123
100
AcDbEntity
  8
WY
 62
     0
100
AcDbLine
 10
587.0449312213974
 20
239.1136355580613
 30
0.0
 11
597.2930145592494
 21
239.1136355580613
 31
0.0
  0
LINE
  5
1128
330
1123
100
AcDbEntity
  8
WY
 62
     0
100
AcDbLine
 10
596.2930145592494
 20
245.1236355580613
 30
0.0
 11
596.2930145592494
 21
240.6136355580613
 31
0.0
  0
SOLID
  5
1129
330
1123
100
AcDbEntity
  8
WY
 62
     0
100
AcDbTrace
 10
596.5430145592494
 20
245.1236355580613
 30
0.0
 11
596.0430145592494
 21
245.1236355580613
 31
0.0
 12
596.2930145592494
 22
246.6236355580613
 32
0.0
 13
596.2930145592494
 23
246.6236355580613
 33
0.0
  0
SOLID
  5
112A
330
1123
100
AcDbEntity
  8
WY
 62
     0
100
AcDbTrace
 10
596.0430145592494
 20
240.6136355580613
 30
0.0
 11
596.5430145592494
 21
240.6136355580613
 31
0.0
 12
596.2930145592494
 22
239.1136355580613
 32
0.0
 13
596.2930145592494
 23
239.1136355580613
 33
0.0
  0
MTEXT
  5
112B
330
1123
100
AcDbEntity
  8
WY
 62
     0
100
AcDbMText
 10
594.5430145592494
 20
242.8686355580613
 30
0.0
 40
1.5
 41
0.0
 71
     5
 72
     1
  1
7.5
 11
0.0
 21
1.0
 31
0.0
  0
POINT
  5
112C
330
1123
100
AcDbEntity
  8
DEFPOINTS
 62
     0
100
AcDbPoint
 10
586.0449312213974
 20
246.6236355580613
 30
0.0
  0
POINT
  5
112D
330
1123
100
AcDbEntity
  8
DEFPOINTS
 62
     0
100
AcDbPoint
 10
586.0449312213974
 20
239.1136355580613
 30
0.0
  0
POINT
  5
112E
330
1123
100
AcDbEntity
  8
DEFPOINTS
 62
     0
100
AcDbPoint
 10
596.2930145592494
 20
239.1136355580613
 30
0.0
  0
ENDBLK
  5
1125
330
1123
100
AcDbEntity
  8
0
100
AcDbBlockEnd
  0
BLOCK
  5
1133
330
1132
100
AcDbEntity
  8
0
100
AcDbBlockBegin
  2
*D32
 70
     1
 10
0.0
 20
0.0
 30
0.0
  3
*D32
  1
*D32
  0
LINE
  5
1135
330
1132
100
AcDbEntity
  8
WY
 62
     0
100
AcDbLine
 10
587.390837892366
 20
236.6286342906635
 30
0.0
 11
602.4380480205521
 21
236.6286342906635
 31
0.0
  0
LINE
  5
1136
330
1132
100
AcDbEntity
  8
WY
 62
     0
100
AcDbLine
 10
587.390837892366
 20
249.1086368254591
 30
0.0
 11
602.4380480205521
 21
249.1086368254591
 31
0.0
  0
LINE
  5
1137
330
1132
100
AcDbEntity
  8
WY
 62
     0
100
AcDbLine
 10
601.4380480205521
 20
238.1286342906635
 30
0.0
 11
601.4380480205521
 21
247.6086368254591
 31
0.0
  0
SOLID
  5
1138
330
1132
100
AcDbEntity
  8
WY
 62
     0
100
AcDbTrace
 10
601.1880480205521
 20
238.1286342906635
 30
0.0
 11
601.6880480205521
 21
238.1286342906635
 31
0.0
 12
601.4380480205521
 22
236.6286342906635
 32
0.0
 13
601.4380480205521
 23
236.6286342906635
 33
0.0
  0
SOLID
  5
1139
330
1132
100
AcDbEntity
  8
WY
 62
     0
100
AcDbTrace
 10
601.6880480205521
 20
247.6086368254591
 30
0.0
 11
601.1880480205521
 21
247.6086368254591
 31
0.0
 12
601.4380480205521
 22
249.1086368254591
 32
0.0
 13
601.4380480205521
 23
249.1086368254591
 33
0.0
  0
MTEXT
  5
113A
330
1132
100
AcDbEntity
  8
WY
 62
     0
100
AcDbMText
 10
599.6880480205521
 20
242.8686355580613
 30
0.0
 40
1.5
 41
0.0
 71
     5
 72
     1
  1
12.5
 11
0.0
 21
1.0
 31
0.0
  0
POINT
  5
113B
330
1132
100
AcDbEntity
  8
DEFPOINTS
 62
     0
100
AcDbPoint
 10
586.390837892366
 20
236.6286342906635
 30
0.0
  0
POINT
  5
113C
330
1132
100
AcDbEntity
  8
DEFPOINTS
 62
     0
100
AcDbPoint
 10
586.390837892366
 20
249.1086368254591
 30
0.0
  0
POINT
  5
113D
330
1132
100
AcDbEntity
  8
DEFPOINTS
 62
     0
100
AcDbPoint
 10
601.4380480205521
 20
249.1086368254591
 30
0.0
  0
ENDBLK
  5
1134
330
1132
100
AcDbEntity
  8
0
100
AcDbBlockEnd
  0
BLOCK
  5
1142
330
1141
100
AcDbEntity
  8
0
100
AcDbBlockBegin
  2
*D33
 70
     1
 10
0.0
 20
0.0
 30
0.0
  3
*D33
  1
*D33
  0
LINE
  5
1144
330
1141
100
AcDbEntity
  8
WY
 62
     0
100
AcDbLine
 10
586.9908342249107
 20
201.3762420711611
 30
0.0
 11
586.9908342249107
 21
184.7874602913484
 31
0.0
  0
LINE
  5
1145
330
1141
100
AcDbEntity
  8
WY
 62
     0
100
AcDbLine
 10
546.53083452353
 20
197.5912420854103
 30
0.0
 11
546.53083452353
 21
184.7874602913484
 31
0.0
  0
LINE
  5
1146
330
1141
100
AcDbEntity
  8
WY
 62
     0
100
AcDbLine
 10
585.4908342249107
 20
185.7874602913484
 30
0.0
 11
548.03083452353
 21
185.7874602913484
 31
0.0
  0
SOLID
  5
1147
330
1141
100
AcDbEntity
  8
WY
 62
     0
100
AcDbTrace
 10
585.4908342249107
 20
185.5374602913484
 30
0.0
 11
585.4908342249107
 21
186.0374602913484
 31
0.0
 12
586.9908342249107
 22
185.7874602913484
 32
0.0
 13
586.9908342249107
 23
185.7874602913484
 33
0.0
  0
SOLID
  5
1148
330
1141
100
AcDbEntity
  8
WY
 62
     0
100
AcDbTrace
 10
548.03083452353
 20
186.0374602913484
 30
0.0
 11
548.03083452353
 21
185.5374602913484
 31
0.0
 12
546.53083452353
 22
185.7874602913484
 32
0.0
 13
546.53083452353
 23
185.7874602913484
 33
0.0
  0
MTEXT
  5
1149
330
1141
100
AcDbEntity
  8
WY
 62
     0
100
AcDbMText
 10
566.7608343742204
 20
187.5374602913484
 30
0.0
 40
1.5
 41
0.0
 71
     5
 72
     1
  1
40.5
  0
POINT
  5
114A
330
1141
100
AcDbEntity
  8
DEFPOINTS
 62
     0
100
AcDbPoint
 10
586.9908342249107
 20
202.3762420711611
 30
0.0
  0
POINT
  5
114B
330
1141
100
AcDbEntity
  8
DEFPOINTS
 62
     0
100
AcDbPoint
 10
546.53083452353
 20
198.5912420854103
 30
0.0
  0
POINT
  5
114C
330
1141
100
AcDbEntity
  8
DEFPOINTS
 62
     0
100
AcDbPoint
 10
546.53083452353
 20
185.7874602913484
 30
0.0
  0
ENDBLK
  5
1143
330
1141
100
AcDbEntity
  8
0
100
AcDbBlockEnd
  0
BLOCK
  5
1151
330
1150
100
AcDbEntity
  8
0
100
AcDbBlockBegin
  2
*D34
 70
     1
 10
0.0
 20
0.0
 30
0.0
  3
*D34
  1
*D34
  0
LINE
  5
1153
330
1150
100
AcDbEntity
  8
WY
 62
     0
100
AcDbLine
 10
547.00583452353
 20
195.5375368690826
 30
0.0
 11
547.00583452353
 21
192.3815790837084
 31
0.0
  0
LINE
  5
1154
330
1150
100
AcDbEntity
  8
WY
 62
     0
100
AcDbLine
 10
552.00583452353
 20
195.5375368690825
 30
0.0
 11
552.00583452353
 21
192.3815790837084
 31
0.0
  0
LINE
  5
1155
330
1150
100
AcDbEntity
  8
WY
 62
     0
100
AcDbLine
 10
548.50583452353
 20
193.3815790837084
 30
0.0
 11
550.50583452353
 21
193.3815790837084
 31
0.0
  0
SOLID
  5
1156
330
1150
100
AcDbEntity
  8
WY
 62
     0
100
AcDbTrace
 10
548.50583452353
 20
193.6315790837084
 30
0.0
 11
548.50583452353
 21
193.1315790837084
 31
0.0
 12
547.00583452353
 22
193.3815790837084
 32
0.0
 13
547.00583452353
 23
193.3815790837084
 33
0.0
  0
SOLID
  5
1157
330
1150
100
AcDbEntity
  8
WY
 62
     0
100
AcDbTrace
 10
550.50583452353
 20
193.1315790837084
 30
0.0
 11
550.50583452353
 21
193.6315790837084
 31
0.0
 12
552.00583452353
 22
193.3815790837084
 32
0.0
 13
552.00583452353
 23
193.3815790837084
 33
0.0
  0
MTEXT
  5
1158
330
1150
100
AcDbEntity
  8
WY
 62
     0
100
AcDbMText
 10
549.50583452353
 20
195.1315790837084
 30
0.0
 40
1.5
 41
0.0
 71
     5
 72
     1
  1
5
  0
POINT
  5
1159
330
1150
100
AcDbEntity
  8
DEFPOINTS
 62
     0
100
AcDbPoint
 10
547.00583452353
 20
196.5375368690826
 30
0.0
  0
POINT
  5
115A
330
1150
100
AcDbEntity
  8
DEFPOINTS
 62
     0
100
AcDbPoint
 10
552.00583452353
 20
196.5375368690825
 30
0.0
  0
POINT
  5
115B
330
1150
100
AcDbEntity
  8
DEFPOINTS
 62
     0
100
AcDbPoint
 10
552.00583452353
 20
193.3815790837084
 30
0.0
  0
ENDBLK
  5
1152
330
1150
100
AcDbEntity
  8
0
100
AcDbBlockEnd
  0
BLOCK
  5
1160
330
115F
100
AcDbEntity
  8
0
100
AcDbBlockBegin
  2
*D35
 70
     1
 10
0.0
 20
0.0
 30
0.0
  3
*D35
  1
*D35
  0
LINE
  5
1162
330
115F
100
AcDbEntity
  8
WY
 62
     0
100
AcDbLine
 10
584.498834341706
 20
195.5375370715893
 30
0.0
 11
584.498834341706
 21
190.9713430903978
 31
0.0
  0
LINE
  5
1163
330
115F
100
AcDbEntity
  8
WY
 62
     0
100
AcDbLine
 10
586.9908342249107
 20
201.3762420711611
 30
0.0
 11
586.9908342249107
 21
190.9713430903978
 31
0.0
  0
LINE
  5
1164
330
115F
100
AcDbEntity
  8
WY
 62
     0
100
AcDbLine
 10
584.498834341706
 20
191.9713430903978
 30
0.0
 11
586.9908342249107
 21
191.9713430903978
 31
0.0
  0
LINE
  5
1165
330
115F
100
AcDbEntity
  8
WY
 62
     0
100
AcDbLine
 10
582.998834341706
 20
191.9713430903978
 30
0.0
 11
581.498834341706
 21
191.9713430903978
 31
0.0
  0
LINE
  5
1166
330
115F
100
AcDbEntity
  8
WY
 62
     0
100
AcDbLine
 10
588.4908342249107
 20
191.9713430903978
 30
0.0
 11
589.9908342249107
 21
191.9713430903978
 31
0.0
  0
SOLID
  5
1167
330
115F
100
AcDbEntity
  8
WY
 62
     0
100
AcDbTrace
 10
582.998834341706
 20
191.7213430903978
 30
0.0
 11
582.998834341706
 21
192.2213430903978
 31
0.0
 12
584.498834341706
 22
191.9713430903978
 32
0.0
 13
584.498834341706
 23
191.9713430903978
 33
0.0
  0
SOLID
  5
1168
330
115F
100
AcDbEntity
  8
WY
 62
     0
100
AcDbTrace
 10
588.4908342249107
 20
192.2213430903978
 30
0.0
 11
588.4908342249107
 21
191.7213430903978
 31
0.0
 12
586.9908342249107
 22
191.9713430903978
 32
0.0
 13
586.9908342249107
 23
191.9713430903978
 33
0.0
  0
MTEXT
  5
1169
330
115F
100
AcDbEntity
  8
WY
 62
     0
100
AcDbMText
 10
581.0737546069225
 20
193.6349445496271
 30
0.0
 40
1.5
 41
0.0
 71
     5
 72
     1
  1
2.5
  0
POINT
  5
116A
330
115F
100
AcDbEntity
  8
DEFPOINTS
 62
     0
100
AcDbPoint
 10
584.498834341706
 20
196.5375370715893
 30
0.0
  0
POINT
  5
116B
330
115F
100
AcDbEntity
  8
DEFPOINTS
 62
     0
100
AcDbPoint
 10
586.9908342249107
 20
202.3762420711611
 30
0.0
  0
POINT
  5
116C
330
115F
100
AcDbEntity
  8
DEFPOINTS
 62
     0
100
AcDbPoint
 10
586.9908342249107
 20
191.9713430903978
 30
0.0
  0
ENDBLK
  5
1161
330
115F
100
AcDbEntity
  8
0
100
AcDbBlockEnd
  0
BLOCK
  5
1179
330
1178
100
AcDbEntity
  8
0
100
AcDbBlockBegin
  2
*D36
 70
     1
 10
0.0
 20
0.0
 30
0.0
  3
*D36
  1
*D36
  0
LINE
  5
117B
330
1178
100
AcDbEntity
  8
WY
 62
     0
100
AcDbLine
 10
584.498834341706
 20
195.5375370715893
 30
0.0
 11
584.498834341706
 21
192.3815790837084
 31
0.0
  0
LINE
  5
117C
330
1178
100
AcDbEntity
  8
WY
 62
     0
100
AcDbLine
 10
586.9908342249107
 20
201.3762420711611
 30
0.0
 11
586.9908342249107
 21
192.3815790837084
 31
0.0
  0
LINE
  5
117D
330
1178
100
AcDbEntity
  8
WY
 62
     0
100
AcDbLine
 10
584.498834341706
 20
193.3815790837084
 30
0.0
 11
576.498834341706
 21
193.3815790837084
 31
0.0
  0
LINE
  5
117E
330
1178
100
AcDbEntity
  8
WY
 62
     0
100
AcDbLine
 10
584.498834341706
 20
193.3815790837084
 30
0.0
 11
586.9908342249107
 21
193.3815790837084
 31
0.0
  0
LINE
  5
117F
330
1178
100
AcDbEntity
  8
WY
 62
     0
100
AcDbLine
 10
582.998834341706
 20
193.3815790837084
 30
0.0
 11
581.498834341706
 21
193.3815790837084
 31
0.0
  0
LINE
  5
1180
330
1178
100
AcDbEntity
  8
WY
 62
     0
100
AcDbLine
 10
588.4908342249107
 20
193.3815790837084
 30
0.0
 11
589.9908342249107
 21
193.3815790837084
 31
0.0
  0
SOLID
  5
1181
330
1178
100
AcDbEntity
  8
WY
 62
     0
100
AcDbTrace
 10
582.998834341706
 20
193.1315790837084
 30
0.0
 11
582.998834341706
 21
193.6315790837084
 31
0.0
 12
584.498834341706
 22
193.3815790837084
 32
0.0
 13
584.498834341706
 23
193.3815790837084
 33
0.0
  0
SOLID
  5
1182
330
1178
100
AcDbEntity
  8
WY
 62
     0
100
AcDbTrace
 10
588.4908342249107
 20
193.6315790837084
 30
0.0
 11
588.4908342249107
 21
193.1315790837084
 31
0.0
 12
586.9908342249107
 22
193.3815790837084
 32
0.0
 13
586.9908342249107
 23
193.3815790837084
 33
0.0
  0
MTEXT
  5
1183
330
1178
100
AcDbEntity
  8
WY
 62
     0
100
AcDbMText
 10
578.998834341706
 20
195.1315790837084
 30
0.0
 40
1.5
 41
0.0
 71
     5
 72
     1
  1
2.5
  0
POINT
  5
1184
330
1178
100
AcDbEntity
  8
DEFPOINTS
 62
     0
100
AcDbPoint
 10
584.498834341706
 20
196.5375370715893
 30
0.0
  0
POINT
  5
1185
330
1178
100
AcDbEntity
  8
DEFPOINTS
 62
     0
100
AcDbPoint
 10
586.9908342249107
 20
202.3762420711611
 30
0.0
  0
POINT
  5
1186
330
1178
100
AcDbEntity
  8
DEFPOINTS
 62
     0
100
AcDbPoint
 10
586.9908342249107
 20
193.3815790837084
 30
0.0
  0
ENDBLK
  5
117A
330
1178
100
AcDbEntity
  8
0
100
AcDbBlockEnd
  0
BLOCK
  5
1190
330
118F
100
AcDbEntity
  8
0
100
AcDbBlockBegin
  2
*D37
 70
     1
 10
0.0
 20
0.0
 30
0.0
  3
*D37
  1
*D37
  0
LINE
  5
1192
330
118F
100
AcDbEntity
  8
WY
 62
     0
100
AcDbLine
 10
546.5308344102812
 20
215.8162423244249
 30
0.0
 11
546.5308344102812
 21
223.0103088489844
 31
0.0
  0
LINE
  5
1193
330
118F
100
AcDbEntity
  8
WY
 62
     0
100
AcDbLine
 10
552.7808340377521
 20
215.8162423244249
 30
0.0
 11
552.7808340377521
 21
223.0103088489844
 31
0.0
  0
LINE
  5
1194
330
118F
100
AcDbEntity
  8
WY
 62
     0
100
AcDbLine
 10
548.0308344102812
 20
222.0103088489844
 30
0.0
 11
551.2808340377521
 21
222.0103088489844
 31
0.0
  0
SOLID
  5
1195
330
118F
100
AcDbEntity
  8
WY
 62
     0
100
AcDbTrace
 10
548.0308344102812
 20
222.2603088489844
 30
0.0
 11
548.0308344102812
 21
221.7603088489844
 31
0.0
 12
546.5308344102812
 22
222.0103088489844
 32
0.0
 13
546.5308344102812
 23
222.0103088489844
 33
0.0
  0
SOLID
  5
1196
330
118F
100
AcDbEntity
  8
WY
 62
     0
100
AcDbTrace
 10
551.2808340377521
 20
221.7603088489844
 30
0.0
 11
551.2808340377521
 21
222.2603088489844
 31
0.0
 12
552.7808340377521
 22
222.0103088489844
 32
0.0
 13
552.7808340377521
 23
222.0103088489844
 33
0.0
  0
MTEXT
  5
1197
330
118F
100
AcDbEntity
  8
WY
 62
     0
100
AcDbMText
 10
549.6558342240166
 20
223.7603088489844
 30
0.0
 40
1.5
 41
0.0
 71
     5
 72
     1
  1
6.2
  0
POINT
  5
1198
330
118F
100
AcDbEntity
  8
DEFPOINTS
 62
     0
100
AcDbPoint
 10
546.5308344102812
 20
214.8162423244249
 30
0.0
  0
POINT
  5
1199
330
118F
100
AcDbEntity
  8
DEFPOINTS
 62
     0
100
AcDbPoint
 10
552.7808340377521
 20
214.8162423244249
 30
0.0
  0
POINT
  5
119A
330
118F
100
AcDbEntity
  8
DEFPOINTS
 62
     0
100
AcDbPoint
 10
552.7808340377521
 20
222.0103088489844
 30
0.0
  0
ENDBLK
  5
1191
330
118F
100
AcDbEntity
  8
0
100
AcDbBlockEnd
  0
BLOCK
  5
119F
330
119E
100
AcDbEntity
  8
0
100
AcDbBlockBegin
  2
*D38
 70
     1
 10
0.0
 20
0.0
 30
0.0
  3
*D38
  1
*D38
  0
LINE
  5
11A1
330
119E
100
AcDbEntity
  8
WY
 62
     0
100
AcDbLine
 10
555.9708347431731
 20
202.3762420711611
 30
0.0
 11
539.3858786133312
 21
202.3762420711611
 31
0.0
  0
LINE
  5
11A2
330
119E
100
AcDbEntity
  8
WY
 62
     0
100
AcDbLine
 10
546.3308349139404
 20
215.6162418967616
 30
0.0
 11
539.3858786133312
 21
215.6162418967616
 31
0.0
  0
LINE
  5
11A3
330
119E
100
AcDbEntity
  8
WY
 62
     0
100
AcDbLine
 10
540.3858786133312
 20
203.8762420711611
 30
0.0
 11
540.3858786133312
 21
214.1162418967616
 31
0.0
  0
SOLID
  5
11A4
330
119E
100
AcDbEntity
  8
WY
 62
     0
100
AcDbTrace
 10
540.1358786133312
 20
203.8762420711611
 30
0.0
 11
540.6358786133312
 21
203.8762420711611
 31
0.0
 12
540.3858786133312
 22
202.3762420711611
 32
0.0
 13
540.3858786133312
 23
202.3762420711611
 33
0.0
  0
SOLID
  5
11A5
330
119E
100
AcDbEntity
  8
WY
 62
     0
100
AcDbTrace
 10
540.6358786133312
 20
214.1162418967616
 30
0.0
 11
540.1358786133312
 21
214.1162418967616
 31
0.0
 12
540.3858786133312
 22
215.6162418967616
 32
0.0
 13
540.3858786133312
 23
215.6162418967616
 33
0.0
  0
MTEXT
  5
11A6
330
119E
100
AcDbEntity
  8
WY
 62
     0
100
AcDbMText
 10
538.6358786133312
 20
208.9962419839613
 30
0.0
 40
1.5
 41
0.0
 71
     5
 72
     1
  1
13.2
 11
0.0
 21
1.0
 31
0.0
  0
POINT
  5
11A7
330
119E
100
AcDbEntity
  8
DEFPOINTS
 62
     0
100
AcDbPoint
 10
556.9708347431731
 20
202.3762420711611
 30
0.0
  0
POINT
  5
11A8
330
119E
100
AcDbEntity
  8
DEFPOINTS
 62
     0
100
AcDbPoint
 10
547.3308349139404
 20
215.6162418967616
 30
0.0
  0
POINT
  5
11A9
330
119E
100
AcDbEntity
  8
DEFPOINTS
 62
     0
100
AcDbPoint
 10
540.3858786133312
 20
215.6162418967616
 30
0.0
  0
ENDBLK
  5
11A0
330
119E
100
AcDbEntity
  8
0
100
AcDbBlockEnd
  0
BLOCK
  5
11AE
330
11AD
100
AcDbEntity
  8
0
100
AcDbBlockBegin
  2
*D39
 70
     1
 10
0.0
 20
0.0
 30
0.0
  3
*D39
  1
*D39
  0
LINE
  5
11B0
330
11AD
100
AcDbEntity
  8
WY
 62
     0
100
AcDbLine
 10
546.00583452353
 20
198.1162420854103
 30
0.0
 11
539.3858786133312
 21
198.1162420854103
 31
0.0
  0
LINE
  5
11B1
330
11AD
100
AcDbEntity
  8
WY
 62
     0
100
AcDbLine
 10
555.9708347431731
 20
202.3762420711611
 30
0.0
 11
539.3858786133312
 21
202.3762420711611
 31
0.0
  0
LINE
  5
11B2
330
11AD
100
AcDbEntity
  8
WY
 62
     0
100
AcDbLine
 10
540.3858786133312
 20
198.1162420854103
 30
0.0
 11
540.3858786133312
 21
202.3762420711611
 31
0.0
  0
LINE
  5
11B3
330
11AD
100
AcDbEntity
  8
WY
 62
     0
100
AcDbLine
 10
540.3858786133312
 20
196.6162420854103
 30
0.0
 11
540.3858786133312
 21
195.1162420854103
 31
0.0
  0
LINE
  5
11B4
330
11AD
100
AcDbEntity
  8
WY
 62
     0
100
AcDbLine
 10
540.3858786133312
 20
203.8762420711611
 30
0.0
 11
540.3858786133312
 21
205.3762420711611
 31
0.0
  0
SOLID
  5
11B5
330
11AD
100
AcDbEntity
  8
WY
 62
     0
100
AcDbTrace
 10
540.6358786133312
 20
196.6162420854103
 30
0.0
 11
540.1358786133312
 21
196.6162420854103
 31
0.0
 12
540.3858786133312
 22
198.1162420854103
 32
0.0
 13
540.3858786133312
 23
198.1162420854103
 33
0.0
  0
SOLID
  5
11B6
330
11AD
100
AcDbEntity
  8
WY
 62
     0
100
AcDbTrace
 10
540.1358786133312
 20
203.8762420711611
 30
0.0
 11
540.6358786133312
 21
203.8762420711611
 31
0.0
 12
540.3858786133312
 22
202.3762420711611
 32
0.0
 13
540.3858786133312
 23
202.3762420711611
 33
0.0
  0
MTEXT
  5
11B7
330
11AD
100
AcDbEntity
  8
WY
 62
     0
100
AcDbMText
 10
538.6358786133312
 20
200.2462420782857
 30
0.0
 40
1.5
 41
0.0
 71
     5
 72
     1
  1
4.3
 11
0.0
 21
1.0
 31
0.0
  0
POINT
  5
11B8
330
11AD
100
AcDbEntity
  8
DEFPOINTS
 62
     0
100
AcDbPoint
 10
547.00583452353
 20
198.1162420854103
 30
0.0
  0
POINT
  5
11B9
330
11AD
100
AcDbEntity
  8
DEFPOINTS
 62
     0
100
AcDbPoint
 10
556.9708347431731
 20
202.3762420711611
 30
0.0
  0
POINT
  5
11BA
330
11AD
100
AcDbEntity
  8
DEFPOINTS
 62
     0
100
AcDbPoint
 10
540.3858786133312
 20
202.3762420711611
 30
0.0
  0
ENDBLK
  5
11AF
330
11AD
100
AcDbEntity
  8
0
100
AcDbBlockEnd
  0
BLOCK
  5
11BF
330
11BE
100
AcDbEntity
  8
0
100
AcDbBlockBegin
  2
*D40
 70
     1
 10
0.0
 20
0.0
 30
0.0
  3
*D40
  1
*D40
  0
LINE
  5
11C1
330
11BE
100
AcDbEntity
  8
WY
 62
     0
100
AcDbLine
 10
587.9908342249107
 20
202.3762420711611
 30
0.0
 11
596.2246520338596
 21
202.3762420711611
 31
0.0
  0
LINE
  5
11C2
330
11BE
100
AcDbEntity
  8
WY
 62
     0
100
AcDbLine
 10
587.3411687425685
 20
218.0962421542537
 30
0.0
 11
596.2246520338596
 21
218.0962421542537
 31
0.0
  0
LINE
  5
11C3
330
11BE
100
AcDbEntity
  8
WY
 62
     0
100
AcDbLine
 10
595.2246520338596
 20
203.8762420711611
 30
0.0
 11
595.2246520338596
 21
216.5962421542537
 31
0.0
  0
SOLID
  5
11C4
330
11BE
100
AcDbEntity
  8
WY
 62
     0
100
AcDbTrace
 10
594.9746520338596
 20
203.8762420711611
 30
0.0
 11
595.4746520338596
 21
203.8762420711611
 31
0.0
 12
595.2246520338596
 22
202.3762420711611
 32
0.0
 13
595.2246520338596
 23
202.3762420711611
 33
0.0
  0
SOLID
  5
11C5
330
11BE
100
AcDbEntity
  8
WY
 62
     0
100
AcDbTrace
 10
595.4746520338596
 20
216.5962421542537
 30
0.0
 11
594.9746520338596
 21
216.5962421542537
 31
0.0
 12
595.2246520338596
 22
218.0962421542537
 32
0.0
 13
595.2246520338596
 23
218.0962421542537
 33
0.0
  0
MTEXT
  5
11C6
330
11BE
100
AcDbEntity
  8
WY
 62
     0
100
AcDbMText
 10
593.4746520338596
 20
210.2362421127074
 30
0.0
 40
1.5
 41
0.0
 71
     5
 72
     1
  1
15.7
 11
0.0
 21
1.0
 31
0.0
  0
POINT
  5
11C7
330
11BE
100
AcDbEntity
  8
DEFPOINTS
 62
     0
100
AcDbPoint
 10
586.9908342249107
 20
202.3762420711611
 30
0.0
  0
POINT
  5
11C8
330
11BE
100
AcDbEntity
  8
DEFPOINTS
 62
     0
100
AcDbPoint
 10
586.3411687425685
 20
218.0962421542537
 30
0.0
  0
POINT
  5
11C9
330
11BE
100
AcDbEntity
  8
DEFPOINTS
 62
     0
100
AcDbPoint
 10
595.2246520338596
 20
218.0962421542537
 30
0.0
  0
ENDBLK
  5
11C0
330
11BE
100
AcDbEntity
  8
0
100
AcDbBlockEnd
  0
BLOCK
  5
11CE
330
11CD
100
AcDbEntity
  8
0
100
AcDbBlockBegin
  2
*D41
 70
     1
 10
0.0
 20
0.0
 30
0.0
  3
*D41
  1
*D41
  0
LINE
  5
11D0
330
11CD
100
AcDbEntity
  8
WY
 62
     0
100
AcDbLine
 10
631.0951082425173
 20
195.0860336334742
 30
0.0
 11
631.0951082425173
 21
189.3049955392341
 31
0.0
  0
LINE
  5
11D1
330
11CD
100
AcDbEntity
  8
WY
 62
     0
100
AcDbLine
 10
638.5951083077099
 20
195.0860336334742
 30
0.0
 11
638.5951083077099
 21
189.3049955392341
 31
0.0
  0
LINE
  5
11D2
330
11CD
100
AcDbEntity
  8
WY
 62
     0
100
AcDbLine
 10
632.5951082425173
 20
190.3049955392341
 30
0.0
 11
637.0951083077099
 21
190.3049955392341
 31
0.0
  0
SOLID
  5
11D3
330
11CD
100
AcDbEntity
  8
WY
 62
     0
100
AcDbTrace
 10
632.5951082425173
 20
190.5549955392341
 30
0.0
 11
632.5951082425173
 21
190.0549955392341
 31
0.0
 12
631.0951082425173
 22
190.3049955392341
 32
0.0
 13
631.0951082425173
 23
190.3049955392341
 33
0.0
  0
SOLID
  5
11D4
330
11CD
100
AcDbEntity
  8
WY
 62
     0
100
AcDbTrace
 10
637.0951083077099
 20
190.0549955392341
 30
0.0
 11
637.0951083077099
 21
190.5549955392341
 31
0.0
 12
638.5951083077099
 22
190.3049955392341
 32
0.0
 13
638.5951083077099
 23
190.3049955392341
 33
0.0
  0
MTEXT
  5
11D5
330
11CD
100
AcDbEntity
  8
WY
 62
     0
100
AcDbMText
 10
634.8451082751136
 20
192.0549955392341
 30
0.0
 40
1.5
 41
0.0
 71
     5
 72
     1
  1
7.5
  0
POINT
  5
11D6
330
11CD
100
AcDbEntity
  8
DEFPOINTS
 62
     0
100
AcDbPoint
 10
631.0951082425173
 20
196.0860336334742
 30
0.0
  0
POINT
  5
11D7
330
11CD
100
AcDbEntity
  8
DEFPOINTS
 62
     0
100
AcDbPoint
 10
638.5951083077099
 20
196.0860336334742
 30
0.0
  0
POINT
  5
11D8
330
11CD
100
AcDbEntity
  8
DEFPOINTS
 62
     0
100
AcDbPoint
 10
638.5951083077099
 20
190.3049955392341
 30
0.0
  0
ENDBLK
  5
11CF
330
11CD
100
AcDbEntity
  8
0
100
AcDbBlockEnd
  0
BLOCK
  5
11DD
330
11DC
100
AcDbEntity
  8
0
100
AcDbBlockBegin
  2
*D42
 70
     1
 10
0.0
 20
0.0
 30
0.0
  3
*D42
  1
*D42
  0
LINE
  5
11DF
330
11DC
100
AcDbEntity
  8
WY
 62
     0
100
AcDbLine
 10
628.6051082581263
 20
201.6762420854103
 30
0.0
 11
628.6051082581263
 21
184.3578646623497
 31
0.0
  0
LINE
  5
11E0
330
11DC
100
AcDbEntity
  8
WY
 62
     0
100
AcDbLine
 10
641.0851082921009
 20
201.6762420854103
 30
0.0
 11
641.0851082921009
 21
184.3578646623497
 31
0.0
  0
LINE
  5
11E1
330
11DC
100
AcDbEntity
  8
WY
 62
     0
100
AcDbLine
 10
630.1051082581263
 20
185.3578646623497
 30
0.0
 11
639.5851082921009
 21
185.3578646623497
 31
0.0
  0
SOLID
  5
11E2
330
11DC
100
AcDbEntity
  8
WY
 62
     0
100
AcDbTrace
 10
630.1051082581263
 20
185.6078646623497
 30
0.0
 11
630.1051082581263
 21
185.1078646623497
 31
0.0
 12
628.6051082581263
 22
185.3578646623497
 32
0.0
 13
628.6051082581263
 23
185.3578646623497
 33
0.0
  0
SOLID
  5
11E3
330
11DC
100
AcDbEntity
  8
WY
 62
     0
100
AcDbTrace
 10
639.5851082921009
 20
185.1078646623497
 30
0.0
 11
639.5851082921009
 21
185.6078646623497
 31
0.0
 12
641.0851082921009
 22
185.3578646623497
 32
0.0
 13
641.0851082921009
 23
185.3578646623497
 33
0.0
  0
MTEXT
  5
11E4
330
11DC
100
AcDbEntity
  8
WY
 62
     0
100
AcDbMText
 10
634.8451082751136
 20
187.1078646623497
 30
0.0
 40
1.5
 41
0.0
 71
     5
 72
     1
  1
12.5
  0
POINT
  5
11E5
330
11DC
100
AcDbEntity
  8
DEFPOINTS
 62
     0
100
AcDbPoint
 10
628.6051082581263
 20
202.6762420854103
 30
0.0
  0
POINT
  5
11E6
330
11DC
100
AcDbEntity
  8
DEFPOINTS
 62
     0
100
AcDbPoint
 10
641.0851082921009
 20
202.6762420854103
 30
0.0
  0
POINT
  5
11E7
330
11DC
100
AcDbEntity
  8
DEFPOINTS
 62
     0
100
AcDbPoint
 10
641.0851082921009
 20
185.3578646623497
 30
0.0
  0
ENDBLK
  5
11DE
330
11DC
100
AcDbEntity
  8
0
100
AcDbBlockEnd
  0
BLOCK
  5
11EC
330
11EB
100
AcDbEntity
  8
0
100
AcDbBlockBegin
  2
*D43
 70
     1
 10
0.0
 20
0.0
 30
0.0
  3
*D43
  1
*D43
  0
LINE
  5
11EE
330
11EB
100
AcDbEntity
  8
WY
 62
     0
100
AcDbLine
 10
584.4988345235299
 20
236.4691487981356
 30
0.0
 11
584.4988345235299
 21
230.0164778300176
 31
0.0
  0
LINE
  5
11EF
330
11EB
100
AcDbEntity
  8
WY
 62
     0
100
AcDbLine
 10
552.0058348886084
 20
236.7186356228814
 30
0.0
 11
552.0058348886084
 21
230.0164778300176
 31
0.0
  0
LINE
  5
11F0
330
11EB
100
AcDbEntity
  8
WY
 62
     0
100
AcDbLine
 10
582.9988345235299
 20
231.0164778300176
 30
0.0
 11
553.5058348886084
 21
231.0164778300176
 31
0.0
  0
SOLID
  5
11F1
330
11EB
100
AcDbEntity
  8
WY
 62
     0
100
AcDbTrace
 10
582.9988345235299
 20
230.7664778300176
 30
0.0
 11
582.9988345235299
 21
231.2664778300176
 31
0.0
 12
584.4988345235299
 22
231.0164778300176
 32
0.0
 13
584.4988345235299
 23
231.0164778300176
 33
0.0
  0
SOLID
  5
11F2
330
11EB
100
AcDbEntity
  8
WY
 62
     0
100
AcDbTrace
 10
553.5058348886084
 20
231.2664778300176
 30
0.0
 11
553.5058348886084
 21
230.7664778300176
 31
0.0
 12
552.0058348886084
 22
231.0164778300176
 32
0.0
 13
552.0058348886084
 23
231.0164778300176
 33
0.0
  0
MTEXT
  5
11F3
330
11EB
100
AcDbEntity
  8
WY
 62
     0
100
AcDbMText
 10
568.2523347060692
 20
232.7664778300176
 30
0.0
 40
1.5
 41
0.0
 71
     5
 72
     1
  1
32.5
  0
POINT
  5
11F4
330
11EB
100
AcDbEntity
  8
DEFPOINTS
 62
     0
100
AcDbPoint
 10
584.4988345235299
 20
237.4691487981356
 30
0.0
  0
POINT
  5
11F5
330
11EB
100
AcDbEntity
  8
DEFPOINTS
 62
     0
100
AcDbPoint
 10
552.0058348886084
 20
237.7186356228814
 30
0.0
  0
POINT
  5
11F6
330
11EB
100
AcDbEntity
  8
DEFPOINTS
 62
     0
100
AcDbPoint
 10
552.0058348886084
 20
231.0164778300176
 30
0.0
  0
ENDBLK
  5
11ED
330
11EB
100
AcDbEntity
  8
0
100
AcDbBlockEnd
  0
BLOCK
  5
11FF
330
11FE
100
AcDbEntity
  8
0
100
AcDbBlockBegin
  2
*D44
 70
     1
 10
0.0
 20
0.0
 30
0.0
  3
*D44
  1
*D44
  0
LINE
  5
1201
330
11FE
100
AcDbEntity
  8
WY
 62
     0
100
AcDbLine
 10
558.0390645302248
 20
207.1162420643997
 30
0.0
 11
558.0390645302248
 21
188.7759829045307
 31
0.0
  0
LINE
  5
1202
330
11FE
100
AcDbEntity
  8
WY
 62
     0
100
AcDbLine
 10
586.9908342249107
 20
201.3762420711611
 30
0.0
 11
586.9908342249107
 21
188.7759829045307
 31
0.0
  0
LINE
  5
1203
330
11FE
100
AcDbEntity
  8
WY
 62
     0
100
AcDbLine
 10
559.5390645302248
 20
189.7759829045307
 30
0.0
 11
585.4908342249107
 21
189.7759829045307
 31
0.0
  0
SOLID
  5
1204
330
11FE
100
AcDbEntity
  8
WY
 62
     0
100
AcDbTrace
 10
559.5390645302248
 20
190.0259829045307
 30
0.0
 11
559.5390645302248
 21
189.5259829045307
 31
0.0
 12
558.0390645302248
 22
189.7759829045307
 32
0.0
 13
558.0390645302248
 23
189.7759829045307
 33
0.0
  0
SOLID
  5
1205
330
11FE
100
AcDbEntity
  8
WY
 62
     0
100
AcDbTrace
 10
585.4908342249107
 20
189.5259829045307
 30
0.0
 11
585.4908342249107
 21
190.0259829045307
 31
0.0
 12
586.9908342249107
 22
189.7759829045307
 32
0.0
 13
586.9908342249107
 23
189.7759829045307
 33
0.0
  0
MTEXT
  5
1206
330
11FE
100
AcDbEntity
  8
WY
 62
     0
100
AcDbMText
 10
572.5149493775677
 20
191.5259829045307
 30
0.0
 40
1.5
 41
0.0
 71
     5
 72
     1
  1
29
  0
POINT
  5
1207
330
11FE
100
AcDbEntity
  8
DEFPOINTS
 62
     0
100
AcDbPoint
 10
558.0390645302248
 20
208.1162420643997
 30
0.0
  0
POINT
  5
1208
330
11FE
100
AcDbEntity
  8
DEFPOINTS
 62
     0
100
AcDbPoint
 10
586.9908342249107
 20
202.3762420711611
 30
0.0
  0
POINT
  5
1209
330
11FE
100
AcDbEntity
  8
DEFPOINTS
 62
     0
100
AcDbPoint
 10
586.9908342249107
 20
189.7759829045307
 30
0.0
  0
ENDBLK
  5
1200
330
11FE
100
AcDbEntity
  8
0
100
AcDbBlockEnd
  0
BLOCK
  5
1214
330
1213
100
AcDbEntity
  8
0
100
AcDbBlockBegin
  2
*D45
 70
     1
 10
0.0
 20
0.0
 30
0.0
  3
*D45
  1
*D45
  0
LINE
  5
1216
330
1213
100
AcDbEntity
  8
WY
 62
     0
100
AcDbLine
 10
589.714302301646
 20
129.281573581302
 30
0.0
 11
599.9623856394979
 21
129.281573581302
 31
0.0
  0
LINE
  5
1217
330
1213
100
AcDbEntity
  8
WY
 62
     0
100
AcDbLine
 10
589.714302301646
 20
121.771573581302
 30
0.0
 11
599.9623856394979
 21
121.771573581302
 31
0.0
  0
LINE
  5
1218
330
1213
100
AcDbEntity
  8
WY
 62
     0
100
AcDbLine
 10
598.9623856394979
 20
127.781573581302
 30
0.0
 11
598.9623856394979
 21
123.271573581302
 31
0.0
  0
SOLID
  5
1219
330
1213
100
AcDbEntity
  8
WY
 62
     0
100
AcDbTrace
 10
599.2123856394979
 20
127.781573581302
 30
0.0
 11
598.7123856394979
 21
127.781573581302
 31
0.0
 12
598.9623856394979
 22
129.281573581302
 32
0.0
 13
598.9623856394979
 23
129.281573581302
 33
0.0
  0
SOLID
  5
121A
330
1213
100
AcDbEntity
  8
WY
 62
     0
100
AcDbTrace
 10
598.7123856394979
 20
123.271573581302
 30
0.0
 11
599.2123856394979
 21
123.271573581302
 31
0.0
 12
598.9623856394979
 22
121.771573581302
 32
0.0
 13
598.9623856394979
 23
121.771573581302
 33
0.0
  0
MTEXT
  5
121B
330
1213
100
AcDbEntity
  8
WY
 62
     0
100
AcDbMText
 10
597.2123856394979
 20
125.526573581302
 30
0.0
 40
1.5
 41
0.0
 71
     5
 72
     1
  1
7.5
 11
0.0
 21
1.0
 31
0.0
  0
POINT
  5
121C
330
1213
100
AcDbEntity
  8
DEFPOINTS
 62
     0
100
AcDbPoint
 10
588.714302301646
 20
129.281573581302
 30
0.0
  0
POINT
  5
121D
330
1213
100
AcDbEntity
  8
DEFPOINTS
 62
     0
100
AcDbPoint
 10
588.714302301646
 20
121.771573581302
 30
0.0
  0
POINT
  5
121E
330
1213
100
AcDbEntity
  8
DEFPOINTS
 62
     0
100
AcDbPoint
 10
598.9623856394979
 20
121.771573581302
 30
0.0
  0
ENDBLK
  5
1215
330
1213
100
AcDbEntity
  8
0
100
AcDbBlockEnd
  0
BLOCK
  5
1220
330
121F
100
AcDbEntity
  8
0
100
AcDbBlockBegin
  2
*D46
 70
     1
 10
0.0
 20
0.0
 30
0.0
  3
*D46
  1
*D46
  0
LINE
  5
1222
330
121F
100
AcDbEntity
  8
WY
 62
     0
100
AcDbLine
 10
590.0602089726145
 20
119.2865723139042
 30
0.0
 11
605.1074191008006
 21
119.2865723139042
 31
0.0
  0
LINE
  5
1223
330
121F
100
AcDbEntity
  8
WY
 62
     0
100
AcDbLine
 10
590.0602089726145
 20
131.7665748486998
 30
0.0
 11
605.1074191008006
 21
131.7665748486998
 31
0.0
  0
LINE
  5
1224
330
121F
100
AcDbEntity
  8
WY
 62
     0
100
AcDbLine
 10
604.1074191008006
 20
120.7865723139042
 30
0.0
 11
604.1074191008006
 21
130.2665748486998
 31
0.0
  0
SOLID
  5
1225
330
121F
100
AcDbEntity
  8
WY
 62
     0
100
AcDbTrace
 10
603.8574191008006
 20
120.7865723139042
 30
0.0
 11
604.3574191008006
 21
120.7865723139042
 31
0.0
 12
604.1074191008006
 22
119.2865723139042
 32
0.0
 13
604.1074191008006
 23
119.2865723139042
 33
0.0
  0
SOLID
  5
1226
330
121F
100
AcDbEntity
  8
WY
 62
     0
100
AcDbTrace
 10
604.3574191008006
 20
130.2665748486998
 30
0.0
 11
603.8574191008006
 21
130.2665748486998
 31
0.0
 12
604.1074191008006
 22
131.7665748486998
 32
0.0
 13
604.1074191008006
 23
131.7665748486998
 33
0.0
  0
MTEXT
  5
1227
330
121F
100
AcDbEntity
  8
WY
 62
     0
100
AcDbMText
 10
602.3574191008006
 20
125.526573581302
 30
0.0
 40
1.5
 41
0.0
 71
     5
 72
     1
  1
12.5
 11
0.0
 21
1.0
 31
0.0
  0
POINT
  5
1228
330
121F
100
AcDbEntity
  8
DEFPOINTS
 62
     0
100
AcDbPoint
 10
589.0602089726145
 20
119.2865723139042
 30
0.0
  0
POINT
  5
1229
330
121F
100
AcDbEntity
  8
DEFPOINTS
 62
     0
100
AcDbPoint
 10
589.0602089726145
 20
131.7665748486998
 30
0.0
  0
POINT
  5
122A
330
121F
100
AcDbEntity
  8
DEFPOINTS
 62
     0
100
AcDbPoint
 10
604.1074191008006
 20
131.7665748486998
 30
0.0
  0
ENDBLK
  5
1221
330
121F
100
AcDbEntity
  8
0
100
AcDbBlockEnd
  0
BLOCK
  5
122C
330
122B
100
AcDbEntity
  8
0
100
AcDbBlockBegin
  2
*D47
 70
     1
 10
0.0
 20
0.0
 30
0.0
  3
*D47
  1
*D47
  0
LINE
  5
122E
330
122B
100
AcDbEntity
  8
WY
 62
     0
100
AcDbLine
 10
587.1682056037785
 20
119.1270868213763
 30
0.0
 11
587.1682056037785
 21
112.6744158532584
 31
0.0
  0
LINE
  5
122F
330
122B
100
AcDbEntity
  8
WY
 62
     0
100
AcDbLine
 10
554.675205968857
 20
119.3765736461221
 30
0.0
 11
554.675205968857
 21
112.6744158532584
 31
0.0
  0
LINE
  5
1230
330
122B
100
AcDbEntity
  8
WY
 62
     0
100
AcDbLine
 10
585.6682056037785
 20
113.6744158532584
 30
0.0
 11
556.175205968857
 21
113.6744158532584
 31
0.0
  0
SOLID
  5
1231
330
122B
100
AcDbEntity
  8
WY
 62
     0
100
AcDbTrace
 10
585.6682056037785
 20
113.4244158532584
 30
0.0
 11
585.6682056037785
 21
113.9244158532584
 31
0.0
 12
587.1682056037785
 22
113.6744158532584
 32
0.0
 13
587.1682056037785
 23
113.6744158532584
 33
0.0
  0
SOLID
  5
1232
330
122B
100
AcDbEntity
  8
WY
 62
     0
100
AcDbTrace
 10
556.175205968857
 20
113.9244158532584
 30
0.0
 11
556.175205968857
 21
113.4244158532584
 31
0.0
 12
554.675205968857
 22
113.6744158532584
 32
0.0
 13
554.675205968857
 23
113.6744158532584
 33
0.0
  0
MTEXT
  5
1233
330
122B
100
AcDbEntity
  8
WY
 62
     0
100
AcDbMText
 10
570.9217057863177
 20
115.4244158532584
 30
0.0
 40
1.5
 41
0.0
 71
     5
 72
     1
  1
32.5
  0
POINT
  5
1234
330
122B
100
AcDbEntity
  8
DEFPOINTS
 62
     0
100
AcDbPoint
 10
587.1682056037785
 20
120.1270868213763
 30
0.0
  0
POINT
  5
1235
330
122B
100
AcDbEntity
  8
DEFPOINTS
 62
     0
100
AcDbPoint
 10
554.675205968857
 20
120.3765736461221
 30
0.0
  0
POINT
  5
1236
330
122B
100
AcDbEntity
  8
DEFPOINTS
 62
     0
100
AcDbPoint
 10
554.675205968857
 20
113.6744158532584
 30
0.0
  0
ENDBLK
  5
122D
330
122B
100
AcDbEntity
  8
0
100
AcDbBlockEnd
  0
BLOCK
  5
1244
330
1243
100
AcDbEntity
  8
0
100
AcDbBlockBegin
  2
*D48
 70
     1
 10
0.0
 20
0.0
 30
0.0
  3
*D48
  1
*D48
  0
LINE
  5
1246
330
1243
100
AcDbEntity
  8
WY
 62
     0
100
AcDbLine
 10
589.6602053051593
 20
73.35937842385731
 30
0.0
 11
589.6602053051593
 21
56.77059664404466
 31
0.0
  0
LINE
  5
1247
330
1243
100
AcDbEntity
  8
WY
 62
     0
100
AcDbLine
 10
549.2002056037785
 20
69.57437843810656
 30
0.0
 11
549.2002056037785
 21
56.77059664404466
 31
0.0
  0
LINE
  5
1248
330
1243
100
AcDbEntity
  8
WY
 62
     0
100
AcDbLine
 10
588.1602053051593
 20
57.77059664404466
 30
0.0
 11
550.7002056037785
 21
57.77059664404466
 31
0.0
  0
SOLID
  5
1249
330
1243
100
AcDbEntity
  8
WY
 62
     0
100
AcDbTrace
 10
588.1602053051593
 20
57.52059664404466
 30
0.0
 11
588.1602053051593
 21
58.02059664404466
 31
0.0
 12
589.6602053051593
 22
57.77059664404466
 32
0.0
 13
589.6602053051593
 23
57.77059664404466
 33
0.0
  0
SOLID
  5
124A
330
1243
100
AcDbEntity
  8
WY
 62
     0
100
AcDbTrace
 10
550.7002056037785
 20
58.02059664404466
 30
0.0
 11
550.7002056037785
 21
57.52059664404466
 31
0.0
 12
549.2002056037785
 22
57.77059664404466
 32
0.0
 13
549.2002056037785
 23
57.77059664404466
 33
0.0
  0
MTEXT
  5
124B
330
1243
100
AcDbEntity
  8
WY
 62
     0
100
AcDbMText
 10
569.4302054544689
 20
59.52059664404466
 30
0.0
 40
1.5
 41
0.0
 71
     5
 72
     1
  1
40.5
  0
POINT
  5
124C
330
1243
100
AcDbEntity
  8
DEFPOINTS
 62
     0
100
AcDbPoint
 10
589.6602053051593
 20
74.35937842385731
 30
0.0
  0
POINT
  5
124D
330
1243
100
AcDbEntity
  8
DEFPOINTS
 62
     0
100
AcDbPoint
 10
549.2002056037785
 20
70.57437843810656
 30
0.0
  0
POINT
  5
124E
330
1243
100
AcDbEntity
  8
DEFPOINTS
 62
     0
100
AcDbPoint
 10
549.2002056037785
 20
57.77059664404466
 30
0.0
  0
ENDBLK
  5
1245
330
1243
100
AcDbEntity
  8
0
100
AcDbBlockEnd
  0
BLOCK
  5
1250
330
124F
100
AcDbEntity
  8
0
100
AcDbBlockBegin
  2
*D49
 70
     1
 10
0.0
 20
0.0
 30
0.0
  3
*D49
  1
*D49
  0
LINE
  5
1252
330
124F
100
AcDbEntity
  8
WY
 62
     0
100
AcDbLine
 10
560.7084356104733
 20
79.0993784170959
 30
0.0
 11
560.7084356104733
 21
60.75911925722691
 31
0.0
  0
LINE
  5
1253
330
124F
100
AcDbEntity
  8
WY
 62
     0
100
AcDbLine
 10
589.6602053051593
 20
73.35937842385731
 30
0.0
 11
589.6602053051593
 21
60.75911925722691
 31
0.0
  0
LINE
  5
1254
330
124F
100
AcDbEntity
  8
WY
 62
     0
100
AcDbLine
 10
562.2084356104733
 20
61.75911925722691
 30
0.0
 11
588.1602053051593
 21
61.75911925722691
 31
0.0
  0
SOLID
  5
1255
330
124F
100
AcDbEntity
  8
WY
 62
     0
100
AcDbTrace
 10
562.2084356104733
 20
62.00911925722691
 30
0.0
 11
562.2084356104733
 21
61.50911925722691
 31
0.0
 12
560.7084356104733
 22
61.75911925722691
 32
0.0
 13
560.7084356104733
 23
61.75911925722691
 33
0.0
  0
SOLID
  5
1256
330
124F
100
AcDbEntity
  8
WY
 62
     0
100
AcDbTrace
 10
588.1602053051593
 20
61.50911925722691
 30
0.0
 11
588.1602053051593
 21
62.00911925722691
 31
0.0
 12
589.6602053051593
 22
61.75911925722691
 32
0.0
 13
589.6602053051593
 23
61.75911925722691
 33
0.0
  0
MTEXT
  5
1257
330
124F
100
AcDbEntity
  8
WY
 62
     0
100
AcDbMText
 10
575.1843204578163
 20
63.50911925722691
 30
0.0
 40
1.5
 41
0.0
 71
     5
 72
     1
  1
29
  0
POINT
  5
1258
330
124F
100
AcDbEntity
  8
DEFPOINTS
 62
     0
100
AcDbPoint
 10
560.7084356104733
 20
80.0993784170959
 30
0.0
  0
POINT
  5
1259
330
124F
100
AcDbEntity
  8
DEFPOINTS
 62
     0
100
AcDbPoint
 10
589.6602053051593
 20
74.35937842385731
 30
0.0
  0
POINT
  5
125A
330
124F
100
AcDbEntity
  8
DEFPOINTS
 62
     0
100
AcDbPoint
 10
589.6602053051593
 20
61.75911925722691
 30
0.0
  0
ENDBLK
  5
1251
330
124F
100
AcDbEntity
  8
0
100
AcDbBlockEnd
  0
BLOCK
  5
125C
330
125B
100
AcDbEntity
  8
0
100
AcDbBlockBegin
  2
*D50
 70
     1
 10
0.0
 20
0.0
 30
0.0
  3
*D50
  1
*D50
  0
LINE
  5
125E
330
125B
100
AcDbEntity
  8
WY
 62
     0
100
AcDbLine
 10
587.1682054219546
 20
67.52067342428556
 30
0.0
 11
587.1682054219546
 21
64.36471543640464
 31
0.0
  0
LINE
  5
125F
330
125B
100
AcDbEntity
  8
WY
 62
     0
100
AcDbLine
 10
589.6602053051593
 20
73.35937842385731
 30
0.0
 11
589.6602053051593
 21
64.36471543640464
 31
0.0
  0
LINE
  5
1260
330
125B
100
AcDbEntity
  8
WY
 62
     0
100
AcDbLine
 10
587.1682054219546
 20
65.36471543640464
 30
0.0
 11
579.1682054219546
 21
65.36471543640464
 31
0.0
  0
LINE
  5
1261
330
125B
100
AcDbEntity
  8
WY
 62
     0
100
AcDbLine
 10
587.1682054219546
 20
65.36471543640464
 30
0.0
 11
589.6602053051593
 21
65.36471543640464
 31
0.0
  0
LINE
  5
1262
330
125B
100
AcDbEntity
  8
WY
 62
     0
100
AcDbLine
 10
585.6682054219546
 20
65.36471543640464
 30
0.0
 11
584.1682054219546
 21
65.36471543640464
 31
0.0
  0
LINE
  5
1263
330
125B
100
AcDbEntity
  8
WY
 62
     0
100
AcDbLine
 10
591.1602053051593
 20
65.36471543640464
 30
0.0
 11
592.6602053051593
 21
65.36471543640464
 31
0.0
  0
SOLID
  5
1264
330
125B
100
AcDbEntity
  8
WY
 62
     0
100
AcDbTrace
 10
585.6682054219546
 20
65.11471543640464
 30
0.0
 11
585.6682054219546
 21
65.61471543640464
 31
0.0
 12
587.1682054219546
 22
65.36471543640464
 32
0.0
 13
587.1682054219546
 23
65.36471543640464
 33
0.0
  0
SOLID
  5
1265
330
125B
100
AcDbEntity
  8
WY
 62
     0
100
AcDbTrace
 10
591.1602053051593
 20
65.61471543640464
 30
0.0
 11
591.1602053051593
 21
65.11471543640464
 31
0.0
 12
589.6602053051593
 22
65.36471543640464
 32
0.0
 13
589.6602053051593
 23
65.36471543640464
 33
0.0
  0
MTEXT
  5
1266
330
125B
100
AcDbEntity
  8
WY
 62
     0
100
AcDbMText
 10
581.6682054219546
 20
67.11471543640464
 30
0.0
 40
1.5
 41
0.0
 71
     5
 72
     1
  1
2.5
  0
POINT
  5
1267
330
125B
100
AcDbEntity
  8
DEFPOINTS
 62
     0
100
AcDbPoint
 10
587.1682054219546
 20
68.52067342428556
 30
0.0
  0
POINT
  5
1268
330
125B
100
AcDbEntity
  8
DEFPOINTS
 62
     0
100
AcDbPoint
 10
589.6602053051593
 20
74.35937842385731
 30
0.0
  0
POINT
  5
1269
330
125B
100
AcDbEntity
  8
DEFPOINTS
 62
     0
100
AcDbPoint
 10
589.6602053051593
 20
65.36471543640464
 30
0.0
  0
ENDBLK
  5
125D
330
125B
100
AcDbEntity
  8
0
100
AcDbBlockEnd
  0
BLOCK
  5
126B
330
126A
100
AcDbEntity
  8
0
100
AcDbBlockBegin
  2
*D51
 70
     1
 10
0.0
 20
0.0
 30
0.0
  3
*D51
  1
*D51
  0
LINE
  5
126D
330
126A
100
AcDbEntity
  8
WY
 62
     0
100
AcDbLine
 10
549.6752056037785
 20
67.52067322177881
 30
0.0
 11
549.6752056037785
 21
64.36471543640464
 31
0.0
  0
LINE
  5
126E
330
126A
100
AcDbEntity
  8
WY
 62
     0
100
AcDbLine
 10
554.6752056037785
 20
67.52067322177878
 30
0.0
 11
554.6752056037785
 21
64.36471543640464
 31
0.0
  0
LINE
  5
126F
330
126A
100
AcDbEntity
  8
WY
 62
     0
100
AcDbLine
 10
551.1752056037785
 20
65.36471543640464
 30
0.0
 11
553.1752056037785
 21
65.36471543640464
 31
0.0
  0
SOLID
  5
1270
330
126A
100
AcDbEntity
  8
WY
 62
     0
100
AcDbTrace
 10
551.1752056037785
 20
65.61471543640464
 30
0.0
 11
551.1752056037785
 21
65.11471543640464
 31
0.0
 12
549.6752056037785
 22
65.36471543640464
 32
0.0
 13
549.6752056037785
 23
65.36471543640464
 33
0.0
  0
SOLID
  5
1271
330
126A
100
AcDbEntity
  8
WY
 62
     0
100
AcDbTrace
 10
553.1752056037785
 20
65.11471543640464
 30
0.0
 11
553.1752056037785
 21
65.61471543640464
 31
0.0
 12
554.6752056037785
 22
65.36471543640464
 32
0.0
 13
554.6752056037785
 23
65.36471543640464
 33
0.0
  0
MTEXT
  5
1272
330
126A
100
AcDbEntity
  8
WY
 62
     0
100
AcDbMText
 10
552.1752056037785
 20
67.11471543640464
 30
0.0
 40
1.5
 41
0.0
 71
     5
 72
     1
  1
5
  0
POINT
  5
1273
330
126A
100
AcDbEntity
  8
DEFPOINTS
 62
     0
100
AcDbPoint
 10
549.6752056037785
 20
68.52067322177881
 30
0.0
  0
POINT
  5
1274
330
126A
100
AcDbEntity
  8
DEFPOINTS
 62
     0
100
AcDbPoint
 10
554.6752056037785
 20
68.52067322177878
 30
0.0
  0
POINT
  5
1275
330
126A
100
AcDbEntity
  8
DEFPOINTS
 62
     0
100
AcDbPoint
 10
554.6752056037785
 20
65.36471543640464
 30
0.0
  0
ENDBLK
  5
126C
330
126A
100
AcDbEntity
  8
0
100
AcDbBlockEnd
  0
BLOCK
  5
127A
330
1279
100
AcDbEntity
  8
0
100
AcDbBlockBegin
  2
*D52
 70
     1
 10
0.0
 20
0.0
 30
0.0
  3
*D52
  1
*D52
  0
LINE
  5
127C
330
1279
100
AcDbEntity
  8
WY
 62
     0
100
AcDbLine
 10
545.0002053385379
 20
82.19937857504824
 30
0.0
 11
538.8219526463832
 21
82.19937857504824
 31
0.0
  0
LINE
  5
127D
330
1279
100
AcDbEntity
  8
WY
 62
     0
100
AcDbLine
 10
545.0002053385379
 20
88.49937858324388
 30
0.0
 11
538.8219526463832
 21
88.49937858324388
 31
0.0
  0
LINE
  5
127E
330
1279
100
AcDbEntity
  8
WY
 62
     0
100
AcDbLine
 10
539.8219526463832
 20
83.69937857504824
 30
0.0
 11
539.8219526463832
 21
86.99937858324388
 31
0.0
  0
SOLID
  5
127F
330
1279
100
AcDbEntity
  8
WY
 62
     0
100
AcDbTrace
 10
539.5719526463832
 20
83.69937857504824
 30
0.0
 11
540.0719526463832
 21
83.69937857504824
 31
0.0
 12
539.8219526463832
 22
82.19937857504824
 32
0.0
 13
539.8219526463832
 23
82.19937857504824
 33
0.0
  0
SOLID
  5
1280
330
1279
100
AcDbEntity
  8
WY
 62
     0
100
AcDbTrace
 10
540.0719526463832
 20
86.99937858324388
 30
0.0
 11
539.5719526463832
 21
86.99937858324388
 31
0.0
 12
539.8219526463832
 22
88.49937858324388
 32
0.0
 13
539.8219526463832
 23
88.49937858324388
 33
0.0
  0
MTEXT
  5
1281
330
1279
100
AcDbEntity
  8
WY
 62
     0
100
AcDbMText
 10
538.0719526463832
 20
85.34937857914606
 30
0.0
 40
1.5
 41
0.0
 71
     5
 72
     1
  1
6.3
 11
0.0
 21
1.0
 31
0.0
  0
POINT
  5
1282
330
1279
100
AcDbEntity
  8
DEFPOINTS
 62
     0
100
AcDbPoint
 10
546.0002053385379
 20
82.19937857504824
 30
0.0
  0
POINT
  5
1283
330
1279
100
AcDbEntity
  8
DEFPOINTS
 62
     0
100
AcDbPoint
 10
546.0002053385379
 20
88.49937858324388
 30
0.0
  0
POINT
  5
1284
330
1279
100
AcDbEntity
  8
DEFPOINTS
 62
     0
100
AcDbPoint
 10
539.8219526463832
 20
88.49937858324388
 30
0.0
  0
ENDBLK
  5
127B
330
1279
100
AcDbEntity
  8
0
100
AcDbBlockEnd
  0
BLOCK
  5
1289
330
1288
100
AcDbEntity
  8
0
100
AcDbBlockBegin
  2
*D53
 70
     1
 10
0.0
 20
0.0
 30
0.0
  3
*D53
  1
*D53
  0
LINE
  5
128B
330
1288
100
AcDbEntity
  8
WY
 62
     0
100
AcDbLine
 10
545.0002053385379
 20
88.49937858324388
 30
0.0
 11
535.1548061456547
 21
88.49937858324388
 31
0.0
  0
LINE
  5
128C
330
1288
100
AcDbEntity
  8
WY
 62
     0
100
AcDbLine
 10
558.6402058234216
 20
74.35937842385734
 30
0.0
 11
535.1548061456547
 21
74.35937842385734
 31
0.0
  0
LINE
  5
128D
330
1288
100
AcDbEntity
  8
WY
 62
     0
100
AcDbLine
 10
536.1548061456547
 20
86.99937858324388
 30
0.0
 11
536.1548061456547
 21
75.85937842385734
 31
0.0
  0
SOLID
  5
128E
330
1288
100
AcDbEntity
  8
WY
 62
     0
100
AcDbTrace
 10
536.4048061456547
 20
86.99937858324388
 30
0.0
 11
535.9048061456547
 21
86.99937858324388
 31
0.0
 12
536.1548061456547
 22
88.49937858324388
 32
0.0
 13
536.1548061456547
 23
88.49937858324388
 33
0.0
  0
SOLID
  5
128F
330
1288
100
AcDbEntity
  8
WY
 62
     0
100
AcDbTrace
 10
535.9048061456547
 20
75.85937842385734
 30
0.0
 11
536.4048061456547
 21
75.85937842385734
 31
0.0
 12
536.1548061456547
 22
74.35937842385734
 32
0.0
 13
536.1548061456547
 23
74.35937842385734
 33
0.0
  0
MTEXT
  5
1290
330
1288
100
AcDbEntity
  8
WY
 62
     0
100
AcDbMText
 10
534.4048061456547
 20
81.42937850355061
 30
0.0
 40
1.5
 41
0.0
 71
     5
 72
     1
  1
14.1
 11
0.0
 21
1.0
 31
0.0
  0
POINT
  5
1291
330
1288
100
AcDbEntity
  8
DEFPOINTS
 62
     0
100
AcDbPoint
 10
546.0002053385379
 20
88.49937858324388
 30
0.0
  0
POINT
  5
1292
330
1288
100
AcDbEntity
  8
DEFPOINTS
 62
     0
100
AcDbPoint
 10
559.6402058234216
 20
74.35937842385734
 30
0.0
  0
POINT
  5
1293
330
1288
100
AcDbEntity
  8
DEFPOINTS
 62
     0
100
AcDbPoint
 10
536.1548061456547
 20
74.35937842385734
 30
0.0
  0
ENDBLK
  5
128A
330
1288
100
AcDbEntity
  8
0
100
AcDbBlockEnd
  0
BLOCK
  5
1298
330
1297
100
AcDbEntity
  8
0
100
AcDbBlockBegin
  2
*D54
 70
     1
 10
0.0
 20
0.0
 30
0.0
  3
*D54
  1
*D54
  0
LINE
  5
129A
330
1297
100
AcDbEntity
  8
WY
 62
     0
100
AcDbLine
 10
558.6402058234216
 20
74.35937842385734
 30
0.0
 11
535.1548061456547
 21
74.35937842385734
 31
0.0
  0
LINE
  5
129B
330
1297
100
AcDbEntity
  8
WY
 62
     0
100
AcDbLine
 10
548.6752056037785
 20
70.09937843810656
 30
0.0
 11
535.1548061456547
 21
70.09937843810656
 31
0.0
  0
LINE
  5
129C
330
1297
100
AcDbEntity
  8
WY
 62
     0
100
AcDbLine
 10
536.1548061456547
 20
74.35937842385734
 30
0.0
 11
536.1548061456547
 21
70.09937843810656
 31
0.0
  0
LINE
  5
129D
330
1297
100
AcDbEntity
  8
WY
 62
     0
100
AcDbLine
 10
536.1548061456547
 20
75.85937842385734
 30
0.0
 11
536.1548061456547
 21
77.35937842385734
 31
0.0
  0
LINE
  5
129E
330
1297
100
AcDbEntity
  8
WY
 62
     0
100
AcDbLine
 10
536.1548061456547
 20
68.59937843810656
 30
0.0
 11
536.1548061456547
 21
67.09937843810656
 31
0.0
  0
SOLID
  5
129F
330
1297
100
AcDbEntity
  8
WY
 62
     0
100
AcDbTrace
 10
535.9048061456547
 20
75.85937842385734
 30
0.0
 11
536.4048061456547
 21
75.85937842385734
 31
0.0
 12
536.1548061456547
 22
74.35937842385734
 32
0.0
 13
536.1548061456547
 23
74.35937842385734
 33
0.0
  0
SOLID
  5
12A0
330
1297
100
AcDbEntity
  8
WY
 62
     0
100
AcDbTrace
 10
536.4048061456547
 20
68.59937843810656
 30
0.0
 11
535.9048061456547
 21
68.59937843810656
 31
0.0
 12
536.1548061456547
 22
70.09937843810656
 32
0.0
 13
536.1548061456547
 23
70.09937843810656
 33
0.0
  0
MTEXT
  5
12A1
330
1297
100
AcDbEntity
  8
WY
 62
     0
100
AcDbMText
 10
534.4048061456547
 20
72.22937843098194
 30
0.0
 40
1.5
 41
0.0
 71
     5
 72
     1
  1
4.3
 11
0.0
 21
1.0
 31
0.0
  0
POINT
  5
12A2
330
1297
100
AcDbEntity
  8
DEFPOINTS
 62
     0
100
AcDbPoint
 10
559.6402058234216
 20
74.35937842385734
 30
0.0
  0
POINT
  5
12A3
330
1297
100
AcDbEntity
  8
DEFPOINTS
 62
     0
100
AcDbPoint
 10
549.6752056037785
 20
70.09937843810656
 30
0.0
  0
POINT
  5
12A4
330
1297
100
AcDbEntity
  8
DEFPOINTS
 62
     0
100
AcDbPoint
 10
536.1548061456547
 20
70.09937843810656
 30
0.0
  0
ENDBLK
  5
1299
330
1297
100
AcDbEntity
  8
0
100
AcDbBlockEnd
  0
BLOCK
  5
12A9
330
12A8
100
AcDbEntity
  8
0
100
AcDbBlockBegin
  2
*D55
 70
     1
 10
0.0
 20
0.0
 30
0.0
  3
*D55
  1
*D55
  0
LINE
  5
12AB
330
12A8
100
AcDbEntity
  8
WY
 62
     0
100
AcDbLine
 10
545.2002048348786
 20
81.9993786130462
 30
0.0
 11
545.2002048348786
 21
51.86063682654668
 31
0.0
  0
LINE
  5
12AC
330
12A8
100
AcDbEntity
  8
WY
 62
     0
100
AcDbLine
 10
589.6602053051593
 20
73.35937842385734
 30
0.0
 11
589.6602053051593
 21
51.86063682654668
 31
0.0
  0
LINE
  5
12AD
330
12A8
100
AcDbEntity
  8
WY
 62
     0
100
AcDbLine
 10
546.7002048348786
 20
52.86063682654668
 30
0.0
 11
588.1602053051593
 21
52.86063682654668
 31
0.0
  0
SOLID
  5
12AE
330
12A8
100
AcDbEntity
  8
WY
 62
     0
100
AcDbTrace
 10
546.7002048348786
 20
53.11063682654668
 30
0.0
 11
546.7002048348786
 21
52.61063682654668
 31
0.0
 12
545.2002048348786
 22
52.86063682654668
 32
0.0
 13
545.2002048348786
 23
52.86063682654668
 33
0.0
  0
SOLID
  5
12AF
330
12A8
100
AcDbEntity
  8
WY
 62
     0
100
AcDbTrace
 10
588.1602053051593
 20
52.61063682654668
 30
0.0
 11
588.1602053051593
 21
53.11063682654668
 31
0.0
 12
589.6602053051593
 22
52.86063682654668
 32
0.0
 13
589.6602053051593
 23
52.86063682654668
 33
0.0
  0
MTEXT
  5
12B0
330
12A8
100
AcDbEntity
  8
WY
 62
     0
100
AcDbMText
 10
567.4302050700189
 20
54.61063682654668
 30
0.0
 40
1.5
 41
0.0
 71
     5
 72
     1
  1
44.5
  0
POINT
  5
12B1
330
12A8
100
AcDbEntity
  8
DEFPOINTS
 62
     0
100
AcDbPoint
 10
545.2002048348786
 20
82.9993786130462
 30
0.0
  0
POINT
  5
12B2
330
12A8
100
AcDbEntity
  8
DEFPOINTS
 62
     0
100
AcDbPoint
 10
589.6602053051593
 20
74.35937842385734
 30
0.0
  0
POINT
  5
12B3
330
12A8
100
AcDbEntity
  8
DEFPOINTS
 62
     0
100
AcDbPoint
 10
589.6602053051593
 20
52.86063682654668
 30
0.0
  0
ENDBLK
  5
12AA
330
12A8
100
AcDbEntity
  8
0
100
AcDbBlockEnd
  0
BLOCK
  5
12B8
330
12B7
100
AcDbEntity
  8
0
100
AcDbBlockBegin
  2
*D56
 70
     1
 10
0.0
 20
0.0
 30
0.0
  3
*D56
  1
*D56
  0
LINE
  5
12BA
330
12B7
100
AcDbEntity
  8
WY
 62
     0
100
AcDbLine
 10
590.6502829944493
 20
74.35937842385734
 30
0.0
 11
597.296221202139
 21
74.35937842385734
 31
0.0
  0
LINE
  5
12BB
330
12B7
100
AcDbEntity
  8
WY
 62
     0
100
AcDbLine
 10
590.010539822817
 20
90.07937850694994
 30
0.0
 11
597.296221202139
 21
90.07937850694994
 31
0.0
  0
LINE
  5
12BC
330
12B7
100
AcDbEntity
  8
WY
 62
     0
100
AcDbLine
 10
596.296221202139
 20
75.85937842385734
 30
0.0
 11
596.296221202139
 21
88.57937850694994
 31
0.0
  0
SOLID
  5
12BD
330
12B7
100
AcDbEntity
  8
WY
 62
     0
100
AcDbTrace
 10
596.046221202139
 20
75.85937842385734
 30
0.0
 11
596.546221202139
 21
75.85937842385734
 31
0.0
 12
596.296221202139
 22
74.35937842385734
 32
0.0
 13
596.296221202139
 23
74.35937842385734
 33
0.0
  0
SOLID
  5
12BE
330
12B7
100
AcDbEntity
  8
WY
 62
     0
100
AcDbTrace
 10
596.546221202139
 20
88.57937850694994
 30
0.0
 11
596.046221202139
 21
88.57937850694994
 31
0.0
 12
596.296221202139
 22
90.07937850694994
 32
0.0
 13
596.296221202139
 23
90.07937850694994
 33
0.0
  0
MTEXT
  5
12BF
330
12B7
100
AcDbEntity
  8
WY
 62
     0
100
AcDbMText
 10
594.546221202139
 20
82.21937846540364
 30
0.0
 40
1.5
 41
0.0
 71
     5
 72
     1
  1
15.7
 11
0.0
 21
1.0
 31
0.0
  0
POINT
  5
12C0
330
12B7
100
AcDbEntity
  8
DEFPOINTS
 62
     0
100
AcDbPoint
 10
589.6502829944493
 20
74.35937842385734
 30
0.0
  0
POINT
  5
12C1
330
12B7
100
AcDbEntity
  8
DEFPOINTS
 62
     0
100
AcDbPoint
 10
589.010539822817
 20
90.07937850694994
 30
0.0
  0
POINT
  5
12C2
330
12B7
100
AcDbEntity
  8
DEFPOINTS
 62
     0
100
AcDbPoint
 10
596.296221202139
 20
90.07937850694994
 30
0.0
  0
ENDBLK
  5
12B9
330
12B7
100
AcDbEntity
  8
0
100
AcDbBlockEnd
  0
BLOCK
  5
12C7
330
12C6
100
AcDbEntity
  8
0
100
AcDbBlockBegin
  2
*D57
 70
     1
 10
0.0
 20
0.0
 30
0.0
  3
*D57
  1
*D57
  0
LINE
  5
12C9
330
12C6
100
AcDbEntity
  8
WY
 62
     0
100
AcDbLine
 10
632.793647098657
 20
67.06916998617051
 30
0.0
 11
632.793647098657
 21
59.73435307144418
 31
0.0
  0
LINE
  5
12CA
330
12C6
100
AcDbEntity
  8
WY
 62
     0
100
AcDbLine
 10
640.2936471638495
 20
67.06916998617051
 30
0.0
 11
640.2936471638495
 21
59.73435307144418
 31
0.0
  0
LINE
  5
12CB
330
12C6
100
AcDbEntity
  8
WY
 62
     0
100
AcDbLine
 10
634.293647098657
 20
60.73435307144418
 30
0.0
 11
638.7936471638495
 21
60.73435307144418
 31
0.0
  0
SOLID
  5
12CC
330
12C6
100
AcDbEntity
  8
WY
 62
     0
100
AcDbTrace
 10
634.293647098657
 20
60.98435307144418
 30
0.0
 11
634.293647098657
 21
60.48435307144418
 31
0.0
 12
632.793647098657
 22
60.73435307144418
 32
0.0
 13
632.793647098657
 23
60.73435307144418
 33
0.0
  0
SOLID
  5
12CD
330
12C6
100
AcDbEntity
  8
WY
 62
     0
100
AcDbTrace
 10
638.7936471638495
 20
60.48435307144418
 30
0.0
 11
638.7936471638495
 21
60.98435307144418
 31
0.0
 12
640.2936471638495
 22
60.73435307144418
 32
0.0
 13
640.2936471638495
 23
60.73435307144418
 33
0.0
  0
MTEXT
  5
12CE
330
12C6
100
AcDbEntity
  8
WY
 62
     0
100
AcDbMText
 10
636.5436471312532
 20
62.48435307144418
 30
0.0
 40
1.5
 41
0.0
 71
     5
 72
     1
  1
7.5
  0
POINT
  5
12CF
330
12C6
100
AcDbEntity
  8
DEFPOINTS
 62
     0
100
AcDbPoint
 10
632.793647098657
 20
68.06916998617051
 30
0.0
  0
POINT
  5
12D0
330
12C6
100
AcDbEntity
  8
DEFPOINTS
 62
     0
100
AcDbPoint
 10
640.2936471638495
 20
68.06916998617051
 30
0.0
  0
POINT
  5
12D1
330
12C6
100
AcDbEntity
  8
DEFPOINTS
 62
     0
100
AcDbPoint
 10
640.2936471638495
 20
60.73435307144418
 30
0.0
  0
ENDBLK
  5
12C8
330
12C6
100
AcDbEntity
  8
0
100
AcDbBlockEnd
  0
BLOCK
  5
12D6
330
12D5
100
AcDbEntity
  8
0
100
AcDbBlockBegin
  2
*D58
 70
     1
 10
0.0
 20
0.0
 30
0.0
  3
*D58
  1
*D58
  0
LINE
  5
12D8
330
12D5
100
AcDbEntity
  8
WY
 62
     0
100
AcDbLine
 10
630.3036471142659
 20
73.65937843810657
 30
0.0
 11
630.3036471142659
 21
55.73316087235128
 31
0.0
  0
LINE
  5
12D9
330
12D5
100
AcDbEntity
  8
WY
 62
     0
100
AcDbLine
 10
642.7836471482406
 20
73.65937843810657
 30
0.0
 11
642.7836471482406
 21
55.73316087235128
 31
0.0
  0
LINE
  5
12DA
330
12D5
100
AcDbEntity
  8
WY
 62
     0
100
AcDbLine
 10
631.8036471142659
 20
56.73316087235128
 30
0.0
 11
641.2836471482406
 21
56.73316087235128
 31
0.0
  0
SOLID
  5
12DB
330
12D5
100
AcDbEntity
  8
WY
 62
     0
100
AcDbTrace
 10
631.8036471142659
 20
56.98316087235128
 30
0.0
 11
631.8036471142659
 21
56.48316087235128
 31
0.0
 12
630.3036471142659
 22
56.73316087235128
 32
0.0
 13
630.3036471142659
 23
56.73316087235128
 33
0.0
  0
SOLID
  5
12DC
330
12D5
100
AcDbEntity
  8
WY
 62
     0
100
AcDbTrace
 10
641.2836471482406
 20
56.48316087235128
 30
0.0
 11
641.2836471482406
 21
56.98316087235128
 31
0.0
 12
642.7836471482406
 22
56.73316087235128
 32
0.0
 13
642.7836471482406
 23
56.73316087235128
 33
0.0
  0
MTEXT
  5
12DD
330
12D5
100
AcDbEntity
  8
WY
 62
     0
100
AcDbMText
 10
636.5436471312532
 20
58.48316087235128
 30
0.0
 40
1.5
 41
0.0
 71
     5
 72
     1
  1
12.5
  0
POINT
  5
12DE
330
12D5
100
AcDbEntity
  8
DEFPOINTS
 62
     0
100
AcDbPoint
 10
630.3036471142659
 20
74.65937843810657
 30
0.0
  0
POINT
  5
12DF
330
12D5
100
AcDbEntity
  8
DEFPOINTS
 62
     0
100
AcDbPoint
 10
642.7836471482406
 20
74.65937843810657
 30
0.0
  0
POINT
  5
12E0
330
12D5
100
AcDbEntity
  8
DEFPOINTS
 62
     0
100
AcDbPoint
 10
642.7836471482406
 20
56.73316087235128
 30
0.0
  0
ENDBLK
  5
12D7
330
12D5
100
AcDbEntity
  8
0
100
AcDbBlockEnd
  0
BLOCK
  5
12E5
330
12E4
100
AcDbEntity
  8
0
100
AcDbBlockBegin
  2
*D59
 70
     1
 10
0.0
 20
0.0
 30
0.0
  3
*D59
  1
*D59
  0
LINE
  5
12E7
330
12E4
100
AcDbEntity
  8
WY
 62
     0
100
AcDbLine
 10
631.3936471960733
 20
70.09937864061335
 30
0.0
 11
622.425056677331
 21
70.09937864061335
 31
0.0
  0
LINE
  5
12E8
330
12E4
100
AcDbEntity
  8
WY
 62
     0
100
AcDbLine
 10
629.9533130622694
 20
90.07937850694994
 30
0.0
 11
622.425056677331
 21
90.07937850694994
 31
0.0
  0
LINE
  5
12E9
330
12E4
100
AcDbEntity
  8
WY
 62
     0
100
AcDbLine
 10
623.425056677331
 20
71.59937864061335
 30
0.0
 11
623.425056677331
 21
88.57937850694994
 31
0.0
  0
SOLID
  5
12EA
330
12E4
100
AcDbEntity
  8
WY
 62
     0
100
AcDbTrace
 10
623.175056677331
 20
71.59937864061335
 30
0.0
 11
623.675056677331
 21
71.59937864061335
 31
0.0
 12
623.425056677331
 22
70.09937864061335
 32
0.0
 13
623.425056677331
 23
70.09937864061335
 33
0.0
  0
SOLID
  5
12EB
330
12E4
100
AcDbEntity
  8
WY
 62
     0
100
AcDbTrace
 10
623.675056677331
 20
88.57937850694994
 30
0.0
 11
623.175056677331
 21
88.57937850694994
 31
0.0
 12
623.425056677331
 22
90.07937850694994
 32
0.0
 13
623.425056677331
 23
90.07937850694994
 33
0.0
  0
MTEXT
  5
12EC
330
12E4
100
AcDbEntity
  8
WY
 62
     0
100
AcDbMText
 10
621.675056677331
 20
80.08937857378164
 30
0.0
 40
1.5
 41
0.0
 71
     5
 72
     1
  1
20
 11
0.0
 21
1.0
 31
0.0
  0
POINT
  5
12ED
330
12E4
100
AcDbEntity
  8
DEFPOINTS
 62
     0
100
AcDbPoint
 10
632.3936471960733
 20
70.09937864061335
 30
0.0
  0
POINT
  5
12EE
330
12E4
100
AcDbEntity
  8
DEFPOINTS
 62
     0
100
AcDbPoint
 10
630.9533130622694
 20
90.07937850694994
 30
0.0
  0
POINT
  5
12EF
330
12E4
100
AcDbEntity
  8
DEFPOINTS
 62
     0
100
AcDbPoint
 10
623.425056677331
 20
90.07937850694994
 30
0.0
  0
ENDBLK
  5
12E6
330
12E4
100
AcDbEntity
  8
0
100
AcDbBlockEnd
  0
BLOCK
  5
12F4
330
12F3
100
AcDbEntity
  8
0
100
AcDbBlockBegin
  2
*D60
 70
     1
 10
0.0
 20
0.0
 30
0.0
  3
*D60
  1
*D60
  0
LINE
  5
12F6
330
12F3
100
AcDbEntity
  8
WY
 62
     0
100
AcDbLine
 10
629.6951083399337
 20
198.1162422879171
 30
0.0
 11
621.7409766179659
 21
198.1162422879171
 31
0.0
  0
LINE
  5
12F7
330
12F3
100
AcDbEntity
  8
WY
 62
     0
100
AcDbLine
 10
628.2547742061298
 20
218.0962421542537
 30
0.0
 11
621.7409766179659
 21
218.0962421542537
 31
0.0
  0
LINE
  5
12F8
330
12F3
100
AcDbEntity
  8
WY
 62
     0
100
AcDbLine
 10
622.7409766179659
 20
199.6162422879171
 30
0.0
 11
622.7409766179659
 21
216.5962421542537
 31
0.0
  0
SOLID
  5
12F9
330
12F3
100
AcDbEntity
  8
WY
 62
     0
100
AcDbTrace
 10
622.4909766179659
 20
199.6162422879171
 30
0.0
 11
622.9909766179659
 21
199.6162422879171
 31
0.0
 12
622.7409766179659
 22
198.1162422879171
 32
0.0
 13
622.7409766179659
 23
198.1162422879171
 33
0.0
  0
SOLID
  5
12FA
330
12F3
100
AcDbEntity
  8
WY
 62
     0
100
AcDbTrace
 10
622.9909766179659
 20
216.5962421542537
 30
0.0
 11
622.4909766179659
 21
216.5962421542537
 31
0.0
 12
622.7409766179659
 22
218.0962421542537
 32
0.0
 13
622.7409766179659
 23
218.0962421542537
 33
0.0
  0
MTEXT
  5
12FB
330
12F3
100
AcDbEntity
  8
WY
 62
     0
100
AcDbMText
 10
620.9909766179659
 20
208.1062422210854
 30
0.0
 40
1.5
 41
0.0
 71
     5
 72
     1
  1
20
 11
0.0
 21
1.0
 31
0.0
  0
POINT
  5
12FC
330
12F3
100
AcDbEntity
  8
DEFPOINTS
 62
     0
100
AcDbPoint
 10
630.6951083399337
 20
198.1162422879171
 30
0.0
  0
POINT
  5
12FD
330
12F3
100
AcDbEntity
  8
DEFPOINTS
 62
     0
100
AcDbPoint
 10
629.2547742061298
 20
218.0962421542537
 30
0.0
  0
POINT
  5
12FE
330
12F3
100
AcDbEntity
  8
DEFPOINTS
 62
     0
100
AcDbPoint
 10
622.7409766179659
 20
218.0962421542537
 30
0.0
  0
ENDBLK
  5
12F5
330
12F3
100
AcDbEntity
  8
0
100
AcDbBlockEnd
  0
ENDSEC
  0
SECTION
  2
ENTITIES
  0
LINE
  5
61E
330
1F
100
AcDbEntity
  8
WYMIARY
 62
     6
100
AcDbLine
 10
486.4399922538362
 20
5.43843876034312
 30
0.0
 11
486.4399922538362
 21
302.4384387603431
 31
0.0
  0
LINE
  5
61F
330
1F
100
AcDbEntity
  8
WYMIARY
 62
     6
100
AcDbLine
 10
498.0703992538362
 20
297.4384387603431
 30
0.0
 11
498.0703992538362
 21
10.43843876034312
 31
0.0
  0
LINE
  5
620
330
1F
100
AcDbEntity
  8
2
100
AcDbLine
 10
683.0703992538363
 20
10.43843876034312
 30
0.0
 11
683.0703992538363
 21
297.4384387603431
 31
0.0
  0
LINE
  5
621
330
1F
100
AcDbEntity
  8
2
100
AcDbLine
 10
688.0703992538363
 20
5.43843876034312
 30
0.0
 11
688.0703992538363
 21
302.4384387603431
 31
0.0
  0
LINE
  5
622
330
1F
100
AcDbEntity
  8
WY
  6
CONTINUOUS
 62
     3
100
AcDbLine
 10
683.0703992538363
 20
25.12827576034312
 30
0.0
 11
498.0703992538362
 21
25.12827576034312
 31
0.0
  0
LINE
  5
623
330
1F
100
AcDbEntity
  8
2
100
AcDbLine
 10
498.0703992538362
 20
10.43843876034312
 30
0.0
 11
683.0703992538363
 21
10.43843876034312
 31
0.0
  0
LINE
  5
624
330
1F
100
AcDbEntity
  8
2
 62
     6
100
AcDbLine
 10
498.0703992538362
 20
5.43843876034312
 30
0.0
 11
688.0703992538363
 21
5.43843876034312
 31
0.0
  0
LINE
  5
625
330
1F
100
AcDbEntity
  8
0
100
AcDbLine
 10
530.0964152538363
 20
17.18091976034312
 30
0.0
 11
529.1940042538363
 21
17.18091976034312
 31
0.0
  0
ELLIPSE
  5
626
330
1F
100
AcDbEntity
  8
0
100
AcDbEllipse
 10
530.0964152538363
 20
17.18091976034312
 30
0.0
 11
-1.203215696869327
 21
1.967000000000000E-13
 31
0.0
210
0.0
220
0.0
230
1.0
 40
0.958812
 41
-1.570796326794739
 42
0.0000000000001705
  0
TEXT
  5
627
330
1F
100
AcDbEntity
  8
1
100
AcDbText
 10
516.0063262538363
 20
14.23589576034312
 30
0.0
 40
5.0
  1
A4
 51
15.0
  7
ITALIC
100
AcDbText
  0
LINE
  5
628
330
1F
100
AcDbEntity
  8
WYMIARY
 62
     6
100
AcDbLine
 10
498.0703992538362
 20
5.43843876034312
 30
0.0
 11
486.4399922538362
 21
5.43843876034312
 31
0.0
  0
TEXT
  5
629
330
1F
100
AcDbEntity
  8
WY
100
AcDbText
 10
503.3355132538362
 20
21.81228276034312
 30
0.0
 40
2.0
  1
Skala
 51
15.0
  7
ITALIC
100
AcDbText
  0
TEXT
  5
62A
330
1F
100
AcDbEntity
  8
WY
100
AcDbText
 10
515.4409672538363
 20
21.76780776034312
 30
0.0
 40
2.0
  1
Format
 51
15.0
  7
ITALIC
100
AcDbText
  0
LINE
  5
62B
330
1F
100
AcDbEntity
  8
0
100
AcDbLine
 10
528.8932002538363
 20
17.18091976034312
 30
0.0
 11
529.1940042538363
 21
17.18091976034312
 31
0.0
  0
LINE
  5
62C
330
1F
100
AcDbEntity
  8
0
100
AcDbLine
 10
560.2859682538362
 20
22.64970276034312
 30
0.0
 11
560.2859682538362
 21
14.45370276034312
 31
0.0
  0
LINE
  5
62D
330
1F
100
AcDbEntity
  8
0
100
AcDbLine
 10
551.2919682538363
 20
14.87670276034312
 30
0.0
 11
551.2919682538363
 21
12.85470276034312
 31
0.0
  0
ARC
  5
62E
330
1F
100
AcDbEntity
  8
0
100
AcDbCircle
 10
551.9415482538363
 20
15.16320276034312
 30
0.0
 40
0.709955
100
AcDbArc
 50
203.800079999998
 51
272.0519179999911
  0
LINE
  5
62F
330
1F
100
AcDbEntity
  8
0
100
AcDbLine
 10
549.7469682538363
 20
12.85470276034312
 30
0.0
 11
549.7469682538363
 21
21.05070276034312
 31
0.0
  0
ARC
  5
630
330
1F
100
AcDbEntity
  8
0
100
AcDbCircle
 10
552.3808742538363
 20
15.57485476034312
 30
0.0
 40
1.128907
100
AcDbArc
 50
276.7195760000022
 51
2.175194000000076
  0
ARC
  5
631
330
1F
100
AcDbEntity
  8
0
100
AcDbCircle
 10
555.6418072538363
 20
15.94201076034312
 30
0.0
 40
1.488419
100
AcDbArc
 50
191.6342679999997
 51
270.6991129999946
  0
ARC
  5
632
330
1F
100
AcDbEntity
  8
0
100
AcDbCircle
 10
556.6081292538363
 20
15.94201076034312
 30
0.0
 40
1.488419
100
AcDbArc
 50
269.3008869999965
 51
348.3657319999994
  0
LINE
  5
633
330
1F
100
AcDbEntity
  8
0
100
AcDbLine
 10
558.7409682538362
 20
14.45370276034312
 30
0.0
 11
558.7409682538362
 21
22.64970276034312
 31
0.0
  0
ARC
  5
634
330
1F
100
AcDbEntity
  8
0
100
AcDbCircle
 10
545.4553392538362
 20
15.91080276034312
 30
0.0
 40
1.425319
100
AcDbArc
 50
269.7036710000015
 51
350.4651710000003
  0
ARC
  5
635
330
1F
100
AcDbEntity
  8
0
100
AcDbCircle
 10
544.6005962538363
 20
15.91080276034312
 30
0.0
 40
1.425319
100
AcDbArc
 50
189.5348289999995
 51
270.2963289999985
  0
LINE
  5
636
330
1F
100
AcDbEntity
  8
0
100
AcDbLine
 10
547.5479682538362
 20
14.45370276034312
 30
0.0
 11
547.5479682538362
 21
22.64970276034312
 31
0.0
  0
LINE
  5
637
330
1F
100
AcDbEntity
  8
0
100
AcDbLine
 10
549.0929682538363
 20
22.64970276034312
 30
0.0
 11
549.0929682538363
 21
14.45370276034312
 31
0.0
  0
LINE
  5
638
330
1F
100
AcDbEntity
  8
0
100
AcDbLine
 10
540.2909842538363
 20
19.79970276034312
 30
0.0
 11
540.3025572538363
 21
14.45370276034312
 31
0.0
  0
LINE
  5
639
330
1F
100
AcDbEntity
  8
0
100
AcDbLine
 10
538.7604422538363
 20
14.45370276034312
 30
0.0
 11
538.7604422538363
 21
21.04210876034312
 31
0.0
  0
LINE
  5
63A
330
1F
100
AcDbEntity
  8
0
100
AcDbLine
 10
530.0964152538363
 20
15.33349976034312
 30
0.0
 11
530.0964152538363
 21
13.62380776034312
 31
0.0
  0
LINE
  5
63B
330
1F
100
AcDbEntity
  8
0
100
AcDbLine
 10
536.0122262538362
 20
13.62380776034312
 30
0.0
 11
536.0122262538362
 21
17.18091976034312
 31
0.0
  0
LINE
  5
63C
330
1F
100
AcDbEntity
  8
1
100
AcDbLine
 10
563.8686112538362
 20
10.43843876034312
 30
0.0
 11
563.8686112538362
 21
25.12827576034312
 31
0.0
  0
LINE
  5
63D
330
1F
100
AcDbEntity
  8
0
100
AcDbLine
 10
530.8985592538363
 20
12.85470176034312
 30
0.0
 11
535.2100822538362
 21
12.85470176034312
 31
0.0
  0
ELLIPSE
  5
63E
330
1F
100
AcDbEntity
  8
0
100
AcDbEllipse
 10
530.8985592538363
 20
13.62380776034312
 30
0.0
 11
-0.8021437979128705
 21
1.540000000000000E-14
 31
0.0
210
0.0
220
0.0
230
1.0
 40
0.958812
 41
0.00000000000002
 42
1.570796326794914
  0
ELLIPSE
  5
63F
330
1F
100
AcDbEntity
  8
0
100
AcDbEllipse
 10
535.2100822538362
 20
13.62380776034312
 30
0.0
 11
0.8021437979128704
 21
1.602000000000000E-13
 31
0.0
210
0.0
220
0.0
230
1.0
 40
0.958812
 41
4.712388980384497
 42
6.283185307179378
  0
LINE
  5
640
330
1F
100
AcDbEntity
  8
0
100
AcDbLine
 10
540.2909842538363
 20
14.45370276034312
 30
0.0
 11
540.3025572538363
 21
14.46119776034312
 31
0.0
  0
LINE
  5
641
330
1F
100
AcDbEntity
  8
0
100
AcDbLine
 10
538.7604422538363
 20
14.45370276034312
 30
0.0
 11
540.3025572538363
 21
14.45370276034312
 31
0.0
  0
LINE
  5
642
330
1F
100
AcDbEntity
  8
0
100
AcDbLine
 10
544.5932252538362
 20
14.48550276034312
 30
0.0
 11
545.4479682538363
 21
14.48550276034312
 31
0.0
  0
LINE
  5
643
330
1F
100
AcDbEntity
  8
0
100
AcDbLine
 10
551.2919682538363
 20
12.85470276034312
 30
0.0
 11
549.7469682538363
 21
12.85470276034312
 31
0.0
  0
LINE
  5
644
330
1F
100
AcDbEntity
  8
0
100
AcDbLine
 10
549.0929682538363
 20
14.45370276034312
 30
0.0
 11
547.5479682538362
 21
14.45370276034312
 31
0.0
  0
LINE
  5
645
330
1F
100
AcDbEntity
  8
0
100
AcDbLine
 10
551.9750142538362
 20
14.45370276034312
 30
0.0
 11
552.5129682538363
 21
14.45370276034312
 31
0.0
  0
LINE
  5
646
330
1F
100
AcDbEntity
  8
0
100
AcDbLine
 10
555.6599682538363
 20
14.45370276034312
 30
0.0
 11
556.5899682538363
 21
14.45370276034312
 31
0.0
  0
LINE
  5
647
330
1F
100
AcDbEntity
  8
0
100
AcDbLine
 10
560.2859682538362
 20
14.45370276034312
 30
0.0
 11
558.7409682538362
 21
14.45370276034312
 31
0.0
  0
ARC
  5
648
330
1F
100
AcDbEntity
  8
0
100
AcDbCircle
 10
545.4553392538362
 20
19.61680876034312
 30
0.0
 40
1.425319
100
AcDbArc
 50
9.534828999999723
 51
90.29632899999848
  0
LINE
  5
649
330
1F
100
AcDbEntity
  8
0
100
AcDbLine
 10
546.8609682538363
 20
17.25010876034312
 30
0.0
 11
544.7369682538363
 21
17.25010876034312
 31
0.0
  0
LINE
  5
64A
330
1F
100
AcDbEntity
  8
0
100
AcDbLine
 10
545.4119682538362
 20
16.57510876034312
 30
0.0
 11
546.8609682538363
 21
16.57510876034312
 31
0.0
  0
LINE
  5
64B
330
1F
100
AcDbEntity
  8
0
100
AcDbLine
 10
530.0964152538363
 20
18.89972176034312
 30
0.0
 11
530.0964152538363
 21
21.69941276034312
 31
0.0
  0
ELLIPSE
  5
64C
330
1F
100
AcDbEntity
  8
0
100
AcDbEllipse
 10
533.0292542538361
 20
20.61785876034312
 30
0.0
 11
2.983077570132104
 21
2.996000000000000E-13
 31
0.0
210
0.0
220
0.0
230
1.0
 40
0.9588119999999999
 41
-1.562393163247347
 42
0.0084031635475457
  0
ELLIPSE
  5
64D
330
1F
100
AcDbEntity
  8
0
100
AcDbEllipse
 10
532.9860782538362
 20
20.94797776034312
 30
0.0
 11
-4.072692107280919
 21
9.250000000000000E-14
 31
0.0
210
0.0
220
0.0
230
1.0
 40
0.958812
 41
1.587553347046634
 42
2.408388587343224
  0
LINE
  5
64E
330
1F
100
AcDbEntity
  8
0
100
AcDbLine
 10
530.0964152538363
 20
17.18091976034312
 30
0.0
 11
530.0964152538363
 21
16.47295276034312
 31
0.0
  0
LINE
  5
64F
330
1F
100
AcDbEntity
  8
0
100
AcDbLine
 10
530.0964152538363
 20
18.89972176034312
 30
0.0
 11
530.0964152538363
 21
18.33457676034312
 31
0.0
  0
ELLIPSE
  5
650
330
1F
100
AcDbEntity
  8
0
100
AcDbEllipse
 10
532.6483462538363
 20
15.31092576034312
 30
0.0
 11
2.960559210508897
 21
0.3570763225581005
 31
0.0
210
0.0
220
0.0
230
1.0
 40
0.820999
 41
1.335209029023201
 42
2.503032872947537
  0
ELLIPSE
  5
651
330
1F
100
AcDbEntity
  8
0
100
AcDbEllipse
 10
532.8788522538362
 20
14.37574476034312
 30
0.0
 11
3.015746449176215
 21
0.7746519372140024
 31
0.0
210
0.0
220
0.0
230
1.0
 40
0.846775
 41
1.29973646820557
 42
2.479974117225238
  0
LINE
  5
652
330
1F
100
AcDbEntity
  8
0
100
AcDbLine
 10
537.2154422538363
 20
18.33457676034312
 30
0.0
 11
536.9146382538363
 21
18.33457676034312
 31
0.0
  0
LINE
  5
653
330
1F
100
AcDbEntity
  8
0
100
AcDbLine
 10
536.0122262538362
 20
18.33457676034312
 30
0.0
 11
536.9146382538363
 21
18.33457676034312
 31
0.0
  0
ELLIPSE
  5
654
330
1F
100
AcDbEntity
  8
0
100
AcDbEllipse
 10
536.0122262538362
 20
18.33457676034312
 30
0.0
 11
1.203215696869352
 21
8.930000000000000E-14
 31
0.0
210
0.0
220
0.0
230
1.0
 40
0.9588119999999999
 41
4.712388980384611
 42
6.283185307179508
  0
LINE
  5
655
330
1F
100
AcDbEntity
  8
0
100
AcDbLine
 10
530.8985592538363
 20
22.46851776034312
 30
0.0
 11
535.2100822538362
 21
22.46851776034312
 31
0.0
  0
ELLIPSE
  5
656
330
1F
100
AcDbEntity
  8
0
100
AcDbEllipse
 10
530.8985592538363
 20
21.69941276034312
 30
0.0
 11
0.8021437979128704
 21
3.800000000000000E-14
 31
0.0
210
0.0
220
0.0
230
1.0
 40
0.958812
 41
1.570796326794851
 42
3.141592653589743
  0
LINE
  5
657
330
1F
100
AcDbEntity
  8
0
100
AcDbLine
 10
536.0122262538362
 20
20.59382376034312
 30
0.0
 11
536.0122262538362
 21
21.69941276034312
 31
0.0
  0
ELLIPSE
  5
658
330
1F
100
AcDbEntity
  8
0
100
AcDbEllipse
 10
535.2100822538362
 20
21.69941276034312
 30
0.0
 11
-0.8021437979128705
 21
3.800000000000000E-14
 31
0.0
210
0.0
220
0.0
230
1.0
 40
0.958812
 41
3.141592653589842
 42
4.712388980384734
  0
ARC
  5
659
330
1F
100
AcDbEntity
  8
0
100
AcDbCircle
 10
541.1976422538362
 20
19.77970876034312
 30
0.0
 40
1.377457
100
AcDbArc
 50
16.26506099999896
 51
130.5272989999999
  0
ARC
  5
65A
330
1F
100
AcDbEntity
  8
0
100
AcDbCircle
 10
544.6005962538363
 20
19.61680876034312
 30
0.0
 40
1.425319
100
AcDbArc
 50
89.70367100000153
 51
170.4651710000003
  0
LINE
  5
65B
330
1F
100
AcDbEntity
  8
0
100
AcDbLine
 10
541.3098952538362
 20
18.37450876034312
 30
0.0
 11
542.5199682538362
 21
18.37450876034312
 31
0.0
  0
LINE
  5
65C
330
1F
100
AcDbEntity
  8
0
100
AcDbLine
 10
540.9775572538363
 20
18.37450876034312
 30
0.0
 11
542.5199682538362
 21
18.37450876034312
 31
0.0
  0
ARC
  5
65D
330
1F
100
AcDbEntity
  8
0
100
AcDbCircle
 10
540.6284842538362
 20
19.79970276034312
 30
0.0
 40
0.3375
100
AcDbArc
 50
0.0
 51
180.0
  0
LINE
  5
65E
330
1F
100
AcDbEntity
  8
0
100
AcDbLine
 10
540.9659842538363
 20
19.79970276034312
 30
0.0
 11
540.9775572538363
 21
18.37450876034312
 31
0.0
  0
ARC
  5
65F
330
1F
100
AcDbEntity
  8
0
100
AcDbCircle
 10
545.0744682538361
 20
19.79970276034312
 30
0.0
 40
0.3375
100
AcDbArc
 50
0.0
 51
180.0
  0
LINE
  5
660
330
1F
100
AcDbEntity
  8
0
100
AcDbLine
 10
544.7369682538363
 20
17.25010876034312
 30
0.0
 11
544.7369682538363
 21
15.67470276034312
 31
0.0
  0
LINE
  5
661
330
1F
100
AcDbEntity
  8
0
100
AcDbLine
 10
544.7369682538363
 20
18.15010876034312
 30
0.0
 11
545.4119682538362
 21
18.15010876034312
 31
0.0
  0
LINE
  5
662
330
1F
100
AcDbEntity
  8
0
100
AcDbLine
 10
545.4119682538362
 20
16.57510876034312
 30
0.0
 11
545.4119682538362
 21
15.69120276034312
 31
0.0
  0
LINE
  5
663
330
1F
100
AcDbEntity
  8
0
100
AcDbLine
 10
544.7369682538363
 20
17.25010876034312
 30
0.0
 11
544.7369682538363
 21
15.69120276034312
 31
0.0
  0
ARC
  5
664
330
1F
100
AcDbEntity
  8
0
100
AcDbCircle
 10
545.0744682538361
 20
15.69120276034312
 30
0.0
 40
0.3375
100
AcDbArc
 50
180.0
 51
0.0
  0
LINE
  5
665
330
1F
100
AcDbEntity
  8
0
100
AcDbLine
 10
545.4119682538362
 20
19.79970276034312
 30
0.0
 11
545.4119682538362
 21
18.15010876034312
 31
0.0
  0
LINE
  5
666
330
1F
100
AcDbEntity
  8
0
100
AcDbLine
 10
544.7369682538363
 20
19.79970276034312
 30
0.0
 11
544.7369682538363
 21
18.15010876034312
 31
0.0
  0
LINE
  5
667
330
1F
100
AcDbEntity
  8
0
100
AcDbLine
 10
542.5199682538362
 20
18.37450876034312
 30
0.0
 11
542.5199682538362
 21
20.16550876034312
 31
0.0
  0
LINE
  5
668
330
1F
100
AcDbEntity
  8
0
100
AcDbLine
 10
543.1949682538361
 20
15.67470276034312
 30
0.0
 11
543.1949682538361
 21
19.85290876034312
 31
0.0
  0
LINE
  5
669
330
1F
100
AcDbEntity
  8
0
100
AcDbLine
 10
540.3025572538363
 20
21.04210876034312
 30
0.0
 11
540.3025572538363
 21
20.82670876034312
 31
0.0
  0
LINE
  5
66A
330
1F
100
AcDbEntity
  8
0
100
AcDbLine
 10
538.7604422538363
 20
21.04210876034312
 30
0.0
 11
540.3025572538363
 21
21.04210876034312
 31
0.0
  0
LINE
  5
66B
330
1F
100
AcDbEntity
  8
0
100
AcDbLine
 10
544.5932252538362
 20
21.04210876034312
 30
0.0
 11
545.4479682538363
 21
21.04210876034312
 31
0.0
  0
ARC
  5
66C
330
1F
100
AcDbEntity
  8
0
100
AcDbCircle
 10
555.6418072538363
 20
19.56254276034312
 30
0.0
 40
1.488419
100
AcDbArc
 50
89.30088700000539
 51
168.3657320000002
  0
ARC
  5
66D
330
1F
100
AcDbEntity
  8
0
100
AcDbCircle
 10
552.1509952538363
 20
19.64580376034312
 30
0.0
 40
1.409039
100
AcDbArc
 50
15.47255000000067
 51
127.564540000003
  0
LINE
  5
66E
330
1F
100
AcDbEntity
  8
0
100
AcDbLine
 10
546.8609682538363
 20
16.57510876034312
 30
0.0
 11
546.8609682538363
 21
15.67470276034312
 31
0.0
  0
LINE
  5
66F
330
1F
100
AcDbEntity
  8
0
100
AcDbLine
 10
546.8609682538363
 20
17.25010876034312
 30
0.0
 11
546.8609682538363
 21
19.85290876034312
 31
0.0
  0
LINE
  5
670
330
1F
100
AcDbEntity
  8
0
100
AcDbLine
 10
553.5089682538362
 20
20.02170276034312
 30
0.0
 11
553.5089682538362
 21
15.61770276034312
 31
0.0
  0
LINE
  5
671
330
1F
100
AcDbEntity
  8
0
100
AcDbLine
 10
551.9669682538363
 20
19.79970276034312
 30
0.0
 11
551.9669682538363
 21
15.69120276034312
 31
0.0
  0
LINE
  5
672
330
1F
100
AcDbEntity
  8
0
100
AcDbLine
 10
551.2919682538363
 20
19.79970276034312
 30
0.0
 11
551.2919682538363
 21
15.69120276034312
 31
0.0
  0
ARC
  5
673
330
1F
100
AcDbEntity
  8
0
100
AcDbCircle
 10
551.6294682538362
 20
15.69120276034312
 30
0.0
 40
0.3375
100
AcDbArc
 50
180.0
 51
0.0
  0
ARC
  5
674
330
1F
100
AcDbEntity
  8
0
100
AcDbCircle
 10
551.6294682538362
 20
19.79970276034312
 30
0.0
 40
0.3375
100
AcDbArc
 50
0.0
 51
180.0
  0
LINE
  5
675
330
1F
100
AcDbEntity
  8
0
100
AcDbLine
 10
549.7469682538363
 20
21.05070276034312
 30
0.0
 11
551.2919682538363
 21
21.05070276034312
 31
0.0
  0
LINE
  5
676
330
1F
100
AcDbEntity
  8
0
100
AcDbLine
 10
547.5479682538362
 20
22.64970276034312
 30
0.0
 11
549.0929682538363
 21
22.64970276034312
 31
0.0
  0
LINE
  5
677
330
1F
100
AcDbEntity
  8
0
100
AcDbLine
 10
551.2919682538363
 20
21.05070276034312
 30
0.0
 11
551.2919682538363
 21
20.76270276034312
 31
0.0
  0
ARC
  5
678
330
1F
100
AcDbEntity
  8
0
100
AcDbCircle
 10
556.6081292538363
 20
19.56254276034312
 30
0.0
 40
1.488419
100
AcDbArc
 50
11.63426800000068
 51
90.69911300000334
  0
LINE
  5
679
330
1F
100
AcDbEntity
  8
0
100
AcDbLine
 10
558.0659682538362
 20
19.86270276034312
 30
0.0
 11
558.0659682538362
 21
15.64185076034312
 31
0.0
  0
ARC
  5
67A
330
1F
100
AcDbEntity
  8
0
100
AcDbCircle
 10
556.1249682538362
 20
19.79970276034312
 30
0.0
 40
0.3375
100
AcDbArc
 50
0.0
 51
180.0
  0
ARC
  5
67B
330
1F
100
AcDbEntity
  8
0
100
AcDbCircle
 10
556.1249682538362
 20
15.69120276034312
 30
0.0
 40
0.3375
100
AcDbArc
 50
180.0
 51
0.0
  0
LINE
  5
67C
330
1F
100
AcDbEntity
  8
0
100
AcDbLine
 10
555.7874682538363
 20
19.79970276034312
 30
0.0
 11
555.7874682538363
 21
15.69120276034312
 31
0.0
  0
LINE
  5
67D
330
1F
100
AcDbEntity
  8
0
100
AcDbLine
 10
556.4624682538363
 20
19.79970276034312
 30
0.0
 11
556.4624682538363
 21
15.69120276034312
 31
0.0
  0
LINE
  5
67E
330
1F
100
AcDbEntity
  8
0
100
AcDbLine
 10
554.1839682538362
 20
15.64185076034312
 30
0.0
 11
554.1839682538362
 21
19.86270276034312
 31
0.0
  0
LINE
  5
67F
330
1F
100
AcDbEntity
  8
0
100
AcDbLine
 10
555.6599682538363
 20
21.05085076034312
 30
0.0
 11
556.5899682538363
 21
21.05085076034312
 31
0.0
  0
LINE
  5
680
330
1F
100
AcDbEntity
  8
0
100
AcDbLine
 10
558.7409682538362
 20
22.64970276034312
 30
0.0
 11
560.2859682538362
 21
22.64970276034312
 31
0.0
  0
TEXT
  5
681
330
1F
100
AcDbEntity
  8
WY
100
AcDbText
 10
564.8161552538363
 20
17.04244876034312
 30
0.0
 40
1.999999999999999
  1
11-05-2016
 51
15.0
  7
ITALIC
100
AcDbText
  0
TEXT
  5
682
330
1F
100
AcDbEntity
  8
WY
100
AcDbText
 10
569.2475242538362
 20
21.58767776034312
 30
0.0
 40
2.0
  1
Data
 51
15.0
  7
ITALIC
100
AcDbText
  0
TEXT
  5
683
330
1F
100
AcDbEntity
  8
1
100
AcDbText
 10
635.8151277958509
 20
14.50244776034312
 30
0.0
 40
5.0
  1
RM85 Faston
 41
0.8
 51
15.0
  7
ITALIC
100
AcDbText
  0
LINE
  5
684
330
1F
100
AcDbEntity
  8
1
100
AcDbLine
 10
627.7929822538363
 20
10.43843876034312
 30
0.0
 11
627.7929822538363
 21
25.12827576034312
 31
0.0
  0
TEXT
  5
685
330
1F
100
AcDbEntity
  8
WY
100
AcDbText
 10
629.9841802538363
 20
22.03768676034312
 30
0.0
 40
2.0
  1
Product type
 51
15.0
  7
ITALIC
100
AcDbText
  0
LINE
  5
686
330
1F
100
AcDbEntity
  8
2
100
AcDbLine
 10
683.0703992538363
 20
297.4384387603431
 30
0.0
 11
498.0703992538362
 21
297.4384387603431
 31
0.0
  0
LINE
  5
687
330
1F
100
AcDbEntity
  8
2
100
AcDbLine
 10
688.0703992538363
 20
302.4384387603431
 30
0.0
 11
498.0703992538362
 21
302.4384387603431
 31
0.0
  0
LINE
  5
688
330
1F
100
AcDbEntity
  8
WYMIARY
 62
     6
100
AcDbLine
 10
498.0703992538362
 20
302.4384387603431
 30
0.0
 11
486.4399922538362
 21
302.4384387603431
 31
0.0
  0
TEXT
  5
689
330
1F
100
AcDbEntity
  8
1
100
AcDbText
 10
500.7007332538362
 20
14.23589576034312
 30
0.0
 40
5.0
  1
1:1
 51
15.0
  7
ITALIC
100
AcDbText
  0
LINE
  5
68A
330
1F
100
AcDbEntity
  8
WYMIARY
 62
     6
100
AcDbLine
 10
688.0703992538363
 20
5.43843876034312
 30
0.0
 11
688.0703992538363
 21
302.4384387603431
 31
0.0
  0
LINE
  5
68B
330
1F
100
AcDbEntity
  8
WYMIARY
 62
     3
100
AcDbLine
 10
513.0703992538363
 20
25.12827576034312
 30
0.0
 11
513.0703992538363
 21
10.43843876034312
 31
0.0
  0
LINE
  5
68C
330
1F
100
AcDbEntity
  8
WYMIARY
 62
     3
100
AcDbLine
 10
528.0703992538363
 20
25.12827576034312
 30
0.0
 11
528.0703992538363
 21
10.43843876034312
 31
0.0
  0
LINE
  5
68D
330
1F
100
AcDbEntity
  8
WYMIARY
 62
     3
100
AcDbLine
 10
586.7719352538363
 20
25.12827576034312
 30
0.0
 11
586.7719352538363
 21
10.43843876034312
 31
0.0
  0
TEXT
  5
68E
330
1F
100
AcDbEntity
  8
WY
100
AcDbText
 10
587.9609442538363
 20
22.03768676034312
 30
0.0
 40
2.0
  1
Draw. No.
 51
15.0
  7
ITALIC
100
AcDbText
  0
TEXT
  5
68F
330
1F
100
AcDbEntity
  8
1
100
AcDbText
 10
592.3338892538363
 20
14.50244776034312
 30
0.0
 40
3.999999999999998
  1
RM85F-01A
 41
0.7000000000000004
 51
15.0
  7
ITALIC
100
AcDbText
  0
LINE
  5
690
330
1F
100
AcDbEntity
  8
WYMIARY
 62
     6
100
AcDbLine
 10
688.0703992538363
 20
5.43843876034312
 30
0.0
 11
688.0703992538363
 21
302.4384387603431
 31
0.0
  0
LINE
  5
691
330
1F
100
AcDbEntity
  8
WYMIARY
 62
     6
100
AcDbLine
 10
688.0703992538363
 20
5.43843876034312
 30
0.0
 11
688.0703992538363
 21
302.4384387603431
 31
0.0
  0
LINE
  5
692
330
1F
100
AcDbEntity
  8
2
100
AcDbLine
 10
688.0703992538363
 20
5.43843876034312
 30
0.0
 11
688.0703992538363
 21
302.4384387603431
 31
0.0
  0
LINE
  5
693
330
1F
100
AcDbEntity
  8
WYMIARY
 62
     6
100
AcDbLine
 10
688.0703992538363
 20
5.43843876034312
 30
0.0
 11
688.0703992538363
 21
302.4384387603431
 31
0.0
  0
LINE
  5
694
330
1F
100
AcDbEntity
  8
2
100
AcDbLine
 10
688.0703992538363
 20
5.43843876034312
 30
0.0
 11
688.0703992538363
 21
302.4384387603431
 31
0.0
  0
LINE
  5
695
330
1F
100
AcDbEntity
  8
2
100
AcDbLine
 10
688.0703992538363
 20
5.43843876034312
 30
0.0
 11
498.0703992538362
 21
5.43843876034312
 31
0.0
  0
LINE
  5
696
330
1F
100
AcDbEntity
  8
WYMIARY
 62
     6
100
AcDbLine
 10
498.0703992538362
 20
5.43843876034312
 30
0.0
 11
486.4399922538362
 21
5.43843876034312
 31
0.0
  0
TEXT
  5
697
330
1F
100
AcDbEntity
  8
1
100
AcDbText
 10
572.8363532538363
 20
285.4890847603431
 30
0.0
 40
5.0
  1
RM85V Faston 
 41
0.8
 51
15.0
  7
ITALIC
100
AcDbText
  0
TEXT
  5
698
330
1F
100
AcDbEntity
  8
1
100
AcDbText
 10
567.9588826315816
 20
268.4997080297427
 30
0.0
 40
3.999999999999996
  1
RM85V SMT 1Z / 1 NO
 41
0.7000000000000006
 51
15.0
  7
ITALIC
100
AcDbText
  0
TEXT
  5
B81
330
1F
100
AcDbEntity
  8
1
100
AcDbText
 10
572.8363532538363
 20
164.4692204679806
 30
0.0
 40
5.0
  1
RM85H Faston 
 41
0.8
 51
15.0
  7
ITALIC
100
AcDbText
  0
TEXT
  5
B82
330
1F
100
AcDbEntity
  8
1
100
AcDbText
 10
567.9588826315816
 20
147.4798437373802
 30
0.0
 40
3.999999999999995
  1
RM85H SMT 1Z / 1 NO
 41
0.7000000000000008
 51
15.0
  7
ITALIC
100
AcDbText
  0
LINE
  5
CCE
330
1F
100
AcDbEntity
  8
1
  6
CONTINUOUS
 62
     7
100
AcDbLine
 10
584.1988343856644
 20
202.6762420854103
 30
0.0
 11
584.1988343856644
 21
198.2162421180439
 31
0.0
  0
LINE
  5
CCF
330
1F
100
AcDbEntity
  8
1
  6
CONTINUOUS
 62
     7
100
AcDbLine
 10
584.7988342977476
 20
198.2162421180439
 30
0.0
 11
584.7988342977476
 21
202.6762420854103
 31
0.0
  0
LINE
  5
CD0
330
1F
100
AcDbEntity
  8
1
  6
CONTINUOUS
 62
     7
100
AcDbLine
 10
584.1988343856644
 20
198.2162421180439
 30
0.0
 11
584.2164671159696
 21
198.1162422879171
 31
0.0
  0
LINE
  5
CD1
330
1F
100
AcDbEntity
  8
1
  6
CONTINUOUS
 62
     7
100
AcDbLine
 10
584.7812015674424
 20
198.1162422879171
 30
0.0
 11
584.7988342977476
 21
198.2162421180439
 31
0.0
  0
LINE
  5
CD2
102
{ACAD_REACTORS
330
115E
102
}
330
1F
100
AcDbEntity
  8
1
  6
CONTINUOUS
 62
     7
100
AcDbLine
 10
586.9908342249107
 20
202.3762420711611
 30
0.0
 11
586.9809119142008
 21
202.3762420711611
 31
0.0
  0
ELLIPSE
  5
CD3
330
1F
100
AcDbEntity
  8
1
  6
CONTINUOUS
 62
     7
100
AcDbEllipse
 10
586.50583452353
 20
168.3575806269593
 30
0.0
 11
0.6000033688029026
 21
-179.0496460707485
 31
0.0
210
0.0
220
0.0
230
1.0
 40
0.0033510070773394
 41
1.761942856300408
 42
1.763649737807522
  0
LINE
  5
CD4
330
1F
100
AcDbEntity
  8
1
  6
CONTINUOUS
 62
     7
100
AcDbLine
 10
586.9411649293613
 20
217.4982529676091
 30
0.0
 11
586.9908342249107
 21
202.6762420854103
 31
0.0
  0
LINE
  5
CD5
330
1F
100
AcDbEntity
  8
1
  6
CONTINUOUS
 62
     7
100
AcDbLine
 10
586.9908342249107
 20
202.6762420854105
 30
0.0
 11
586.9908342249107
 21
202.3762420711611
 31
0.0
  0
LINE
  5
CD6
330
1F
100
AcDbEntity
  8
1
  6
CONTINUOUS
 62
     7
100
AcDbLine
 10
586.9797114394021
 20
202.6762420854103
 30
0.0
 11
586.3908380381179
 21
202.6762420854103
 31
0.0
  0
LINE
  5
CD7
330
1F
100
AcDbEntity
  8
1
  6
CONTINUOUS
 62
     7
100
AcDbLine
 10
557.5708346552562
 20
202.6762420854103
 30
0.0
 11
586.3908380381179
 21
202.6762420854103
 31
0.0
  0
LINE
  5
CD8
330
1F
100
AcDbEntity
  8
1
  6
CONTINUOUS
 62
     7
100
AcDbLine
 10
556.9708347431731
 20
202.6762420854103
 30
0.0
 11
556.9708347431731
 21
207.5162421523165
 31
0.0
  0
LINE
  5
CD9
330
1F
100
AcDbEntity
  8
1
  6
CONTINUOUS
 62
     7
100
AcDbLine
 10
557.5708346552562
 20
202.6762420854103
 30
0.0
 11
556.9708347431731
 21
202.6762420854103
 31
0.0
  0
LINE
  5
CDA
330
1F
100
AcDbEntity
  8
1
  6
CONTINUOUS
 62
     7
100
AcDbLine
 10
558.0390645302248
 20
208.1162420643997
 30
0.0
 11
558.0705041176986
 21
217.4982529676091
 31
0.0
  0
ELLIPSE
  5
CDB
330
1F
100
AcDbEntity
  8
1
  6
CONTINUOUS
 62
     7
100
AcDbEllipse
 10
558.6370569487539
 20
207.5162420854103
 30
0.0
 11
-0.5979919082456178
 21
0.5999991634305673
 31
0.0
210
0.0
220
0.0
230
1.0
 40
0.0016755082423545
 41
4.714070111153866
 42
6.283185307179586
  0
ARC
  5
CDC
330
1F
100
AcDbEntity
  8
1
  6
CONTINUOUS
 62
     7
100
AcDbCircle
 10
557.57083452353
 20
207.5162420854103
 30
0.0
 40
0.6000000000000227
100
AcDbArc
 50
90.0
 51
180.0
  0
LINE
  5
CDD
102
{ACAD_REACTORS
102
}
330
1F
100
AcDbEntity
  8
1
  6
CONTINUOUS
 62
     7
100
AcDbLine
 10
557.5708346552562
 20
208.1162420643997
 30
0.0
 11
558.0390645302248
 21
208.1162420643997
 31
0.0
  0
ARC
  5
CDE
330
1F
100
AcDbEntity
  8
1
  6
CONTINUOUS
 62
     7
100
AcDbCircle
 10
558.6705003749323
 20
217.4962420854103
 30
0.0
 40
0.6000000000000025
100
AcDbArc
 50
90.0
 51
179.8080000000002
  0
ARC
  5
CDF
330
1F
100
AcDbEntity
  8
1
  6
CONTINUOUS
 62
     7
100
AcDbCircle
 10
586.3411686721277
 20
217.4962420854103
 30
0.0
 40
0.6000000000000025
100
AcDbArc
 50
0.1919999999997883
 51
90.0
  0
LINE
  5
CE0
102
{ACAD_REACTORS
102
}
330
1F
100
AcDbEntity
  8
1
  6
CONTINUOUS
 62
     7
100
AcDbLine
 10
558.6705003044915
 20
218.0962421542537
 30
0.0
 11
586.3411687425685
 21
218.0962421542537
 31
0.0
  0
LINE
  5
CE1
330
1F
100
AcDbEntity
  8
1
  6
CONTINUOUS
 62
     7
100
AcDbLine
 10
586.9809119142008
 20
202.3762420711611
 30
0.0
 11
586.7188349477362
 21
202.3762420711611
 31
0.0
  0
LINE
  5
CE2
330
1F
100
AcDbEntity
  8
1
  6
CONTINUOUS
 62
     7
100
AcDbLine
 10
586.7188349477362
 20
202.3762420711611
 30
0.0
 11
586.7188349477362
 21
202.6762420854103
 31
0.0
  0
LINE
  5
CE3
102
{ACAD_REACTORS
102
}
330
1F
100
AcDbEntity
  8
1
  6
CONTINUOUS
 62
     7
100
AcDbLine
 10
547.3308349139404
 20
215.6162418967616
 30
0.0
 11
551.980835396738
 21
215.6162418967616
 31
0.0
  0
LINE
  5
CE4
330
1F
100
AcDbEntity
  8
1
  6
CONTINUOUS
 62
     7
100
AcDbLine
 10
551.980835396738
 20
215.6162418967616
 30
0.0
 11
552.7808340377521
 21
214.8162423244249
 31
0.0
  0
LINE
  5
CE5
102
{ACAD_REACTORS
102
}
330
1F
100
AcDbEntity
  8
1
  6
CONTINUOUS
 62
     7
100
AcDbLine
 10
552.7808340377521
 20
214.8162423244249
 30
0.0
 11
546.5308344102812
 21
214.8162423244249
 31
0.0
  0
LINE
  5
CE6
330
1F
100
AcDbEntity
  8
1
  6
CONTINUOUS
 62
     7
100
AcDbLine
 10
546.5308344102812
 20
214.8162423244249
 30
0.0
 11
547.3308349139404
 21
215.6162418967616
 31
0.0
  0
ARC
  5
CE7
330
1F
100
AcDbEntity
  8
1
  6
CONTINUOUS
 62
     7
100
AcDbCircle
 10
552.98083452353
 20
206.8162420854103
 30
0.0
 40
0.2000000000000028
100
AcDbArc
 50
179.9999999999919
 51
270.0
  0
LINE
  5
CE8
330
1F
100
AcDbEntity
  8
1
  6
CONTINUOUS
 62
     7
100
AcDbLine
 10
552.9808336980057
 20
206.6162422841918
 30
0.0
 11
556.9708347431731
 21
206.6162422841918
 31
0.0
  0
ARC
  5
CE9
330
1F
100
AcDbEntity
  8
1
  6
CONTINUOUS
 62
     7
100
AcDbCircle
 10
552.6808345235299
 20
202.6162420854103
 30
0.0
 40
0.2000000000000171
100
AcDbArc
 50
90.0
 51
180.0
  0
LINE
  5
CEA
330
1F
100
AcDbEntity
  8
1
  6
CONTINUOUS
 62
     7
100
AcDbLine
 10
552.4808345473718
 20
202.616242086926
 30
0.0
 11
552.4808345473718
 21
198.5912419466805
 31
0.0
  0
LINE
  5
CEB
330
1F
100
AcDbEntity
  8
1
  6
CONTINUOUS
 62
     7
100
AcDbLine
 10
551.530835229845
 20
198.5912419466805
 30
0.0
 11
551.530835229845
 21
202.3162420799528
 31
0.0
  0
ARC
  5
CEC
330
1F
100
AcDbEntity
  8
1
  6
CONTINUOUS
 62
     7
100
AcDbCircle
 10
551.33083452353
 20
202.3162420854103
 30
0.0
 40
0.1999999999999886
100
AcDbArc
 50
0.0
 51
90.0
  0
LINE
  5
CED
330
1F
100
AcDbEntity
  8
1
  6
CONTINUOUS
 62
     7
100
AcDbLine
 10
551.3308337069464
 20
202.5162420894522
 30
0.0
 11
547.6808352507067
 21
202.5162420894522
 31
0.0
  0
ARC
  5
CEE
330
1F
100
AcDbEntity
  8
1
  6
CONTINUOUS
 62
     7
100
AcDbCircle
 10
547.6808345235299
 20
202.3162420854103
 30
0.0
 40
0.2000000000000171
100
AcDbArc
 50
90.0
 51
180.0
  0
LINE
  5
CEF
330
1F
100
AcDbEntity
  8
1
  6
CONTINUOUS
 62
     7
100
AcDbLine
 10
547.480833727808
 20
202.3162420799528
 30
0.0
 11
547.480833727808
 21
198.5912419466805
 31
0.0
  0
ARC
  5
CF0
102
{ACAD_REACTORS
102
}
330
1F
100
AcDbEntity
  8
1
  6
CONTINUOUS
 62
     7
100
AcDbCircle
 10
547.00583452353
 20
198.5912420854103
 30
0.0
 40
0.4749999999999943
100
AcDbArc
 50
180.0
 51
0.0
  0
LINE
  5
CF1
330
1F
100
AcDbEntity
  8
1
  6
CONTINUOUS
 62
     7
100
AcDbLine
 10
546.5308344102812
 20
198.5912419466805
 30
0.0
 11
546.5308344102812
 21
214.8162423244249
 31
0.0
  0
LINE
  5
CF2
330
1F
100
AcDbEntity
  8
1
  6
CONTINUOUS
 62
     7
100
AcDbLine
 10
552.7808340377521
 20
214.8162423244249
 30
0.0
 11
552.7808340377521
 21
206.8162419444453
 31
0.0
  0
CIRCLE
  5
CF3
330
1F
100
AcDbEntity
  8
1
  6
CONTINUOUS
 62
     7
100
AcDbCircle
 10
549.65583452353
 20
211.1162420854103
 30
0.0
 40
0.9499999999999886
  0
LINE
  5
CF4
330
1F
100
AcDbEntity
  8
1
  6
CONTINUOUS
 62
     7
100
AcDbLine
 10
556.9708347431731
 20
202.8162420891496
 30
0.0
 11
552.6808342076254
 21
202.8162420891496
 31
0.0
  0
ARC
  5
CF5
330
1F
100
AcDbEntity
  8
1
  6
CONTINUOUS
 62
     7
100
AcDbCircle
 10
552.00583452353
 20
198.5912420854103
 30
0.0
 40
0.4750000000000085
100
AcDbArc
 50
180.0
 51
0.0
  0
LINE
  5
CF6
330
1F
100
AcDbEntity
  8
1
  6
CONTINUOUS
 62
     7
100
AcDbLine
 10
557.5708346552562
 20
211.3162417507302
 30
0.0
 11
558.0497877783489
 21
211.3162417507302
 31
0.0
  0
ARC
  5
CF7
330
1F
100
AcDbEntity
  8
1
  6
CONTINUOUS
 62
     7
100
AcDbCircle
 10
557.57083452353
 20
210.7162420854103
 30
0.0
 40
0.5999999999999943
100
AcDbArc
 50
90.0
 51
180.0
  0
LINE
  5
CF8
330
1F
100
AcDbEntity
  8
1
  6
CONTINUOUS
 62
     7
100
AcDbLine
 10
556.9708347431731
 20
207.5162421523165
 30
0.0
 11
556.9708347431731
 21
210.7162418386471
 31
0.0
  0
LINE
  5
CF9
330
1F
100
AcDbEntity
  8
1
  6
CONTINUOUS
 62
     7
100
AcDbLine
 10
584.1988343856644
 20
198.2162421180439
 30
0.0
 11
584.7988342977476
 21
198.2162421180439
 31
0.0
  0
LINE
  5
CFA
330
1F
100
AcDbEntity
  8
1
  6
CONTINUOUS
 62
     7
100
AcDbLine
 10
584.7812015674424
 20
198.1162422879171
 30
0.0
 11
584.2164671159696
 21
198.1162422879171
 31
0.0
  0
LINE
  5
CFB
330
1F
100
AcDbEntity
  8
1
  6
CONTINUOUS
 62
     7
100
AcDbLine
 10
557.2708342335534
 20
202.3762420711611
 30
0.0
 11
556.9708347431731
 21
202.3762420711611
 31
0.0
  0
LINE
  5
CFC
330
1F
100
AcDbEntity
  8
1
  6
CONTINUOUS
 62
     7
100
AcDbLine
 10
557.2708342335534
 20
202.3762420711611
 30
0.0
 11
557.2708342335534
 21
202.6762420854103
 31
0.0
  0
LINE
  5
CFD
102
{ACAD_REACTORS
102
}
330
1F
100
AcDbEntity
  8
1
  6
CONTINUOUS
 62
     7
100
AcDbLine
 10
556.9708347431731
 20
202.6762420854103
 30
0.0
 11
556.9708347431731
 21
202.3762420711611
 31
0.0
  0
LINE
  5
CFE
330
1F
100
AcDbEntity
  8
1
  6
CONTINUOUS
 62
     7
100
AcDbLine
 10
552.4808345473718
 20
238.7186356228814
 30
0.0
 11
551.530835229845
 21
238.7186356228814
 31
0.0
  0
LINE
  5
CFF
330
1F
100
AcDbEntity
  8
1
  6
CONTINUOUS
 62
     7
100
AcDbLine
 10
551.530835229845
 20
238.7186356228814
 30
0.0
 11
551.530835229845
 21
239.5186356608793
 31
0.0
  0
LINE
  5
D00
330
1F
100
AcDbEntity
  8
1
  6
CONTINUOUS
 62
     7
100
AcDbLine
 10
552.4808345473718
 20
239.5186356608793
 30
0.0
 11
551.530835229845
 21
239.5186356608793
 31
0.0
  0
LINE
  5
D01
330
1F
100
AcDbEntity
  8
1
  6
CONTINUOUS
 62
     7
100
AcDbLine
 10
552.4808345473718
 20
238.7186356228814
 30
0.0
 11
552.4808345473718
 21
239.5186356608793
 31
0.0
  0
CIRCLE
  5
D02
330
1F
100
AcDbEntity
  8
1
  6
CONTINUOUS
 62
     7
100
AcDbCircle
 10
584.4988345235299
 20
246.6236355580613
 30
0.0
 40
0.2823673019291562
  0
CIRCLE
  5
D03
330
1F
100
AcDbEntity
  8
1
  6
CONTINUOUS
 62
     7
100
AcDbCircle
 10
584.4988345235299
 20
239.1136355580613
 30
0.0
 40
0.2823673019291562
  0
CIRCLE
  5
D04
330
1F
100
AcDbEntity
  8
1
  6
CONTINUOUS
 62
     7
100
AcDbCircle
 10
584.4988345235299
 20
246.6236355580613
 30
0.0
 40
0.2999999999999972
  0
CIRCLE
  5
D05
330
1F
100
AcDbEntity
  8
1
  6
CONTINUOUS
 62
     7
100
AcDbCircle
 10
584.4988345235299
 20
239.1136355580613
 30
0.0
 40
0.2999999999999972
  0
LINE
  5
D06
330
1F
100
AcDbEntity
  8
1
  6
CONTINUOUS
 62
     7
100
AcDbLine
 10
552.4808345473718
 20
246.2186354552433
 30
0.0
 11
552.4808345473718
 21
247.0186354932412
 31
0.0
  0
LINE
  5
D07
330
1F
100
AcDbEntity
  8
1
  6
CONTINUOUS
 62
     7
100
AcDbLine
 10
551.530835229845
 20
246.2186354552433
 30
0.0
 11
551.530835229845
 21
247.0186354932412
 31
0.0
  0
LINE
  5
D08
330
1F
100
AcDbEntity
  8
1
  6
CONTINUOUS
 62
     7
100
AcDbLine
 10
552.4808345473718
 20
247.0186354932412
 30
0.0
 11
551.530835229845
 21
247.0186354932412
 31
0.0
  0
LINE
  5
D09
330
1F
100
AcDbEntity
  8
1
  6
CONTINUOUS
 62
     7
100
AcDbLine
 10
551.530835229845
 20
246.2186354552433
 30
0.0
 11
552.4808345473718
 21
246.2186354552433
 31
0.0
  0
LINE
  5
D0A
330
1F
100
AcDbEntity
  8
1
  6
CONTINUOUS
 62
     7
100
AcDbLine
 10
547.480833727808
 20
246.2186354552433
 30
0.0
 11
547.480833727808
 21
247.0186354932412
 31
0.0
  0
LINE
  5
D0B
330
1F
100
AcDbEntity
  8
1
  6
CONTINUOUS
 62
     7
100
AcDbLine
 10
546.5308344102812
 20
246.2186354552433
 30
0.0
 11
546.5308344102812
 21
247.0186354932412
 31
0.0
  0
LINE
  5
D0C
330
1F
100
AcDbEntity
  8
1
  6
CONTINUOUS
 62
     7
100
AcDbLine
 10
547.480833727808
 20
247.0186354932412
 30
0.0
 11
546.5308344102812
 21
247.0186354932412
 31
0.0
  0
LINE
  5
D0D
330
1F
100
AcDbEntity
  8
1
  6
CONTINUOUS
 62
     7
100
AcDbLine
 10
546.5308344102812
 20
246.2186354552433
 30
0.0
 11
547.480833727808
 21
246.2186354552433
 31
0.0
  0
LINE
  5
D0E
330
1F
100
AcDbEntity
  8
1
  6
CONTINUOUS
 62
     7
100
AcDbLine
 10
546.5308344102812
 20
238.7186356228814
 30
0.0
 11
546.5308344102812
 21
239.5186356608793
 31
0.0
  0
LINE
  5
D0F
330
1F
100
AcDbEntity
  8
1
  6
CONTINUOUS
 62
     7
100
AcDbLine
 10
547.480833727808
 20
238.7186356228814
 30
0.0
 11
547.480833727808
 21
239.5186356608793
 31
0.0
  0
LINE
  5
D10
330
1F
100
AcDbEntity
  8
1
  6
CONTINUOUS
 62
     7
100
AcDbLine
 10
547.480833727808
 20
238.7186356228814
 30
0.0
 11
546.5308344102812
 21
238.7186356228814
 31
0.0
  0
LINE
  5
D11
330
1F
100
AcDbEntity
  8
1
  6
CONTINUOUS
 62
     7
100
AcDbLine
 10
547.480833727808
 20
239.5186356608793
 30
0.0
 11
546.5308344102812
 21
239.5186356608793
 31
0.0
  0
LINE
  5
D12
330
1F
100
AcDbEntity
  8
1
  6
CONTINUOUS
 62
     7
100
AcDbLine
 10
551.530835229845
 20
247.0186354932412
 30
0.0
 11
551.3308337069464
 21
247.0186354932412
 31
0.0
  0
LINE
  5
D13
330
1F
100
AcDbEntity
  8
1
  6
CONTINUOUS
 62
     7
100
AcDbLine
 10
551.3308337069464
 20
246.2186354552433
 30
0.0
 11
551.530835229845
 21
246.2186354552433
 31
0.0
  0
LINE
  5
D14
330
1F
100
AcDbEntity
  8
1
  6
CONTINUOUS
 62
     7
100
AcDbLine
 10
551.530835229845
 20
238.7186356228814
 30
0.0
 11
551.3308337069464
 21
238.7186356228814
 31
0.0
  0
LINE
  5
D15
330
1F
100
AcDbEntity
  8
1
  6
CONTINUOUS
 62
     7
100
AcDbLine
 10
551.530835229845
 20
239.5186356608793
 30
0.0
 11
551.3308337069464
 21
239.5186356608793
 31
0.0
  0
LINE
  5
D16
330
1F
100
AcDbEntity
  8
1
  6
CONTINUOUS
 62
     7
100
AcDbLine
 10
547.6808352507067
 20
247.0186354932412
 30
0.0
 11
547.480833727808
 21
247.0186354932412
 31
0.0
  0
LINE
  5
D17
330
1F
100
AcDbEntity
  8
1
  6
CONTINUOUS
 62
     7
100
AcDbLine
 10
547.480833727808
 20
246.2186354552433
 30
0.0
 11
547.6808352507067
 21
246.2186354552433
 31
0.0
  0
LINE
  5
D18
330
1F
100
AcDbEntity
  8
1
  6
CONTINUOUS
 62
     7
100
AcDbLine
 10
547.6808352507067
 20
238.7186356228814
 30
0.0
 11
547.480833727808
 21
238.7186356228814
 31
0.0
  0
LINE
  5
D19
330
1F
100
AcDbEntity
  8
1
  6
CONTINUOUS
 62
     7
100
AcDbLine
 10
547.6808352507067
 20
239.5186356608793
 30
0.0
 11
547.480833727808
 21
239.5186356608793
 31
0.0
  0
LINE
  5
D1A
330
1F
100
AcDbEntity
  8
1
  6
CONTINUOUS
 62
     7
100
AcDbLine
 10
556.9708347431731
 20
241.8686355105638
 30
0.0
 11
557.2708342335534
 21
241.8686355105638
 31
0.0
  0
LINE
  5
D1B
330
1F
100
AcDbEntity
  8
1
  6
CONTINUOUS
 62
     7
100
AcDbLine
 10
556.9708347431731
 20
243.8686356055588
 30
0.0
 11
556.9708347431731
 21
241.8686355105638
 31
0.0
  0
LINE
  5
D1C
330
1F
100
AcDbEntity
  8
1
  6
CONTINUOUS
 62
     7
100
AcDbLine
 10
557.2708342335534
 20
243.8686356055588
 30
0.0
 11
556.9708347431731
 21
243.8686356055588
 31
0.0
  0
LINE
  5
D1D
330
1F
100
AcDbEntity
  8
1
  6
CONTINUOUS
 62
     7
100
AcDbLine
 10
557.2708342335534
 20
243.8686356055588
 30
0.0
 11
557.2708342335534
 21
241.8686355105638
 31
0.0
  0
LINE
  5
D1E
330
1F
100
AcDbEntity
  8
1
  6
CONTINUOUS
 62
     7
100
AcDbLine
 10
586.7188349477362
 20
237.1136357416436
 30
0.0
 11
586.7188349477362
 21
238.7686355379447
 31
0.0
  0
LINE
  5
D1F
330
1F
100
AcDbEntity
  8
1
  6
CONTINUOUS
 62
     7
100
AcDbLine
 10
586.9908342249107
 20
237.192908522211
 30
0.0
 11
586.9908342249107
 21
238.7686355379447
 31
0.0
  0
LINE
  5
D20
330
1F
100
AcDbEntity
  8
1
  6
CONTINUOUS
 62
     7
100
AcDbLine
 10
586.9908342249107
 20
238.7686355379447
 30
0.0
 11
586.7188349477362
 21
238.7686355379447
 31
0.0
  0
ARC
  5
D21
330
1F
100
AcDbEntity
  8
1
  6
CONTINUOUS
 62
     7
100
AcDbCircle
 10
586.3918364681015
 20
237.2276336134899
 30
0.0
 40
0.6000046256135793
100
AcDbArc
 50
349.0474904198047
 51
356.6821547497482
  0
LINE
  5
D22
330
1F
100
AcDbEntity
  8
1
  6
CONTINUOUS
 62
     7
100
AcDbLine
 10
586.7188349477362
 20
237.1136357416436
 30
0.0
 11
586.9809119142008
 21
237.1136357416436
 31
0.0
  0
LINE
  5
D23
330
1F
100
AcDbEntity
  8
1
  6
CONTINUOUS
 62
     7
100
AcDbLine
 10
586.9908342249107
 20
246.9686355781779
 30
0.0
 11
586.9908342249107
 21
248.5443625939116
 31
0.0
  0
LINE
  5
D24
330
1F
100
AcDbEntity
  8
1
  6
CONTINUOUS
 62
     7
100
AcDbLine
 10
586.9809119142008
 20
248.623635374479
 30
0.0
 11
586.7188349477362
 21
248.623635374479
 31
0.0
  0
LINE
  5
D25
330
1F
100
AcDbEntity
  8
1
  6
CONTINUOUS
 62
     7
100
AcDbLine
 10
586.7188349477362
 20
246.9686355781779
 30
0.0
 11
586.7188349477362
 21
248.623635374479
 31
0.0
  0
ARC
  5
D26
330
1F
100
AcDbEntity
  8
1
  6
CONTINUOUS
 62
     7
100
AcDbCircle
 10
586.3918364681015
 20
248.5096375026328
 30
0.0
 40
0.6000046256135739
100
AcDbArc
 50
3.317845250254499
 51
10.95250958019269
  0
LINE
  5
D27
330
1F
100
AcDbEntity
  8
1
  6
CONTINUOUS
 62
     7
100
AcDbLine
 10
586.7188349477362
 20
246.9686355781779
 30
0.0
 11
586.9908342249107
 21
246.9686355781779
 31
0.0
  0
LINE
  5
D28
330
1F
100
AcDbEntity
  8
1
  6
CONTINUOUS
 62
     7
100
AcDbLine
 10
551.3308337069464
 20
238.7186356228814
 30
0.0
 11
547.6808352507067
 21
238.7186356228814
 31
0.0
  0
LINE
  5
D29
330
1F
100
AcDbEntity
  8
1
  6
CONTINUOUS
 62
     7
100
AcDbLine
 10
551.3308337069464
 20
239.5186356608793
 30
0.0
 11
547.6808352507067
 21
239.5186356608793
 31
0.0
  0
LINE
  5
D2A
330
1F
100
AcDbEntity
  8
1
  6
CONTINUOUS
 62
     7
100
AcDbLine
 10
551.3308337069464
 20
247.0186354932412
 30
0.0
 11
547.6808352507067
 21
247.0186354932412
 31
0.0
  0
LINE
  5
D2B
330
1F
100
AcDbEntity
  8
1
  6
CONTINUOUS
 62
     7
100
AcDbLine
 10
547.6808352507067
 20
246.2186354552433
 30
0.0
 11
551.3308337069464
 21
246.2186354552433
 31
0.0
  0
LINE
  5
D2C
330
1F
100
AcDbEntity
  8
1
  6
CONTINUOUS
 62
     7
100
AcDbLine
 10
552.6808342076254
 20
247.0186354932412
 30
0.0
 11
552.4808345473718
 21
247.0186354932412
 31
0.0
  0
LINE
  5
D2D
330
1F
100
AcDbEntity
  8
1
  6
CONTINUOUS
 62
     7
100
AcDbLine
 10
552.4808345473718
 20
246.2186354552433
 30
0.0
 11
552.6808342076254
 21
246.2186354552433
 31
0.0
  0
LINE
  5
D2E
330
1F
100
AcDbEntity
  8
1
  6
CONTINUOUS
 62
     7
100
AcDbLine
 10
552.6808342076254
 20
238.7186356228814
 30
0.0
 11
552.4808345473718
 21
238.7186356228814
 31
0.0
  0
LINE
  5
D2F
330
1F
100
AcDbEntity
  8
1
  6
CONTINUOUS
 62
     7
100
AcDbLine
 10
552.6808342076254
 20
239.5186356608793
 30
0.0
 11
552.4808345473718
 21
239.5186356608793
 31
0.0
  0
LINE
  5
D30
330
1F
100
AcDbEntity
  8
1
  6
CONTINUOUS
 62
     7
100
AcDbLine
 10
557.4708348251295
 20
246.2436356456056
 30
0.0
 11
557.4208349100661
 21
246.2436356456056
 31
0.0
  0
LINE
  5
D31
330
1F
100
AcDbEntity
  8
1
  6
CONTINUOUS
 62
     7
100
AcDbLine
 10
557.4708348251295
 20
246.2436356456056
 30
0.0
 11
557.4708348251295
 21
246.2152731479183
 31
0.0
  0
LINE
  5
D32
330
1F
100
AcDbEntity
  8
1
  6
CONTINUOUS
 62
     7
100
AcDbLine
 10
557.2708342335534
 20
246.2135278494135
 30
0.0
 11
557.4708348251295
 21
246.2152731479183
 31
0.0
  0
LINE
  5
D33
330
1F
100
AcDbEntity
  8
1
  6
CONTINUOUS
 62
     7
100
AcDbLine
 10
557.2708342335534
 20
246.2091643703207
 30
0.0
 11
556.9708347431731
 21
246.2091643703207
 31
0.0
  0
LINE
  5
D34
330
1F
100
AcDbEntity
  8
1
  6
CONTINUOUS
 62
     7
100
AcDbLine
 10
556.9708347431731
 20
246.2186354552433
 30
0.0
 11
556.9708347431731
 21
246.2091643703207
 31
0.0
  0
LINE
  5
D35
330
1F
100
AcDbEntity
  8
1
  6
CONTINUOUS
 62
     7
100
AcDbLine
 10
557.2708342335534
 20
246.2091643703207
 30
0.0
 11
557.2708342335534
 21
246.2135278494135
 31
0.0
  0
LINE
  5
D36
330
1F
100
AcDbEntity
  8
1
  6
CONTINUOUS
 62
     7
100
AcDbLine
 10
557.2708342335534
 20
239.5281067458019
 30
0.0
 11
556.9708347431731
 21
239.5281067458019
 31
0.0
  0
LINE
  5
D37
330
1F
100
AcDbEntity
  8
1
  6
CONTINUOUS
 62
     7
100
AcDbLine
 10
556.9708347431731
 20
239.5281067458019
 30
0.0
 11
556.9708347431731
 21
241.8686355105638
 31
0.0
  0
LINE
  5
D38
330
1F
100
AcDbEntity
  8
1
  6
CONTINUOUS
 62
     7
100
AcDbLine
 10
557.2708342335534
 20
239.5281067458019
 30
0.0
 11
557.2708342335534
 21
241.8686355105638
 31
0.0
  0
ARC
  5
D39
330
1F
100
AcDbEntity
  8
1
  6
CONTINUOUS
 62
     7
100
AcDbCircle
 10
586.51883452353
 20
248.6236355580613
 30
0.0
 40
0.2000000000000171
100
AcDbArc
 50
0.0
 51
90.0
  0
LINE
  5
D3A
330
1F
100
AcDbEntity
  8
1
  6
CONTINUOUS
 62
     7
100
AcDbLine
 10
586.5188343561601
 20
248.8236355003938
 30
0.0
 11
557.4708348251295
 21
248.8236355003938
 31
0.0
  0
ARC
  5
D3B
330
1F
100
AcDbEntity
  8
1
  6
CONTINUOUS
 62
     7
100
AcDbCircle
 10
557.47083452353
 20
248.6236355580613
 30
0.0
 40
0.2000000000000171
100
AcDbArc
 50
90.0
 51
180.0
  0
LINE
  5
D3C
330
1F
100
AcDbEntity
  8
1
  6
CONTINUOUS
 62
     7
100
AcDbLine
 10
557.2708342335534
 20
247.0281065781638
 30
0.0
 11
557.2708342335534
 21
248.623635374479
 31
0.0
  0
LINE
  5
D3D
330
1F
100
AcDbEntity
  8
1
  6
CONTINUOUS
 62
     7
100
AcDbLine
 10
557.2708342335534
 20
247.0281065781638
 30
0.0
 11
556.9708347431731
 21
247.0281065781638
 31
0.0
  0
ARC
  5
D3E
330
1F
100
AcDbEntity
  8
1
  6
CONTINUOUS
 62
     7
100
AcDbCircle
 10
557.57083452353
 20
248.5086321892205
 30
0.0
 40
0.6000033688407598
100
AcDbArc
 50
90.0
 51
180.0
  0
LINE
  5
D3F
330
1F
100
AcDbEntity
  8
1
  6
CONTINUOUS
 62
     7
100
AcDbLine
 10
557.5708346552562
 20
249.1086355750486
 30
0.0
 11
586.3908380381179
 21
249.1086355750486
 31
0.0
  0
LINE
  5
D40
330
1F
100
AcDbEntity
  8
1
  6
CONTINUOUS
 62
     7
100
AcDbLine
 10
556.9708347431731
 20
248.5086324033365
 30
0.0
 11
556.9708347431731
 21
247.0281065781638
 31
0.0
  0
ARC
  5
D41
102
{ACAD_REACTORS
102
}
330
1F
100
AcDbEntity
  8
1
  6
CONTINUOUS
 62
     7
100
AcDbCircle
 10
586.3908311546893
 20
248.5086321892205
 30
0.0
 40
0.600004636276363
100
AcDbArc
 50
11.05030627524602
 51
89.9993566042406
  0
LINE
  5
D42
330
1F
100
AcDbEntity
  8
1
  6
CONTINUOUS
 62
     7
100
AcDbLine
 10
557.2708342335534
 20
247.0237433319017
 30
0.0
 11
557.2708342335534
 21
247.0281065781638
 31
0.0
  0
LINE
  5
D43
330
1F
100
AcDbEntity
  8
1
  6
CONTINUOUS
 62
     7
100
AcDbLine
 10
557.4708348251295
 20
247.0219980333969
 30
0.0
 11
557.2708342335534
 21
247.0237433319017
 31
0.0
  0
LINE
  5
D44
330
1F
100
AcDbEntity
  8
1
  6
CONTINUOUS
 62
     7
100
AcDbLine
 10
557.4708348251295
 20
246.9936355357096
 30
0.0
 11
557.4708348251295
 21
247.0219980333969
 31
0.0
  0
LINE
  5
D45
330
1F
100
AcDbEntity
  8
1
  6
CONTINUOUS
 62
     7
100
AcDbLine
 10
557.4708348251295
 20
246.9936355357096
 30
0.0
 11
557.4208349100661
 21
246.9936355357096
 31
0.0
  0
LINE
  5
D46
330
1F
100
AcDbEntity
  8
1
  6
CONTINUOUS
 62
     7
100
AcDbLine
 10
556.9708347431731
 20
247.0281065781638
 30
0.0
 11
556.9708347431731
 21
247.0186354932412
 31
0.0
  0
LINE
  5
D47
330
1F
100
AcDbEntity
  8
1
  6
CONTINUOUS
 62
     7
100
AcDbLine
 10
586.9908342249107
 20
246.9686355781779
 30
0.0
 11
586.9908342249107
 21
238.7686355379447
 31
0.0
  0
LINE
  5
D48
330
1F
100
AcDbEntity
  8
1
  6
CONTINUOUS
 62
     7
100
AcDbLine
 10
586.7188349477362
 20
238.7686355379447
 30
0.0
 11
586.7188349477362
 21
246.9686355781779
 31
0.0
  0
LINE
  5
D49
330
1F
100
AcDbEntity
  8
1
  6
CONTINUOUS
 62
     7
100
AcDbLine
 10
556.9708347431731
 20
246.2091643703207
 30
0.0
 11
556.9708347431731
 21
243.8686356055588
 31
0.0
  0
LINE
  5
D4A
330
1F
100
AcDbEntity
  8
1
  6
CONTINUOUS
 62
     7
100
AcDbLine
 10
557.2708342335534
 20
243.8686356055588
 30
0.0
 11
557.2708342335534
 21
246.2091643703207
 31
0.0
  0
LINE
  5
D4B
330
1F
100
AcDbEntity
  8
1
  6
CONTINUOUS
 62
     7
100
AcDbLine
 10
557.2708342335534
 20
238.7091645379588
 30
0.0
 11
556.9708347431731
 21
238.7091645379588
 31
0.0
  0
LINE
  5
D4C
330
1F
100
AcDbEntity
  8
1
  6
CONTINUOUS
 62
     7
100
AcDbLine
 10
557.2708342335534
 20
237.1136357416436
 30
0.0
 11
557.2708342335534
 21
238.7091645379588
 31
0.0
  0
ARC
  5
D4D
330
1F
100
AcDbEntity
  8
1
  6
CONTINUOUS
 62
     7
100
AcDbCircle
 10
557.47083452353
 20
237.1136355580613
 30
0.0
 40
0.2000000000000171
100
AcDbArc
 50
180.0
 51
270.0
  0
LINE
  5
D4E
330
1F
100
AcDbEntity
  8
1
  6
CONTINUOUS
 62
     7
100
AcDbLine
 10
557.4708348251295
 20
236.9136356157288
 30
0.0
 11
586.5188343561601
 21
236.9136356157288
 31
0.0
  0
ARC
  5
D4F
330
1F
100
AcDbEntity
  8
1
  6
CONTINUOUS
 62
     7
100
AcDbCircle
 10
586.51883452353
 20
237.1136355580613
 30
0.0
 40
0.2000000000000171
100
AcDbArc
 50
270.0
 51
0.0
  0
ARC
  5
D50
330
1F
100
AcDbEntity
  8
1
  6
CONTINUOUS
 62
     7
100
AcDbCircle
 10
557.57083452353
 20
237.2286389269021
 30
0.0
 40
0.6000033688407598
100
AcDbArc
 50
180.0
 51
270.0
  0
LINE
  5
D51
330
1F
100
AcDbEntity
  8
1
  6
CONTINUOUS
 62
     7
100
AcDbLine
 10
586.3908380381179
 20
236.628635541074
 30
0.0
 11
557.5708346552562
 21
236.628635541074
 31
0.0
  0
LINE
  5
D52
330
1F
100
AcDbEntity
  8
1
  6
CONTINUOUS
 62
     7
100
AcDbLine
 10
556.9708347431731
 20
237.2286387127861
 30
0.0
 11
556.9708347431731
 21
238.7091645379588
 31
0.0
  0
ARC
  5
D53
102
{ACAD_REACTORS
102
}
330
1F
100
AcDbEntity
  8
1
  6
CONTINUOUS
 62
     7
100
AcDbCircle
 10
586.3908311546893
 20
237.2286389269021
 30
0.0
 40
0.600004636276363
100
AcDbArc
 50
270.0006433957594
 51
348.949693724754
  0
LINE
  5
D54
330
1F
100
AcDbEntity
  8
1
  6
CONTINUOUS
 62
     7
100
AcDbLine
 10
557.4708348251295
 20
238.743635580413
 30
0.0
 11
557.4208349100661
 21
238.743635580413
 31
0.0
  0
LINE
  5
D55
330
1F
100
AcDbEntity
  8
1
  6
CONTINUOUS
 62
     7
100
AcDbLine
 10
557.4708348251295
 20
238.743635580413
 30
0.0
 11
557.4708348251295
 21
238.7152730827257
 31
0.0
  0
LINE
  5
D56
330
1F
100
AcDbEntity
  8
1
  6
CONTINUOUS
 62
     7
100
AcDbLine
 10
557.2708342335534
 20
238.7135277842209
 30
0.0
 11
557.4708348251295
 21
238.7152730827257
 31
0.0
  0
LINE
  5
D57
330
1F
100
AcDbEntity
  8
1
  6
CONTINUOUS
 62
     7
100
AcDbLine
 10
557.2708342335534
 20
238.7135277842209
 30
0.0
 11
557.2708342335534
 21
238.7091645379588
 31
0.0
  0
LINE
  5
D58
330
1F
100
AcDbEntity
  8
1
  6
CONTINUOUS
 62
     7
100
AcDbLine
 10
556.9708347431731
 20
238.7091645379588
 30
0.0
 11
556.9708347431731
 21
238.7186356228814
 31
0.0
  0
LINE
  5
D59
330
1F
100
AcDbEntity
  8
1
  6
CONTINUOUS
 62
     7
100
AcDbLine
 10
557.4708348251295
 20
239.5219979682043
 30
0.0
 11
557.2708342335534
 21
239.5237432667091
 31
0.0
  0
LINE
  5
D5A
330
1F
100
AcDbEntity
  8
1
  6
CONTINUOUS
 62
     7
100
AcDbLine
 10
557.4708348251295
 20
239.493635470517
 30
0.0
 11
557.4708348251295
 21
239.5219979682043
 31
0.0
  0
LINE
  5
D5B
330
1F
100
AcDbEntity
  8
1
  6
CONTINUOUS
 62
     7
100
AcDbLine
 10
557.4708348251295
 20
239.493635470517
 30
0.0
 11
557.4208349100661
 21
239.493635470517
 31
0.0
  0
LINE
  5
D5C
330
1F
100
AcDbEntity
  8
1
  6
CONTINUOUS
 62
     7
100
AcDbLine
 10
556.9708347431731
 20
239.5186356608793
 30
0.0
 11
556.9708347431731
 21
239.5281067458019
 31
0.0
  0
LINE
  5
D5D
330
1F
100
AcDbEntity
  8
1
  6
CONTINUOUS
 62
     7
100
AcDbLine
 10
557.2708342335534
 20
239.5281067458019
 30
0.0
 11
557.2708342335534
 21
239.5237432667091
 31
0.0
  0
LINE
  5
D5E
330
1F
100
AcDbEntity
  8
1
  6
CONTINUOUS
 62
     7
100
AcDbLine
 10
557.22083431849
 20
247.0186354932412
 30
0.0
 11
552.6808342076254
 21
247.0186354932412
 31
0.0
  0
LINE
  5
D5F
330
1F
100
AcDbEntity
  8
1
  6
CONTINUOUS
 62
     7
100
AcDbLine
 10
552.6808342076254
 20
246.2186354552433
 30
0.0
 11
557.22083431849
 21
246.2186354552433
 31
0.0
  0
LINE
  5
D60
330
1F
100
AcDbEntity
  8
1
  6
CONTINUOUS
 62
     7
100
AcDbLine
 10
557.22083431849
 20
238.7186356228814
 30
0.0
 11
552.6808342076254
 21
238.7186356228814
 31
0.0
  0
LINE
  5
D61
330
1F
100
AcDbEntity
  8
1
  6
CONTINUOUS
 62
     7
100
AcDbLine
 10
557.22083431849
 20
239.5186356608793
 30
0.0
 11
552.6808342076254
 21
239.5186356608793
 31
0.0
  0
LINE
  5
D62
330
1F
100
AcDbEntity
  8
1
  6
CONTINUOUS
 62
     7
100
AcDbLine
 10
576.1108344997626
 20
242.068635578271
 30
0.0
 11
576.1108344997626
 21
243.6686355378516
 31
0.0
  0
LINE
  5
D63
330
1F
100
AcDbEntity
  8
1
  6
CONTINUOUS
 62
     7
100
AcDbLine
 10
571.910834533104
 20
242.068635578271
 30
0.0
 11
576.1108344997626
 21
242.068635578271
 31
0.0
  0
LINE
  5
D64
330
1F
100
AcDbEntity
  8
1
  6
CONTINUOUS
 62
     7
100
AcDbLine
 10
576.1108344997626
 20
243.6686355378516
 30
0.0
 11
571.910834533104
 21
243.6686355378516
 31
0.0
  0
LINE
  5
D65
330
1F
100
AcDbEntity
  8
1
  6
CONTINUOUS
 62
     7
100
AcDbLine
 10
557.610834959836
 20
247.5186355751976
 30
0.0
 11
557.610834959836
 21
238.218635540925
 31
0.0
  0
LINE
  5
D66
330
1F
100
AcDbEntity
  8
1
  6
CONTINUOUS
 62
     7
100
AcDbLine
 10
571.910834533104
 20
243.6686355378516
 30
0.0
 11
571.910834533104
 21
242.068635578271
 31
0.0
  0
LINE
  5
D67
330
1F
100
AcDbEntity
  8
1
  6
CONTINUOUS
 62
     7
100
AcDbLine
 10
557.610834959836
 20
238.218635540925
 30
0.0
 11
583.4988346434545
 21
238.218635540925
 31
0.0
  0
LINE
  5
D68
330
1F
100
AcDbEntity
  8
1
  6
CONTINUOUS
 62
     7
100
AcDbLine
 10
583.4988346434545
 20
247.5186355751976
 30
0.0
 11
557.610834959836
 21
247.5186355751976
 31
0.0
  0
LINE
  5
D69
330
1F
100
AcDbEntity
  8
1
  6
CONTINUOUS
 62
     7
100
AcDbLine
 10
584.8788349069071
 20
245.6186355431601
 30
0.0
 11
583.4988346434545
 21
245.6186355431601
 31
0.0
  0
LINE
  5
D6A
330
1F
100
AcDbEntity
  8
1
  6
CONTINUOUS
 62
     7
100
AcDbLine
 10
583.4988346434545
 20
238.218635540925
 30
0.0
 11
583.4988346434545
 21
240.1186355729625
 31
0.0
  0
LINE
  5
D6B
330
1F
100
AcDbEntity
  8
1
  6
CONTINUOUS
 62
     7
100
AcDbLine
 10
583.4988346434545
 20
240.1186355729625
 30
0.0
 11
584.8788349069071
 21
240.1186355729625
 31
0.0
  0
LINE
  5
D6C
330
1F
100
AcDbEntity
  8
1
  6
CONTINUOUS
 62
     7
100
AcDbLine
 10
584.8788349069071
 20
240.1186355729625
 30
0.0
 11
584.8788349069071
 21
245.6186355431601
 31
0.0
  0
LINE
  5
D6D
330
1F
100
AcDbEntity
  8
1
  6
CONTINUOUS
 62
     7
100
AcDbLine
 10
583.4988346434545
 20
245.6186355431601
 30
0.0
 11
583.4988346434545
 21
247.5186355751976
 31
0.0
  0
LINE
  5
D6E
330
1F
100
AcDbEntity
  8
1
  6
CONTINUOUS
 62
     7
100
AcDbLine
 10
557.4208349100661
 20
239.5186356608793
 30
0.0
 11
557.4208349100661
 21
238.7186356228814
 31
0.0
  0
LINE
  5
D6F
330
1F
100
AcDbEntity
  8
1
  6
CONTINUOUS
 62
     7
100
AcDbLine
 10
557.4208349100661
 20
238.7186356228814
 30
0.0
 11
557.22083431849
 21
238.7186356228814
 31
0.0
  0
LINE
  5
D70
330
1F
100
AcDbEntity
  8
1
  6
CONTINUOUS
 62
     7
100
AcDbLine
 10
557.22083431849
 20
239.5186356608793
 30
0.0
 11
557.4208349100661
 21
239.5186356608793
 31
0.0
  0
LINE
  5
D71
330
1F
100
AcDbEntity
  8
1
  6
CONTINUOUS
 62
     7
100
AcDbLine
 10
557.4208349100661
 20
247.0186354932412
 30
0.0
 11
557.4208349100661
 21
246.2186354552433
 31
0.0
  0
LINE
  5
D72
330
1F
100
AcDbEntity
  8
1
  6
CONTINUOUS
 62
     7
100
AcDbLine
 10
557.22083431849
 20
247.0186354932412
 30
0.0
 11
557.4208349100661
 21
247.0186354932412
 31
0.0
  0
LINE
  5
D73
330
1F
100
AcDbEntity
  8
1
  6
CONTINUOUS
 62
     7
100
AcDbLine
 10
557.4208349100661
 20
246.2186354552433
 30
0.0
 11
557.22083431849
 21
246.2186354552433
 31
0.0
  0
LINE
  5
D74
330
1F
100
AcDbEntity
  8
1
  6
CONTINUOUS
 62
     7
100
AcDbLine
 10
557.3282465449881
 20
248.7638809126839
 30
0.0
 11
557.4708348251295
 21
248.6212926325425
 31
0.0
  0
LINE
  5
D75
330
1F
100
AcDbEntity
  8
1
  6
CONTINUOUS
 62
     7
100
AcDbLine
 10
586.6602556891155
 20
248.7650567074344
 30
0.0
 11
586.516492079885
 21
248.6212926325425
 31
0.0
  0
LINE
  5
D76
330
1F
100
AcDbEntity
  8
1
  6
CONTINUOUS
 62
     7
100
AcDbLine
 10
586.516492079885
 20
248.6212926325425
 30
0.0
 11
586.478834982903
 21
248.6212926325425
 31
0.0
  0
LINE
  5
D77
330
1F
100
AcDbEntity
  8
1
  6
CONTINUOUS
 62
     7
100
AcDbLine
 10
557.4708348251295
 20
248.6212926325425
 30
0.0
 11
557.5108341983866
 21
248.6212926325425
 31
0.0
  0
LINE
  5
D78
330
1F
100
AcDbEntity
  8
1
  6
CONTINUOUS
 62
     7
100
AcDbLine
 10
586.478834982903
 20
237.1159784835801
 30
0.0
 11
586.516492079885
 21
237.1159784835801
 31
0.0
  0
LINE
  5
D79
330
1F
100
AcDbEntity
  8
1
  6
CONTINUOUS
 62
     7
100
AcDbLine
 10
586.6602556891155
 20
236.9722144086882
 30
0.0
 11
586.516492079885
 21
237.1159784835801
 31
0.0
  0
LINE
  5
D7A
330
1F
100
AcDbEntity
  8
1
  6
CONTINUOUS
 62
     7
100
AcDbLine
 10
557.4708348251295
 20
237.1159784835801
 30
0.0
 11
557.3282465449881
 21
236.9733902034387
 31
0.0
  0
LINE
  5
D7B
330
1F
100
AcDbEntity
  8
1
  6
CONTINUOUS
 62
     7
100
AcDbLine
 10
557.5108341983866
 20
237.1159784835801
 30
0.0
 11
557.4708348251295
 21
237.1159784835801
 31
0.0
  0
LINE
  5
D7C
330
1F
100
AcDbEntity
  8
1
  6
CONTINUOUS
 62
     7
100
AcDbLine
 10
586.516492079885
 20
237.1159784835801
 30
0.0
 11
586.516492079885
 21
248.6212926325425
 31
0.0
  0
LINE
  5
D7D
330
1F
100
AcDbEntity
  8
1
  6
CONTINUOUS
 62
     7
100
AcDbLine
 10
557.4708348251295
 20
238.7152730827257
 30
0.0
 11
557.4708348251295
 21
237.1159784835801
 31
0.0
  0
LINE
  5
D7E
330
1F
100
AcDbEntity
  8
1
  6
CONTINUOUS
 62
     7
100
AcDbLine
 10
557.4708348251295
 20
246.2152731479183
 30
0.0
 11
557.4708348251295
 21
239.5219979682043
 31
0.0
  0
LINE
  5
D7F
330
1F
100
AcDbEntity
  8
1
  6
CONTINUOUS
 62
     7
100
AcDbLine
 10
557.4708348251295
 20
248.6212926325425
 30
0.0
 11
557.4708348251295
 21
247.0219980333969
 31
0.0
  0
LINE
  5
D80
330
1F
100
AcDbEntity
  8
1
  6
CONTINUOUS
 62
     7
100
AcDbLine
 10
583.4988346434545
 20
247.6286354814693
 30
0.0
 11
583.4988346434545
 21
247.5186355751976
 31
0.0
  0
LINE
  5
D81
330
1F
100
AcDbEntity
  8
1
  6
CONTINUOUS
 62
     7
100
AcDbLine
 10
584.1988343856644
 20
246.9236354683563
 30
0.0
 11
583.4988346434545
 21
247.6286354814693
 31
0.0
  0
LINE
  5
D82
330
1F
100
AcDbEntity
  8
1
  6
CONTINUOUS
 62
     7
100
AcDbLine
 10
584.1988343856644
 20
246.9236354683563
 30
0.0
 11
584.1988343856644
 21
246.6236355123147
 31
0.0
  0
LINE
  5
D83
330
1F
100
AcDbEntity
  8
1
  6
CONTINUOUS
 62
     7
100
AcDbLine
 10
584.1988343856644
 20
246.6236355123147
 30
0.0
 11
584.1988343856644
 21
246.3236355562732
 31
0.0
  0
LINE
  5
D84
330
1F
100
AcDbEntity
  8
1
  6
CONTINUOUS
 62
     7
100
AcDbLine
 10
584.1988343856644
 20
246.3236355562732
 30
0.0
 11
583.4988346434545
 21
245.6186355431601
 31
0.0
  0
LINE
  5
D85
330
1F
100
AcDbEntity
  8
1
  6
CONTINUOUS
 62
     7
100
AcDbLine
 10
557.5108341983866
 20
237.1136357416436
 30
0.0
 11
586.478834982903
 21
237.1136357416436
 31
0.0
  0
LINE
  5
D86
330
1F
100
AcDbEntity
  8
1
  6
CONTINUOUS
 62
     7
100
AcDbLine
 10
557.5108341983866
 20
248.623635374479
 30
0.0
 11
557.5108341983866
 21
237.1136357416436
 31
0.0
  0
LINE
  5
D87
330
1F
100
AcDbEntity
  8
1
  6
CONTINUOUS
 62
     7
100
AcDbLine
 10
586.478834982903
 20
248.623635374479
 30
0.0
 11
557.5108341983866
 21
248.623635374479
 31
0.0
  0
LINE
  5
D88
330
1F
100
AcDbEntity
  8
1
  6
CONTINUOUS
 62
     7
100
AcDbLine
 10
586.478834982903
 20
237.1136357416436
 30
0.0
 11
586.478834982903
 21
248.623635374479
 31
0.0
  0
LINE
  5
D89
330
1F
100
AcDbEntity
  8
1
  6
CONTINUOUS
 62
     7
100
AcDbLine
 10
585.4988349712801
 20
238.1086356346533
 30
0.0
 11
583.4988346434545
 21
238.1086356346533
 31
0.0
  0
LINE
  5
D8A
330
1F
100
AcDbEntity
  8
1
  6
CONTINUOUS
 62
     7
100
AcDbLine
 10
585.4988349712801
 20
238.1086356346533
 30
0.0
 11
585.4988349712801
 21
240.1186355729625
 31
0.0
  0
LINE
  5
D8B
330
1F
100
AcDbEntity
  8
1
  6
CONTINUOUS
 62
     7
100
AcDbLine
 10
585.4988349712801
 20
240.1186355729625
 30
0.0
 11
584.8788349069071
 21
240.1186355729625
 31
0.0
  0
LINE
  5
D8C
330
1F
100
AcDbEntity
  8
1
  6
CONTINUOUS
 62
     7
100
AcDbLine
 10
585.4988349712801
 20
245.6186355431601
 30
0.0
 11
584.8788349069071
 21
245.6186355431601
 31
0.0
  0
LINE
  5
D8D
330
1F
100
AcDbEntity
  8
1
  6
CONTINUOUS
 62
     7
100
AcDbLine
 10
585.4988349712801
 20
247.6286354814693
 30
0.0
 11
585.4988349712801
 21
245.6186355431601
 31
0.0
  0
LINE
  5
D8E
330
1F
100
AcDbEntity
  8
1
  6
CONTINUOUS
 62
     7
100
AcDbLine
 10
585.4988349712801
 20
247.6286354814693
 30
0.0
 11
583.4988346434545
 21
247.6286354814693
 31
0.0
  0
LINE
  5
D8F
330
1F
100
AcDbEntity
  8
1
  6
CONTINUOUS
 62
     7
100
AcDbLine
 10
583.4988346434545
 20
238.1086356346533
 30
0.0
 11
583.4988346434545
 21
238.218635540925
 31
0.0
  0
LINE
  5
D90
330
1F
100
AcDbEntity
  8
1
  6
CONTINUOUS
 62
     7
100
AcDbLine
 10
584.1988343856644
 20
239.1136356038079
 30
0.0
 11
584.1988343856644
 21
239.4136355598494
 31
0.0
  0
LINE
  5
D91
330
1F
100
AcDbEntity
  8
1
  6
CONTINUOUS
 62
     7
100
AcDbLine
 10
584.1988343856644
 20
238.8136356477663
 30
0.0
 11
584.1988343856644
 21
239.1136356038079
 31
0.0
  0
LINE
  5
D92
330
1F
100
AcDbEntity
  8
1
  6
CONTINUOUS
 62
     7
100
AcDbLine
 10
584.1988343856644
 20
238.8136356477663
 30
0.0
 11
583.4988346434545
 21
238.1086356346533
 31
0.0
  0
LINE
  5
D93
330
1F
100
AcDbEntity
  8
1
  6
CONTINUOUS
 62
     7
100
AcDbLine
 10
584.1988343856644
 20
239.4136355598494
 30
0.0
 11
583.4988346434545
 21
240.1186355729625
 31
0.0
  0
LINE
  5
D94
330
1F
100
AcDbEntity
  8
1
  6
CONTINUOUS
 62
     7
100
AcDbLine
 10
584.4988348073673
 20
246.3236355562732
 30
0.0
 11
584.1988343856644
 21
246.3236355562732
 31
0.0
  0
LINE
  5
D95
330
1F
100
AcDbEntity
  8
1
  6
CONTINUOUS
 62
     7
100
AcDbLine
 10
584.7988342977476
 20
246.3236355562732
 30
0.0
 11
584.4988348073673
 21
246.3236355562732
 31
0.0
  0
LINE
  5
D96
330
1F
100
AcDbEntity
  8
1
  6
CONTINUOUS
 62
     7
100
AcDbLine
 10
584.7988342977476
 20
246.3236355562732
 30
0.0
 11
585.4988349712801
 21
245.6186355431601
 31
0.0
  0
LINE
  5
D97
330
1F
100
AcDbEntity
  8
1
  6
CONTINUOUS
 62
     7
100
AcDbLine
 10
584.7988342977476
 20
239.4136355598494
 30
0.0
 11
584.4988348073673
 21
239.4136355598494
 31
0.0
  0
LINE
  5
D98
330
1F
100
AcDbEntity
  8
1
  6
CONTINUOUS
 62
     7
100
AcDbLine
 10
584.4988348073673
 20
239.4136355598494
 30
0.0
 11
584.1988343856644
 21
239.4136355598494
 31
0.0
  0
LINE
  5
D99
330
1F
100
AcDbEntity
  8
1
  6
CONTINUOUS
 62
     7
100
AcDbLine
 10
584.7988342977476
 20
239.4136355598494
 30
0.0
 11
585.4988349712801
 21
240.1186355729625
 31
0.0
  0
LINE
  5
D9A
330
1F
100
AcDbEntity
  8
1
  6
CONTINUOUS
 62
     7
100
AcDbLine
 10
584.7988342977476
 20
238.8136356477663
 30
0.0
 11
584.7988342977476
 21
239.1136356038079
 31
0.0
  0
LINE
  5
D9B
330
1F
100
AcDbEntity
  8
1
  6
CONTINUOUS
 62
     7
100
AcDbLine
 10
584.7988342977476
 20
239.1136356038079
 30
0.0
 11
584.7988342977476
 21
239.4136355598494
 31
0.0
  0
LINE
  5
D9C
330
1F
100
AcDbEntity
  8
1
  6
CONTINUOUS
 62
     7
100
AcDbLine
 10
584.7988342977476
 20
238.8136356477663
 30
0.0
 11
585.4988349712801
 21
238.1086356346533
 31
0.0
  0
LINE
  5
D9D
330
1F
100
AcDbEntity
  8
1
  6
CONTINUOUS
 62
     7
100
AcDbLine
 10
584.7988342977476
 20
246.6236355123147
 30
0.0
 11
584.7988342977476
 21
246.3236355562732
 31
0.0
  0
LINE
  5
D9E
330
1F
100
AcDbEntity
  8
1
  6
CONTINUOUS
 62
     7
100
AcDbLine
 10
584.7988342977476
 20
246.9236354683563
 30
0.0
 11
584.7988342977476
 21
246.6236355123147
 31
0.0
  0
LINE
  5
D9F
330
1F
100
AcDbEntity
  8
1
  6
CONTINUOUS
 62
     7
100
AcDbLine
 10
584.7988342977476
 20
246.9236354683563
 30
0.0
 11
585.4988349712801
 21
247.6286354814693
 31
0.0
  0
LINE
  5
DA0
330
1F
100
AcDbEntity
  8
1
  6
CONTINUOUS
 62
     7
100
AcDbLine
 10
584.4988348073673
 20
238.8136356477663
 30
0.0
 11
584.1988343856644
 21
238.8136356477663
 31
0.0
  0
LINE
  5
DA1
330
1F
100
AcDbEntity
  8
1
  6
CONTINUOUS
 62
     7
100
AcDbLine
 10
584.7988342977476
 20
238.8136356477663
 30
0.0
 11
584.4988348073673
 21
238.8136356477663
 31
0.0
  0
LINE
  5
DA2
330
1F
100
AcDbEntity
  8
1
  6
CONTINUOUS
 62
     7
100
AcDbLine
 10
584.7988342977476
 20
246.9236354683563
 30
0.0
 11
584.4988348073673
 21
246.9236354683563
 31
0.0
  0
LINE
  5
DA3
330
1F
100
AcDbEntity
  8
1
  6
CONTINUOUS
 62
     7
100
AcDbLine
 10
584.4988348073673
 20
246.9236354683563
 30
0.0
 11
584.1988343856644
 21
246.9236354683563
 31
0.0
  0
LINE
  5
DA4
330
1F
100
AcDbEntity
  8
1
  6
CONTINUOUS
 62
     7
100
AcDbLine
 10
575.4608344397855
 20
243.258635559123
 30
0.0
 11
572.5608345239596
 21
243.258635559123
 31
0.0
  0
LINE
  5
DA5
330
1F
100
AcDbEntity
  8
1
  6
CONTINUOUS
 62
     7
100
AcDbLine
 10
575.4608344397855
 20
242.4786355569996
 30
0.0
 11
575.4608344397855
 21
243.258635559123
 31
0.0
  0
LINE
  5
DA6
330
1F
100
AcDbEntity
  8
1
  6
CONTINUOUS
 62
     7
100
AcDbLine
 10
572.5608345239596
 20
243.258635559123
 30
0.0
 11
572.5608345239596
 21
242.4786355569996
 31
0.0
  0
LINE
  5
DA7
330
1F
100
AcDbEntity
  8
1
  6
CONTINUOUS
 62
     7
100
AcDbLine
 10
572.5608345239596
 20
242.4786355569996
 30
0.0
 11
575.4608344397855
 21
242.4786355569996
 31
0.0
  0
LINE
  5
DA8
330
1F
100
AcDbEntity
  8
1
  6
CONTINUOUS
 62
     7
100
AcDbLine
 10
586.5158829949212
 20
248.5212937337384
 30
0.0
 11
586.5158829949212
 21
237.2159773823842
 31
0.0
  0
LINE
  5
DA9
330
1F
100
AcDbEntity
  8
1
  6
CONTINUOUS
 62
     7
100
AcDbLine
 10
586.4980034641337
 20
248.5071036373302
 30
0.0
 11
586.4980034641337
 21
237.2301674787924
 31
0.0
  0
LINE
  5
DAA
330
1F
100
AcDbEntity
  8
1
  6
CONTINUOUS
 62
     7
100
AcDbLine
 10
557.4708348251295
 20
248.6071025361344
 30
0.0
 11
557.5108341983866
 21
248.6071025361344
 31
0.0
  0
ARC
  5
DAB
330
1F
100
AcDbEntity
  8
1
  6
CONTINUOUS
 62
     7
100
AcDbCircle
 10
586.4158818272065
 20
237.2159788222365
 30
0.0
 40
0.1000013807128949
100
AcDbArc
 50
309.014590409541
 51
359.9991914176381
  0
ARC
  5
DAC
330
1F
100
AcDbEntity
  8
1
  6
CONTINUOUS
 62
     7
100
AcDbCircle
 10
586.3980023091342
 20
237.2301689159446
 30
0.0
 40
0.100001446639939
100
AcDbArc
 50
323.9311848125906
 51
359.9991914176338
  0
ARC
  5
DAD
330
1F
100
AcDbEntity
  8
1
  6
CONTINUOUS
 62
     7
100
AcDbCircle
 10
586.4158818272065
 20
248.5212922938861
 30
0.0
 40
0.1000013807129169
100
AcDbArc
 50
0.0008085823618721
 51
50.98540959046925
  0
ARC
  5
DAE
330
1F
100
AcDbEntity
  8
1
  6
CONTINUOUS
 62
     7
100
AcDbCircle
 10
586.3980023091342
 20
248.507102200178
 30
0.0
 40
0.100001446639939
100
AcDbArc
 50
0.0008085823661836
 51
36.06881518740944
  0
LINE
  5
DAF
330
1F
100
AcDbEntity
  8
1
  6
CONTINUOUS
 62
     7
100
AcDbLine
 10
557.5108341983866
 20
237.1301685799882
 30
0.0
 11
557.4708348251295
 21
237.1301685799882
 31
0.0
  0
LINE
  5
DB0
330
1F
100
AcDbEntity
  8
1
  6
CONTINUOUS
 62
     7
100
AcDbLine
 10
557.4708348251295
 20
246.693635579668
 30
0.0
 11
557.4708348251295
 21
246.9936355357096
 31
0.0
  0
LINE
  5
DB1
330
1F
100
AcDbEntity
  8
1
  6
CONTINUOUS
 62
     7
100
AcDbLine
 10
557.4708348251295
 20
246.2436356456056
 30
0.0
 11
557.4708348251295
 21
246.5436356016472
 31
0.0
  0
LINE
  5
DB2
330
1F
100
AcDbEntity
  8
1
  6
CONTINUOUS
 62
     7
100
AcDbLine
 10
557.4708348251295
 20
238.743635580413
 30
0.0
 11
557.4708348251295
 21
239.0436355364546
 31
0.0
  0
LINE
  5
DB3
330
1F
100
AcDbEntity
  8
1
  6
CONTINUOUS
 62
     7
100
AcDbLine
 10
557.4708348251295
 20
239.1936355144754
 30
0.0
 11
557.4708348251295
 21
239.493635470517
 31
0.0
  0
LINE
  5
DB4
330
1F
100
AcDbEntity
  8
1
  6
CONTINUOUS
 62
     7
100
AcDbLine
 10
557.5108341983866
 20
246.2436356456056
 30
0.0
 11
557.4708348251295
 21
246.2436356456056
 31
0.0
  0
LINE
  5
DB5
330
1F
100
AcDbEntity
  8
1
  6
CONTINUOUS
 62
     7
100
AcDbLine
 10
557.4708348251295
 20
239.493635470517
 30
0.0
 11
557.5108341983866
 21
239.493635470517
 31
0.0
  0
LINE
  5
DB6
330
1F
100
AcDbEntity
  8
1
  6
CONTINUOUS
 62
     7
100
AcDbLine
 10
557.5108341983866
 20
238.743635580413
 30
0.0
 11
557.4708348251295
 21
238.743635580413
 31
0.0
  0
LINE
  5
DB7
330
1F
100
AcDbEntity
  8
1
  6
CONTINUOUS
 62
     7
100
AcDbLine
 10
557.4708348251295
 20
246.9936355357096
 30
0.0
 11
557.5108341983866
 21
246.9936355357096
 31
0.0
  0
LINE
  5
DB8
330
1F
100
AcDbEntity
  8
1
  6
CONTINUOUS
 62
     7
100
AcDbLine
 10
630.6951083399337
 20
198.1162422879171
 30
0.0
 11
631.4951083779316
 21
198.1162422879171
 31
0.0
  0
LINE
  5
DB9
330
1F
100
AcDbEntity
  8
1
  6
CONTINUOUS
 62
     7
100
AcDbLine
 10
638.1951081722956
 20
198.1162422879171
 30
0.0
 11
638.9951082102936
 21
198.1162422879171
 31
0.0
  0
LINE
  5
DBA
102
{ACAD_REACTORS
102
}
330
1F
100
AcDbEntity
  8
1
  6
CONTINUOUS
 62
     7
100
AcDbLine
 10
630.6951083399337
 20
198.1162422879171
 30
0.0
 11
630.6951083399337
 21
198.5912419466805
 31
0.0
  0
LINE
  5
DBB
330
1F
100
AcDbEntity
  8
1
  6
CONTINUOUS
 62
     7
100
AcDbLine
 10
631.4951083779316
 20
198.1162422879171
 30
0.0
 11
631.4951083779316
 21
198.5912419466805
 31
0.0
  0
LINE
  5
DBC
330
1F
100
AcDbEntity
  8
1
  6
CONTINUOUS
 62
     7
100
AcDbLine
 10
638.9951082102936
 20
198.1162422879171
 30
0.0
 11
638.9951082102936
 21
198.5912419466805
 31
0.0
  0
LINE
  5
DBD
330
1F
100
AcDbEntity
  8
1
  6
CONTINUOUS
 62
     7
100
AcDbLine
 10
638.1951081722956
 20
198.5912419466805
 30
0.0
 11
638.1951081722956
 21
198.1162422879171
 31
0.0
  0
LINE
  5
DBE
330
1F
100
AcDbEntity
  8
1
  6
CONTINUOUS
 62
     7
100
AcDbLine
 10
630.6951083399337
 20
198.5912419466805
 30
0.0
 11
630.6951083399337
 21
214.8162423244249
 31
0.0
  0
LINE
  5
DBF
330
1F
100
AcDbEntity
  8
1
  6
CONTINUOUS
 62
     7
100
AcDbLine
 10
630.6951083399337
 20
214.8162423244249
 30
0.0
 11
631.4951083779316
 21
214.8162423244249
 31
0.0
  0
LINE
  5
DC0
330
1F
100
AcDbEntity
  8
1
  6
CONTINUOUS
 62
     7
100
AcDbLine
 10
631.4951083779316
 20
198.5912419466805
 30
0.0
 11
631.4951083779316
 21
214.8162423244249
 31
0.0
  0
LINE
  5
DC1
330
1F
100
AcDbEntity
  8
1
  6
CONTINUOUS
 62
     7
100
AcDbLine
 10
638.1951081722956
 20
214.8162423244249
 30
0.0
 11
638.9951082102936
 21
214.8162423244249
 31
0.0
  0
LINE
  5
DC2
330
1F
100
AcDbEntity
  8
1
  6
CONTINUOUS
 62
     7
100
AcDbLine
 10
638.9951082102936
 20
198.5912419466805
 30
0.0
 11
638.9951082102936
 21
214.8162423244249
 31
0.0
  0
LINE
  5
DC3
330
1F
100
AcDbEntity
  8
1
  6
CONTINUOUS
 62
     7
100
AcDbLine
 10
638.1951081722956
 20
198.5912419466805
 30
0.0
 11
638.1951081722956
 21
214.8162423244249
 31
0.0
  0
LINE
  5
DC4
330
1F
100
AcDbEntity
  8
1
  6
CONTINUOUS
 62
     7
100
AcDbLine
 10
638.3361697819065
 20
215.6162418967616
 30
0.0
 11
638.8540468335133
 21
215.6162418967616
 31
0.0
  0
LINE
  5
DC5
330
1F
100
AcDbEntity
  8
1
  6
CONTINUOUS
 62
     7
100
AcDbLine
 10
638.3361697819065
 20
215.6162418967616
 30
0.0
 11
638.1951081722956
 21
214.8162423244249
 31
0.0
  0
LINE
  5
DC6
330
1F
100
AcDbEntity
  8
1
  6
CONTINUOUS
 62
     7
100
AcDbLine
 10
638.9951082102936
 20
214.8162423244249
 30
0.0
 11
638.8540468335133
 21
215.6162418967616
 31
0.0
  0
LINE
  5
DC7
330
1F
100
AcDbEntity
  8
1
  6
CONTINUOUS
 62
     7
100
AcDbLine
 10
630.8361697167139
 20
215.6162418967616
 30
0.0
 11
631.3540467683207
 21
215.6162418967616
 31
0.0
  0
LINE
  5
DC8
330
1F
100
AcDbEntity
  8
1
  6
CONTINUOUS
 62
     7
100
AcDbLine
 10
631.4951083779316
 20
214.8162423244249
 30
0.0
 11
631.3540467683207
 21
215.6162418967616
 31
0.0
  0
LINE
  5
DC9
330
1F
100
AcDbEntity
  8
1
  6
CONTINUOUS
 62
     7
100
AcDbLine
 10
630.8361697167139
 20
215.6162418967616
 30
0.0
 11
630.6951083399337
 21
214.8162423244249
 31
0.0
  0
LINE
  5
DCA
330
1F
100
AcDbEntity
  8
1
  6
CONTINUOUS
 62
     7
100
AcDbLine
 10
628.6051082581263
 20
202.6762420854103
 30
0.0
 11
628.6213342256825
 21
207.5182528777551
 31
0.0
  0
LINE
  5
DCB
102
{ACAD_REACTORS
102
}
330
1F
100
AcDbEntity
  8
1
  6
CONTINUOUS
 62
     7
100
AcDbLine
 10
629.2051114298384
 20
202.6762420854103
 30
0.0
 11
628.6051082581263
 21
202.6762420854103
 31
0.0
  0
LINE
  5
DCC
330
1F
100
AcDbEntity
  8
1
  6
CONTINUOUS
 62
     7
100
AcDbLine
 10
630.6856372550111
 20
202.6762420854103
 30
0.0
 11
630.6951083399337
 21
203.7615257857871
 31
0.0
  0
LINE
  5
DCD
330
1F
100
AcDbEntity
  8
1
  6
CONTINUOUS
 62
     7
100
AcDbLine
 10
640.4851051203888
 20
202.6762420854103
 30
0.0
 11
639.0045792952161
 21
202.6762420854103
 31
0.0
  0
LINE
  5
DCE
330
1F
100
AcDbEntity
  8
1
  6
CONTINUOUS
 62
     7
100
AcDbLine
 10
639.0045792952161
 20
202.6762420854103
 30
0.0
 11
638.9951082102936
 21
203.7615257857871
 31
0.0
  0
LINE
  5
DCF
330
1F
100
AcDbEntity
  8
1
  6
CONTINUOUS
 62
     7
100
AcDbLine
 10
638.1951081722956
 20
203.7615257857871
 30
0.0
 11
638.185637087373
 21
202.6762420854103
 31
0.0
  0
LINE
  5
DD0
330
1F
100
AcDbEntity
  8
1
  6
CONTINUOUS
 62
     7
100
AcDbLine
 10
638.185637087373
 20
202.6762420854103
 30
0.0
 11
635.845108322611
 21
202.6762420854103
 31
0.0
  0
LINE
  5
DD1
330
1F
100
AcDbEntity
  8
1
  6
CONTINUOUS
 62
     7
100
AcDbLine
 10
635.845108322611
 20
202.6762420854103
 30
0.0
 11
635.845108322611
 21
202.3762420711611
 31
0.0
  0
LINE
  5
DD2
330
1F
100
AcDbEntity
  8
1
  6
CONTINUOUS
 62
     7
100
AcDbLine
 10
635.845108322611
 20
202.3762420711611
 30
0.0
 11
633.8451082276162
 21
202.3762420711611
 31
0.0
  0
LINE
  5
DD3
330
1F
100
AcDbEntity
  8
1
  6
CONTINUOUS
 62
     7
100
AcDbLine
 10
633.8451082276162
 20
202.3762420711611
 30
0.0
 11
633.8451082276162
 21
202.6762420854103
 31
0.0
  0
LINE
  5
DD4
330
1F
100
AcDbEntity
  8
1
  6
CONTINUOUS
 62
     7
100
AcDbLine
 10
631.5045794628542
 20
202.6762420854103
 30
0.0
 11
633.8451082276162
 21
202.6762420854103
 31
0.0
  0
LINE
  5
DD5
330
1F
100
AcDbEntity
  8
1
  6
CONTINUOUS
 62
     7
100
AcDbLine
 10
631.4951083779316
 20
203.7615257857871
 30
0.0
 11
631.5045794628542
 21
202.6762420854103
 31
0.0
  0
LINE
  5
DD6
330
1F
100
AcDbEntity
  8
1
  6
CONTINUOUS
 62
     7
100
AcDbLine
 10
629.2051114298384
 20
202.6762420854103
 30
0.0
 11
630.6856372550111
 21
202.6762420854103
 31
0.0
  0
LINE
  5
DD7
330
1F
100
AcDbEntity
  8
1
  6
CONTINUOUS
 62
     7
100
AcDbLine
 10
629.2213308781367
 20
208.1162420643997
 30
0.0
 11
630.6951083399337
 21
208.1162420643997
 31
0.0
  0
ARC
  5
DD8
330
1F
100
AcDbEntity
  8
1
  6
CONTINUOUS
 62
     7
100
AcDbCircle
 10
629.2213307003375
 20
207.5162420854103
 30
0.0
 40
0.6000000000000227
100
AcDbArc
 50
90.0
 51
179.8080000000002
  0
ARC
  5
DD9
330
1F
100
AcDbEntity
  8
1
  6
CONTINUOUS
 62
     7
100
AcDbCircle
 10
640.4688858498897
 20
207.5162420854103
 30
0.0
 40
0.6000000000000227
100
AcDbArc
 50
0.1919999999997519
 51
90.0
  0
LINE
  5
DDA
330
1F
100
AcDbEntity
  8
1
  6
CONTINUOUS
 62
     7
100
AcDbLine
 10
641.0688823245447
 20
207.5182528777551
 30
0.0
 11
641.0851082921009
 21
202.6762420854103
 31
0.0
  0
LINE
  5
DDB
102
{ACAD_REACTORS
102
}
330
1F
100
AcDbEntity
  8
1
  6
CONTINUOUS
 62
     7
100
AcDbLine
 10
641.0851082921009
 20
202.6762420854103
 30
0.0
 11
640.4851051203888
 21
202.6762420854103
 31
0.0
  0
LINE
  5
DDC
330
1F
100
AcDbEntity
  8
1
  6
CONTINUOUS
 62
     7
100
AcDbLine
 10
638.9951082102936
 20
208.1162420643997
 30
0.0
 11
640.4688856720906
 21
208.1162420643997
 31
0.0
  0
LINE
  5
DDD
330
1F
100
AcDbEntity
  8
1
  6
CONTINUOUS
 62
     7
100
AcDbLine
 10
631.4951083779316
 20
211.3162417507302
 30
0.0
 11
638.1951081722956
 21
211.3162417507302
 31
0.0
  0
LINE
  5
DDE
330
1F
100
AcDbEntity
  8
1
  6
CONTINUOUS
 62
     7
100
AcDbLine
 10
638.9998668029885
 20
203.2162420644928
 30
0.0
 11
638.9951082102936
 21
203.2162420644928
 31
0.0
  0
LINE
  5
DDF
330
1F
100
AcDbEntity
  8
1
  6
CONTINUOUS
 62
     7
100
AcDbLine
 10
638.1951081722956
 20
203.2162420644928
 30
0.0
 11
638.1903495796006
 21
203.2162420644928
 31
0.0
  0
LINE
  5
DE0
330
1F
100
AcDbEntity
  8
1
  6
CONTINUOUS
 62
     7
100
AcDbLine
 10
631.4998669706266
 20
203.2162420644928
 30
0.0
 11
631.4951083779316
 21
203.2162420644928
 31
0.0
  0
LINE
  5
DE1
330
1F
100
AcDbEntity
  8
1
  6
CONTINUOUS
 62
     7
100
AcDbLine
 10
630.6951083399337
 20
203.2162420644928
 30
0.0
 11
630.6903497472387
 21
203.2162420644928
 31
0.0
  0
LINE
  5
DE2
330
1F
100
AcDbEntity
  8
1
  6
CONTINUOUS
 62
     7
100
AcDbLine
 10
639.0033578656595
 20
202.8162420891496
 30
0.0
 11
638.9951082102936
 21
202.8162420891496
 31
0.0
  0
LINE
  5
DE3
330
1F
100
AcDbEntity
  8
1
  6
CONTINUOUS
 62
     7
100
AcDbLine
 10
638.1951081722956
 20
202.8162420891496
 30
0.0
 11
638.1868589825909
 21
202.8162420891496
 31
0.0
  0
LINE
  5
DE4
330
1F
100
AcDbEntity
  8
1
  6
CONTINUOUS
 62
     7
100
AcDbLine
 10
631.5033575676363
 20
202.8162420891496
 30
0.0
 11
631.4951083779316
 21
202.8162420891496
 31
0.0
  0
LINE
  5
DE5
330
1F
100
AcDbEntity
  8
1
  6
CONTINUOUS
 62
     7
100
AcDbLine
 10
630.6951083399337
 20
202.8162420891496
 30
0.0
 11
630.6868586845677
 21
202.8162420891496
 31
0.0
  0
LINE
  5
DE6
330
1F
100
AcDbEntity
  8
1
  6
CONTINUOUS
 62
     7
100
AcDbLine
 10
628.6213342256825
 20
207.5182528777551
 30
0.0
 11
628.6547775536757
 21
217.4982529676091
 31
0.0
  0
LINE
  5
DE7
330
1F
100
AcDbEntity
  8
1
  6
CONTINUOUS
 62
     7
100
AcDbLine
 10
641.0354389965515
 20
217.4982529676091
 30
0.0
 11
641.0688823245447
 21
207.5182528777551
 31
0.0
  0
ARC
  5
DE8
330
1F
100
AcDbEntity
  8
1
  6
CONTINUOUS
 62
     7
100
AcDbCircle
 10
640.4354424237113
 20
217.4962420854103
 30
0.0
 40
0.6000000000000025
100
AcDbArc
 50
0.1919999999997883
 51
90.0
  0
ARC
  5
DE9
330
1F
100
AcDbEntity
  8
1
  6
CONTINUOUS
 62
     7
100
AcDbCircle
 10
629.2547741265159
 20
217.4962420854103
 30
0.0
 40
0.5999999999999943
100
AcDbArc
 50
90.0
 51
179.8080000000002
  0
LINE
  5
DEA
102
{ACAD_REACTORS
102
}
330
1F
100
AcDbEntity
  8
1
  6
CONTINUOUS
 62
     7
100
AcDbLine
 10
629.2547742061298
 20
218.0962421542537
 30
0.0
 11
640.4354423440974
 21
218.0962421542537
 31
0.0
  0
LINE
  5
DEB
330
1F
100
AcDbEntity
  8
1
  6
CONTINUOUS
 62
     7
100
AcDbLine
 10
629.0901084586959
 20
202.3762420711611
 30
0.0
 11
630.6951083399337
 21
202.3762420711611
 31
0.0
  0
LINE
  5
DEC
330
1F
100
AcDbEntity
  8
1
  6
CONTINUOUS
 62
     7
100
AcDbLine
 10
629.0901084586959
 20
202.6762420854103
 30
0.0
 11
629.0901084586959
 21
202.3762420711611
 31
0.0
  0
LINE
  5
DED
330
1F
100
AcDbEntity
  8
1
  6
CONTINUOUS
 62
     7
100
AcDbLine
 10
631.4951083779316
 20
202.6762420854103
 30
0.0
 11
631.5045794628542
 21
202.6762420854103
 31
0.0
  0
LINE
  5
DEE
330
1F
100
AcDbEntity
  8
1
  6
CONTINUOUS
 62
     7
100
AcDbLine
 10
638.185637087373
 20
202.6762420854103
 30
0.0
 11
638.1951081722956
 21
202.6762420854103
 31
0.0
  0
LINE
  5
DEF
330
1F
100
AcDbEntity
  8
1
  6
CONTINUOUS
 62
     7
100
AcDbLine
 10
638.9951082102936
 20
202.3762420711611
 30
0.0
 11
640.6001080915313
 21
202.3762420711611
 31
0.0
  0
LINE
  5
DF0
330
1F
100
AcDbEntity
  8
1
  6
CONTINUOUS
 62
     7
100
AcDbLine
 10
640.6001080915313
 20
202.3762420711611
 30
0.0
 11
640.6001080915313
 21
202.6762420854103
 31
0.0
  0
LINE
  5
F93
330
1F
100
AcDbEntity
  8
1
  6
CONTINUOUS
 62
     7
100
AcDbLine
 10
586.868205465913
 20
74.65937843810657
 30
0.0
 11
586.868205465913
 21
70.19937847074011
 31
0.0
  0
LINE
  5
F94
330
1F
100
AcDbEntity
  8
1
  6
CONTINUOUS
 62
     7
100
AcDbLine
 10
587.4682053779961
 20
70.19937847074011
 30
0.0
 11
587.4682053779961
 21
74.65937843810657
 31
0.0
  0
LINE
  5
F95
330
1F
100
AcDbEntity
  8
1
  6
CONTINUOUS
 62
     7
100
AcDbLine
 10
586.868205465913
 20
70.19937847074011
 30
0.0
 11
586.8858381962182
 21
70.09937864061335
 31
0.0
  0
LINE
  5
F96
330
1F
100
AcDbEntity
  8
1
  6
CONTINUOUS
 62
     7
100
AcDbLine
 10
587.4505726476909
 20
70.09937864061335
 30
0.0
 11
587.4682053779961
 21
70.19937847074011
 31
0.0
  0
LINE
  5
F97
102
{ACAD_REACTORS
102
}
330
1F
100
AcDbEntity
  8
1
  6
CONTINUOUS
 62
     7
100
AcDbLine
 10
589.6602053051593
 20
74.35937842385734
 30
0.0
 11
589.6502829944493
 21
74.35937842385734
 31
0.0
  0
ELLIPSE
  5
F98
330
1F
100
AcDbEntity
  8
1
  6
CONTINUOUS
 62
     7
100
AcDbEllipse
 10
589.1752056037785
 20
40.34071697965557
 30
0.0
 11
0.6000033688028884
 21
-179.0496460707485
 31
0.0
210
0.0
220
0.0
230
1.0
 40
0.0033510070773394
 41
1.761942856300413
 42
1.763649737807532
  0
LINE
  5
F99
330
1F
100
AcDbEntity
  8
1
  6
CONTINUOUS
 62
     7
100
AcDbLine
 10
589.6490825196506
 20
74.65937843810657
 30
0.0
 11
589.0602091183664
 21
74.65937843810657
 31
0.0
  0
LINE
  5
F9A
330
1F
100
AcDbEntity
  8
1
  6
CONTINUOUS
 62
     7
100
AcDbLine
 10
589.6105360096099
 20
89.48138932030538
 30
0.0
 11
589.6602053051593
 21
74.65937843810657
 31
0.0
  0
LINE
  5
F9B
330
1F
100
AcDbEntity
  8
1
  6
CONTINUOUS
 62
     7
100
AcDbLine
 10
589.6602053051593
 20
74.65937843810671
 30
0.0
 11
589.6602053051593
 21
74.35937842385734
 31
0.0
  0
LINE
  5
F9C
330
1F
100
AcDbEntity
  8
1
  6
CONTINUOUS
 62
     7
100
AcDbLine
 10
560.2402057355048
 20
74.65937843810657
 30
0.0
 11
589.0602091183664
 21
74.65937843810657
 31
0.0
  0
LINE
  5
F9D
330
1F
100
AcDbEntity
  8
1
  6
CONTINUOUS
 62
     7
100
AcDbLine
 10
559.6402058234216
 20
74.65937843810657
 30
0.0
 11
559.6402058234216
 21
79.49937850501279
 31
0.0
  0
LINE
  5
F9E
330
1F
100
AcDbEntity
  8
1
  6
CONTINUOUS
 62
     7
100
AcDbLine
 10
560.2402057355048
 20
74.65937843810657
 30
0.0
 11
559.6402058234216
 21
74.65937843810657
 31
0.0
  0
ARC
  5
F9F
330
1F
100
AcDbEntity
  8
1
  6
CONTINUOUS
 62
     7
100
AcDbCircle
 10
560.2402056037786
 20
79.49937843810655
 30
0.0
 40
0.6000000000000227
100
AcDbArc
 50
90.0
 51
180.0
  0
LINE
  5
FA0
330
1F
100
AcDbEntity
  8
1
  6
CONTINUOUS
 62
     7
100
AcDbLine
 10
560.2402057355048
 20
80.09937841709593
 30
0.0
 11
560.7084356104733
 21
80.09937841709593
 31
0.0
  0
ELLIPSE
  5
FA1
330
1F
100
AcDbEntity
  8
1
  6
CONTINUOUS
 62
     7
100
AcDbEllipse
 10
561.3064280290024
 20
79.49937843810655
 30
0.0
 11
-0.5979919082456036
 21
0.5999991634305673
 31
0.0
210
0.0
220
0.0
230
1.0
 40
0.0016755082423664
 41
4.714070111153879
 42
6.283185307179586
  0
LINE
  5
FA2
330
1F
100
AcDbEntity
  8
1
  6
CONTINUOUS
 62
     7
100
AcDbLine
 10
560.7084356104733
 20
80.09937841709593
 30
0.0
 11
560.7398751979472
 21
89.48138932030538
 31
0.0
  0
ARC
  5
FA3
330
1F
100
AcDbEntity
  8
1
  6
CONTINUOUS
 62
     7
100
AcDbCircle
 10
561.3398714551809
 20
89.47937843810656
 30
0.0
 40
0.6000000000000025
100
AcDbArc
 50
90.0
 51
179.8080000000002
  0
ARC
  5
FA4
330
1F
100
AcDbEntity
  8
1
  6
CONTINUOUS
 62
     7
100
AcDbCircle
 10
589.0105397523762
 20
89.47937843810656
 30
0.0
 40
0.6000000000000025
100
AcDbArc
 50
0.1919999999997519
 51
90.0
  0
LINE
  5
FA5
102
{ACAD_REACTORS
102
}
330
1F
100
AcDbEntity
  8
1
  6
CONTINUOUS
 62
     7
100
AcDbLine
 10
561.33987138474
 20
90.07937850694994
 30
0.0
 11
589.010539822817
 21
90.07937850694994
 31
0.0
  0
LINE
  5
FA6
102
{ACAD_REACTORS
102
}
330
1F
100
AcDbEntity
  8
1
  6
CONTINUOUS
 62
     7
100
AcDbLine
 10
589.6502829944493
 20
74.35937842385734
 30
0.0
 11
589.3882060279848
 21
74.35937842385734
 31
0.0
  0
LINE
  5
FA7
330
1F
100
AcDbEntity
  8
1
  6
CONTINUOUS
 62
     7
100
AcDbLine
 10
589.3882060279848
 20
74.35937842385734
 30
0.0
 11
589.3882060279848
 21
74.65937843810657
 31
0.0
  0
CIRCLE
  5
FA8
330
1F
100
AcDbEntity
  8
1
  6
CONTINUOUS
 62
     7
100
AcDbCircle
 10
549.7002056037785
 20
85.34937843810657
 30
0.0
 40
0.9499999999999886
  0
ARC
  5
FA9
330
1F
100
AcDbEntity
  8
1
  6
CONTINUOUS
 62
     7
100
AcDbCircle
 10
557.9002056037785
 20
87.99937843810655
 30
0.0
 40
0.5
100
AcDbArc
 50
0.0
 51
90.0
  0
LINE
  5
FAA
330
1F
100
AcDbEntity
  8
1
  6
CONTINUOUS
 62
     7
100
AcDbLine
 10
558.400204763353
 20
87.9993785012875
 30
0.0
 11
558.400204763353
 21
78.79937829714159
 31
0.0
  0
ARC
  5
FAB
330
1F
100
AcDbEntity
  8
1
  6
CONTINUOUS
 62
     7
100
AcDbCircle
 10
558.6002056037786
 20
78.79937843810656
 30
0.0
 40
0.2000000000000171
100
AcDbArc
 50
180.0000000000082
 51
270.0
  0
LINE
  5
FAC
330
1F
100
AcDbEntity
  8
1
  6
CONTINUOUS
 62
     7
100
AcDbLine
 10
558.6002062862517
 20
78.59937863688806
 30
0.0
 11
559.6402058234216
 21
78.59937863688806
 31
0.0
  0
LINE
  5
FAD
330
1F
100
AcDbEntity
  8
1
  6
CONTINUOUS
 62
     7
100
AcDbLine
 10
559.6402058234216
 20
74.79937844184583
 30
0.0
 11
555.3502052878739
 21
74.79937844184583
 31
0.0
  0
ARC
  5
FAE
330
1F
100
AcDbEntity
  8
1
  6
CONTINUOUS
 62
     7
100
AcDbCircle
 10
555.3502056037785
 20
74.59937843810657
 30
0.0
 40
0.1999999999999886
100
AcDbArc
 50
90.0
 51
180.0
  0
LINE
  5
FAF
330
1F
100
AcDbEntity
  8
1
  6
CONTINUOUS
 62
     7
100
AcDbLine
 10
555.1502056276204
 20
74.5993784396223
 30
0.0
 11
555.1502056276204
 21
70.57437829937676
 31
0.0
  0
ARC
  5
FB0
330
1F
100
AcDbEntity
  8
1
  6
CONTINUOUS
 62
     7
100
AcDbCircle
 10
554.6752056037785
 20
70.57437843810656
 30
0.0
 40
0.4750000000000085
100
AcDbArc
 50
180.0
 51
0.0
  0
LINE
  5
FB1
330
1F
100
AcDbEntity
  8
1
  6
CONTINUOUS
 62
     7
100
AcDbLine
 10
554.2002063100936
 20
70.57437829937676
 30
0.0
 11
554.2002063100936
 21
74.29937843264902
 31
0.0
  0
ARC
  5
FB2
330
1F
100
AcDbEntity
  8
1
  6
CONTINUOUS
 62
     7
100
AcDbCircle
 10
554.0002056037786
 20
74.29937843810656
 30
0.0
 40
0.2000000000000028
100
AcDbArc
 50
0.0
 51
90.0
  0
LINE
  5
FB3
330
1F
100
AcDbEntity
  8
1
  6
CONTINUOUS
 62
     7
100
AcDbLine
 10
554.0002047871949
 20
74.49937844214851
 30
0.0
 11
550.3502063309552
 21
74.49937844214851
 31
0.0
  0
ARC
  5
FB4
330
1F
100
AcDbEntity
  8
1
  6
CONTINUOUS
 62
     7
100
AcDbCircle
 10
550.3502056037785
 20
74.29937843810656
 30
0.0
 40
0.1999999999999886
100
AcDbArc
 50
90.0
 51
180.0
  0
LINE
  5
FB5
330
1F
100
AcDbEntity
  8
1
  6
CONTINUOUS
 62
     7
100
AcDbLine
 10
550.1502048080565
 20
74.29937843264902
 30
0.0
 11
550.1502048080565
 21
70.57437829937676
 31
0.0
  0
ARC
  5
FB6
330
1F
100
AcDbEntity
  8
1
  6
CONTINUOUS
 62
     7
100
AcDbCircle
 10
549.6752056037785
 20
70.57437843810656
 30
0.0
 40
0.4750000000000085
100
AcDbArc
 50
180.0
 51
0.0
  0
LINE
  5
FB7
330
1F
100
AcDbEntity
  8
1
  6
CONTINUOUS
 62
     7
100
AcDbLine
 10
549.2002054905297
 20
70.57437829937676
 30
0.0
 11
549.2002054905297
 21
78.89937859292964
 31
0.0
  0
ARC
  5
FB8
330
1F
100
AcDbEntity
  8
1
  6
CONTINUOUS
 62
     7
100
AcDbCircle
 10
549.7002056037785
 20
78.89937843810655
 30
0.0
 40
0.5
100
AcDbArc
 50
90.0
 51
180.0
  0
LINE
  5
FB9
330
1F
100
AcDbEntity
  8
1
  6
CONTINUOUS
 62
     7
100
AcDbLine
 10
549.7002065038087
 20
79.39937820922474
 30
0.0
 11
554.0002047871949
 21
79.39937820922474
 31
0.0
  0
ARC
  5
FBA
330
1F
100
AcDbEntity
  8
1
  6
CONTINUOUS
 62
     7
100
AcDbCircle
 10
554.0002056037786
 20
79.59937843810657
 30
0.0
 40
0.2000000000000171
100
AcDbArc
 50
270.0
 51
0.0
  0
LINE
  5
FBB
330
1F
100
AcDbEntity
  8
1
  6
CONTINUOUS
 62
     7
100
AcDbLine
 10
554.2002063100936
 20
79.59937833513955
 30
0.0
 11
554.2002063100936
 21
81.99937844913343
 31
0.0
  0
ARC
  5
FBC
330
1F
100
AcDbEntity
  8
1
  6
CONTINUOUS
 62
     7
100
AcDbCircle
 10
554.0002056037786
 20
81.99937843810655
 30
0.0
 40
0.2000000000000171
100
AcDbArc
 50
0.0
 51
90.0
  0
LINE
  5
FBD
102
{ACAD_REACTORS
102
}
330
1F
100
AcDbEntity
  8
1
  6
CONTINUOUS
 62
     7
100
AcDbLine
 10
554.0002047871949
 20
82.19937857504824
 30
0.0
 11
546.0002053385379
 21
82.19937857504824
 31
0.0
  0
LINE
  5
FBE
102
{ACAD_REACTORS
102
}
330
1F
100
AcDbEntity
  8
1
  6
CONTINUOUS
 62
     7
100
AcDbLine
 10
546.0002053385379
 20
88.49937858324388
 30
0.0
 11
546.0002053385379
 21
82.19937857504824
 31
0.0
  0
LINE
  5
FBF
330
1F
100
AcDbEntity
  8
1
  6
CONTINUOUS
 62
     7
100
AcDbLine
 10
546.0002053385379
 20
88.49937858324388
 30
0.0
 11
557.9002056127192
 21
88.49937858324388
 31
0.0
  0
LINE
  5
FC0
330
1F
100
AcDbEntity
  8
1
  6
CONTINUOUS
 62
     7
100
AcDbLine
 10
545.2002048348786
 20
82.9993786130462
 30
0.0
 11
545.2002048348786
 21
87.69937807958463
 31
0.0
  0
LINE
  5
FC1
330
1F
100
AcDbEntity
  8
1
  6
CONTINUOUS
 62
     7
100
AcDbLine
 10
546.0002053385379
 20
82.19937857504824
 30
0.0
 11
545.2002048348786
 21
82.9993786130462
 31
0.0
  0
LINE
  5
FC2
330
1F
100
AcDbEntity
  8
1
  6
CONTINUOUS
 62
     7
100
AcDbLine
 10
545.2002048348786
 20
87.69937807958463
 30
0.0
 11
546.0002053385379
 21
88.49937858324388
 31
0.0
  0
LINE
  5
FC3
330
1F
100
AcDbEntity
  8
1
  6
CONTINUOUS
 62
     7
100
AcDbLine
 10
560.2402057355048
 20
83.29937810342649
 30
0.0
 11
560.7191588585974
 21
83.29937810342649
 31
0.0
  0
ARC
  5
FC4
330
1F
100
AcDbEntity
  8
1
  6
CONTINUOUS
 62
     7
100
AcDbCircle
 10
560.2402056037786
 20
82.69937843810656
 30
0.0
 40
0.6000000000000085
100
AcDbArc
 50
90.0
 51
180.0
  0
LINE
  5
FC5
330
1F
100
AcDbEntity
  8
1
  6
CONTINUOUS
 62
     7
100
AcDbLine
 10
559.6402058234216
 20
79.49937850501279
 30
0.0
 11
559.6402058234216
 21
82.69937819134334
 31
0.0
  0
LINE
  5
FC6
330
1F
100
AcDbEntity
  8
1
  6
CONTINUOUS
 62
     7
100
AcDbLine
 10
586.868205465913
 20
70.19937847074011
 30
0.0
 11
587.4682053779961
 21
70.19937847074011
 31
0.0
  0
LINE
  5
FC7
330
1F
100
AcDbEntity
  8
1
  6
CONTINUOUS
 62
     7
100
AcDbLine
 10
587.4505726476909
 20
70.09937864061335
 30
0.0
 11
586.8858381962182
 21
70.09937864061335
 31
0.0
  0
LINE
  5
FC8
102
{ACAD_REACTORS
102
}
330
1F
100
AcDbEntity
  8
1
  6
CONTINUOUS
 62
     7
100
AcDbLine
 10
559.9402053138019
 20
74.35937842385734
 30
0.0
 11
559.6402058234216
 21
74.35937842385734
 31
0.0
  0
LINE
  5
FC9
330
1F
100
AcDbEntity
  8
1
  6
CONTINUOUS
 62
     7
100
AcDbLine
 10
559.9402053138019
 20
74.35937842385734
 30
0.0
 11
559.9402053138019
 21
74.65937843810657
 31
0.0
  0
LINE
  5
FCA
330
1F
100
AcDbEntity
  8
1
  6
CONTINUOUS
 62
     7
100
AcDbLine
 10
559.6402058234216
 20
74.65937843810657
 30
0.0
 11
559.6402058234216
 21
74.35937842385734
 31
0.0
  0
LINE
  5
FCC
330
1F
100
AcDbEntity
  8
1
  6
CONTINUOUS
 62
     7
100
AcDbLine
 10
555.1502056276204
 20
121.3765736461221
 30
0.0
 11
554.2002063100936
 21
121.3765736461221
 31
0.0
  0
LINE
  5
FCD
330
1F
100
AcDbEntity
  8
1
  6
CONTINUOUS
 62
     7
100
AcDbLine
 10
554.2002063100936
 20
121.3765736461221
 30
0.0
 11
554.2002063100936
 21
122.17657368412
 31
0.0
  0
LINE
  5
FCE
330
1F
100
AcDbEntity
  8
1
  6
CONTINUOUS
 62
     7
100
AcDbLine
 10
555.1502056276204
 20
122.17657368412
 30
0.0
 11
554.2002063100936
 21
122.17657368412
 31
0.0
  0
LINE
  5
FCF
330
1F
100
AcDbEntity
  8
1
  6
CONTINUOUS
 62
     7
100
AcDbLine
 10
555.1502056276204
 20
121.3765736461221
 30
0.0
 11
555.1502056276204
 21
122.17657368412
 31
0.0
  0
LINE
  5
FD0
330
1F
100
AcDbEntity
  8
1
  6
CONTINUOUS
 62
     7
100
AcDbLine
 10
555.1502056276204
 20
129.676573516482
 30
0.0
 11
554.2002063100936
 21
129.676573516482
 31
0.0
  0
LINE
  5
FD1
330
1F
100
AcDbEntity
  8
1
  6
CONTINUOUS
 62
     7
100
AcDbLine
 10
555.1502056276204
 20
128.876573478484
 30
0.0
 11
555.1502056276204
 21
129.676573516482
 31
0.0
  0
LINE
  5
FD2
330
1F
100
AcDbEntity
  8
1
  6
CONTINUOUS
 62
     7
100
AcDbLine
 10
554.2002063100936
 20
128.876573478484
 30
0.0
 11
555.1502056276204
 21
128.876573478484
 31
0.0
  0
LINE
  5
FD3
330
1F
100
AcDbEntity
  8
1
  6
CONTINUOUS
 62
     7
100
AcDbLine
 10
554.2002063100936
 20
128.876573478484
 30
0.0
 11
554.2002063100936
 21
129.676573516482
 31
0.0
  0
CIRCLE
  5
FD4
330
1F
100
AcDbEntity
  8
1
  6
CONTINUOUS
 62
     7
100
AcDbCircle
 10
587.1682056037785
 20
121.771573581302
 30
0.0
 40
0.2823673019291562
  0
CIRCLE
  5
FD5
330
1F
100
AcDbEntity
  8
1
  6
CONTINUOUS
 62
     7
100
AcDbCircle
 10
587.1682056037785
 20
129.281573581302
 30
0.0
 40
0.2823673019291562
  0
CIRCLE
  5
FD6
330
1F
100
AcDbEntity
  8
1
  6
CONTINUOUS
 62
     7
100
AcDbCircle
 10
587.1682056037785
 20
129.281573581302
 30
0.0
 40
0.2999999999999829
  0
CIRCLE
  5
FD7
330
1F
100
AcDbEntity
  8
1
  6
CONTINUOUS
 62
     7
100
AcDbCircle
 10
587.1682056037785
 20
121.771573581302
 30
0.0
 40
0.2999999999999829
  0
LINE
  5
FD8
330
1F
100
AcDbEntity
  8
1
  6
CONTINUOUS
 62
     7
100
AcDbLine
 10
550.1502048080565
 20
128.876573478484
 30
0.0
 11
550.1502048080565
 21
129.676573516482
 31
0.0
  0
LINE
  5
FD9
330
1F
100
AcDbEntity
  8
1
  6
CONTINUOUS
 62
     7
100
AcDbLine
 10
549.2002054905297
 20
128.876573478484
 30
0.0
 11
549.2002054905297
 21
129.676573516482
 31
0.0
  0
LINE
  5
FDA
330
1F
100
AcDbEntity
  8
1
  6
CONTINUOUS
 62
     7
100
AcDbLine
 10
549.2002054905297
 20
128.876573478484
 30
0.0
 11
550.1502048080565
 21
128.876573478484
 31
0.0
  0
LINE
  5
FDB
330
1F
100
AcDbEntity
  8
1
  6
CONTINUOUS
 62
     7
100
AcDbLine
 10
550.1502048080565
 20
129.676573516482
 30
0.0
 11
549.2002054905297
 21
129.676573516482
 31
0.0
  0
LINE
  5
FDC
330
1F
100
AcDbEntity
  8
1
  6
CONTINUOUS
 62
     7
100
AcDbLine
 10
549.2002054905297
 20
121.3765736461221
 30
0.0
 11
549.2002054905297
 21
122.17657368412
 31
0.0
  0
LINE
  5
FDD
330
1F
100
AcDbEntity
  8
1
  6
CONTINUOUS
 62
     7
100
AcDbLine
 10
550.1502048080565
 20
121.3765736461221
 30
0.0
 11
550.1502048080565
 21
122.17657368412
 31
0.0
  0
LINE
  5
FDE
330
1F
100
AcDbEntity
  8
1
  6
CONTINUOUS
 62
     7
100
AcDbLine
 10
550.1502048080565
 20
122.17657368412
 30
0.0
 11
549.2002054905297
 21
122.17657368412
 31
0.0
  0
LINE
  5
FDF
330
1F
100
AcDbEntity
  8
1
  6
CONTINUOUS
 62
     7
100
AcDbLine
 10
550.1502048080565
 20
121.3765736461221
 30
0.0
 11
549.2002054905297
 21
121.3765736461221
 31
0.0
  0
LINE
  5
FE0
330
1F
100
AcDbEntity
  8
1
  6
CONTINUOUS
 62
     7
100
AcDbLine
 10
554.2002063100936
 20
122.17657368412
 30
0.0
 11
554.0002047871949
 21
122.17657368412
 31
0.0
  0
LINE
  5
FE1
330
1F
100
AcDbEntity
  8
1
  6
CONTINUOUS
 62
     7
100
AcDbLine
 10
554.2002063100936
 20
121.3765736461221
 30
0.0
 11
554.0002047871949
 21
121.3765736461221
 31
0.0
  0
LINE
  5
FE2
330
1F
100
AcDbEntity
  8
1
  6
CONTINUOUS
 62
     7
100
AcDbLine
 10
554.0002047871949
 20
128.876573478484
 30
0.0
 11
554.2002063100936
 21
128.876573478484
 31
0.0
  0
LINE
  5
FE3
330
1F
100
AcDbEntity
  8
1
  6
CONTINUOUS
 62
     7
100
AcDbLine
 10
554.2002063100936
 20
129.676573516482
 30
0.0
 11
554.0002047871949
 21
129.676573516482
 31
0.0
  0
LINE
  5
FE4
330
1F
100
AcDbEntity
  8
1
  6
CONTINUOUS
 62
     7
100
AcDbLine
 10
550.1502048080565
 20
128.876573478484
 30
0.0
 11
550.3502063309552
 21
128.876573478484
 31
0.0
  0
LINE
  5
FE5
330
1F
100
AcDbEntity
  8
1
  6
CONTINUOUS
 62
     7
100
AcDbLine
 10
550.3502063309552
 20
129.676573516482
 30
0.0
 11
550.1502048080565
 21
129.676573516482
 31
0.0
  0
LINE
  5
FE6
330
1F
100
AcDbEntity
  8
1
  6
CONTINUOUS
 62
     7
100
AcDbLine
 10
550.3502063309552
 20
122.17657368412
 30
0.0
 11
550.1502048080565
 21
122.17657368412
 31
0.0
  0
LINE
  5
FE7
330
1F
100
AcDbEntity
  8
1
  6
CONTINUOUS
 62
     7
100
AcDbLine
 10
550.3502063309552
 20
121.3765736461221
 30
0.0
 11
550.1502048080565
 21
121.3765736461221
 31
0.0
  0
LINE
  5
FE8
330
1F
100
AcDbEntity
  8
1
  6
CONTINUOUS
 62
     7
100
AcDbLine
 10
559.6402058234216
 20
124.5265735338046
 30
0.0
 11
559.9402053138019
 21
124.5265735338046
 31
0.0
  0
LINE
  5
FE9
330
1F
100
AcDbEntity
  8
1
  6
CONTINUOUS
 62
     7
100
AcDbLine
 10
559.6402058234216
 20
126.5265736287995
 30
0.0
 11
559.6402058234216
 21
124.5265735338046
 31
0.0
  0
LINE
  5
FEA
330
1F
100
AcDbEntity
  8
1
  6
CONTINUOUS
 62
     7
100
AcDbLine
 10
559.9402053138019
 20
126.5265736287995
 30
0.0
 11
559.6402058234216
 21
126.5265736287995
 31
0.0
  0
LINE
  5
FEB
330
1F
100
AcDbEntity
  8
1
  6
CONTINUOUS
 62
     7
100
AcDbLine
 10
559.9402053138019
 20
126.5265736287995
 30
0.0
 11
559.9402053138019
 21
124.5265735338046
 31
0.0
  0
LINE
  5
FEC
330
1F
100
AcDbEntity
  8
1
  6
CONTINUOUS
 62
     7
100
AcDbLine
 10
589.3882060279848
 20
129.6265736014186
 30
0.0
 11
589.3882060279848
 21
131.2815733977197
 31
0.0
  0
LINE
  5
FED
330
1F
100
AcDbEntity
  8
1
  6
CONTINUOUS
 62
     7
100
AcDbLine
 10
589.6602053051593
 20
129.6265736014186
 30
0.0
 11
589.6602053051593
 21
131.2023006171523
 31
0.0
  0
ARC
  5
FEE
330
1F
100
AcDbEntity
  8
1
  6
CONTINUOUS
 62
     7
100
AcDbCircle
 10
589.06120754835
 20
131.1675755258735
 30
0.0
 40
0.6000046256135654
100
AcDbArc
 50
3.317845250254499
 51
10.95250958019536
  0
LINE
  5
FEF
330
1F
100
AcDbEntity
  8
1
  6
CONTINUOUS
 62
     7
100
AcDbLine
 10
589.3882060279848
 20
129.6265736014186
 30
0.0
 11
589.6602053051593
 21
129.6265736014186
 31
0.0
  0
LINE
  5
FF0
330
1F
100
AcDbEntity
  8
1
  6
CONTINUOUS
 62
     7
100
AcDbLine
 10
589.6502829944493
 20
131.2815733977197
 30
0.0
 11
589.3882060279848
 21
131.2815733977197
 31
0.0
  0
LINE
  5
FF1
330
1F
100
AcDbEntity
  8
1
  6
CONTINUOUS
 62
     7
100
AcDbLine
 10
589.6602053051593
 20
121.4265735611854
 30
0.0
 11
589.3882060279848
 21
121.4265735611854
 31
0.0
  0
ARC
  5
FF2
330
1F
100
AcDbEntity
  8
1
  6
CONTINUOUS
 62
     7
100
AcDbCircle
 10
589.06120754835
 20
119.8855716367306
 30
0.0
 40
0.6000046256135599
100
AcDbArc
 50
349.0474904198073
 51
356.6821547497482
  0
LINE
  5
FF3
330
1F
100
AcDbEntity
  8
1
  6
CONTINUOUS
 62
     7
100
AcDbLine
 10
589.6602053051593
 20
119.8508465454517
 30
0.0
 11
589.6602053051593
 21
121.4265735611854
 31
0.0
  0
LINE
  5
FF4
330
1F
100
AcDbEntity
  8
1
  6
CONTINUOUS
 62
     7
100
AcDbLine
 10
589.3882060279848
 20
119.7715737648843
 30
0.0
 11
589.3882060279848
 21
121.4265735611854
 31
0.0
  0
LINE
  5
FF5
330
1F
100
AcDbEntity
  8
1
  6
CONTINUOUS
 62
     7
100
AcDbLine
 10
589.3882060279848
 20
119.7715737648843
 30
0.0
 11
589.6502829944493
 21
119.7715737648843
 31
0.0
  0
LINE
  5
FF6
330
1F
100
AcDbEntity
  8
1
  6
CONTINUOUS
 62
     7
100
AcDbLine
 10
550.3502063309552
 20
128.876573478484
 30
0.0
 11
554.0002047871949
 21
128.876573478484
 31
0.0
  0
LINE
  5
FF7
330
1F
100
AcDbEntity
  8
1
  6
CONTINUOUS
 62
     7
100
AcDbLine
 10
554.0002047871949
 20
129.676573516482
 30
0.0
 11
550.3502063309552
 21
129.676573516482
 31
0.0
  0
LINE
  5
FF8
330
1F
100
AcDbEntity
  8
1
  6
CONTINUOUS
 62
     7
100
AcDbLine
 10
554.0002047871949
 20
122.17657368412
 30
0.0
 11
550.3502063309552
 21
122.17657368412
 31
0.0
  0
LINE
  5
FF9
330
1F
100
AcDbEntity
  8
1
  6
CONTINUOUS
 62
     7
100
AcDbLine
 10
554.0002047871949
 20
121.3765736461221
 30
0.0
 11
550.3502063309552
 21
121.3765736461221
 31
0.0
  0
LINE
  5
FFA
330
1F
100
AcDbEntity
  8
1
  6
CONTINUOUS
 62
     7
100
AcDbLine
 10
555.1502056276204
 20
128.876573478484
 30
0.0
 11
555.3502052878739
 21
128.876573478484
 31
0.0
  0
LINE
  5
FFB
330
1F
100
AcDbEntity
  8
1
  6
CONTINUOUS
 62
     7
100
AcDbLine
 10
555.3502052878739
 20
129.676573516482
 30
0.0
 11
555.1502056276204
 21
129.676573516482
 31
0.0
  0
LINE
  5
FFC
330
1F
100
AcDbEntity
  8
1
  6
CONTINUOUS
 62
     7
100
AcDbLine
 10
555.3502052878739
 20
122.17657368412
 30
0.0
 11
555.1502056276204
 21
122.17657368412
 31
0.0
  0
LINE
  5
FFD
330
1F
100
AcDbEntity
  8
1
  6
CONTINUOUS
 62
     7
100
AcDbLine
 10
555.3502052878739
 20
121.3765736461221
 30
0.0
 11
555.1502056276204
 21
121.3765736461221
 31
0.0
  0
LINE
  5
FFE
330
1F
100
AcDbEntity
  8
1
  6
CONTINUOUS
 62
     7
100
AcDbLine
 10
560.140205905378
 20
128.9015736688463
 30
0.0
 11
560.0902059903146
 21
128.9015736688463
 31
0.0
  0
LINE
  5
FFF
330
1F
100
AcDbEntity
  8
1
  6
CONTINUOUS
 62
     7
100
AcDbLine
 10
560.140205905378
 20
128.9015736688463
 30
0.0
 11
560.140205905378
 21
128.873211171159
 31
0.0
  0
LINE
  5
1000
330
1F
100
AcDbEntity
  8
1
  6
CONTINUOUS
 62
     7
100
AcDbLine
 10
559.9402053138019
 20
128.8714658726542
 30
0.0
 11
560.140205905378
 21
128.873211171159
 31
0.0
  0
LINE
  5
1001
330
1F
100
AcDbEntity
  8
1
  6
CONTINUOUS
 62
     7
100
AcDbLine
 10
559.9402053138019
 20
128.8671023935615
 30
0.0
 11
559.6402058234216
 21
128.8671023935615
 31
0.0
  0
LINE
  5
1002
330
1F
100
AcDbEntity
  8
1
  6
CONTINUOUS
 62
     7
100
AcDbLine
 10
559.6402058234216
 20
128.876573478484
 30
0.0
 11
559.6402058234216
 21
128.8671023935615
 31
0.0
  0
LINE
  5
1003
330
1F
100
AcDbEntity
  8
1
  6
CONTINUOUS
 62
     7
100
AcDbLine
 10
559.9402053138019
 20
128.8671023935615
 30
0.0
 11
559.9402053138019
 21
128.8714658726542
 31
0.0
  0
LINE
  5
1004
330
1F
100
AcDbEntity
  8
1
  6
CONTINUOUS
 62
     7
100
AcDbLine
 10
559.9402053138019
 20
122.1860447690426
 30
0.0
 11
559.6402058234216
 21
122.1860447690426
 31
0.0
  0
LINE
  5
1005
330
1F
100
AcDbEntity
  8
1
  6
CONTINUOUS
 62
     7
100
AcDbLine
 10
559.6402058234216
 20
122.1860447690426
 30
0.0
 11
559.6402058234216
 21
124.5265735338046
 31
0.0
  0
LINE
  5
1006
330
1F
100
AcDbEntity
  8
1
  6
CONTINUOUS
 62
     7
100
AcDbLine
 10
559.9402053138019
 20
122.1860447690426
 30
0.0
 11
559.9402053138019
 21
124.5265735338046
 31
0.0
  0
LINE
  5
1007
330
1F
100
AcDbEntity
  8
1
  6
CONTINUOUS
 62
     7
100
AcDbLine
 10
560.140205905378
 20
122.179935991445
 30
0.0
 11
559.9402053138019
 21
122.1816812899499
 31
0.0
  0
LINE
  5
1008
330
1F
100
AcDbEntity
  8
1
  6
CONTINUOUS
 62
     7
100
AcDbLine
 10
560.140205905378
 20
122.1515734937577
 30
0.0
 11
560.140205905378
 21
122.179935991445
 31
0.0
  0
LINE
  5
1009
330
1F
100
AcDbEntity
  8
1
  6
CONTINUOUS
 62
     7
100
AcDbLine
 10
560.140205905378
 20
122.1515734937577
 30
0.0
 11
560.0902059903146
 21
122.1515734937577
 31
0.0
  0
LINE
  5
100A
330
1F
100
AcDbEntity
  8
1
  6
CONTINUOUS
 62
     7
100
AcDbLine
 10
559.6402058234216
 20
122.17657368412
 30
0.0
 11
559.6402058234216
 21
122.1860447690426
 31
0.0
  0
LINE
  5
100B
330
1F
100
AcDbEntity
  8
1
  6
CONTINUOUS
 62
     7
100
AcDbLine
 10
559.9402053138019
 20
122.1860447690426
 30
0.0
 11
559.9402053138019
 21
122.1816812899499
 31
0.0
  0
LINE
  5
100C
330
1F
100
AcDbEntity
  8
1
  6
CONTINUOUS
 62
     7
100
AcDbLine
 10
559.9402053138019
 20
121.3671025611995
 30
0.0
 11
559.6402058234216
 21
121.3671025611995
 31
0.0
  0
LINE
  5
100D
330
1F
100
AcDbEntity
  8
1
  6
CONTINUOUS
 62
     7
100
AcDbLine
 10
559.9402053138019
 20
119.7715737648843
 30
0.0
 11
559.9402053138019
 21
121.3671025611995
 31
0.0
  0
ARC
  5
100E
330
1F
100
AcDbEntity
  8
1
  6
CONTINUOUS
 62
     7
100
AcDbCircle
 10
560.1402056037786
 20
119.771573581302
 30
0.0
 40
0.2000000000000171
100
AcDbArc
 50
180.0
 51
270.0
  0
ARC
  5
100F
330
1F
100
AcDbEntity
  8
1
  6
CONTINUOUS
 62
     7
100
AcDbCircle
 10
589.1882056037786
 20
119.771573581302
 30
0.0
 40
0.2000000000000171
100
AcDbArc
 50
270.0
 51
0.0
  0
ARC
  5
1010
330
1F
100
AcDbEntity
  8
1
  6
CONTINUOUS
 62
     7
100
AcDbCircle
 10
560.2402056037786
 20
119.8865769501427
 30
0.0
 40
0.6000033688407029
100
AcDbArc
 50
180.0
 51
270.0
  0
LINE
  5
1011
330
1F
100
AcDbEntity
  8
1
  6
CONTINUOUS
 62
     7
100
AcDbLine
 10
560.140205905378
 20
119.5715736389695
 30
0.0
 11
589.1882054364087
 21
119.5715736389695
 31
0.0
  0
LINE
  5
1012
330
1F
100
AcDbEntity
  8
1
  6
CONTINUOUS
 62
     7
100
AcDbLine
 10
589.0602091183664
 20
119.2865735643147
 30
0.0
 11
560.2402057355048
 21
119.2865735643147
 31
0.0
  0
ARC
  5
1013
330
1F
100
AcDbEntity
  8
1
  6
CONTINUOUS
 62
     7
100
AcDbCircle
 10
589.0602022349378
 20
119.8865769501427
 30
0.0
 40
0.6000046362763575
100
AcDbArc
 50
270.0006433957702
 51
348.9496937247567
  0
LINE
  5
1014
330
1F
100
AcDbEntity
  8
1
  6
CONTINUOUS
 62
     7
100
AcDbLine
 10
559.6402058234216
 20
119.8865767360269
 30
0.0
 11
559.6402058234216
 21
121.3671025611995
 31
0.0
  0
LINE
  5
1015
330
1F
100
AcDbEntity
  8
1
  6
CONTINUOUS
 62
     7
100
AcDbLine
 10
560.140205905378
 20
121.4015736036538
 30
0.0
 11
560.0902059903146
 21
121.4015736036538
 31
0.0
  0
LINE
  5
1016
330
1F
100
AcDbEntity
  8
1
  6
CONTINUOUS
 62
     7
100
AcDbLine
 10
560.140205905378
 20
121.4015736036538
 30
0.0
 11
560.140205905378
 21
121.3732111059664
 31
0.0
  0
LINE
  5
1017
330
1F
100
AcDbEntity
  8
1
  6
CONTINUOUS
 62
     7
100
AcDbLine
 10
559.9402053138019
 20
121.3714658074616
 30
0.0
 11
560.140205905378
 21
121.3732111059664
 31
0.0
  0
LINE
  5
1018
330
1F
100
AcDbEntity
  8
1
  6
CONTINUOUS
 62
     7
100
AcDbLine
 10
559.9402053138019
 20
121.3714658074616
 30
0.0
 11
559.9402053138019
 21
121.3671025611995
 31
0.0
  0
LINE
  5
1019
330
1F
100
AcDbEntity
  8
1
  6
CONTINUOUS
 62
     7
100
AcDbLine
 10
559.6402058234216
 20
121.3671025611995
 30
0.0
 11
559.6402058234216
 21
121.3765736461221
 31
0.0
  0
ARC
  5
101A
330
1F
100
AcDbEntity
  8
1
  6
CONTINUOUS
 62
     7
100
AcDbCircle
 10
560.2402056037786
 20
131.1665702124613
 30
0.0
 40
0.6000033688407314
100
AcDbArc
 50
90.0
 51
180.0
  0
LINE
  5
101B
330
1F
100
AcDbEntity
  8
1
  6
CONTINUOUS
 62
     7
100
AcDbLine
 10
589.6602053051593
 20
129.6265736014186
 30
0.0
 11
589.6602053051593
 21
121.4265735611854
 31
0.0
  0
LINE
  5
101C
330
1F
100
AcDbEntity
  8
1
  6
CONTINUOUS
 62
     7
100
AcDbLine
 10
589.3882060279848
 20
121.4265735611854
 30
0.0
 11
589.3882060279848
 21
129.6265736014186
 31
0.0
  0
LINE
  5
101D
330
1F
100
AcDbEntity
  8
1
  6
CONTINUOUS
 62
     7
100
AcDbLine
 10
559.6402058234216
 20
128.8671023935615
 30
0.0
 11
559.6402058234216
 21
126.5265736287995
 31
0.0
  0
LINE
  5
101E
330
1F
100
AcDbEntity
  8
1
  6
CONTINUOUS
 62
     7
100
AcDbLine
 10
559.9402053138019
 20
126.5265736287995
 30
0.0
 11
559.9402053138019
 21
128.8671023935615
 31
0.0
  0
LINE
  5
101F
330
1F
100
AcDbEntity
  8
1
  6
CONTINUOUS
 62
     7
100
AcDbLine
 10
559.9402053138019
 20
129.6860446014045
 30
0.0
 11
559.6402058234216
 21
129.6860446014045
 31
0.0
  0
LINE
  5
1020
330
1F
100
AcDbEntity
  8
1
  6
CONTINUOUS
 62
     7
100
AcDbLine
 10
559.9402053138019
 20
129.6816813551424
 30
0.0
 11
559.9402053138019
 21
129.6860446014045
 31
0.0
  0
LINE
  5
1021
330
1F
100
AcDbEntity
  8
1
  6
CONTINUOUS
 62
     7
100
AcDbLine
 10
560.140205905378
 20
129.6799360566376
 30
0.0
 11
559.9402053138019
 21
129.6816813551424
 31
0.0
  0
LINE
  5
1022
330
1F
100
AcDbEntity
  8
1
  6
CONTINUOUS
 62
     7
100
AcDbLine
 10
560.140205905378
 20
129.6515735589503
 30
0.0
 11
560.140205905378
 21
129.6799360566376
 31
0.0
  0
LINE
  5
1023
330
1F
100
AcDbEntity
  8
1
  6
CONTINUOUS
 62
     7
100
AcDbLine
 10
560.140205905378
 20
129.6515735589503
 30
0.0
 11
560.0902059903146
 21
129.6515735589503
 31
0.0
  0
LINE
  5
1024
330
1F
100
AcDbEntity
  8
1
  6
CONTINUOUS
 62
     7
100
AcDbLine
 10
559.6402058234216
 20
129.6860446014045
 30
0.0
 11
559.6402058234216
 21
129.676573516482
 31
0.0
  0
ARC
  5
1025
330
1F
100
AcDbEntity
  8
1
  6
CONTINUOUS
 62
     7
100
AcDbCircle
 10
589.1882056037786
 20
131.281573581302
 30
0.0
 40
0.2000000000000028
100
AcDbArc
 50
0.0
 51
90.0
  0
LINE
  5
1026
330
1F
100
AcDbEntity
  8
1
  6
CONTINUOUS
 62
     7
100
AcDbLine
 10
559.9402053138019
 20
129.6860446014045
 30
0.0
 11
559.9402053138019
 21
131.2815733977197
 31
0.0
  0
LINE
  5
1027
330
1F
100
AcDbEntity
  8
1
  6
CONTINUOUS
 62
     7
100
AcDbLine
 10
560.2402057355048
 20
131.7665735982893
 30
0.0
 11
589.0602091183664
 21
131.7665735982893
 31
0.0
  0
ARC
  5
1028
330
1F
100
AcDbEntity
  8
1
  6
CONTINUOUS
 62
     7
100
AcDbCircle
 10
560.1402056037786
 20
131.281573581302
 30
0.0
 40
0.2000000000000028
100
AcDbArc
 50
90.0
 51
180.0
  0
LINE
  5
1029
330
1F
100
AcDbEntity
  8
1
  6
CONTINUOUS
 62
     7
100
AcDbLine
 10
589.1882054364087
 20
131.4815735236345
 30
0.0
 11
560.140205905378
 21
131.4815735236345
 31
0.0
  0
ARC
  5
102A
330
1F
100
AcDbEntity
  8
1
  6
CONTINUOUS
 62
     7
100
AcDbCircle
 10
589.0602022349378
 20
131.1665702124613
 30
0.0
 40
0.600004636276363
100
AcDbArc
 50
11.05030627524602
 51
89.9993566042406
  0
LINE
  5
102B
330
1F
100
AcDbEntity
  8
1
  6
CONTINUOUS
 62
     7
100
AcDbLine
 10
559.6402058234216
 20
131.1665704265772
 30
0.0
 11
559.6402058234216
 21
129.6860446014045
 31
0.0
  0
LINE
  5
102C
330
1F
100
AcDbEntity
  8
1
  6
CONTINUOUS
 62
     7
100
AcDbLine
 10
555.3502052878739
 20
128.876573478484
 30
0.0
 11
559.8902053987385
 21
128.876573478484
 31
0.0
  0
LINE
  5
102D
330
1F
100
AcDbEntity
  8
1
  6
CONTINUOUS
 62
     7
100
AcDbLine
 10
559.8902053987385
 20
129.676573516482
 30
0.0
 11
555.3502052878739
 21
129.676573516482
 31
0.0
  0
LINE
  5
102E
330
1F
100
AcDbEntity
  8
1
  6
CONTINUOUS
 62
     7
100
AcDbLine
 10
559.8902053987385
 20
122.17657368412
 30
0.0
 11
555.3502052878739
 21
122.17657368412
 31
0.0
  0
LINE
  5
102F
330
1F
100
AcDbEntity
  8
1
  6
CONTINUOUS
 62
     7
100
AcDbLine
 10
559.8902053987385
 20
121.3765736461221
 30
0.0
 11
555.3502052878739
 21
121.3765736461221
 31
0.0
  0
LINE
  5
1030
330
1F
100
AcDbEntity
  8
1
  6
CONTINUOUS
 62
     7
100
AcDbLine
 10
578.7802055800112
 20
126.3265735610923
 30
0.0
 11
574.5802056133525
 21
126.3265735610923
 31
0.0
  0
LINE
  5
1031
330
1F
100
AcDbEntity
  8
1
  6
CONTINUOUS
 62
     7
100
AcDbLine
 10
574.5802056133525
 20
126.3265735610923
 30
0.0
 11
574.5802056133525
 21
124.7265736015117
 31
0.0
  0
LINE
  5
1032
330
1F
100
AcDbEntity
  8
1
  6
CONTINUOUS
 62
     7
100
AcDbLine
 10
560.2802060400845
 20
130.1765735984384
 30
0.0
 11
560.2802060400845
 21
120.8765735641657
 31
0.0
  0
LINE
  5
1033
330
1F
100
AcDbEntity
  8
1
  6
CONTINUOUS
 62
     7
100
AcDbLine
 10
574.5802056133525
 20
124.7265736015117
 30
0.0
 11
578.7802055800112
 21
124.7265736015117
 31
0.0
  0
LINE
  5
1034
330
1F
100
AcDbEntity
  8
1
  6
CONTINUOUS
 62
     7
100
AcDbLine
 10
578.7802055800112
 20
124.7265736015117
 30
0.0
 11
578.7802055800112
 21
126.3265735610923
 31
0.0
  0
LINE
  5
1035
330
1F
100
AcDbEntity
  8
1
  6
CONTINUOUS
 62
     7
100
AcDbLine
 10
586.1682057237031
 20
130.1765735984384
 30
0.0
 11
560.2802060400845
 21
130.1765735984384
 31
0.0
  0
LINE
  5
1036
330
1F
100
AcDbEntity
  8
1
  6
CONTINUOUS
 62
     7
100
AcDbLine
 10
587.5482059871556
 20
128.2765735664009
 30
0.0
 11
586.1682057237031
 21
128.2765735664009
 31
0.0
  0
LINE
  5
1037
330
1F
100
AcDbEntity
  8
1
  6
CONTINUOUS
 62
     7
100
AcDbLine
 10
586.1682057237031
 20
120.8765735641657
 30
0.0
 11
586.1682057237031
 21
122.7765735962032
 31
0.0
  0
LINE
  5
1038
330
1F
100
AcDbEntity
  8
1
  6
CONTINUOUS
 62
     7
100
AcDbLine
 10
586.1682057237031
 20
128.2765735664009
 30
0.0
 11
586.1682057237031
 21
130.1765735984384
 31
0.0
  0
LINE
  5
1039
330
1F
100
AcDbEntity
  8
1
  6
CONTINUOUS
 62
     7
100
AcDbLine
 10
560.2802060400845
 20
120.8765735641657
 30
0.0
 11
586.1682057237031
 21
120.8765735641657
 31
0.0
  0
LINE
  5
103A
330
1F
100
AcDbEntity
  8
1
  6
CONTINUOUS
 62
     7
100
AcDbLine
 10
586.1682057237031
 20
122.7765735962032
 30
0.0
 11
587.5482059871556
 21
122.7765735962032
 31
0.0
  0
LINE
  5
103B
330
1F
100
AcDbEntity
  8
1
  6
CONTINUOUS
 62
     7
100
AcDbLine
 10
587.5482059871556
 20
122.7765735962032
 30
0.0
 11
587.5482059871556
 21
128.2765735664009
 31
0.0
  0
LINE
  5
103C
330
1F
100
AcDbEntity
  8
1
  6
CONTINUOUS
 62
     7
100
AcDbLine
 10
560.0902059903146
 20
122.17657368412
 30
0.0
 11
560.0902059903146
 21
121.3765736461221
 31
0.0
  0
LINE
  5
103D
330
1F
100
AcDbEntity
  8
1
  6
CONTINUOUS
 62
     7
100
AcDbLine
 10
559.8902053987385
 20
122.17657368412
 30
0.0
 11
560.0902059903146
 21
122.17657368412
 31
0.0
  0
LINE
  5
103E
330
1F
100
AcDbEntity
  8
1
  6
CONTINUOUS
 62
     7
100
AcDbLine
 10
560.0902059903146
 20
121.3765736461221
 30
0.0
 11
559.8902053987385
 21
121.3765736461221
 31
0.0
  0
LINE
  5
103F
330
1F
100
AcDbEntity
  8
1
  6
CONTINUOUS
 62
     7
100
AcDbLine
 10
560.0902059903146
 20
129.676573516482
 30
0.0
 11
560.0902059903146
 21
128.876573478484
 31
0.0
  0
LINE
  5
1040
330
1F
100
AcDbEntity
  8
1
  6
CONTINUOUS
 62
     7
100
AcDbLine
 10
560.0902059903146
 20
128.876573478484
 30
0.0
 11
559.8902053987385
 21
128.876573478484
 31
0.0
  0
LINE
  5
1041
330
1F
100
AcDbEntity
  8
1
  6
CONTINUOUS
 62
     7
100
AcDbLine
 10
559.8902053987385
 20
129.676573516482
 30
0.0
 11
560.0902059903146
 21
129.676573516482
 31
0.0
  0
LINE
  5
1042
330
1F
100
AcDbEntity
  8
1
  6
CONTINUOUS
 62
     7
100
AcDbLine
 10
559.9976176252367
 20
131.4218189359246
 30
0.0
 11
560.140205905378
 21
131.2792306557833
 31
0.0
  0
LINE
  5
1043
330
1F
100
AcDbEntity
  8
1
  6
CONTINUOUS
 62
     7
100
AcDbLine
 10
589.329626769364
 20
131.4229947306751
 30
0.0
 11
589.1858631601335
 21
131.2792306557833
 31
0.0
  0
LINE
  5
1044
330
1F
100
AcDbEntity
  8
1
  6
CONTINUOUS
 62
     7
100
AcDbLine
 10
589.1858631601335
 20
131.2792306557833
 30
0.0
 11
589.1482060631515
 21
131.2792306557833
 31
0.0
  0
LINE
  5
1045
330
1F
100
AcDbEntity
  8
1
  6
CONTINUOUS
 62
     7
100
AcDbLine
 10
560.140205905378
 20
131.2792306557833
 30
0.0
 11
560.1802052786352
 21
131.2792306557833
 31
0.0
  0
LINE
  5
1046
330
1F
100
AcDbEntity
  8
1
  6
CONTINUOUS
 62
     7
100
AcDbLine
 10
589.1482060631515
 20
119.7739165068208
 30
0.0
 11
589.1858631601335
 21
119.7739165068208
 31
0.0
  0
LINE
  5
1047
330
1F
100
AcDbEntity
  8
1
  6
CONTINUOUS
 62
     7
100
AcDbLine
 10
589.329626769364
 20
119.630152431929
 30
0.0
 11
589.1858631601335
 21
119.7739165068208
 31
0.0
  0
LINE
  5
1048
330
1F
100
AcDbEntity
  8
1
  6
CONTINUOUS
 62
     7
100
AcDbLine
 10
560.140205905378
 20
119.7739165068208
 30
0.0
 11
559.9976176252367
 21
119.6313282266794
 31
0.0
  0
LINE
  5
1049
330
1F
100
AcDbEntity
  8
1
  6
CONTINUOUS
 62
     7
100
AcDbLine
 10
560.1802052786352
 20
119.7739165068208
 30
0.0
 11
560.140205905378
 21
119.7739165068208
 31
0.0
  0
LINE
  5
104A
330
1F
100
AcDbEntity
  8
1
  6
CONTINUOUS
 62
     7
100
AcDbLine
 10
589.1858631601335
 20
119.7739165068208
 30
0.0
 11
589.1858631601335
 21
131.2792306557833
 31
0.0
  0
LINE
  5
104B
330
1F
100
AcDbEntity
  8
1
  6
CONTINUOUS
 62
     7
100
AcDbLine
 10
560.140205905378
 20
128.873211171159
 30
0.0
 11
560.140205905378
 21
122.179935991445
 31
0.0
  0
LINE
  5
104C
330
1F
100
AcDbEntity
  8
1
  6
CONTINUOUS
 62
     7
100
AcDbLine
 10
560.140205905378
 20
121.3732111059664
 30
0.0
 11
560.140205905378
 21
119.7739165068208
 31
0.0
  0
LINE
  5
104D
330
1F
100
AcDbEntity
  8
1
  6
CONTINUOUS
 62
     7
100
AcDbLine
 10
560.140205905378
 20
131.2792306557833
 30
0.0
 11
560.140205905378
 21
129.6799360566376
 31
0.0
  0
LINE
  5
104E
330
1F
100
AcDbEntity
  8
1
  6
CONTINUOUS
 62
     7
100
AcDbLine
 10
560.1802052786352
 20
119.7715737648843
 30
0.0
 11
589.1482060631515
 21
119.7715737648843
 31
0.0
  0
LINE
  5
104F
330
1F
100
AcDbEntity
  8
1
  6
CONTINUOUS
 62
     7
100
AcDbLine
 10
560.1802052786352
 20
131.2815733977197
 30
0.0
 11
560.1802052786352
 21
119.7715737648843
 31
0.0
  0
LINE
  5
1050
330
1F
100
AcDbEntity
  8
1
  6
CONTINUOUS
 62
     7
100
AcDbLine
 10
589.1482060631515
 20
131.2815733977197
 30
0.0
 11
560.1802052786352
 21
131.2815733977197
 31
0.0
  0
LINE
  5
1051
330
1F
100
AcDbEntity
  8
1
  6
CONTINUOUS
 62
     7
100
AcDbLine
 10
589.1482060631515
 20
119.7715737648843
 30
0.0
 11
589.1482060631515
 21
131.2815733977197
 31
0.0
  0
LINE
  5
1052
330
1F
100
AcDbEntity
  8
1
  6
CONTINUOUS
 62
     7
100
AcDbLine
 10
588.1682060515286
 20
120.766573657894
 30
0.0
 11
586.1682057237031
 21
120.766573657894
 31
0.0
  0
LINE
  5
1053
330
1F
100
AcDbEntity
  8
1
  6
CONTINUOUS
 62
     7
100
AcDbLine
 10
588.1682060515286
 20
120.766573657894
 30
0.0
 11
588.1682060515286
 21
122.7765735962032
 31
0.0
  0
LINE
  5
1054
330
1F
100
AcDbEntity
  8
1
  6
CONTINUOUS
 62
     7
100
AcDbLine
 10
588.1682060515286
 20
122.7765735962032
 30
0.0
 11
587.5482059871556
 21
122.7765735962032
 31
0.0
  0
LINE
  5
1055
330
1F
100
AcDbEntity
  8
1
  6
CONTINUOUS
 62
     7
100
AcDbLine
 10
588.1682060515286
 20
128.2765735664009
 30
0.0
 11
587.5482059871556
 21
128.2765735664009
 31
0.0
  0
LINE
  5
1056
330
1F
100
AcDbEntity
  8
1
  6
CONTINUOUS
 62
     7
100
AcDbLine
 10
588.1682060515286
 20
130.28657350471
 30
0.0
 11
588.1682060515286
 21
128.2765735664009
 31
0.0
  0
LINE
  5
1057
330
1F
100
AcDbEntity
  8
1
  6
CONTINUOUS
 62
     7
100
AcDbLine
 10
588.1682060515286
 20
130.28657350471
 30
0.0
 11
586.1682057237031
 21
130.28657350471
 31
0.0
  0
LINE
  5
1058
330
1F
100
AcDbEntity
  8
1
  6
CONTINUOUS
 62
     7
100
AcDbLine
 10
586.1682057237031
 20
130.28657350471
 30
0.0
 11
586.1682057237031
 21
130.1765735984384
 31
0.0
  0
LINE
  5
1059
330
1F
100
AcDbEntity
  8
1
  6
CONTINUOUS
 62
     7
100
AcDbLine
 10
586.1682057237031
 20
120.766573657894
 30
0.0
 11
586.1682057237031
 21
120.8765735641657
 31
0.0
  0
LINE
  5
105A
330
1F
100
AcDbEntity
  8
1
  6
CONTINUOUS
 62
     7
100
AcDbLine
 10
586.868205465913
 20
129.581573491597
 30
0.0
 11
586.1682057237031
 21
130.28657350471
 31
0.0
  0
LINE
  5
105B
330
1F
100
AcDbEntity
  8
1
  6
CONTINUOUS
 62
     7
100
AcDbLine
 10
586.868205465913
 20
129.581573491597
 30
0.0
 11
586.868205465913
 21
129.2815735355555
 31
0.0
  0
LINE
  5
105C
330
1F
100
AcDbEntity
  8
1
  6
CONTINUOUS
 62
     7
100
AcDbLine
 10
586.868205465913
 20
129.2815735355555
 30
0.0
 11
586.868205465913
 21
128.9815735795139
 31
0.0
  0
LINE
  5
105D
330
1F
100
AcDbEntity
  8
1
  6
CONTINUOUS
 62
     7
100
AcDbLine
 10
586.868205465913
 20
128.9815735795139
 30
0.0
 11
586.1682057237031
 21
128.2765735664009
 31
0.0
  0
LINE
  5
105E
330
1F
100
AcDbEntity
  8
1
  6
CONTINUOUS
 62
     7
100
AcDbLine
 10
586.868205465913
 20
121.7715736270486
 30
0.0
 11
586.868205465913
 21
122.0715735830902
 31
0.0
  0
LINE
  5
105F
330
1F
100
AcDbEntity
  8
1
  6
CONTINUOUS
 62
     7
100
AcDbLine
 10
586.868205465913
 20
121.471573671007
 30
0.0
 11
586.868205465913
 21
121.7715736270486
 31
0.0
  0
LINE
  5
1060
330
1F
100
AcDbEntity
  8
1
  6
CONTINUOUS
 62
     7
100
AcDbLine
 10
586.868205465913
 20
121.471573671007
 30
0.0
 11
586.1682057237031
 21
120.766573657894
 31
0.0
  0
LINE
  5
1061
330
1F
100
AcDbEntity
  8
1
  6
CONTINUOUS
 62
     7
100
AcDbLine
 10
586.868205465913
 20
122.0715735830902
 30
0.0
 11
586.1682057237031
 21
122.7765735962032
 31
0.0
  0
LINE
  5
1062
330
1F
100
AcDbEntity
  8
1
  6
CONTINUOUS
 62
     7
100
AcDbLine
 10
587.1682058876158
 20
128.9815735795139
 30
0.0
 11
586.868205465913
 21
128.9815735795139
 31
0.0
  0
LINE
  5
1063
330
1F
100
AcDbEntity
  8
1
  6
CONTINUOUS
 62
     7
100
AcDbLine
 10
587.4682053779961
 20
128.9815735795139
 30
0.0
 11
587.1682058876158
 21
128.9815735795139
 31
0.0
  0
LINE
  5
1064
330
1F
100
AcDbEntity
  8
1
  6
CONTINUOUS
 62
     7
100
AcDbLine
 10
587.4682053779961
 20
128.9815735795139
 30
0.0
 11
588.1682060515286
 21
128.2765735664009
 31
0.0
  0
LINE
  5
1065
330
1F
100
AcDbEntity
  8
1
  6
CONTINUOUS
 62
     7
100
AcDbLine
 10
587.4682053779961
 20
122.0715735830902
 30
0.0
 11
587.1682058876158
 21
122.0715735830902
 31
0.0
  0
LINE
  5
1066
330
1F
100
AcDbEntity
  8
1
  6
CONTINUOUS
 62
     7
100
AcDbLine
 10
587.1682058876158
 20
122.0715735830902
 30
0.0
 11
586.868205465913
 21
122.0715735830902
 31
0.0
  0
LINE
  5
1067
330
1F
100
AcDbEntity
  8
1
  6
CONTINUOUS
 62
     7
100
AcDbLine
 10
587.4682053779961
 20
122.0715735830902
 30
0.0
 11
588.1682060515286
 21
122.7765735962032
 31
0.0
  0
LINE
  5
1068
330
1F
100
AcDbEntity
  8
1
  6
CONTINUOUS
 62
     7
100
AcDbLine
 10
587.4682053779961
 20
121.471573671007
 30
0.0
 11
587.4682053779961
 21
121.7715736270486
 31
0.0
  0
LINE
  5
1069
330
1F
100
AcDbEntity
  8
1
  6
CONTINUOUS
 62
     7
100
AcDbLine
 10
587.4682053779961
 20
121.7715736270486
 30
0.0
 11
587.4682053779961
 21
122.0715735830902
 31
0.0
  0
LINE
  5
106A
330
1F
100
AcDbEntity
  8
1
  6
CONTINUOUS
 62
     7
100
AcDbLine
 10
587.4682053779961
 20
121.471573671007
 30
0.0
 11
588.1682060515286
 21
120.766573657894
 31
0.0
  0
LINE
  5
106B
330
1F
100
AcDbEntity
  8
1
  6
CONTINUOUS
 62
     7
100
AcDbLine
 10
587.4682053779961
 20
129.581573491597
 30
0.0
 11
588.1682060515286
 21
130.28657350471
 31
0.0
  0
LINE
  5
106C
330
1F
100
AcDbEntity
  8
1
  6
CONTINUOUS
 62
     7
100
AcDbLine
 10
587.4682053779961
 20
129.581573491597
 30
0.0
 11
587.1682058876158
 21
129.581573491597
 31
0.0
  0
LINE
  5
106D
330
1F
100
AcDbEntity
  8
1
  6
CONTINUOUS
 62
     7
100
AcDbLine
 10
587.1682058876158
 20
129.581573491597
 30
0.0
 11
586.868205465913
 21
129.581573491597
 31
0.0
  0
LINE
  5
106E
330
1F
100
AcDbEntity
  8
1
  6
CONTINUOUS
 62
     7
100
AcDbLine
 10
587.1682058876158
 20
121.471573671007
 30
0.0
 11
586.868205465913
 21
121.471573671007
 31
0.0
  0
LINE
  5
106F
330
1F
100
AcDbEntity
  8
1
  6
CONTINUOUS
 62
     7
100
AcDbLine
 10
587.4682053779961
 20
121.471573671007
 30
0.0
 11
587.1682058876158
 21
121.471573671007
 31
0.0
  0
LINE
  5
1070
330
1F
100
AcDbEntity
  8
1
  6
CONTINUOUS
 62
     7
100
AcDbLine
 10
587.4682053779961
 20
129.2815735355555
 30
0.0
 11
587.4682053779961
 21
128.9815735795139
 31
0.0
  0
LINE
  5
1071
330
1F
100
AcDbEntity
  8
1
  6
CONTINUOUS
 62
     7
100
AcDbLine
 10
587.4682053779961
 20
129.581573491597
 30
0.0
 11
587.4682053779961
 21
129.2815735355555
 31
0.0
  0
LINE
  5
1072
330
1F
100
AcDbEntity
  8
1
  6
CONTINUOUS
 62
     7
100
AcDbLine
 10
578.130205520034
 20
125.1365735802403
 30
0.0
 11
578.130205520034
 21
125.9165735823637
 31
0.0
  0
LINE
  5
1073
330
1F
100
AcDbEntity
  8
1
  6
CONTINUOUS
 62
     7
100
AcDbLine
 10
578.130205520034
 20
125.9165735823637
 30
0.0
 11
575.2302056042081
 21
125.9165735823637
 31
0.0
  0
LINE
  5
1074
330
1F
100
AcDbEntity
  8
1
  6
CONTINUOUS
 62
     7
100
AcDbLine
 10
575.2302056042081
 20
125.9165735823637
 30
0.0
 11
575.2302056042081
 21
125.1365735802403
 31
0.0
  0
LINE
  5
1075
330
1F
100
AcDbEntity
  8
1
  6
CONTINUOUS
 62
     7
100
AcDbLine
 10
575.2302056042081
 20
125.1365735802403
 30
0.0
 11
578.130205520034
 21
125.1365735802403
 31
0.0
  0
ARC
  5
1076
330
1F
100
AcDbEntity
  8
1
  6
CONTINUOUS
 62
     7
100
AcDbCircle
 10
589.085252907455
 20
119.8739168454772
 30
0.0
 40
0.100001380712948
100
AcDbArc
 50
309.0145904095205
 51
359.9991914176381
  0
LINE
  5
1077
330
1F
100
AcDbEntity
  8
1
  6
CONTINUOUS
 62
     7
100
AcDbLine
 10
589.1852540751697
 20
131.1792317569791
 30
0.0
 11
589.1852540751697
 21
119.873915405625
 31
0.0
  0
ARC
  5
1078
330
1F
100
AcDbEntity
  8
1
  6
CONTINUOUS
 62
     7
100
AcDbCircle
 10
589.085252907455
 20
131.1792303171268
 30
0.0
 40
0.100001380712939
100
AcDbArc
 50
0.0008085823618721
 51
50.98540959047951
  0
LINE
  5
1079
330
1F
100
AcDbEntity
  8
1
  6
CONTINUOUS
 62
     7
100
AcDbLine
 10
560.1802052786352
 20
119.7881066032289
 30
0.0
 11
560.140205905378
 21
119.7881066032289
 31
0.0
  0
ARC
  5
107A
330
1F
100
AcDbEntity
  8
1
  6
CONTINUOUS
 62
     7
100
AcDbCircle
 10
589.0673733893827
 20
119.8881069391853
 30
0.0
 40
0.100001446639962
100
AcDbArc
 50
323.9311848125906
 51
359.9991914176338
  0
ARC
  5
107B
330
1F
100
AcDbEntity
  8
1
  6
CONTINUOUS
 62
     7
100
AcDbCircle
 10
589.0673733893827
 20
131.1650402234187
 30
0.0
 40
0.1000014466399558
100
AcDbArc
 50
0.0008085823824678
 51
36.06881518742262
  0
LINE
  5
107C
330
1F
100
AcDbEntity
  8
1
  6
CONTINUOUS
 62
     7
100
AcDbLine
 10
560.140205905378
 20
131.2650405593751
 30
0.0
 11
560.1802052786352
 21
131.2650405593751
 31
0.0
  0
LINE
  5
107D
330
1F
100
AcDbEntity
  8
1
  6
CONTINUOUS
 62
     7
100
AcDbLine
 10
589.1673745443823
 20
131.1650416605709
 30
0.0
 11
589.1673745443823
 21
119.8881055020331
 31
0.0
  0
LINE
  5
107E
330
1F
100
AcDbEntity
  8
1
  6
CONTINUOUS
 62
     7
100
AcDbLine
 10
560.140205905378
 20
129.3515736029087
 30
0.0
 11
560.140205905378
 21
129.6515735589503
 31
0.0
  0
LINE
  5
107F
330
1F
100
AcDbEntity
  8
1
  6
CONTINUOUS
 62
     7
100
AcDbLine
 10
560.140205905378
 20
128.9015736688463
 30
0.0
 11
560.140205905378
 21
129.2015736248879
 31
0.0
  0
LINE
  5
1080
330
1F
100
AcDbEntity
  8
1
  6
CONTINUOUS
 62
     7
100
AcDbLine
 10
560.140205905378
 20
121.8515735377161
 30
0.0
 11
560.140205905378
 21
122.1515734937577
 31
0.0
  0
LINE
  5
1081
330
1F
100
AcDbEntity
  8
1
  6
CONTINUOUS
 62
     7
100
AcDbLine
 10
560.140205905378
 20
121.4015736036538
 30
0.0
 11
560.140205905378
 21
121.7015735596953
 31
0.0
  0
LINE
  5
1082
330
1F
100
AcDbEntity
  8
1
  6
CONTINUOUS
 62
     7
100
AcDbLine
 10
560.140205905378
 20
122.1515734937577
 30
0.0
 11
560.1802052786352
 21
122.1515734937577
 31
0.0
  0
LINE
  5
1083
330
1F
100
AcDbEntity
  8
1
  6
CONTINUOUS
 62
     7
100
AcDbLine
 10
560.140205905378
 20
129.6515735589503
 30
0.0
 11
560.1802052786352
 21
129.6515735589503
 31
0.0
  0
LINE
  5
1084
330
1F
100
AcDbEntity
  8
1
  6
CONTINUOUS
 62
     7
100
AcDbLine
 10
560.1802052786352
 20
121.4015736036538
 30
0.0
 11
560.140205905378
 21
121.4015736036538
 31
0.0
  0
LINE
  5
1085
330
1F
100
AcDbEntity
  8
1
  6
CONTINUOUS
 62
     7
100
AcDbLine
 10
560.1802052786352
 20
128.9015736688463
 30
0.0
 11
560.140205905378
 21
128.9015736688463
 31
0.0
  0
LINE
  5
1086
330
1F
100
AcDbEntity
  8
1
  6
CONTINUOUS
 62
     7
100
AcDbLine
 10
546.0002053385379
 20
122.17657368412
 30
0.0
 11
545.2002048348786
 21
122.0355120745091
 31
0.0
  0
LINE
  5
1087
330
1F
100
AcDbEntity
  8
1
  6
CONTINUOUS
 62
     7
100
AcDbLine
 10
546.0002053385379
 20
121.3765736461221
 30
0.0
 11
546.0002053385379
 21
122.17657368412
 31
0.0
  0
LINE
  5
1088
330
1F
100
AcDbEntity
  8
1
  6
CONTINUOUS
 62
     7
100
AcDbLine
 10
545.2002048348786
 20
121.5176350229023
 30
0.0
 11
546.0002053385379
 21
121.3765736461221
 31
0.0
  0
LINE
  5
1089
330
1F
100
AcDbEntity
  8
1
  6
CONTINUOUS
 62
     7
100
AcDbLine
 10
545.2002048348786
 20
121.5176350229023
 30
0.0
 11
545.2002048348786
 21
122.0355120745091
 31
0.0
  0
LINE
  5
108A
330
1F
100
AcDbEntity
  8
1
  6
CONTINUOUS
 62
     7
100
AcDbLine
 10
546.0002053385379
 20
129.676573516482
 30
0.0
 11
545.2002048348786
 21
129.5355121397017
 31
0.0
  0
LINE
  5
108B
330
1F
100
AcDbEntity
  8
1
  6
CONTINUOUS
 62
     7
100
AcDbLine
 10
546.0002053385379
 20
128.876573478484
 30
0.0
 11
546.0002053385379
 21
129.676573516482
 31
0.0
  0
LINE
  5
108C
330
1F
100
AcDbEntity
  8
1
  6
CONTINUOUS
 62
     7
100
AcDbLine
 10
545.2002048348786
 20
129.0176350880949
 30
0.0
 11
546.0002053385379
 21
128.876573478484
 31
0.0
  0
LINE
  5
108D
330
1F
100
AcDbEntity
  8
1
  6
CONTINUOUS
 62
     7
100
AcDbLine
 10
545.2002048348786
 20
129.0176350880949
 30
0.0
 11
545.2002048348786
 21
129.5355121397017
 31
0.0
  0
LINE
  5
108E
330
1F
100
AcDbEntity
  8
1
  6
CONTINUOUS
 62
     7
100
AcDbLine
 10
546.0002053385379
 20
122.17657368412
 30
0.0
 11
549.2002054905297
 21
122.17657368412
 31
0.0
  0
LINE
  5
108F
330
1F
100
AcDbEntity
  8
1
  6
CONTINUOUS
 62
     7
100
AcDbLine
 10
549.2002054905297
 20
121.3765736461221
 30
0.0
 11
546.0002053385379
 21
121.3765736461221
 31
0.0
  0
LINE
  5
1090
330
1F
100
AcDbEntity
  8
1
  6
CONTINUOUS
 62
     7
100
AcDbLine
 10
549.2002054905297
 20
128.876573478484
 30
0.0
 11
546.0002053385379
 21
128.876573478484
 31
0.0
  0
LINE
  5
1091
330
1F
100
AcDbEntity
  8
1
  6
CONTINUOUS
 62
     7
100
AcDbLine
 10
549.2002054905297
 20
129.676573516482
 30
0.0
 11
546.0002053385379
 21
129.676573516482
 31
0.0
  0
LINE
  5
1094
330
1F
100
AcDbEntity
  8
1
  6
CONTINUOUS
 62
     7
100
AcDbLine
 10
639.8936470284352
 20
70.09937864061335
 30
0.0
 11
640.6936470664332
 21
70.09937864061335
 31
0.0
  0
LINE
  5
1095
102
{ACAD_REACTORS
102
}
330
1F
100
AcDbEntity
  8
1
  6
CONTINUOUS
 62
     7
100
AcDbLine
 10
632.3936471960733
 20
70.09937864061335
 30
0.0
 11
633.1936472340712
 21
70.09937864061335
 31
0.0
  0
LINE
  5
1096
330
1F
100
AcDbEntity
  8
1
  6
CONTINUOUS
 62
     7
100
AcDbLine
 10
633.1936472340712
 20
82.19937857504824
 30
0.0
 11
633.0525856244603
 21
82.9993786130462
 31
0.0
  0
LINE
  5
1097
330
1F
100
AcDbEntity
  8
1
  6
CONTINUOUS
 62
     7
100
AcDbLine
 10
632.3936471960733
 20
82.19937857504824
 30
0.0
 11
633.1936472340712
 21
82.19937857504824
 31
0.0
  0
LINE
  5
1098
330
1F
100
AcDbEntity
  8
1
  6
CONTINUOUS
 62
     7
100
AcDbLine
 10
632.5347085728536
 20
82.9993786130462
 30
0.0
 11
632.3936471960733
 21
82.19937857504824
 31
0.0
  0
LINE
  5
1099
330
1F
100
AcDbEntity
  8
1
  6
CONTINUOUS
 62
     7
100
AcDbLine
 10
632.5347085728536
 20
82.9993786130462
 30
0.0
 11
633.0525856244603
 21
82.9993786130462
 31
0.0
  0
LINE
  5
109A
330
1F
100
AcDbEntity
  8
1
  6
CONTINUOUS
 62
     7
100
AcDbLine
 10
640.5525856896529
 20
82.9993786130462
 30
0.0
 11
640.5525856896529
 21
87.69937807958463
 31
0.0
  0
LINE
  5
109B
330
1F
100
AcDbEntity
  8
1
  6
CONTINUOUS
 62
     7
100
AcDbLine
 10
640.0347086380461
 20
82.9993786130462
 30
0.0
 11
640.5525856896529
 21
82.9993786130462
 31
0.0
  0
LINE
  5
109C
330
1F
100
AcDbEntity
  8
1
  6
CONTINUOUS
 62
     7
100
AcDbLine
 10
640.0347086380461
 20
87.69937807958463
 30
0.0
 11
640.0347086380461
 21
82.9993786130462
 31
0.0
  0
LINE
  5
109D
330
1F
100
AcDbEntity
  8
1
  6
CONTINUOUS
 62
     7
100
AcDbLine
 10
640.0347086380461
 20
87.69937807958463
 30
0.0
 11
640.5525856896529
 21
87.69937807958463
 31
0.0
  0
LINE
  5
109E
330
1F
100
AcDbEntity
  8
1
  6
CONTINUOUS
 62
     7
100
AcDbLine
 10
633.1936472340712
 20
88.49937858324388
 30
0.0
 11
633.1936472340712
 21
82.19937857504824
 31
0.0
  0
LINE
  5
109F
330
1F
100
AcDbEntity
  8
1
  6
CONTINUOUS
 62
     7
100
AcDbLine
 10
633.0525856244603
 20
82.9993786130462
 30
0.0
 11
633.0525856244603
 21
87.69937807958463
 31
0.0
  0
LINE
  5
10A0
330
1F
100
AcDbEntity
  8
1
  6
CONTINUOUS
 62
     7
100
AcDbLine
 10
633.0525856244603
 20
87.69937807958463
 30
0.0
 11
633.1936472340712
 21
88.49937858324388
 31
0.0
  0
LINE
  5
10A1
330
1F
100
AcDbEntity
  8
1
  6
CONTINUOUS
 62
     7
100
AcDbLine
 10
632.3936471960733
 20
82.19937857504824
 30
0.0
 11
632.3936471960733
 21
88.49937858324388
 31
0.0
  0
LINE
  5
10A2
330
1F
100
AcDbEntity
  8
1
  6
CONTINUOUS
 62
     7
100
AcDbLine
 10
632.3936471960733
 20
88.49937858324388
 30
0.0
 11
632.5347085728536
 21
87.69937807958463
 31
0.0
  0
LINE
  5
10A3
330
1F
100
AcDbEntity
  8
1
  6
CONTINUOUS
 62
     7
100
AcDbLine
 10
632.5347085728536
 20
87.69937807958463
 30
0.0
 11
632.5347085728536
 21
82.9993786130462
 31
0.0
  0
LINE
  5
10A4
330
1F
100
AcDbEntity
  8
1
  6
CONTINUOUS
 62
     7
100
AcDbLine
 10
640.5525856896529
 20
87.69937807958463
 30
0.0
 11
640.6936470664332
 21
88.49937858324388
 31
0.0
  0
LINE
  5
10A5
330
1F
100
AcDbEntity
  8
1
  6
CONTINUOUS
 62
     7
100
AcDbLine
 10
640.6936470664332
 20
88.49937858324388
 30
0.0
 11
640.6936470664332
 21
82.19937857504824
 31
0.0
  0
LINE
  5
10A6
330
1F
100
AcDbEntity
  8
1
  6
CONTINUOUS
 62
     7
100
AcDbLine
 10
640.6936470664332
 20
82.19937857504824
 30
0.0
 11
640.5525856896529
 21
82.9993786130462
 31
0.0
  0
LINE
  5
10A7
330
1F
100
AcDbEntity
  8
1
  6
CONTINUOUS
 62
     7
100
AcDbLine
 10
639.8936470284352
 20
82.19937857504824
 30
0.0
 11
639.8936470284352
 21
88.49937858324388
 31
0.0
  0
LINE
  5
10A8
330
1F
100
AcDbEntity
  8
1
  6
CONTINUOUS
 62
     7
100
AcDbLine
 10
639.8936470284352
 20
88.49937858324388
 30
0.0
 11
640.0347086380461
 21
87.69937807958463
 31
0.0
  0
LINE
  5
10A9
330
1F
100
AcDbEntity
  8
1
  6
CONTINUOUS
 62
     7
100
AcDbLine
 10
640.0347086380461
 20
82.9993786130462
 30
0.0
 11
639.8936470284352
 21
82.19937857504824
 31
0.0
  0
LINE
  5
10AA
330
1F
100
AcDbEntity
  8
1
  6
CONTINUOUS
 62
     7
100
AcDbLine
 10
632.5347085728536
 20
87.69937807958463
 30
0.0
 11
633.0525856244603
 21
87.69937807958463
 31
0.0
  0
LINE
  5
10AB
330
1F
100
AcDbEntity
  8
1
  6
CONTINUOUS
 62
     7
100
AcDbLine
 10
632.3936471960733
 20
88.49937858324388
 30
0.0
 11
633.1936472340712
 21
88.49937858324388
 31
0.0
  0
LINE
  5
10AC
330
1F
100
AcDbEntity
  8
1
  6
CONTINUOUS
 62
     7
100
AcDbLine
 10
639.8936470284352
 20
82.19937857504824
 30
0.0
 11
640.6936470664332
 21
82.19937857504824
 31
0.0
  0
LINE
  5
10AD
330
1F
100
AcDbEntity
  8
1
  6
CONTINUOUS
 62
     7
100
AcDbLine
 10
639.8936470284352
 20
88.49937858324388
 30
0.0
 11
640.6936470664332
 21
88.49937858324388
 31
0.0
  0
LINE
  5
10AE
330
1F
100
AcDbEntity
  8
1
  6
CONTINUOUS
 62
     7
100
AcDbLine
 10
639.8936470284352
 20
70.57437829937676
 30
0.0
 11
639.8936470284352
 21
70.09937864061335
 31
0.0
  0
LINE
  5
10AF
330
1F
100
AcDbEntity
  8
1
  6
CONTINUOUS
 62
     7
100
AcDbLine
 10
640.6936470664332
 20
70.09937864061335
 30
0.0
 11
640.6936470664332
 21
70.57437829937676
 31
0.0
  0
LINE
  5
10B0
330
1F
100
AcDbEntity
  8
1
  6
CONTINUOUS
 62
     7
100
AcDbLine
 10
633.1936472340712
 20
70.09937864061335
 30
0.0
 11
633.1936472340712
 21
70.57437829937676
 31
0.0
  0
LINE
  5
10B1
330
1F
100
AcDbEntity
  8
1
  6
CONTINUOUS
 62
     7
100
AcDbLine
 10
632.3936471960733
 20
70.09937864061335
 30
0.0
 11
632.3936471960733
 21
70.57437829937676
 31
0.0
  0
LINE
  5
10B2
330
1F
100
AcDbEntity
  8
1
  6
CONTINUOUS
 62
     7
100
AcDbLine
 10
633.1936472340712
 20
70.57437829937676
 30
0.0
 11
633.1936472340712
 21
78.89937859292964
 31
0.0
  0
LINE
  5
10B3
330
1F
100
AcDbEntity
  8
1
  6
CONTINUOUS
 62
     7
100
AcDbLine
 10
632.3936471960733
 20
70.57437829937676
 30
0.0
 11
632.3936471960733
 21
78.89937859292964
 31
0.0
  0
LINE
  5
10B4
330
1F
100
AcDbEntity
  8
1
  6
CONTINUOUS
 62
     7
100
AcDbLine
 10
639.8936470284352
 20
78.89937859292964
 30
0.0
 11
639.8936470284352
 21
70.57437829937676
 31
0.0
  0
LINE
  5
10B5
330
1F
100
AcDbEntity
  8
1
  6
CONTINUOUS
 62
     7
100
AcDbLine
 10
640.6936470664332
 20
70.57437829937676
 30
0.0
 11
640.6936470664332
 21
78.89937859292964
 31
0.0
  0
LINE
  5
10B6
330
1F
100
AcDbEntity
  8
1
  6
CONTINUOUS
 62
     7
100
AcDbLine
 10
632.3936471960733
 20
79.39937820922474
 30
0.0
 11
633.1936472340712
 21
79.39937820922474
 31
0.0
  0
LINE
  5
10B7
330
1F
100
AcDbEntity
  8
1
  6
CONTINUOUS
 62
     7
100
AcDbLine
 10
633.1936472340712
 20
79.39937820922474
 30
0.0
 11
633.1936472340712
 21
78.89937859292964
 31
0.0
  0
LINE
  5
10B8
330
1F
100
AcDbEntity
  8
1
  6
CONTINUOUS
 62
     7
100
AcDbLine
 10
632.3936471960733
 20
78.89937859292964
 30
0.0
 11
632.3936471960733
 21
79.39937820922474
 31
0.0
  0
LINE
  5
10B9
330
1F
100
AcDbEntity
  8
1
  6
CONTINUOUS
 62
     7
100
AcDbLine
 10
639.8936470284352
 20
79.39937820922474
 30
0.0
 11
640.6936470664332
 21
79.39937820922474
 31
0.0
  0
LINE
  5
10BA
330
1F
100
AcDbEntity
  8
1
  6
CONTINUOUS
 62
     7
100
AcDbLine
 10
639.8936470284352
 20
78.89937859292964
 30
0.0
 11
639.8936470284352
 21
79.39937820922474
 31
0.0
  0
LINE
  5
10BB
330
1F
100
AcDbEntity
  8
1
  6
CONTINUOUS
 62
     7
100
AcDbLine
 10
640.6936470664332
 20
78.89937859292964
 30
0.0
 11
640.6936470664332
 21
79.39937820922474
 31
0.0
  0
LINE
  5
10BC
330
1F
100
AcDbEntity
  8
1
  6
CONTINUOUS
 62
     7
100
AcDbLine
 10
639.8936470284352
 20
81.99937844913343
 30
0.0
 11
639.8936470284352
 21
82.19937857504824
 31
0.0
  0
LINE
  5
10BD
330
1F
100
AcDbEntity
  8
1
  6
CONTINUOUS
 62
     7
100
AcDbLine
 10
640.6936470664332
 20
81.99937844913343
 30
0.0
 11
640.6936470664332
 21
82.19937857504824
 31
0.0
  0
LINE
  5
10BE
330
1F
100
AcDbEntity
  8
1
  6
CONTINUOUS
 62
     7
100
AcDbLine
 10
633.1936472340712
 20
82.19937857504824
 30
0.0
 11
633.1936472340712
 21
81.99937844913343
 31
0.0
  0
LINE
  5
10BF
330
1F
100
AcDbEntity
  8
1
  6
CONTINUOUS
 62
     7
100
AcDbLine
 10
632.3936471960733
 20
81.99937844913343
 30
0.0
 11
632.3936471960733
 21
82.19937857504824
 31
0.0
  0
LINE
  5
10C0
330
1F
100
AcDbEntity
  8
1
  6
CONTINUOUS
 62
     7
100
AcDbLine
 10
633.1936472340712
 20
79.59937833513955
 30
0.0
 11
633.1936472340712
 21
79.39937820922474
 31
0.0
  0
LINE
  5
10C1
330
1F
100
AcDbEntity
  8
1
  6
CONTINUOUS
 62
     7
100
AcDbLine
 10
632.3936471960733
 20
79.39937820922474
 30
0.0
 11
632.3936471960733
 21
79.59937833513955
 31
0.0
  0
LINE
  5
10C2
330
1F
100
AcDbEntity
  8
1
  6
CONTINUOUS
 62
     7
100
AcDbLine
 10
639.8936470284352
 20
79.39937820922474
 30
0.0
 11
639.8936470284352
 21
79.59937833513955
 31
0.0
  0
LINE
  5
10C3
330
1F
100
AcDbEntity
  8
1
  6
CONTINUOUS
 62
     7
100
AcDbLine
 10
640.6936470664332
 20
79.39937820922474
 30
0.0
 11
640.6936470664332
 21
79.59937833513955
 31
0.0
  0
LINE
  5
10C4
330
1F
100
AcDbEntity
  8
1
  6
CONTINUOUS
 62
     7
100
AcDbLine
 10
639.8936470284352
 20
79.59937833513955
 30
0.0
 11
639.8936470284352
 21
81.99937844913343
 31
0.0
  0
LINE
  5
10C5
330
1F
100
AcDbEntity
  8
1
  6
CONTINUOUS
 62
     7
100
AcDbLine
 10
640.6936470664332
 20
79.59937833513955
 30
0.0
 11
640.6936470664332
 21
81.99937844913343
 31
0.0
  0
LINE
  5
10C6
330
1F
100
AcDbEntity
  8
1
  6
CONTINUOUS
 62
     7
100
AcDbLine
 10
633.1936472340712
 20
81.99937844913343
 30
0.0
 11
633.1936472340712
 21
79.59937833513955
 31
0.0
  0
LINE
  5
10C7
330
1F
100
AcDbEntity
  8
1
  6
CONTINUOUS
 62
     7
100
AcDbLine
 10
632.3936471960733
 20
79.59937833513955
 30
0.0
 11
632.3936471960733
 21
81.99937844913343
 31
0.0
  0
LINE
  5
10C8
330
1F
100
AcDbEntity
  8
1
  6
CONTINUOUS
 62
     7
100
AcDbLine
 10
633.1936472340712
 20
83.29937810342649
 30
0.0
 11
639.8936470284352
 21
83.29937810342649
 31
0.0
  0
LINE
  5
10C9
102
{ACAD_REACTORS
102
}
330
1F
100
AcDbEntity
  8
1
  6
CONTINUOUS
 62
     7
100
AcDbLine
 10
630.3036471142659
 20
74.65937843810657
 30
0.0
 11
630.3198730818222
 21
79.50138923045138
 31
0.0
  0
LINE
  5
10CA
330
1F
100
AcDbEntity
  8
1
  6
CONTINUOUS
 62
     7
100
AcDbLine
 10
630.9036502859781
 20
74.65937843810657
 30
0.0
 11
630.3036471142659
 21
74.65937843810657
 31
0.0
  0
LINE
  5
10CB
102
{ACAD_REACTORS
102
}
330
1F
100
AcDbEntity
  8
1
  6
CONTINUOUS
 62
     7
100
AcDbLine
 10
642.7674211806843
 20
79.50138923045138
 30
0.0
 11
642.7836471482406
 21
74.65937843810657
 31
0.0
  0
LINE
  5
10CC
330
1F
100
AcDbEntity
  8
1
  6
CONTINUOUS
 62
     7
100
AcDbLine
 10
642.7836471482406
 20
74.65937843810657
 30
0.0
 11
642.1836439765284
 21
74.65937843810657
 31
0.0
  0
LINE
  5
10CD
330
1F
100
AcDbEntity
  8
1
  6
CONTINUOUS
 62
     7
100
AcDbLine
 10
632.3841761111507
 20
74.65937843810657
 30
0.0
 11
632.3936471960733
 21
75.74466213848332
 31
0.0
  0
LINE
  5
10CE
330
1F
100
AcDbEntity
  8
1
  6
CONTINUOUS
 62
     7
100
AcDbLine
 10
630.9036502859781
 20
74.65937843810657
 30
0.0
 11
632.3841761111507
 21
74.65937843810657
 31
0.0
  0
LINE
  5
10CF
330
1F
100
AcDbEntity
  8
1
  6
CONTINUOUS
 62
     7
100
AcDbLine
 10
640.7031181513557
 20
74.65937843810657
 30
0.0
 11
640.6936470664332
 21
75.74466213848332
 31
0.0
  0
LINE
  5
10D0
330
1F
100
AcDbEntity
  8
1
  6
CONTINUOUS
 62
     7
100
AcDbLine
 10
639.8936470284352
 20
75.74466213848332
 30
0.0
 11
639.8841759435127
 21
74.65937843810657
 31
0.0
  0
LINE
  5
10D1
330
1F
100
AcDbEntity
  8
1
  6
CONTINUOUS
 62
     7
100
AcDbLine
 10
633.2031183189938
 20
74.65937843810657
 30
0.0
 11
635.5436470837558
 21
74.65937843810657
 31
0.0
  0
LINE
  5
10D2
330
1F
100
AcDbEntity
  8
1
  6
CONTINUOUS
 62
     7
100
AcDbLine
 10
633.1936472340712
 20
75.74466213848332
 30
0.0
 11
633.2031183189938
 21
74.65937843810657
 31
0.0
  0
LINE
  5
10D3
330
1F
100
AcDbEntity
  8
1
  6
CONTINUOUS
 62
     7
100
AcDbLine
 10
637.5436471787507
 20
74.35937842385734
 30
0.0
 11
635.5436470837558
 21
74.35937842385734
 31
0.0
  0
LINE
  5
10D4
330
1F
100
AcDbEntity
  8
1
  6
CONTINUOUS
 62
     7
100
AcDbLine
 10
642.1836439765284
 20
74.65937843810657
 30
0.0
 11
640.7031181513557
 21
74.65937843810657
 31
0.0
  0
LINE
  5
10D5
330
1F
100
AcDbEntity
  8
1
  6
CONTINUOUS
 62
     7
100
AcDbLine
 10
637.5436471787507
 20
74.65937843810657
 30
0.0
 11
637.5436471787507
 21
74.35937842385734
 31
0.0
  0
LINE
  5
10D6
330
1F
100
AcDbEntity
  8
1
  6
CONTINUOUS
 62
     7
100
AcDbLine
 10
635.5436470837558
 20
74.35937842385734
 30
0.0
 11
635.5436470837558
 21
74.65937843810657
 31
0.0
  0
LINE
  5
10D7
330
1F
100
AcDbEntity
  8
1
  6
CONTINUOUS
 62
     7
100
AcDbLine
 10
639.8841759435127
 20
74.65937843810657
 30
0.0
 11
637.5436471787507
 21
74.65937843810657
 31
0.0
  0
ARC
  5
10D8
330
1F
100
AcDbEntity
  8
1
  6
CONTINUOUS
 62
     7
100
AcDbCircle
 10
642.1674247060294
 20
79.49937843810655
 30
0.0
 40
0.6000000000000227
100
AcDbArc
 50
0.1919999999997519
 51
90.0
  0
ARC
  5
10D9
330
1F
100
AcDbEntity
  8
1
  6
CONTINUOUS
 62
     7
100
AcDbCircle
 10
630.9198695564771
 20
79.49937843810655
 30
0.0
 40
0.6000000000000227
100
AcDbArc
 50
90.0
 51
179.8080000000002
  0
LINE
  5
10DA
330
1F
100
AcDbEntity
  8
1
  6
CONTINUOUS
 62
     7
100
AcDbLine
 10
630.9198697342763
 20
80.09937841709593
 30
0.0
 11
632.3936471960733
 21
80.09937841709593
 31
0.0
  0
LINE
  5
10DB
330
1F
100
AcDbEntity
  8
1
  6
CONTINUOUS
 62
     7
100
AcDbLine
 10
640.6936470664332
 20
80.09937841709593
 30
0.0
 11
642.1674245282302
 21
80.09937841709593
 31
0.0
  0
LINE
  5
10DC
330
1F
100
AcDbEntity
  8
1
  6
CONTINUOUS
 62
     7
100
AcDbLine
 10
640.6984056591282
 20
75.19937841718907
 30
0.0
 11
640.6936470664332
 21
75.19937841718907
 31
0.0
  0
LINE
  5
10DD
330
1F
100
AcDbEntity
  8
1
  6
CONTINUOUS
 62
     7
100
AcDbLine
 10
639.8936470284352
 20
75.19937841718907
 30
0.0
 11
639.8888884357402
 21
75.19937841718907
 31
0.0
  0
LINE
  5
10DE
330
1F
100
AcDbEntity
  8
1
  6
CONTINUOUS
 62
     7
100
AcDbLine
 10
633.1984058267662
 20
75.19937841718907
 30
0.0
 11
633.1936472340712
 21
75.19937841718907
 31
0.0
  0
LINE
  5
10DF
330
1F
100
AcDbEntity
  8
1
  6
CONTINUOUS
 62
     7
100
AcDbLine
 10
632.3936471960733
 20
75.19937841718907
 30
0.0
 11
632.3888886033783
 21
75.19937841718907
 31
0.0
  0
LINE
  5
10E0
330
1F
100
AcDbEntity
  8
1
  6
CONTINUOUS
 62
     7
100
AcDbLine
 10
640.7018967217991
 20
74.79937844184583
 30
0.0
 11
640.6936470664332
 21
74.79937844184583
 31
0.0
  0
LINE
  5
10E1
330
1F
100
AcDbEntity
  8
1
  6
CONTINUOUS
 62
     7
100
AcDbLine
 10
639.8936470284352
 20
74.79937844184583
 30
0.0
 11
639.8853978387306
 21
74.79937844184583
 31
0.0
  0
LINE
  5
10E2
330
1F
100
AcDbEntity
  8
1
  6
CONTINUOUS
 62
     7
100
AcDbLine
 10
633.2018964237759
 20
74.79937844184583
 30
0.0
 11
633.1936472340712
 21
74.79937844184583
 31
0.0
  0
LINE
  5
10E3
330
1F
100
AcDbEntity
  8
1
  6
CONTINUOUS
 62
     7
100
AcDbLine
 10
632.3936471960733
 20
74.79937844184583
 30
0.0
 11
632.3853975407073
 21
74.79937844184583
 31
0.0
  0
LINE
  5
10E4
330
1F
100
AcDbEntity
  8
1
  6
CONTINUOUS
 62
     7
100
AcDbLine
 10
630.3198730818222
 20
79.50138923045138
 30
0.0
 11
630.3533164098153
 21
89.48138932030538
 31
0.0
  0
LINE
  5
10E5
330
1F
100
AcDbEntity
  8
1
  6
CONTINUOUS
 62
     7
100
AcDbLine
 10
642.7339778526912
 20
89.48138932030538
 30
0.0
 11
642.7674211806843
 21
79.50138923045138
 31
0.0
  0
ARC
  5
10E6
330
1F
100
AcDbEntity
  8
1
  6
CONTINUOUS
 62
     7
100
AcDbCircle
 10
630.9533129826557
 20
89.47937843810656
 30
0.0
 40
0.5999999999999943
100
AcDbArc
 50
90.0
 51
179.8080000000002
  0
ARC
  5
10E7
330
1F
100
AcDbEntity
  8
1
  6
CONTINUOUS
 62
     7
100
AcDbCircle
 10
642.1339812798509
 20
89.47937843810656
 30
0.0
 40
0.6000000000000025
100
AcDbArc
 50
0.1919999999997519
 51
90.0
  0
LINE
  5
10E8
102
{ACAD_REACTORS
102
}
330
1F
100
AcDbEntity
  8
1
  6
CONTINUOUS
 62
     7
100
AcDbLine
 10
630.9533130622694
 20
90.07937850694994
 30
0.0
 11
642.133981200237
 21
90.07937850694994
 31
0.0
  0
LINE
  5
10E9
330
1F
100
AcDbEntity
  8
1
  6
CONTINUOUS
 62
     7
100
AcDbLine
 10
640.6936470664332
 20
74.35937842385734
 30
0.0
 11
642.2986469476709
 21
74.35937842385734
 31
0.0
  0
LINE
  5
10EA
330
1F
100
AcDbEntity
  8
1
  6
CONTINUOUS
 62
     7
100
AcDbLine
 10
633.1936472340712
 20
74.65937843810657
 30
0.0
 11
633.2031183189938
 21
74.65937843810657
 31
0.0
  0
LINE
  5
10EB
330
1F
100
AcDbEntity
  8
1
  6
CONTINUOUS
 62
     7
100
AcDbLine
 10
639.8841759435127
 20
74.65937843810657
 30
0.0
 11
639.8936470284352
 21
74.65937843810657
 31
0.0
  0
LINE
  5
10EC
330
1F
100
AcDbEntity
  8
1
  6
CONTINUOUS
 62
     7
100
AcDbLine
 10
630.7886473148355
 20
74.35937842385734
 30
0.0
 11
632.3936471960733
 21
74.35937842385734
 31
0.0
  0
LINE
  5
10ED
330
1F
100
AcDbEntity
  8
1
  6
CONTINUOUS
 62
     7
100
AcDbLine
 10
642.2986469476709
 20
74.35937842385734
 30
0.0
 11
642.2986469476709
 21
74.65937843810657
 31
0.0
  0
LINE
  5
10EE
330
1F
100
AcDbEntity
  8
1
  6
CONTINUOUS
 62
     7
100
AcDbLine
 10
630.7886473148355
 20
74.65937843810657
 30
0.0
 11
630.7886473148355
 21
74.35937842385734
 31
0.0
  0
LINE
  5
10F0
330
1F
100
AcDbEntity
  8
OŚ
100
AcDbLine
 10
542.1816551827951
 20
125.526573581302
 30
0.0
 11
593.9144065651642
 21
125.526573581302
 31
0.0
  0
LINE
  5
10F1
330
1F
100
AcDbEntity
  8
OŚ
100
AcDbLine
 10
554.675205968857
 20
119.4803172535121
 30
0.0
 11
554.675205968857
 21
131.446787258888
 31
0.0
  0
LINE
  5
10F2
330
1F
100
AcDbEntity
  8
OŚ
100
AcDbLine
 10
549.6752051492931
 20
119.4803172535121
 30
0.0
 11
549.6752051492931
 21
131.446787258888
 31
0.0
  0
LINE
  5
10F3
330
1F
100
AcDbEntity
  8
OŚ
100
AcDbLine
 10
587.1682056037785
 20
130.7612408723643
 30
0.0
 11
587.1682056037785
 21
127.6370868213763
 31
0.0
  0
LINE
  5
10F4
330
1F
100
AcDbEntity
  8
OŚ
100
AcDbLine
 10
585.622108905911
 20
129.281573581302
 30
0.0
 11
588.714302301646
 21
129.281573581302
 31
0.0
  0
LINE
  5
10F5
330
1F
100
AcDbEntity
  8
OŚ
100
AcDbLine
 10
587.1682056037785
 20
123.2512408723643
 30
0.0
 11
587.1682056037785
 21
120.1270868213763
 31
0.0
  0
LINE
  5
10F6
330
1F
100
AcDbEntity
  8
OŚ
100
AcDbLine
 10
585.622108905911
 20
121.771573581302
 30
0.0
 11
588.714302301646
 21
121.771573581302
 31
0.0
  0
LINE
  5
10F7
102
{ACAD_REACTORS
102
}
330
1F
100
AcDbEntity
  8
OŚ
100
AcDbLine
 10
584.4988345235299
 20
240.5933028491236
 30
0.0
 11
584.4988345235299
 21
237.4691487981356
 31
0.0
  0
LINE
  5
10F8
102
{ACAD_REACTORS
330
110F
102
}
330
1F
100
AcDbEntity
  8
OŚ
100
AcDbLine
 10
582.9527378256624
 20
239.1136355580613
 30
0.0
 11
586.0449312213974
 21
239.1136355580613
 31
0.0
  0
LINE
  5
10F9
330
1F
100
AcDbEntity
  8
OŚ
100
AcDbLine
 10
584.4988345235299
 20
248.1033028491236
 30
0.0
 11
584.4988345235299
 21
244.9791487981356
 31
0.0
  0
LINE
  5
10FA
102
{ACAD_REACTORS
330
110F
102
}
330
1F
100
AcDbEntity
  8
OŚ
100
AcDbLine
 10
582.9527378256624
 20
246.6236355580613
 30
0.0
 11
586.0449312213974
 21
246.6236355580613
 31
0.0
  0
LINE
  5
10FB
330
1F
100
AcDbEntity
  8
OŚ
100
AcDbLine
 10
543.3341158410311
 20
242.8686355580613
 30
0.0
 11
590.1591019484146
 21
242.8686355580613
 31
0.0
  0
LINE
  5
10FC
102
{ACAD_REACTORS
102
}
330
1F
100
AcDbEntity
  8
OŚ
100
AcDbLine
 10
552.00583452353
 20
202.9383486396606
 30
0.0
 11
552.00583452353
 21
196.5375368690825
 31
0.0
  0
LINE
  5
10FD
102
{ACAD_REACTORS
102
}
330
1F
100
AcDbEntity
  8
OŚ
100
AcDbLine
 10
547.00583452353
 20
202.9383486396606
 30
0.0
 11
547.00583452353
 21
196.5375368690826
 31
0.0
  0
LINE
  5
10FE
102
{ACAD_REACTORS
330
115E
102
}
330
1F
100
AcDbEntity
  8
OŚ
100
AcDbLine
 10
584.498834341706
 20
202.9383488421674
 30
0.0
 11
584.498834341706
 21
196.5375370715893
 31
0.0
  0
LINE
  5
10FF
330
1F
100
AcDbEntity
  8
OŚ
100
AcDbLine
 10
549.65583452353
 20
212.5959093764726
 30
0.0
 11
549.65583452353
 21
209.4717553254846
 31
0.0
  0
LINE
  5
1100
330
1F
100
AcDbEntity
  8
OŚ
100
AcDbLine
 10
548.1097378256625
 20
211.1162420854103
 30
0.0
 11
551.2019312213974
 21
211.1162420854103
 31
0.0
  0
LINE
  5
1101
330
1F
100
AcDbEntity
  8
OŚ
100
AcDbLine
 10
549.7002056037785
 20
86.8290457291689
 30
0.0
 11
549.7002056037785
 21
83.70489167818087
 31
0.0
  0
LINE
  5
1102
330
1F
100
AcDbEntity
  8
OŚ
100
AcDbLine
 10
548.154108905911
 20
85.34937843810657
 30
0.0
 11
551.246302301646
 21
85.34937843810657
 31
0.0
  0
LINE
  5
1103
330
1F
100
AcDbEntity
  8
OŚ
100
AcDbLine
 10
634.8451082751136
 20
222.2486689924563
 30
0.0
 11
634.8451082751136
 21
194.7451809157538
 31
0.0
  0
LINE
  5
1104
102
{ACAD_REACTORS
102
}
330
1F
100
AcDbEntity
  8
OŚ
100
AcDbLine
 10
631.0951082425173
 20
216.5665738955406
 30
0.0
 11
631.0951082425173
 21
196.0860336334742
 31
0.0
  0
LINE
  5
1105
102
{ACAD_REACTORS
102
}
330
1F
100
AcDbEntity
  8
OŚ
100
AcDbLine
 10
638.5951083077099
 20
216.5665738955406
 30
0.0
 11
638.5951083077099
 21
196.0860336334742
 31
0.0
  0
LINE
  5
1106
330
1F
100
AcDbEntity
  8
OŚ
100
AcDbLine
 10
636.5436471312532
 20
94.23180534515261
 30
0.0
 11
636.5436471312532
 21
66.72831726845011
 31
0.0
  0
LINE
  5
1107
102
{ACAD_REACTORS
102
}
330
1F
100
AcDbEntity
  8
OŚ
100
AcDbLine
 10
632.793647098657
 20
89.34711635234261
 30
0.0
 11
632.793647098657
 21
68.06916998617051
 31
0.0
  0
LINE
  5
1108
102
{ACAD_REACTORS
102
}
330
1F
100
AcDbEntity
  8
OŚ
100
AcDbLine
 10
640.2936471638495
 20
89.34711635234261
 30
0.0
 11
640.2936471638495
 21
68.06916998617051
 31
0.0
  0
LINE
  5
1109
330
1F
100
AcDbEntity
  8
OŚ
100
AcDbLine
 10
554.6752056037785
 20
74.92148499235684
 30
0.0
 11
554.6752056037785
 21
68.52067322177878
 31
0.0
  0
LINE
  5
110A
330
1F
100
AcDbEntity
  8
OŚ
100
AcDbLine
 10
549.6752056037785
 20
74.92148499235687
 30
0.0
 11
549.6752056037785
 21
68.52067322177881
 31
0.0
  0
LINE
  5
110B
330
1F
100
AcDbEntity
  8
OŚ
100
AcDbLine
 10
587.1682054219546
 20
74.92148519486362
 30
0.0
 11
587.1682054219546
 21
68.52067342428556
 31
0.0
  0
DIMENSION
  5
1120
102
{ACAD_REACTORS
102
}
102
{ACAD_XDICTIONARY
360
1121
102
}
330
1F
100
AcDbEntity
  8
WY
100
AcDbDimension
  2
*D31
 10
596.2930145592494
 20
239.1136355580613
 30
0.0
 11
594.5430145592494
 21
242.8686355580613
 31
0.0
 70
    32
  3
ISO-25
100
AcDbAlignedDimension
 13
586.0449312213974
 23
246.6236355580613
 33
0.0
 14
586.0449312213974
 24
239.1136355580613
 34
0.0
 50
90.0
100
AcDbRotatedDimension
1001
ACAD
1000
DSTYLE
1002
{
1070
   287
1070
     5
1070
   143
1040
0.0393700787401575
1070
    41
1040
1.5
1070
   271
1070
     1
1070
    44
1040
1.0
1070
    42
1040
1.0
1070
   147
1040
1.0
1070
   279
1070
     2
1070
    74
1070
     1
1070
   140
1040
1.5
1002
}
  0
DIMENSION
  5
112F
102
{ACAD_REACTORS
102
}
102
{ACAD_XDICTIONARY
360
1130
102
}
330
1F
100
AcDbEntity
  8
WY
100
AcDbDimension
  2
*D32
 10
601.4380480205521
 20
249.1086368254591
 30
0.0
 11
599.6880480205521
 21
242.8686355580613
 31
0.0
 70
    32
  3
ISO-25
100
AcDbAlignedDimension
 13
586.390837892366
 23
236.6286342906635
 33
0.0
 14
586.390837892366
 24
249.1086368254591
 34
0.0
 50
90.0
100
AcDbRotatedDimension
1001
ACAD
1000
DSTYLE
1002
{
1070
   287
1070
     5
1070
   143
1040
0.0393700787401575
1070
    41
1040
1.5
1070
   271
1070
     1
1070
    44
1040
1.0
1070
    42
1040
1.0
1070
   147
1040
1.0
1070
   279
1070
     2
1070
    74
1070
     1
1070
   140
1040
1.5
1002
}
  0
DIMENSION
  5
113E
102
{ACAD_REACTORS
102
}
102
{ACAD_XDICTIONARY
360
113F
102
}
330
1F
100
AcDbEntity
  8
WY
100
AcDbDimension
  2
*D33
 10
546.53083452353
 20
185.7874602913484
 30
0.0
 11
566.7608343742204
 21
187.5374602913484
 31
0.0
 70
    32
  3
ISO-25
100
AcDbAlignedDimension
 13
586.9908342249107
 23
202.3762420711611
 33
0.0
 14
546.53083452353
 24
198.5912420854103
 34
0.0
100
AcDbRotatedDimension
1001
ACAD
1000
DSTYLE
1002
{
1070
   287
1070
     5
1070
   143
1040
0.0393700787401575
1070
    41
1040
1.5
1070
   271
1070
     1
1070
    44
1040
1.0
1070
    42
1040
1.0
1070
   147
1040
1.0
1070
   279
1070
     2
1070
    74
1070
     1
1070
   140
1040
1.5
1002
}
  0
DIMENSION
  5
114D
102
{ACAD_REACTORS
102
}
102
{ACAD_XDICTIONARY
360
114E
102
}
330
1F
100
AcDbEntity
  8
WY
100
AcDbDimension
  2
*D34
 10
552.00583452353
 20
193.3815790837084
 30
0.0
 11
549.50583452353
 21
195.1315790837084
 31
0.0
 70
    32
  3
ISO-25
100
AcDbAlignedDimension
 13
547.00583452353
 23
196.5375368690826
 33
0.0
 14
552.00583452353
 24
196.5375368690825
 34
0.0
100
AcDbRotatedDimension
1001
ACAD
1000
DSTYLE
1002
{
1070
   287
1070
     5
1070
   143
1040
0.0393700787401575
1070
    41
1040
1.5
1070
   271
1070
     1
1070
    44
1040
1.0
1070
    42
1040
1.0
1070
   147
1040
1.0
1070
   279
1070
     2
1070
    74
1070
     1
1070
   140
1040
1.5
1002
}
  0
DIMENSION
  5
1175
102
{ACAD_REACTORS
102
}
102
{ACAD_XDICTIONARY
360
1176
102
}
330
1F
100
AcDbEntity
  8
WY
100
AcDbDimension
  2
*D36
 10
586.9908342249107
 20
193.3815790837084
 30
0.0
 11
578.998834341706
 21
193.3815790837084
 31
0.0
 70
   160
  3
ISO-25
100
AcDbAlignedDimension
 13
584.498834341706
 23
196.5375370715893
 33
0.0
 14
586.9908342249107
 24
202.3762420711611
 34
0.0
100
AcDbRotatedDimension
1001
ACAD
1000
DSTYLE
1002
{
1070
   287
1070
     0
1070
   143
1040
0.0393700787401575
1070
    41
1040
1.5
1070
   289
1070
     0
1070
   271
1070
     1
1070
    44
1040
1.0
1070
    42
1040
1.0
1070
   147
1040
1.0
1070
    77
1070
     3
1070
   279
1070
     0
1070
    74
1070
     0
1070
   140
1040
1.5
1002
}
  0
DIMENSION
  5
118C
102
{ACAD_REACTORS
102
}
102
{ACAD_XDICTIONARY
360
118D
102
}
330
1F
100
AcDbEntity
  8
WY
100
AcDbDimension
  2
*D37
 10
552.7808340377521
 20
222.0103088489844
 30
0.0
 11
549.6558342240166
 21
223.7603088489844
 31
0.0
 70
    32
  3
ISO-25
100
AcDbAlignedDimension
 13
546.5308344102812
 23
214.8162423244249
 33
0.0
 14
552.7808340377521
 24
214.8162423244249
 34
0.0
100
AcDbRotatedDimension
1001
ACAD
1000
DSTYLE
1002
{
1070
   287
1070
     5
1070
   143
1040
0.0393700787401575
1070
    41
1040
1.5
1070
   289
1070
     0
1070
   271
1070
     1
1070
    44
1040
1.0
1070
    42
1040
1.0
1070
   147
1040
1.0
1070
    77
1070
     3
1070
   174
1070
     1
1070
   279
1070
     2
1070
    74
1070
     1
1070
   140
1040
1.5
1002
}
  0
DIMENSION
  5
119B
102
{ACAD_REACTORS
102
}
102
{ACAD_XDICTIONARY
360
119C
102
}
330
1F
100
AcDbEntity
  8
WY
100
AcDbDimension
  2
*D38
 10
540.3858786133312
 20
215.6162418967616
 30
0.0
 11
538.6358786133312
 21
208.9962419839613
 31
0.0
 70
    32
  3
ISO-25
100
AcDbAlignedDimension
 13
556.9708347431731
 23
202.3762420711611
 33
0.0
 14
547.3308349139404
 24
215.6162418967616
 34
0.0
 50
90.0
100
AcDbRotatedDimension
1001
ACAD
1000
DSTYLE
1002
{
1070
   287
1070
     5
1070
   143
1040
0.0393700787401575
1070
    41
1040
1.5
1070
   289
1070
     0
1070
   271
1070
     1
1070
    44
1040
1.0
1070
    42
1040
1.0
1070
   147
1040
1.0
1070
    77
1070
     3
1070
   174
1070
     1
1070
   279
1070
     2
1070
    74
1070
     1
1070
   140
1040
1.5
1002
}
  0
DIMENSION
  5
11AA
102
{ACAD_REACTORS
102
}
102
{ACAD_XDICTIONARY
360
11AB
102
}
330
1F
100
AcDbEntity
  8
WY
100
AcDbDimension
  2
*D39
 10
540.3858786133312
 20
202.3762420711611
 30
0.0
 11
538.6358786133312
 21
200.2462420782857
 31
0.0
 70
    32
  3
ISO-25
100
AcDbAlignedDimension
 13
547.00583452353
 23
198.1162420854103
 33
0.0
 14
556.9708347431731
 24
202.3762420711611
 34
0.0
 50
90.0
100
AcDbRotatedDimension
1001
ACAD
1000
DSTYLE
1002
{
1070
   287
1070
     5
1070
   143
1040
0.0393700787401575
1070
    41
1040
1.5
1070
   289
1070
     0
1070
   271
1070
     1
1070
    44
1040
1.0
1070
    42
1040
1.0
1070
   147
1040
1.0
1070
    77
1070
     3
1070
   174
1070
     1
1070
   279
1070
     2
1070
    74
1070
     1
1070
   140
1040
1.5
1002
}
  0
DIMENSION
  5
11BB
102
{ACAD_REACTORS
102
}
102
{ACAD_XDICTIONARY
360
11BC
102
}
330
1F
100
AcDbEntity
  8
WY
100
AcDbDimension
  2
*D40
 10
595.2246520338596
 20
218.0962421542537
 30
0.0
 11
593.4746520338596
 21
210.2362421127074
 31
0.0
 70
    32
  3
ISO-25
100
AcDbAlignedDimension
 13
586.9908342249107
 23
202.3762420711611
 33
0.0
 14
586.3411687425685
 24
218.0962421542537
 34
0.0
 50
90.0
100
AcDbRotatedDimension
1001
ACAD
1000
DSTYLE
1002
{
1070
   287
1070
     5
1070
   143
1040
0.0393700787401575
1070
    41
1040
1.5
1070
   289
1070
     0
1070
   271
1070
     1
1070
    44
1040
1.0
1070
    42
1040
1.0
1070
   147
1040
1.0
1070
    77
1070
     3
1070
   174
1070
     1
1070
   279
1070
     2
1070
    74
1070
     1
1070
   140
1040
1.5
1002
}
  0
DIMENSION
  5
11CA
102
{ACAD_REACTORS
102
}
102
{ACAD_XDICTIONARY
360
11CB
102
}
330
1F
100
AcDbEntity
  8
WY
100
AcDbDimension
  2
*D41
 10
638.5951083077099
 20
190.3049955392341
 30
0.0
 11
634.8451082751136
 21
192.0549955392341
 31
0.0
 70
    32
  3
ISO-25
100
AcDbAlignedDimension
 13
631.0951082425173
 23
196.0860336334742
 33
0.0
 14
638.5951083077099
 24
196.0860336334742
 34
0.0
100
AcDbRotatedDimension
1001
ACAD
1000
DSTYLE
1002
{
1070
   287
1070
     5
1070
   143
1040
0.0393700787401575
1070
    41
1040
1.5
1070
   289
1070
     0
1070
   271
1070
     1
1070
    44
1040
1.0
1070
    42
1040
1.0
1070
   147
1040
1.0
1070
    77
1070
     3
1070
   174
1070
     1
1070
   279
1070
     2
1070
    74
1070
     1
1070
   140
1040
1.5
1002
}
  0
DIMENSION
  5
11D9
102
{ACAD_REACTORS
102
}
102
{ACAD_XDICTIONARY
360
11DA
102
}
330
1F
100
AcDbEntity
  8
WY
100
AcDbDimension
  2
*D42
 10
641.0851082921009
 20
185.3578646623497
 30
0.0
 11
634.8451082751136
 21
187.1078646623497
 31
0.0
 70
    32
  3
ISO-25
100
AcDbAlignedDimension
 13
628.6051082581263
 23
202.6762420854103
 33
0.0
 14
641.0851082921009
 24
202.6762420854103
 34
0.0
100
AcDbRotatedDimension
1001
ACAD
1000
DSTYLE
1002
{
1070
   287
1070
     5
1070
   143
1040
0.0393700787401575
1070
    41
1040
1.5
1070
   289
1070
     0
1070
   271
1070
     1
1070
    44
1040
1.0
1070
    42
1040
1.0
1070
   147
1040
1.0
1070
    77
1070
     3
1070
   174
1070
     1
1070
   279
1070
     2
1070
    74
1070
     1
1070
   140
1040
1.5
1002
}
  0
DIMENSION
  5
11E8
102
{ACAD_REACTORS
102
}
102
{ACAD_XDICTIONARY
360
11E9
102
}
330
1F
100
AcDbEntity
  8
WY
100
AcDbDimension
  2
*D43
 10
552.0058348886084
 20
231.0164778300176
 30
0.0
 11
568.2523347060692
 21
232.7664778300176
 31
0.0
 70
    32
  3
ISO-25
100
AcDbAlignedDimension
 13
584.4988345235299
 23
237.4691487981356
 33
0.0
 14
552.0058348886084
 24
237.7186356228814
 34
0.0
100
AcDbRotatedDimension
1001
ACAD
1000
DSTYLE
1002
{
1070
   287
1070
     5
1070
   143
1040
0.0393700787401575
1070
    41
1040
1.5
1070
   289
1070
     0
1070
   271
1070
     1
1070
    44
1040
1.0
1070
    42
1040
1.0
1070
   147
1040
1.0
1070
    77
1070
     3
1070
   174
1070
     1
1070
   279
1070
     2
1070
    74
1070
     1
1070
   140
1040
1.5
1002
}
  0
LINE
  5
11F8
330
1F
100
AcDbEntity
  8
OŚ
100
AcDbLine
 10
552.0058348886084
 20
237.7186356228814
 30
0.0
 11
552.0058348886084
 21
247.9811108912029
 31
0.0
  0
LINE
  5
11F9
330
1F
100
AcDbEntity
  8
OŚ
100
AcDbLine
 10
547.0058340690446
 20
237.7186356228814
 30
0.0
 11
547.0058340690446
 21
247.9811108912029
 31
0.0
  0
DIMENSION
  5
11FB
102
{ACAD_REACTORS
102
}
102
{ACAD_XDICTIONARY
360
11FC
102
}
330
1F
100
AcDbEntity
  8
WY
100
AcDbDimension
  2
*D44
 10
586.9908342249107
 20
189.7759829045307
 30
0.0
 11
572.5149493775677
 21
191.5259829045307
 31
0.0
 70
    32
  3
ISO-25
100
AcDbAlignedDimension
 13
558.0390645302248
 23
208.1162420643997
 33
0.0
 14
586.9908342249107
 24
202.3762420711611
 34
0.0
100
AcDbRotatedDimension
1001
ACAD
1000
DSTYLE
1002
{
1070
   287
1070
     5
1070
   143
1040
0.0393700787401575
1070
    41
1040
1.5
1070
   289
1070
     0
1070
   271
1070
     1
1070
    44
1040
1.0
1070
    42
1040
1.0
1070
   147
1040
1.0
1070
    77
1070
     3
1070
   174
1070
     1
1070
   279
1070
     2
1070
    74
1070
     1
1070
   140
1040
1.5
1002
}
  0
DIMENSION
  5
120A
102
{ACAD_XDICTIONARY
360
120B
102
}
330
1F
100
AcDbEntity
  8
WY
100
AcDbDimension
  2
*D45
 10
598.9623856394979
 20
121.771573581302
 30
0.0
 11
597.2123856394979
 21
125.526573581302
 31
0.0
 70
    32
  3
ISO-25
100
AcDbAlignedDimension
 13
588.714302301646
 23
129.281573581302
 33
0.0
 14
588.714302301646
 24
121.771573581302
 34
0.0
 50
90.0
100
AcDbRotatedDimension
1001
ACAD
1000
DSTYLE
1002
{
1070
   287
1070
     5
1070
   143
1040
0.0393700787401575
1070
    41
1040
1.5
1070
   271
1070
     1
1070
    44
1040
1.0
1070
    42
1040
1.0
1070
   147
1040
1.0
1070
   279
1070
     2
1070
    74
1070
     1
1070
   140
1040
1.5
1002
}
  0
DIMENSION
  5
120D
102
{ACAD_XDICTIONARY
360
120E
102
}
330
1F
100
AcDbEntity
  8
WY
100
AcDbDimension
  2
*D46
 10
604.1074191008006
 20
131.7665748486998
 30
0.0
 11
602.3574191008006
 21
125.526573581302
 31
0.0
 70
    32
  3
ISO-25
100
AcDbAlignedDimension
 13
589.0602089726145
 23
119.2865723139042
 33
0.0
 14
589.0602089726145
 24
131.7665748486998
 34
0.0
 50
90.0
100
AcDbRotatedDimension
1001
ACAD
1000
DSTYLE
1002
{
1070
   287
1070
     5
1070
   143
1040
0.0393700787401575
1070
    41
1040
1.5
1070
   271
1070
     1
1070
    44
1040
1.0
1070
    42
1040
1.0
1070
   147
1040
1.0
1070
   279
1070
     2
1070
    74
1070
     1
1070
   140
1040
1.5
1002
}
  0
DIMENSION
  5
1210
102
{ACAD_XDICTIONARY
360
1211
102
}
330
1F
100
AcDbEntity
  8
WY
100
AcDbDimension
  2
*D47
 10
554.675205968857
 20
113.6744158532584
 30
0.0
 11
570.9217057863177
 21
115.4244158532584
 31
0.0
 70
    32
  3
ISO-25
100
AcDbAlignedDimension
 13
587.1682056037785
 23
120.1270868213763
 33
0.0
 14
554.675205968857
 24
120.3765736461221
 34
0.0
100
AcDbRotatedDimension
1001
ACAD
1000
DSTYLE
1002
{
1070
   287
1070
     5
1070
   143
1040
0.0393700787401575
1070
    41
1040
1.5
1070
   289
1070
     0
1070
   271
1070
     1
1070
    44
1040
1.0
1070
    42
1040
1.0
1070
   147
1040
1.0
1070
    77
1070
     3
1070
   174
1070
     1
1070
   279
1070
     2
1070
    74
1070
     1
1070
   140
1040
1.5
1002
}
  0
DIMENSION
  5
1237
102
{ACAD_XDICTIONARY
360
1238
102
}
330
1F
100
AcDbEntity
  8
WY
100
AcDbDimension
  2
*D48
 10
549.2002056037785
 20
57.77059664404466
 30
0.0
 11
569.4302054544689
 21
59.52059664404466
 31
0.0
 70
    32
  3
ISO-25
100
AcDbAlignedDimension
 13
589.6602053051593
 23
74.35937842385731
 33
0.0
 14
549.2002056037785
 24
70.57437843810656
 34
0.0
100
AcDbRotatedDimension
1001
ACAD
1000
DSTYLE
1002
{
1070
   287
1070
     5
1070
   143
1040
0.0393700787401575
1070
    41
1040
1.5
1070
   271
1070
     1
1070
    44
1040
1.0
1070
    42
1040
1.0
1070
   147
1040
1.0
1070
   279
1070
     2
1070
    74
1070
     1
1070
   140
1040
1.5
1002
}
  0
DIMENSION
  5
123A
102
{ACAD_XDICTIONARY
360
123B
102
}
330
1F
100
AcDbEntity
  8
WY
100
AcDbDimension
  2
*D49
 10
589.6602053051593
 20
61.75911925722691
 30
0.0
 11
575.1843204578163
 21
63.50911925722691
 31
0.0
 70
    32
  3
ISO-25
100
AcDbAlignedDimension
 13
560.7084356104733
 23
80.0993784170959
 33
0.0
 14
589.6602053051593
 24
74.35937842385731
 34
0.0
100
AcDbRotatedDimension
1001
ACAD
1000
DSTYLE
1002
{
1070
   287
1070
     5
1070
   143
1040
0.0393700787401575
1070
    41
1040
1.5
1070
   289
1070
     0
1070
   271
1070
     1
1070
    44
1040
1.0
1070
    42
1040
1.0
1070
   147
1040
1.0
1070
    77
1070
     3
1070
   174
1070
     1
1070
   279
1070
     2
1070
    74
1070
     1
1070
   140
1040
1.5
1002
}
  0
DIMENSION
  5
123D
102
{ACAD_XDICTIONARY
360
123E
102
}
330
1F
100
AcDbEntity
  8
WY
100
AcDbDimension
  2
*D50
 10
589.6602053051593
 20
65.36471543640464
 30
0.0
 11
581.6682054219546
 21
65.36471543640464
 31
0.0
 70
   160
  3
ISO-25
100
AcDbAlignedDimension
 13
587.1682054219546
 23
68.52067342428556
 33
0.0
 14
589.6602053051593
 24
74.35937842385731
 34
0.0
100
AcDbRotatedDimension
1001
ACAD
1000
DSTYLE
1002
{
1070
   287
1070
     0
1070
   143
1040
0.0393700787401575
1070
    41
1040
1.5
1070
   289
1070
     0
1070
   271
1070
     1
1070
    44
1040
1.0
1070
    42
1040
1.0
1070
   147
1040
1.0
1070
    77
1070
     3
1070
   279
1070
     0
1070
    74
1070
     0
1070
   140
1040
1.5
1002
}
  0
DIMENSION
  5
1240
102
{ACAD_XDICTIONARY
360
1241
102
}
330
1F
100
AcDbEntity
  8
WY
100
AcDbDimension
  2
*D51
 10
554.6752056037785
 20
65.36471543640464
 30
0.0
 11
552.1752056037785
 21
67.11471543640464
 31
0.0
 70
    32
  3
ISO-25
100
AcDbAlignedDimension
 13
549.6752056037785
 23
68.52067322177881
 33
0.0
 14
554.6752056037785
 24
68.52067322177878
 34
0.0
100
AcDbRotatedDimension
1001
ACAD
1000
DSTYLE
1002
{
1070
   287
1070
     5
1070
   143
1040
0.0393700787401575
1070
    41
1040
1.5
1070
   271
1070
     1
1070
    44
1040
1.0
1070
    42
1040
1.0
1070
   147
1040
1.0
1070
   279
1070
     2
1070
    74
1070
     1
1070
   140
1040
1.5
1002
}
  0
DIMENSION
  5
1276
102
{ACAD_REACTORS
102
}
102
{ACAD_XDICTIONARY
360
1277
102
}
330
1F
100
AcDbEntity
  8
WY
100
AcDbDimension
  2
*D52
 10
539.8219526463832
 20
88.49937858324388
 30
0.0
 11
538.0719526463832
 21
85.34937857914606
 31
0.0
 70
    32
  3
ISO-25
100
AcDbAlignedDimension
 13
546.0002053385379
 23
82.19937857504824
 33
0.0
 14
546.0002053385379
 24
88.49937858324388
 34
0.0
 50
90.0
100
AcDbRotatedDimension
1001
ACAD
1000
DSTYLE
1002
{
1070
   287
1070
     5
1070
   143
1040
0.0393700787401575
1070
    41
1040
1.5
1070
   289
1070
     0
1070
   271
1070
     1
1070
    44
1040
1.0
1070
    42
1040
1.0
1070
   147
1040
1.0
1070
    77
1070
     3
1070
   174
1070
     1
1070
   279
1070
     2
1070
    74
1070
     1
1070
   140
1040
1.5
1002
}
  0
DIMENSION
  5
1285
102
{ACAD_REACTORS
102
}
102
{ACAD_XDICTIONARY
360
1286
102
}
330
1F
100
AcDbEntity
  8
WY
100
AcDbDimension
  2
*D53
 10
536.1548061456547
 20
74.35937842385734
 30
0.0
 11
534.4048061456547
 21
81.42937850355061
 31
0.0
 70
    32
  3
ISO-25
100
AcDbAlignedDimension
 13
546.0002053385379
 23
88.49937858324388
 33
0.0
 14
559.6402058234216
 24
74.35937842385734
 34
0.0
 50
90.0
100
AcDbRotatedDimension
1001
ACAD
1000
DSTYLE
1002
{
1070
   287
1070
     5
1070
   143
1040
0.0393700787401575
1070
    41
1040
1.5
1070
   289
1070
     0
1070
   271
1070
     1
1070
    44
1040
1.0
1070
    42
1040
1.0
1070
   147
1040
1.0
1070
    77
1070
     3
1070
   174
1070
     1
1070
   279
1070
     2
1070
    74
1070
     1
1070
   140
1040
1.5
1002
}
  0
DIMENSION
  5
1294
102
{ACAD_REACTORS
102
}
102
{ACAD_XDICTIONARY
360
1295
102
}
330
1F
100
AcDbEntity
  8
WY
100
AcDbDimension
  2
*D54
 10
536.1548061456547
 20
70.09937843810656
 30
0.0
 11
534.4048061456547
 21
72.22937843098194
 31
0.0
 70
    32
  3
ISO-25
100
AcDbAlignedDimension
 13
559.6402058234216
 23
74.35937842385734
 33
0.0
 14
549.6752056037785
 24
70.09937843810656
 34
0.0
 50
90.0
100
AcDbRotatedDimension
1001
ACAD
1000
DSTYLE
1002
{
1070
   287
1070
     5
1070
   143
1040
0.0393700787401575
1070
    41
1040
1.5
1070
   289
1070
     0
1070
   271
1070
     1
1070
    44
1040
1.0
1070
    42
1040
1.0
1070
   147
1040
1.0
1070
    77
1070
     3
1070
   174
1070
     1
1070
   279
1070
     2
1070
    74
1070
     1
1070
   140
1040
1.5
1002
}
  0
DIMENSION
  5
12A5
102
{ACAD_REACTORS
102
}
102
{ACAD_XDICTIONARY
360
12A6
102
}
330
1F
100
AcDbEntity
  8
WY
100
AcDbDimension
  2
*D55
 10
589.6602053051593
 20
52.86063682654668
 30
0.0
 11
567.4302050700189
 21
54.61063682654668
 31
0.0
 70
    32
  3
ISO-25
100
AcDbAlignedDimension
 13
545.2002048348786
 23
82.9993786130462
 33
0.0
 14
589.6602053051593
 24
74.35937842385734
 34
0.0
100
AcDbRotatedDimension
1001
ACAD
1000
DSTYLE
1002
{
1070
   287
1070
     5
1070
   143
1040
0.0393700787401575
1070
    41
1040
1.5
1070
   289
1070
     0
1070
   271
1070
     1
1070
    44
1040
1.0
1070
    42
1040
1.0
1070
   147
1040
1.0
1070
    77
1070
     3
1070
   174
1070
     1
1070
   279
1070
     2
1070
    74
1070
     1
1070
   140
1040
1.5
1002
}
  0
DIMENSION
  5
12B4
102
{ACAD_REACTORS
102
}
102
{ACAD_XDICTIONARY
360
12B5
102
}
330
1F
100
AcDbEntity
  8
WY
100
AcDbDimension
  2
*D56
 10
596.296221202139
 20
90.07937850694994
 30
0.0
 11
594.546221202139
 21
82.21937846540364
 31
0.0
 70
    32
  3
ISO-25
100
AcDbAlignedDimension
 13
589.6502829944493
 23
74.35937842385734
 33
0.0
 14
589.010539822817
 24
90.07937850694994
 34
0.0
 50
90.0
100
AcDbRotatedDimension
1001
ACAD
1000
DSTYLE
1002
{
1070
   287
1070
     5
1070
   143
1040
0.0393700787401575
1070
    41
1040
1.5
1070
   289
1070
     0
1070
   271
1070
     1
1070
    44
1040
1.0
1070
    42
1040
1.0
1070
   147
1040
1.0
1070
    77
1070
     3
1070
   174
1070
     1
1070
   279
1070
     2
1070
    74
1070
     1
1070
   140
1040
1.5
1002
}
  0
DIMENSION
  5
12C3
102
{ACAD_REACTORS
102
}
102
{ACAD_XDICTIONARY
360
12C4
102
}
330
1F
100
AcDbEntity
  8
WY
100
AcDbDimension
  2
*D57
 10
640.2936471638495
 20
60.73435307144418
 30
0.0
 11
636.5436471312532
 21
62.48435307144418
 31
0.0
 70
    32
  3
ISO-25
100
AcDbAlignedDimension
 13
632.793647098657
 23
68.06916998617051
 33
0.0
 14
640.2936471638495
 24
68.06916998617051
 34
0.0
100
AcDbRotatedDimension
1001
ACAD
1000
DSTYLE
1002
{
1070
   287
1070
     5
1070
   143
1040
0.0393700787401575
1070
    41
1040
1.5
1070
   289
1070
     0
1070
   271
1070
     1
1070
    44
1040
1.0
1070
    42
1040
1.0
1070
   147
1040
1.0
1070
    77
1070
     3
1070
   174
1070
     1
1070
   279
1070
     2
1070
    74
1070
     1
1070
   140
1040
1.5
1002
}
  0
DIMENSION
  5
12D2
102
{ACAD_REACTORS
102
}
102
{ACAD_XDICTIONARY
360
12D3
102
}
330
1F
100
AcDbEntity
  8
WY
100
AcDbDimension
  2
*D58
 10
642.7836471482406
 20
56.73316087235128
 30
0.0
 11
636.5436471312532
 21
58.48316087235128
 31
0.0
 70
    32
  3
ISO-25
100
AcDbAlignedDimension
 13
630.3036471142659
 23
74.65937843810657
 33
0.0
 14
642.7836471482406
 24
74.65937843810657
 34
0.0
100
AcDbRotatedDimension
1001
ACAD
1000
DSTYLE
1002
{
1070
   287
1070
     5
1070
   143
1040
0.0393700787401575
1070
    41
1040
1.5
1070
   289
1070
     0
1070
   271
1070
     1
1070
    44
1040
1.0
1070
    42
1040
1.0
1070
   147
1040
1.0
1070
    77
1070
     3
1070
   174
1070
     1
1070
   279
1070
     2
1070
    74
1070
     1
1070
   140
1040
1.5
1002
}
  0
DIMENSION
  5
12E1
102
{ACAD_REACTORS
102
}
102
{ACAD_XDICTIONARY
360
12E2
102
}
330
1F
100
AcDbEntity
  8
WY
100
AcDbDimension
  2
*D59
 10
623.425056677331
 20
90.07937850694994
 30
0.0
 11
621.675056677331
 21
80.08937857378164
 31
0.0
 70
    32
  3
ISO-25
100
AcDbAlignedDimension
 13
632.3936471960733
 23
70.09937864061335
 33
0.0
 14
630.9533130622694
 24
90.07937850694994
 34
0.0
 50
90.0
100
AcDbRotatedDimension
1001
ACAD
1000
DSTYLE
1002
{
1070
   287
1070
     5
1070
   143
1040
0.0393700787401575
1070
    41
1040
1.5
1070
   289
1070
     0
1070
   271
1070
     1
1070
    44
1040
1.0
1070
    42
1040
1.0
1070
   147
1040
1.0
1070
    77
1070
     3
1070
   174
1070
     1
1070
   279
1070
     2
1070
    74
1070
     1
1070
   140
1040
1.5
1002
}
  0
DIMENSION
  5
12F0
102
{ACAD_REACTORS
102
}
102
{ACAD_XDICTIONARY
360
12F1
102
}
330
1F
100
AcDbEntity
  8
WY
100
AcDbDimension
  2
*D60
 10
622.7409766179659
 20
218.0962421542537
 30
0.0
 11
620.9909766179659
 21
208.1062422210854
 31
0.0
 70
    32
  3
ISO-25
100
AcDbAlignedDimension
 13
630.6951083399337
 23
198.1162422879171
 33
0.0
 14
629.2547742061298
 24
218.0962421542537
 34
0.0
 50
90.0
100
AcDbRotatedDimension
1001
ACAD
1000
DSTYLE
1002
{
1070
   287
1070
     5
1070
   143
1040
0.0393700787401575
1070
    41
1040
1.5
1070
   289
1070
     0
1070
   271
1070
     1
1070
    44
1040
1.0
1070
    42
1040
1.0
1070
   147
1040
1.0
1070
    77
1070
     3
1070
   174
1070
     1
1070
   279
1070
     2
1070
    74
1070
     1
1070
   140
1040
1.5
1002
}
  0
ENDSEC
  0
SECTION
  2
OBJECTS
  0
DICTIONARY
  5
C
330
0
100
AcDbDictionary
  3
ACAD_DETAILVIEWSTYLE
350
823
  3
ACAD_GROUP
350
D
  3
ACAD_IMAGE_VARS
350
1F5
  3
ACAD_MLINESTYLE
350
17
  3
ACAD_SCALELIST
350
B4F
  3
ACAD_SECTIONVIEWSTYLE
350
824
  3
ACDBVARIABLEDICTIONARY
350
81E
  3
APPDATA
350
1F3
  3
DIMOFFSETDICTIONARY
350
834
  3
DWGPROPS
350
1300
  0
DICTIONARY
  5
81B
330
2
100
AcDbDictionary
280
     1
  3
ACAD_LAYERSTATES
360
81C
  3
ACLYDICTIONARY
360
829
  0
DICTIONARY
  5
1121
330
1120
100
AcDbDictionary
280
     1
  0
DICTIONARY
  5
1130
330
112F
100
AcDbDictionary
280
     1
  0
DICTIONARY
  5
113F
330
113E
100
AcDbDictionary
280
     1
  0
DICTIONARY
  5
114E
330
114D
100
AcDbDictionary
280
     1
  0
DICTIONARY
  5
1176
330
1175
100
AcDbDictionary
280
     1
  0
DICTIONARY
  5
118D
330
118C
100
AcDbDictionary
280
     1
  0
DICTIONARY
  5
119C
330
119B
100
AcDbDictionary
280
     1
  0
DICTIONARY
  5
11AB
330
11AA
100
AcDbDictionary
280
     1
  0
DICTIONARY
  5
11BC
330
11BB
100
AcDbDictionary
280
     1
  0
DICTIONARY
  5
11CB
330
11CA
100
AcDbDictionary
280
     1
  0
DICTIONARY
  5
11DA
330
11D9
100
AcDbDictionary
280
     1
  0
DICTIONARY
  5
11E9
330
11E8
100
AcDbDictionary
280
     1
  0
DICTIONARY
  5
11FC
330
11FB
100
AcDbDictionary
280
     1
  0
DICTIONARY
  5
120B
330
120A
100
AcDbDictionary
280
     1
  0
DICTIONARY
  5
120E
330
120D
100
AcDbDictionary
280
     1
  0
DICTIONARY
  5
1211
330
1210
100
AcDbDictionary
280
     1
  0
DICTIONARY
  5
1238
330
1237
100
AcDbDictionary
280
     1
  0
DICTIONARY
  5
123B
330
123A
100
AcDbDictionary
280
     1
  0
DICTIONARY
  5
123E
330
123D
100
AcDbDictionary
280
     1
  0
DICTIONARY
  5
1241
330
1240
100
AcDbDictionary
280
     1
  0
DICTIONARY
  5
1277
330
1276
100
AcDbDictionary
280
     1
  0
DICTIONARY
  5
1286
330
1285
100
AcDbDictionary
280
     1
  0
DICTIONARY
  5
1295
330
1294
100
AcDbDictionary
280
     1
  0
DICTIONARY
  5
12A6
330
12A5
100
AcDbDictionary
280
     1
  0
DICTIONARY
  5
12B5
330
12B4
100
AcDbDictionary
280
     1
  0
DICTIONARY
  5
12C4
330
12C3
100
AcDbDictionary
280
     1
  0
DICTIONARY
  5
12D3
330
12D2
100
AcDbDictionary
280
     1
  0
DICTIONARY
  5
12E2
330
12E1
100
AcDbDictionary
280
     1
  0
DICTIONARY
  5
12F1
330
12F0
100
AcDbDictionary
280
     1
  0
DICTIONARY
  5
823
102
{ACAD_REACTORS
330
C
102
}
330
C
100
AcDbDictionary
  0
DICTIONARY
  5
D
102
{ACAD_REACTORS
330
C
102
}
330
C
100
AcDbDictionary
  0
RASTERVARIABLES
  5
1F5
102
{ACAD_REACTORS
330
C
102
}
330
C
100
AcDbRasterVariables
 90
        0
 70
     1
 71
     1
 72
     1
  0
DICTIONARY
  5
17
102
{ACAD_REACTORS
330
C
102
}
330
C
100
AcDbDictionary
  3
STANDARD
350
18
  0
DICTIONARY
  5
B4F
102
{ACAD_REACTORS
330
C
102
}
330
C
100
AcDbDictionary
  0
DICTIONARY
  5
824
102
{ACAD_REACTORS
330
C
102
}
330
C
100
AcDbDictionary
  0
DICTIONARY
  5
81E
102
{ACAD_REACTORS
330
C
102
}
330
C
100
AcDbDictionary
  3
HPTRANSPARENCY
350
833
  0
DICTIONARY
  5
1F3
102
{ACAD_REACTORS
330
C
102
}
330
C
100
AcDbDictionary
  0
DICTIONARY
  5
834
102
{ACAD_REACTORS
330
C
102
}
330
C
100
AcDbDictionary
  3
DIMRAILANGLE
350
118A
  3
DIMRAILFIRSTOFFSET
350
1188
  3
DIMRAILOFFSET
350
1189
  3
DIMRAILSENABLED
350
118B
  0
XRECORD
  5
1300
102
{ACAD_REACTORS
330
C
102
}
330
C
100
AcDbXrecord
  1
DWGPROPS COOKIE
  2

  3

  4

  6

  7

  8
pikusl
  9

300
=
301
=
302
=
303
=
304
=
305
=
306
=
307
=
308
=
309
=
 40
0.0
 41
2457520.393485509
 42
2457520.447868044
  1

 90
        0
  0
DICTIONARY
  5
81C
102
{ACAD_REACTORS
330
81B
102
}
330
81B
100
AcDbDictionary
  0
DICTIONARY
  5
829
102
{ACAD_REACTORS
330
81B
102
}
330
81B
100
AcDbDictionary
1001
ACAD
1000
<All
  0
MLINESTYLE
  5
18
102
{ACAD_REACTORS
330
17
102
}
330
17
100
AcDbMlineStyle
  2
Standard
 70
     0
  3

 62
   256
 51
90.0
 52
90.0
 71
     2
 49
0.5
 62
   256
  6
BYLAYER
 49
-0.5
 62
   256
  6
BYLAYER
  0
DICTIONARYVAR
  5
833
102
{ACAD_REACTORS
330
81E
102
}
330
81E
100
DictionaryVariables
280
     0
  1
ByLayer
  0
DICTIONARYVAR
  5
118A
102
{ACAD_REACTORS
330
834
102
}
330
834
100
DictionaryVariables
280
     0
  1
0.261799
  0
DICTIONARYVAR
  5
1188
102
{ACAD_REACTORS
330
834
102
}
330
834
100
DictionaryVariables
280
     0
  1
10.000000
  0
DICTIONARYVAR
  5
1189
102
{ACAD_REACTORS
330
834
102
}
330
834
100
DictionaryVariables
280
     0
  1
6.000000
  0
DICTIONARYVAR
  5
118B
102
{ACAD_REACTORS
330
834
102
}
330
834
100
DictionaryVariables
280
     0
  1
1
  0
ENDSEC
  0
EOF
