  0
SECTION
  2
HEADER
  9
$ACADVER
  1
AC1014
  9
$ACADMAINTVER
 70
     9
  9
$DWGCODEPAGE
  3
ANSI_1250
  9
$INSBASE
 10
0.0
 20
0.0
 30
0.0
  9
$EXTMIN
 10
486.041244
 20
0.0
 30
0.0
  9
$EXTMAX
 10
687.671651
 20
297.0
 30
0.0
  9
$LIMMIN
 10
0.0
 20
0.0
  9
$LIMMAX
 10
420.0
 20
297.0
  9
$ORTHOMODE
 70
     0
  9
$REGENMODE
 70
     1
  9
$FILLMODE
 70
     1
  9
$QTEXTMODE
 70
     0
  9
$MIRRTEXT
 70
     1
  9
$DRAGMODE
 70
     2
  9
$LTSCALE
 40
6.0
  9
$OSMODE
 70
 13247
  9
$ATTMODE
 70
     1
  9
$TEXTSIZE
 40
0.2
  9
$TRACEWID
 40
0.05
  9
$TEXTSTYLE
  7
ITALIC
  9
$CLAYER
  8
1
  9
$CELTYPE
  6
BYLAYER
  9
$CECOLOR
 62
   256
  9
$CELTSCALE
 40
1.0
  9
$DELOBJ
 70
     1
  9
$DISPSILH
 70
     0
  9
$DIMSCALE
 40
1.0
  9
$DIMASZ
 40
2.5
  9
$DIMEXO
 40
1.5
  9
$DIMDLI
 40
7.0
  9
$DIMRND
 40
0.0
  9
$DIMDLE
 40
0.0
  9
$DIMEXE
 40
1.5
  9
$DIMTP
 40
0.1
  9
$DIMTM
 40
0.0
  9
$DIMTXT
 40
1.5
  9
$DIMCEN
 40
-1.0
  9
$DIMTSZ
 40
0.0
  9
$DIMTOL
 70
     0
  9
$DIMLIM
 70
     0
  9
$DIMTIH
 70
     0
  9
$DIMTOH
 70
     1
  9
$DIMSE1
 70
     0
  9
$DIMSE2
 70
     0
  9
$DIMTAD
 70
     1
  9
$DIMZIN
 70
     8
  9
$DIMBLK
  1

  9
$DIMASO
 70
     1
  9
$DIMSHO
 70
     0
  9
$DIMPOST
  1

  9
$DIMAPOST
  1

  9
$DIMALT
 70
     0
  9
$DIMALTD
 70
     2
  9
$DIMALTF
 40
25.4
  9
$DIMLFAC
 40
1.0
  9
$DIMTOFL
 70
     1
  9
$DIMTVP
 40
0.0
  9
$DIMTIX
 70
     1
  9
$DIMSOXD
 70
     0
  9
$DIMSAH
 70
     0
  9
$DIMBLK1
  1

  9
$DIMBLK2
  1

  9
$DIMSTYLE
  2
STANDARD
  9
$DIMCLRD
 70
     0
  9
$DIMCLRE
 70
     0
  9
$DIMCLRT
 70
     0
  9
$DIMTFAC
 40
1.0
  9
$DIMGAP
 40
0.75
  9
$DIMJUST
 70
     0
  9
$DIMSD1
 70
     0
  9
$DIMSD2
 70
     0
  9
$DIMTOLJ
 70
     1
  9
$DIMTZIN
 70
     8
  9
$DIMALTZ
 70
     0
  9
$DIMALTTZ
 70
     0
  9
$DIMFIT
 70
     4
  9
$DIMUPT
 70
     0
  9
$DIMUNIT
 70
     2
  9
$DIMDEC
 70
     2
  9
$DIMTDEC
 70
     4
  9
$DIMALTU
 70
     2
  9
$DIMALTTD
 70
     2
  9
$DIMTXSTY
  7
STANDARD
  9
$DIMAUNIT
 70
     0
  9
$LUNITS
 70
     2
  9
$LUPREC
 70
     2
  9
$SKETCHINC
 40
0.1
  9
$FILLETRAD
 40
0.1
  9
$AUNITS
 70
     0
  9
$AUPREC
 70
     2
  9
$MENU
  1
ACAD
  9
$ELEVATION
 40
0.0
  9
$PELEVATION
 40
0.0
  9
$THICKNESS
 40
0.0
  9
$LIMCHECK
 70
     0
  9
$CHAMFERA
 40
0.0
  9
$CHAMFERB
 40
0.0
  9
$CHAMFERC
 40
0.0
  9
$CHAMFERD
 40
0.0
  9
$SKPOLY
 70
     0
  9
$TDCREATE
 40
2448721.39913669
  9
$TDUPDATE
 40
2457560.443338426
  9
$TDINDWG
 40
1.5916776736
  9
$TDUSRTIMER
 40
2457560.358774664
  9
$USRTIMER
 70
     1
  9
$ANGBASE
 50
0.0
  9
$ANGDIR
 70
     0
  9
$PDMODE
 70
     0
  9
$PDSIZE
 40
0.0
  9
$PLINEWID
 40
0.5
  9
$COORDS
 70
     1
  9
$SPLFRAME
 70
     0
  9
$SPLINETYPE
 70
     6
  9
$SPLINESEGS
 70
     8
  9
$ATTDIA
 70
     0
  9
$ATTREQ
 70
     1
  9
$HANDLING
 70
     1
  9
$HANDSEED
  5
1803E
  9
$SURFTAB1
 70
     6
  9
$SURFTAB2
 70
     6
  9
$SURFTYPE
 70
     6
  9
$SURFU
 70
     6
  9
$SURFV
 70
     6
  9
$UCSNAME
  2

  9
$UCSORG
 10
0.0
 20
0.0
 30
0.0
  9
$UCSXDIR
 10
1.0
 20
0.0
 30
0.0
  9
$UCSYDIR
 10
0.0
 20
1.0
 30
0.0
  9
$PUCSNAME
  2

  9
$PUCSORG
 10
0.0
 20
0.0
 30
0.0
  9
$PUCSXDIR
 10
1.0
 20
0.0
 30
0.0
  9
$PUCSYDIR
 10
0.0
 20
1.0
 30
0.0
  9
$USERI1
 70
     0
  9
$USERI2
 70
     0
  9
$USERI3
 70
     0
  9
$USERI4
 70
     0
  9
$USERI5
 70
     0
  9
$USERR1
 40
0.0
  9
$USERR2
 40
0.0
  9
$USERR3
 40
0.0
  9
$USERR4
 40
0.0
  9
$USERR5
 40
0.0
  9
$WORLDVIEW
 70
     1
  9
$SHADEDGE
 70
     3
  9
$SHADEDIF
 70
    70
  9
$TILEMODE
 70
     1
  9
$MAXACTVP
 70
    16
  9
$PINSBASE
 10
0.0
 20
0.0
 30
0.0
  9
$PLIMCHECK
 70
     0
  9
$PEXTMIN
 10
1.000000000000000E+20
 20
1.000000000000000E+20
 30
1.000000000000000E+20
  9
$PEXTMAX
 10
-1.000000000000000E+20
 20
-1.000000000000000E+20
 30
-1.000000000000000E+20
  9
$PLIMMIN
 10
0.0
 20
0.0
  9
$PLIMMAX
 10
0.0
 20
0.0
  9
$UNITMODE
 70
     0
  9
$VISRETAIN
 70
     0
  9
$PLINEGEN
 70
     0
  9
$PSLTSCALE
 70
     0
  9
$TREEDEPTH
 70
  3020
  9
$PICKSTYLE
 70
     1
  9
$CMLSTYLE
  2
STANDARD
  9
$CMLJUST
 70
     0
  9
$CMLSCALE
 40
1.0
  9
$PROXYGRAPHICS
 70
     1
  9
$MEASUREMENT
 70
     0
  0
ENDSEC
  0
SECTION
  2
CLASSES
  0
CLASS
  1
HATCH
  2
AcDbHatch
  3
ObjectDBX Classes
 90
        0
280
     0
281
     1
  0
CLASS
  1
LWPOLYLINE
  2
AcDbPolyline
  3
ObjectDBX Classes
 90
        0
280
     0
281
     1
  0
CLASS
  1
DICTIONARYVAR
  2
AcDbDictionaryVar
  3
ObjectDBX Classes
 90
        0
280
     0
281
     0
  0
CLASS
  1
XRECORD
  2
AcDbXrecord
  3
ObjectDBX Classes
 90
        0
280
     0
281
     0
  0
CLASS
  1
SCALE
  2
AcDbScale
  3
ObjectDBX Classes
 90
     1153
280
     0
281
     0
  0
CLASS
  1
VISUALSTYLE
  2
AcDbVisualStyle
  3
ObjectDBX Classes
 90
     4095
280
     0
281
     0
  0
CLASS
  1
MATERIAL
  2
AcDbMaterial
  3
ObjectDBX Classes
 90
     1153
280
     0
281
     0
  0
CLASS
  1
TABLESTYLE
  2
AcDbTableStyle
  3
ObjectDBX Classes
 90
     4095
280
     0
281
     0
  0
CLASS
  1
MLEADERSTYLE
  2
AcDbMLeaderStyle
  3
ACDB_MLEADERSTYLE_CLASS
 90
     4095
280
     0
281
     0
  0
CLASS
  1
SUN
  2
AcDbSun
  3
SCENEOE
 90
     1153
280
     0
281
     0
  0
CLASS
  1
RASTERVARIABLES
  2
AcDbRasterVariables
  3
ISM
 90
        0
280
     0
281
     0
  0
CLASS
  1
DIMASSOC
  2
AcDbDimAssoc
  3
"AcDbDimAssoc|Product Desc:     AcDim ARX App For Dimension|Company:          Autodesk, Inc.|WEB Address:      www.autodesk.com"
 90
        0
280
     0
281
     0
  0
CLASS
  1
ACDBDICTIONARYWDFLT
  2
AcDbDictionaryWithDefault
  3
ObjectDBX Classes
 90
        0
280
     0
281
     0
  0
ENDSEC
  0
SECTION
  2
TABLES
  0
TABLE
  2
VPORT
  5
8
330
0
100
AcDbSymbolTable
 70
     1
  0
VPORT
  5
F0F7
330
8
100
AcDbSymbolTableRecord
100
AcDbViewportTableRecord
  2
*ACTIVE
 70
     0
 10
0.0
 20
0.0
 11
1.0
 21
1.0
 12
586.8564475000001
 22
148.5
 13
0.0
 23
0.0
 14
1.0
 24
1.0
 15
5.0
 25
5.0
 16
0.0
 26
0.0
 36
1.0
 17
0.0
 27
0.0
 37
0.0
 40
302.94
 41
2.811127379209371
 42
50.0
 43
0.0
 44
0.0
 50
0.0
 51
0.0
 71
    16
 72
   200
 73
     1
 74
     0
 75
     0
 76
     0
 77
     0
 78
     0
  0
ENDTAB
  0
TABLE
  2
LTYPE
  5
5
330
0
100
AcDbSymbolTable
 70
     5
  0
LTYPE
  5
12
330
5
100
AcDbSymbolTableRecord
100
AcDbLinetypeTableRecord
  2
BYBLOCK
 70
     0
  3

 72
    65
 73
     0
 40
0.0
  0
LTYPE
  5
13
330
5
100
AcDbSymbolTableRecord
100
AcDbLinetypeTableRecord
  2
BYLAYER
 70
     0
  3

 72
    65
 73
     0
 40
0.0
  0
LTYPE
  5
14
330
5
100
AcDbSymbolTableRecord
100
AcDbLinetypeTableRecord
  2
CONTINUOUS
 70
     0
  3
Solid line
 72
    65
 73
     0
 40
0.0
  0
LTYPE
  5
1D
330
5
100
AcDbSymbolTableRecord
100
AcDbLinetypeTableRecord
  2
CENTER
 70
     0
  3
____ _ ____ _ ____ _ ____ _ ____ _ ____ _ ____
 72
    65
 73
     4
 40
2.0
 49
1.25
 74
     0
 49
-0.25
 74
     0
 49
0.25
 74
     0
 49
-0.25
 74
     0
  0
LTYPE
  5
1E
330
5
100
AcDbSymbolTableRecord
100
AcDbLinetypeTableRecord
  2
HIDDEN
 70
     0
  3
_ _ _ _ _ _ _ _ _ _ _ _ _ _ _ _ _ _ _ _ _ _ _
 72
    65
 73
     2
 40
0.375
 49
0.25
 74
     0
 49
-0.125
 74
     0
  0
LTYPE
  5
8093
330
5
100
AcDbSymbolTableRecord
100
AcDbLinetypeTableRecord
  2
PHANTOM
 70
     0
  3
Phantom ______  __  __  ______  __  __  ______
 72
    65
 73
     6
 40
12.7
 49
6.35
 74
     0
 49
-1.27
 74
     0
 49
1.27
 74
     0
 49
-1.27
 74
     0
 49
1.27
 74
     0
 49
-1.27
 74
     0
  0
LTYPE
  5
1187C
330
5
100
AcDbSymbolTableRecord
100
AcDbLinetypeTableRecord
  2
CENTERX2
 70
     0
  3
Center (2x) ________  __  ________  __  _____
 72
    65
 73
     4
 40
20.32
 49
12.7
 74
     0
 49
-2.54
 74
     0
 49
2.54
 74
     0
 49
-2.54
 74
     0
  0
ENDTAB
  0
TABLE
  2
LAYER
  5
2
102
{ACAD_XDICTIONARY
360
13241
102
}
330
0
100
AcDbSymbolTable
 70
     8
  0
LAYER
  5
F
330
2
100
AcDbSymbolTableRecord
100
AcDbLayerTableRecord
  2
0
 70
     0
 62
     7
  6
CONTINUOUS
  0
LAYER
  5
21
330
2
100
AcDbSymbolTableRecord
100
AcDbLayerTableRecord
  2
1
 70
     0
 62
     3
  6
CONTINUOUS
  0
LAYER
  5
22
330
2
100
AcDbSymbolTableRecord
100
AcDbLayerTableRecord
  2
2
 70
     0
 62
     6
  6
CONTINUOUS
  0
LAYER
  5
23
330
2
100
AcDbSymbolTableRecord
100
AcDbLayerTableRecord
  2
3
 70
     0
 62
     4
  6
HIDDEN
  0
LAYER
  5
24
330
2
100
AcDbSymbolTableRecord
100
AcDbLayerTableRecord
  2
OSIE
 70
     0
 62
     2
  6
CENTER
  0
LAYER
  5
25
330
2
100
AcDbSymbolTableRecord
100
AcDbLayerTableRecord
  2
WY
 70
     0
 62
     1
  6
CONTINUOUS
  0
LAYER
  5
26
330
2
100
AcDbSymbolTableRecord
100
AcDbLayerTableRecord
  2
DEFPOINTS
 70
     0
 62
     7
  6
CONTINUOUS
  0
LAYER
  5
464
330
2
100
AcDbSymbolTableRecord
100
AcDbLayerTableRecord
  2
WYMIARY
 70
     0
 62
     1
  6
CONTINUOUS
  0
ENDTAB
  0
TABLE
  2
STYLE
  5
3
330
0
100
AcDbSymbolTable
 70
     4
  0
STYLE
  5
10
330
3
100
AcDbSymbolTableRecord
100
AcDbTextStyleTableRecord
  2
STANDARD
 70
     0
 40
0.0
 41
1.0
 50
0.0
 71
     0
 42
6.0
  3
txt
  4

  0
STYLE
  5
1C
330
3
100
AcDbSymbolTableRecord
100
AcDbTextStyleTableRecord
  2
ITALIC
 70
     0
 40
0.0
 41
1.0
 50
15.0
 71
     0
 42
0.2
  3
simplex
  4

  0
STYLE
  5
C512
330
3
100
AcDbSymbolTableRecord
100
AcDbTextStyleTableRecord
  2
SLDTEXTSTYLE2
 70
     0
 40
0.0
 41
0.7
 50
0.0
 71
     0
 42
0.2
  3
TXT
  4

  0
STYLE
  5
C513
330
3
100
AcDbSymbolTableRecord
100
AcDbTextStyleTableRecord
  2
SLDTEXTSTYLE6
 70
     0
 40
0.0
 41
0.605
 50
0.0
 71
     0
 42
0.2
  3
TXT
  4

  0
ENDTAB
  0
TABLE
  2
VIEW
  5
6
330
0
100
AcDbSymbolTable
 70
     0
  0
ENDTAB
  0
TABLE
  2
UCS
  5
7
330
0
100
AcDbSymbolTable
 70
     0
  0
ENDTAB
  0
TABLE
  2
APPID
  5
9
330
0
100
AcDbSymbolTable
 70
     4
  0
APPID
  5
11
330
9
100
AcDbSymbolTableRecord
100
AcDbRegAppTableRecord
  2
ACAD
 70
     0
  0
APPID
  5
15DA9
330
9
100
AcDbSymbolTableRecord
100
AcDbRegAppTableRecord
  2
ACAD_DSTYLE_DIMRADIAL_EXTE
 70
     0
  0
APPID
  5
16CFB
330
9
100
AcDbSymbolTableRecord
100
AcDbRegAppTableRecord
  2
ACAD_DSTYLE_DIMRADIAL_EXT0
 70
     0
  0
APPID
  5
176C1
330
9
100
AcDbSymbolTableRecord
100
AcDbRegAppTableRecord
  2
ACAD_DSTYLE_DIMRADIAL_EXT1
 70
     0
  0
ENDTAB
  0
TABLE
  2
DIMSTYLE
  5
A
330
0
100
AcDbSymbolTable
 70
     2
  0
DIMSTYLE
105
3B
102
{ACAD_REACTORS
330
17ED1
330
17EFE
330
17F77
330
17F86
330
17FDD
102
}
330
A
100
AcDbSymbolTableRecord
100
AcDbDimStyleTableRecord
  2
STANDARD
 70
     0
  3

  4

  5

  6

  7

 40
1.0
 41
3.5
 42
1.5
 43
7.0
 44
1.5
 45
0.0
 46
0.0
 47
0.1
 48
0.0
140
3.6
141
-1.0
142
0.0
143
25.4
144
1.0
145
0.0
146
1.0
147
1.5
 71
     0
 72
     0
 73
     0
 74
     0
 75
     0
 76
     0
 77
     1
 78
     0
170
     0
171
     2
172
     0
173
     0
174
     0
175
     0
176
     0
177
     0
178
     0
270
     2
271
     2
272
     4
273
     2
274
     2
340
10
275
     0
280
     0
281
     0
282
     0
283
     1
284
     0
285
     0
286
     0
287
     3
288
     0
  0
DIMSTYLE
105
1187D
330
A
100
AcDbSymbolTableRecord
100
AcDbDimStyleTableRecord
  2
ISO-25
 70
     0
  3

  4

  5

  6

  7

 40
1.0
 41
2.5
 42
0.625
 43
3.75
 44
1.25
 45
0.0
 46
0.0
 47
0.0
 48
0.0
140
2.5
141
2.5
142
0.0
143
0.03937007874016
144
1.0
145
0.0
146
1.0
147
0.625
 71
     0
 72
     0
 73
     0
 74
     0
 75
     0
 76
     0
 77
     1
 78
     8
170
     0
171
     3
172
     1
173
     0
174
     0
175
     0
176
     0
177
     0
178
     0
270
     2
271
     2
272
     2
273
     2
274
     3
340
10
275
     0
280
     0
281
     0
282
     0
283
     0
284
     8
285
     0
286
     0
287
     3
288
     0
  0
ENDTAB
  0
TABLE
  2
BLOCK_RECORD
  5
1
330
0
100
AcDbSymbolTable
 70
   181
  0
BLOCK_RECORD
  5
18
330
1
100
AcDbSymbolTableRecord
100
AcDbBlockTableRecord
  2
*MODEL_SPACE
  0
BLOCK_RECORD
  5
15
330
1
100
AcDbSymbolTableRecord
100
AcDbBlockTableRecord
  2
*PAPER_SPACE
  0
BLOCK_RECORD
  5
7EA0
330
1
100
AcDbSymbolTableRecord
100
AcDbBlockTableRecord
  2
A$C312173AA
  0
BLOCK_RECORD
  5
C4F7
330
1
100
AcDbSymbolTableRecord
100
AcDbBlockTableRecord
  2
_DOT
  0
BLOCK_RECORD
  5
13341
330
1
100
AcDbSymbolTableRecord
100
AcDbBlockTableRecord
  2
_NONE
  0
BLOCK_RECORD
  5
13346
330
1
100
AcDbSymbolTableRecord
100
AcDbBlockTableRecord
  2
_OBLIQUE
  0
BLOCK_RECORD
  5
17DB1
330
1
100
AcDbSymbolTableRecord
100
AcDbBlockTableRecord
  2
SW_CENTERMARKSYMBOL_0
  0
BLOCK_RECORD
  5
17ED4
330
1
100
AcDbSymbolTableRecord
100
AcDbBlockTableRecord
  2
*D172
  0
BLOCK_RECORD
  5
17F01
330
1
100
AcDbSymbolTableRecord
100
AcDbBlockTableRecord
  2
*D175
  0
BLOCK_RECORD
  5
17F7A
330
1
100
AcDbSymbolTableRecord
100
AcDbBlockTableRecord
  2
*D178
  0
BLOCK_RECORD
  5
17F89
330
1
100
AcDbSymbolTableRecord
100
AcDbBlockTableRecord
  2
*D179
  0
BLOCK_RECORD
  5
17FE0
330
1
100
AcDbSymbolTableRecord
100
AcDbBlockTableRecord
  2
*D180
  0
ENDTAB
  0
ENDSEC
  0
SECTION
  2
BLOCKS
  0
BLOCK
  5
29
330
18
100
AcDbEntity
  8
0
100
AcDbBlockBegin
  2
*MODEL_SPACE
 70
     0
 10
0.0
 20
0.0
 30
0.0
  3
*MODEL_SPACE
  1

  0
ENDBLK
  5
2A
330
18
100
AcDbEntity
  8
0
100
AcDbBlockEnd
  0
BLOCK
  5
27
330
15
100
AcDbEntity
 67
     1
  8
0
100
AcDbBlockBegin
  2
*PAPER_SPACE
 70
     0
 10
0.0
 20
0.0
 30
0.0
  3
*PAPER_SPACE
  1

  0
ENDBLK
  5
28
330
15
100
AcDbEntity
 67
     1
  8
0
100
AcDbBlockEnd
  0
BLOCK
  5
7EAF
330
7EA0
100
AcDbEntity
  8
0
100
AcDbBlockBegin
  2
A$C312173AA
 70
     0
 10
0.0
 20
0.0
 30
0.0
  3
A$C312173AA
  1
A$C312173AA
  0
HATCH
  5
7EA1
330
7EA0
100
AcDbEntity
  8
1
100
AcDbHatch
 10
0.0
 20
0.0
 30
0.0
210
0.0
220
0.0
230
1.0
  2
SOLID
 70
     1
 71
     1
 91
        1
 92
        7
 72
     0
 73
     1
 93
        4
 10
2.724690422176706
 20
5.013136352600668
 10
5.058157912552363
 20
1.095673373491763
 10
5.076413282682712
 20
1.095673373491763
 10
7.382430158279476
 20
5.013136352600668
 97
        4
330
7EA6
330
7EAA
330
7EA5
330
7EA8
 75
     0
 76
     1
 47
0.057765
 98
        1
 10
5.461965
 20
4.283681
  0
HATCH
  5
7EA2
330
7EA0
100
AcDbEntity
  8
1
100
AcDbHatch
 10
0.0
 20
0.0
 30
0.0
210
0.0
220
0.0
230
1.0
  2
SOLID
 70
     1
 71
     1
 91
        1
 92
        7
 72
     0
 73
     1
 93
        4
 10
2.724690422176706
 20
5.013136352600668
 10
5.058157912552363
 20
1.095673373491763
 10
5.076413282682712
 20
1.095673373491763
 10
7.382430158279476
 20
5.013136352600668
 97
        4
330
7EA4
330
7EA9
330
7EA3
330
7EA7
 75
     0
 76
     1
 47
0.057765
 98
        1
 10
5.461965
 20
4.283681
  0
LINE
  5
7EA3
102
{ACAD_REACTORS
330
7EA2
102
}
330
7EA0
100
AcDbEntity
  8
1
100
AcDbLine
 10
7.376974
 20
1.095673
 30
0.0
 11
2.719445
 21
1.095673
 31
0.0
  0
LINE
  5
7EA4
102
{ACAD_REACTORS
330
7EA2
102
}
330
7EA0
100
AcDbEntity
  8
1
100
AcDbLine
 10
2.716507
 20
5.013136
 30
0.0
 11
7.38243
 21
5.013136
 31
0.0
  0
LINE
  5
7EA5
102
{ACAD_REACTORS
330
7EA1
102
}
330
7EA0
100
AcDbEntity
  8
1
100
AcDbLine
 10
7.376974
 20
1.095673
 30
0.0
 11
2.719445
 21
1.095673
 31
0.0
  0
LINE
  5
7EA6
102
{ACAD_REACTORS
330
7EA1
102
}
330
7EA0
100
AcDbEntity
  8
1
100
AcDbLine
 10
2.716507
 20
5.013136
 30
0.0
 11
7.38243
 21
5.013136
 31
0.0
  0
LINE
  5
7EA7
102
{ACAD_REACTORS
330
7EA2
102
}
330
7EA0
100
AcDbEntity
  8
1
100
AcDbLine
 10
7.38243
 20
5.013136
 30
0.0
 11
5.049469
 21
1.0499
 31
0.0
  0
LINE
  5
7EA8
102
{ACAD_REACTORS
330
7EA1
102
}
330
7EA0
100
AcDbEntity
  8
1
100
AcDbLine
 10
7.38243
 20
5.013136
 30
0.0
 11
5.049469
 21
1.0499
 31
0.0
  0
LINE
  5
7EA9
102
{ACAD_REACTORS
330
7EA2
102
}
330
7EA0
100
AcDbEntity
  8
1
100
AcDbLine
 10
5.048209
 20
1.112376
 30
0.0
 11
2.719445
 21
5.021942
 31
0.0
  0
LINE
  5
7EAA
102
{ACAD_REACTORS
330
7EA1
102
}
330
7EA0
100
AcDbEntity
  8
1
100
AcDbLine
 10
5.048209
 20
1.112376
 30
0.0
 11
2.719445
 21
5.021942
 31
0.0
  0
LINE
  5
7EAB
330
7EA0
100
AcDbEntity
  8
1
100
AcDbLine
 10
3.176777
 20
2.240563
 30
0.0
 11
1.859991
 21
0.714974
 31
0.0
  0
LINE
  5
7EAC
330
7EA0
100
AcDbEntity
  8
1
100
AcDbLine
 10
1.935572
 20
2.29404
 30
0.0
 11
0.618786
 21
0.768452
 31
0.0
  0
HATCH
  5
7EAD
330
7EA0
100
AcDbEntity
  8
1
100
AcDbHatch
 10
0.0
 20
0.0
 30
0.0
210
0.0
220
0.0
230
1.0
  2
SOLID
 70
     1
 71
     0
 91
        1
 92
        7
 72
     0
 73
     1
 93
        3
 10
2.13435432304297
 20
0.5079866047149438
 10
1.594971700028992
 20
0.9149117569309055
 10
1.241204476589189
 20
0.0000001052034975
 97
        0
 75
     0
 76
     1
 47
0.009825
 98
        1
 10
1.617082
 20
0.370646
  0
HATCH
  5
7EAE
330
7EA0
100
AcDbEntity
  8
1
100
AcDbHatch
 10
0.0
 20
0.0
 30
0.0
210
0.0
220
0.0
230
1.0
  2
SOLID
 70
     1
 71
     0
 91
        1
 92
        7
 72
     0
 73
     1
 93
        3
 10
0.8931496793437361
 20
0.5614642425206
 10
0.3537670563297865
 20
0.9683893947365334
 10
-0.0000001671100733
 20
0.0534777430091538
 97
        0
 75
     0
 76
     1
 47
0.009825
 98
        1
 10
0.375878
 20
0.424123
  0
ENDBLK
  5
7EB0
330
7EA0
100
AcDbEntity
  8
0
100
AcDbBlockEnd
  0
BLOCK
  5
C4FC
330
C4F7
100
AcDbEntity
  8
0
100
AcDbBlockBegin
  2
_DOT
 70
     0
 10
0.0
 20
0.0
 30
0.0
  3
_DOT
  1
_DOT
  0
LWPOLYLINE
  5
C4F8
330
C4F7
100
AcDbEntity
  8
0
  6
BYBLOCK
 62
     0
100
AcDbPolyline
 90
        2
 70
     1
 43
0.5
 10
-0.25
 20
0.0
 42
1.0
 10
0.25
 20
0.0
 42
1.0
  0
LINE
  5
C4F9
330
C4F7
100
AcDbEntity
  8
0
  6
BYBLOCK
 62
     0
100
AcDbLine
 10
-0.5
 20
0.0
 30
0.0
 11
-1.0
 21
0.0
 31
0.0
  0
ENDBLK
  5
C4FD
330
C4F7
100
AcDbEntity
  8
0
100
AcDbBlockEnd
  0
BLOCK
  5
13342
330
13341
100
AcDbEntity
  8
0
100
AcDbBlockBegin
  2
_NONE
 70
     0
 10
0.0
 20
0.0
 30
0.0
  3
_NONE
  1
_NONE
  0
ENDBLK
  5
13343
330
13341
100
AcDbEntity
  8
0
100
AcDbBlockEnd
  0
BLOCK
  5
13347
330
13346
100
AcDbEntity
  8
0
100
AcDbBlockBegin
  2
_OBLIQUE
 70
     0
 10
0.0
 20
0.0
 30
0.0
  3
_OBLIQUE
  1
_OBLIQUE
  0
LINE
  5
13349
330
13346
100
AcDbEntity
  8
0
  6
BYBLOCK
 62
     0
100
AcDbLine
 10
-0.5
 20
-0.5
 30
0.0
 11
0.5
 21
0.5
 31
0.0
  0
ENDBLK
  5
13348
330
13346
100
AcDbEntity
  8
0
100
AcDbBlockEnd
  0
BLOCK
  5
17DB2
330
17DB1
100
AcDbEntity
  8
0
100
AcDbBlockBegin
  2
SW_CENTERMARKSYMBOL_0
 70
     0
 10
0.0
 20
0.0
 30
0.0
  3
SW_CENTERMARKSYMBOL_0
  1
SW_CENTERMARKSYMBOL_0
  0
LINE
  5
17DB3
330
17DB1
100
AcDbEntity
  8
0
  6
CONTINUOUS
 62
     0
100
AcDbLine
 10
0.0
 20
0.0
 30
0.0
 11
0.0
 21
2.500000000000002
 31
0.0
  0
LINE
  5
17DB4
330
17DB1
100
AcDbEntity
  8
0
  6
CONTINUOUS
 62
     0
100
AcDbLine
 10
0.0
 20
0.0
 30
0.0
 11
-2.500000000000002
 21
0.0
 31
0.0
  0
LINE
  5
17DB5
330
17DB1
100
AcDbEntity
  8
0
  6
CONTINUOUS
 62
     0
100
AcDbLine
 10
0.0
 20
0.0
 30
0.0
 11
0.0
 21
-2.500000000000002
 31
0.0
  0
LINE
  5
17DB6
330
17DB1
100
AcDbEntity
  8
0
  6
CONTINUOUS
 62
     0
100
AcDbLine
 10
0.0
 20
0.0
 30
0.0
 11
2.500000000000002
 21
0.0
 31
0.0
  0
LINE
  5
17DB7
330
17DB1
100
AcDbEntity
  8
0
  6
CONTINUOUS
 62
     0
100
AcDbLine
 10
0.0
 20
2.500000000000002
 30
0.0
 11
0.0
 21
2.900000000000014
 31
0.0
  0
LINE
  5
17DB8
330
17DB1
100
AcDbEntity
  8
0
  6
CONTINUOUS
 62
     0
100
AcDbLine
 10
-2.500000000000002
 20
0.0
 30
0.0
 11
-2.9
 21
0.0
 31
0.0
  0
LINE
  5
17DB9
330
17DB1
100
AcDbEntity
  8
0
  6
CONTINUOUS
 62
     0
100
AcDbLine
 10
0.0
 20
-2.500000000000002
 30
0.0
 11
0.0
 21
-2.899999999999986
 31
0.0
  0
LINE
  5
17DBA
330
17DB1
100
AcDbEntity
  8
0
  6
CONTINUOUS
 62
     0
100
AcDbLine
 10
2.500000000000002
 20
0.0
 30
0.0
 11
2.9
 21
0.0
 31
0.0
  0
ENDBLK
  5
17DBB
330
17DB1
100
AcDbEntity
  8
0
100
AcDbBlockEnd
  0
BLOCK
  5
17ED5
330
17ED4
100
AcDbEntity
  8
0
100
AcDbBlockBegin
  2
*D172
 70
     1
 10
0.0
 20
0.0
 30
0.0
  3
*D172
  1
*D172
  0
LINE
  5
17ED7
330
17ED4
100
AcDbEntity
  8
WY
 62
     0
100
AcDbLine
 10
545.0035971227246
 20
189.6323903562784
 30
0.0
 11
545.0035971227246
 21
197.1429405039314
 31
0.0
  0
LINE
  5
17ED8
330
17ED4
100
AcDbEntity
  8
WY
 62
     0
100
AcDbLine
 10
558.5024122264617
 20
163.9986958362331
 30
0.0
 11
558.5024122264617
 21
197.1429405039314
 31
0.0
  0
LINE
  5
17ED9
330
17ED4
100
AcDbEntity
  8
WY
 62
     0
100
AcDbLine
 10
547.5035971227246
 20
195.6429405039314
 30
0.0
 11
556.0024122264617
 21
195.6429405039314
 31
0.0
  0
SOLID
  5
17EDA
330
17ED4
100
AcDbEntity
  8
WY
 62
     0
100
AcDbTrace
 10
547.5035971227246
 20
196.059607170598
 30
0.0
 11
547.5035971227246
 21
195.2262738372647
 31
0.0
 12
545.0035971227246
 22
195.6429405039314
 32
0.0
 13
545.0035971227246
 23
195.6429405039314
 33
0.0
  0
SOLID
  5
17EDB
330
17ED4
100
AcDbEntity
  8
WY
 62
     0
100
AcDbTrace
 10
556.0024122264617
 20
195.2262738372647
 30
0.0
 11
556.0024122264617
 21
196.059607170598
 31
0.0
 12
558.5024122264617
 22
195.6429405039314
 32
0.0
 13
558.5024122264617
 23
195.6429405039314
 33
0.0
  0
MTEXT
  5
17EDC
330
17ED4
100
AcDbEntity
  8
WY
 62
     0
100
AcDbMText
 10
551.7530046745932
 20
197.2679405039314
 30
0.0
 40
1.5
 41
0.0
 71
     5
 72
     1
  1
\A1;13.5+0,5
  0
POINT
  5
17EDD
330
17ED4
100
AcDbEntity
  8
DEFPOINTS
 62
     0
100
AcDbPoint
 10
545.0035971227246
 20
188.1323903562784
 30
0.0
  0
POINT
  5
17EDE
330
17ED4
100
AcDbEntity
  8
DEFPOINTS
 62
     0
100
AcDbPoint
 10
558.5024122264617
 20
162.4986958362331
 30
0.0
  0
POINT
  5
17EDF
330
17ED4
100
AcDbEntity
  8
DEFPOINTS
 62
     0
100
AcDbPoint
 10
558.5024122264617
 20
195.6429405039314
 30
0.0
  0
ENDBLK
  5
17ED6
330
17ED4
100
AcDbEntity
  8
0
100
AcDbBlockEnd
  0
BLOCK
  5
17F02
330
17F01
100
AcDbEntity
  8
0
100
AcDbBlockBegin
  2
*D175
 70
     1
 10
0.0
 20
0.0
 30
0.0
  3
*D175
  1
*D175
  0
LINE
  5
17F04
330
17F01
100
AcDbEntity
  8
WY
 62
     0
100
AcDbLine
 10
606.893263224156
 20
188.9326758898038
 30
0.0
 11
606.893263224156
 21
199.1325739102319
 31
0.0
  0
LINE
  5
17F05
330
17F01
100
AcDbEntity
  8
WY
 62
     0
100
AcDbLine
 10
643.9670915917369
 20
188.9326758898038
 30
0.0
 11
643.9670915917369
 21
199.1325739102319
 31
0.0
  0
LINE
  5
17F06
330
17F01
100
AcDbEntity
  8
WY
 62
     0
100
AcDbLine
 10
609.393263224156
 20
197.6325739102319
 30
0.0
 11
641.4670915917369
 21
197.6325739102319
 31
0.0
  0
SOLID
  5
17F07
330
17F01
100
AcDbEntity
  8
WY
 62
     0
100
AcDbTrace
 10
609.393263224156
 20
198.0492405768985
 30
0.0
 11
609.393263224156
 21
197.2159072435652
 31
0.0
 12
606.893263224156
 22
197.6325739102319
 32
0.0
 13
606.893263224156
 23
197.6325739102319
 33
0.0
  0
SOLID
  5
17F08
330
17F01
100
AcDbEntity
  8
WY
 62
     0
100
AcDbTrace
 10
641.4670915917369
 20
197.2159072435652
 30
0.0
 11
641.4670915917369
 21
198.0492405768985
 31
0.0
 12
643.9670915917369
 22
197.6325739102319
 32
0.0
 13
643.9670915917369
 23
197.6325739102319
 33
0.0
  0
MTEXT
  5
17F09
330
17F01
100
AcDbEntity
  8
WY
 62
     0
100
AcDbMText
 10
625.4301774079465
 20
199.1325739102319
 30
0.0
 40
1.5
 41
0.0
 71
     5
 72
     1
  1
\A1;37.1+1
  0
POINT
  5
17F0A
330
17F01
100
AcDbEntity
  8
DEFPOINTS
 62
     0
100
AcDbPoint
 10
606.893263224156
 20
187.4326758898038
 30
0.0
  0
POINT
  5
17F0B
330
17F01
100
AcDbEntity
  8
DEFPOINTS
 62
     0
100
AcDbPoint
 10
643.9670915917369
 20
187.4326758898038
 30
0.0
  0
POINT
  5
17F0C
330
17F01
100
AcDbEntity
  8
DEFPOINTS
 62
     0
100
AcDbPoint
 10
643.9670915917369
 20
197.6325739102319
 30
0.0
  0
ENDBLK
  5
17F03
330
17F01
100
AcDbEntity
  8
0
100
AcDbBlockEnd
  0
BLOCK
  5
17F7B
330
17F7A
100
AcDbEntity
  8
0
100
AcDbBlockBegin
  2
*D178
 70
     1
 10
0.0
 20
0.0
 30
0.0
  3
*D178
  1
*D178
  0
LINE
  5
17F7D
330
17F7A
100
AcDbEntity
  8
WY
 62
     0
100
AcDbLine
 10
606.4931742962842
 20
187.535358008917
 30
0.0
 11
598.698485727187
 21
186.5025385254369
 31
0.0
  0
LINE
  5
17F7E
330
17F7A
100
AcDbEntity
  8
WY
 62
     0
100
AcDbLine
 10
616.3400290327552
 20
113.2211460061485
 30
0.0
 11
608.5453404636579
 21
112.1883265226684
 31
0.0
  0
LINE
  5
17F7F
330
17F7A
100
AcDbEntity
  8
WY
 62
     0
100
AcDbLine
 10
600.5138760844516
 20
184.2212323533612
 30
0.0
 11
609.7039563297178
 21
114.8636973894669
 31
0.0
  0
SOLID
  5
17F80
330
17F7A
100
AcDbEntity
  8
WY
 62
     0
100
AcDbTrace
 10
600.9269325043578
 20
184.2759635609616
 30
0.0
 11
600.1008196645454
 21
184.1665011457608
 31
0.0
 12
600.1854888388492
 22
186.6995708727983
 32
0.0
 13
600.1854888388492
 23
186.6995708727983
 33
0.0
  0
SOLID
  5
17F81
330
17F7A
100
AcDbEntity
  8
WY
 62
     0
100
AcDbTrace
 10
609.2908999098116
 20
114.8089661818665
 30
0.0
 11
610.117012749624
 21
114.9184285970673
 31
0.0
 12
610.0323435753202
 22
112.3853588700298
 32
0.0
 13
610.0323435753202
 23
112.3853588700298
 33
0.0
  0
MTEXT
  5
17F82
330
17F7A
100
AcDbEntity
  8
WY
 62
     0
100
AcDbMText
 10
606.595919318747
 20
149.7394972187755
 30
0.0
 40
1.5
 41
0.0
 71
     5
 72
     1
  1
\A1;75-1
 11
0.131354898240937
 21
-0.9913354077748423
 31
0.0
  0
POINT
  5
17F83
330
17F7A
100
AcDbEntity
  8
DEFPOINTS
 62
     0
100
AcDbPoint
 10
607.9801774079465
 20
187.7323903562784
 30
0.0
  0
POINT
  5
17F84
330
17F7A
100
AcDbEntity
  8
DEFPOINTS
 62
     0
100
AcDbPoint
 10
617.8270321444174
 20
113.4181783535099
 30
0.0
  0
POINT
  5
17F85
330
17F7A
100
AcDbEntity
  8
DEFPOINTS
 62
     0
100
AcDbPoint
 10
610.0323435753202
 20
112.3853588700298
 30
0.0
  0
ENDBLK
  5
17F7C
330
17F7A
100
AcDbEntity
  8
0
100
AcDbBlockEnd
  0
BLOCK
  5
17F8A
330
17F89
100
AcDbEntity
  8
0
100
AcDbBlockBegin
  2
*D179
 70
     1
 10
0.0
 20
0.0
 30
0.0
  3
*D179
  1
*D179
  0
ARC
  5
17F8C
330
17F89
100
AcDbEntity
  8
WY
 62
     0
100
AcDbCircle
 10
607.6775887197723
 20
187.7323903562784
 30
0.0
 40
8.176358429331938
100
AcDbArc
 50
295.0877039126671
 51
342.4122960873331
  0
SOLID
  5
17F8D
330
17F89
100
AcDbEntity
  8
WY
 62
     0
100
AcDbTrace
 10
611.0275046106364
 20
180.7273225165272
 30
0.0
 11
611.2613077079178
 21
179.9274596806947
 31
0.0
 12
608.7448176517794
 22
179.6259818067668
 32
0.0
 13
608.7448176517794
 23
179.6259818067668
 33
0.0
  0
SOLID
  5
17F8E
330
17F89
100
AcDbEntity
  8
WY
 62
     0
100
AcDbTrace
 10
615.8835163249678
 20
185.1980784624994
 30
0.0
 11
615.0599789985604
 21
185.3254782916127
 31
0.0
 12
615.8539471491042
 22
187.7323903562784
 32
0.0
 13
615.8539471491042
 23
187.7323903562784
 33
0.0
  0
MTEXT
  5
17F8F
330
17F89
100
AcDbEntity
  8
WY
 62
     0
100
AcDbMText
 10
612.6971407559416
 20
183.3303613657901
 30
0.0
 40
1.5
 41
0.0
 71
     5
 72
     1
  1
\A1;83%%d
 11
0.6593458151001002
 21
0.75183980747895
 31
0.0
  0
POINT
  5
17F90
330
17F89
100
AcDbEntity
  8
DEFPOINTS
 62
     0
100
AcDbPoint
 10
612.3673552499974
 20
181.0347096340518
 30
0.0
  0
POINT
  5
17F91
330
17F89
100
AcDbEntity
  8
DEFPOINTS
 62
     0
100
AcDbPoint
 10
610.5412675591534
 20
165.9805900345259
 30
0.0
  0
POINT
  5
17F92
330
17F89
100
AcDbEntity
  8
DEFPOINTS
 62
     0
100
AcDbPoint
 10
607.9801774079465
 20
187.7323903562784
 30
0.0
  0
POINT
  5
17F93
330
17F89
100
AcDbEntity
  8
DEFPOINTS
 62
     0
100
AcDbPoint
 10
622.1401289498999
 20
187.7323903562784
 30
0.0
  0
POINT
  5
17F94
330
17F89
100
AcDbEntity
  8
DEFPOINTS
 62
     0
100
AcDbPoint
 10
607.7219018072002
 20
187.3957990402002
 30
0.0
  0
ENDBLK
  5
17F8B
330
17F89
100
AcDbEntity
  8
0
100
AcDbBlockEnd
  0
BLOCK
  5
17FE1
330
17FE0
100
AcDbEntity
  8
0
100
AcDbBlockBegin
  2
*D180
 70
     1
 10
0.0
 20
0.0
 30
0.0
  3
*D180
  1
*D180
  0
LINE
  5
17FE3
330
17FE0
100
AcDbEntity
  8
WY
 62
     0
100
AcDbLine
 10
609.5523223817252
 20
167.3633363728107
 30
0.0
 11
609.1761878102964
 21
170.2203620906801
 31
0.0
  0
LINE
  5
17FE4
330
17FE0
100
AcDbEntity
  8
WY
 62
     0
100
AcDbLine
 10
610.3454782708225
 20
167.4677573265865
 30
0.0
 11
609.9693436993937
 21
170.3247830444559
 31
0.0
  0
LINE
  5
17FE5
330
17FE0
100
AcDbEntity
  8
WY
 62
     0
100
AcDbLine
 10
610.1651329877237
 20
168.8376157523952
 30
0.0
 11
620.8231652474922
 21
170.2407723187604
 31
0.0
  0
LINE
  5
17FE6
330
17FE0
100
AcDbEntity
  8
WY
 62
     0
100
AcDbLine
 10
609.3719770986264
 20
168.7331947986194
 30
0.0
 11
610.1651329877237
 21
168.8376157523952
 31
0.0
  0
LINE
  5
17FE7
330
17FE0
100
AcDbEntity
  8
WY
 62
     0
100
AcDbLine
 10
606.8933649451919
 20
168.4068793180693
 30
0.0
 11
604.4147527917575
 21
168.0805638375193
 31
0.0
  0
LINE
  5
17FE8
330
17FE0
100
AcDbEntity
  8
WY
 62
     0
100
AcDbLine
 10
612.6437451411582
 20
169.1639312329452
 30
0.0
 11
615.1223572945927
 21
169.4902467134953
 31
0.0
  0
SOLID
  5
17FE9
330
17FE0
100
AcDbEntity
  8
WY
 62
     0
100
AcDbTrace
 10
606.9477508586169
 20
167.9937772924969
 30
0.0
 11
606.8389790317669
 21
168.8199813436417
 31
0.0
 12
609.3719770986264
 22
168.7331947986194
 32
0.0
 13
609.3719770986264
 23
168.7331947986194
 33
0.0
  0
SOLID
  5
17FEA
330
17FE0
100
AcDbEntity
  8
WY
 62
     0
100
AcDbTrace
 10
612.5893592277332
 20
169.5770332585176
 30
0.0
 11
612.6981310545832
 21
168.7508292073728
 31
0.0
 12
610.1651329877237
 22
168.8376157523952
 32
0.0
 13
610.1651329877237
 23
168.8376157523952
 33
0.0
  0
MTEXT
  5
17FEB
330
17FE0
100
AcDbEntity
  8
WY
 62
     0
100
AcDbMText
 10
617.7769719827124
 20
171.3526768081885
 30
0.0
 40
1.5
 41
0.0
 71
     5
 72
     1
  1
\A1;%%c0.8
 11
0.9914448613738145
 21
0.1305261922200204
 31
0.0
  0
POINT
  5
17FEC
330
17FE0
100
AcDbEntity
  8
DEFPOINTS
 62
     0
100
AcDbPoint
 10
609.7481116700552
 20
165.87616908075
 30
0.0
  0
POINT
  5
17FED
330
17FE0
100
AcDbEntity
  8
DEFPOINTS
 62
     0
100
AcDbPoint
 10
610.5412675591525
 20
165.9805900345258
 30
0.0
  0
POINT
  5
17FEE
330
17FE0
100
AcDbEntity
  8
DEFPOINTS
 62
     0
100
AcDbPoint
 10
610.1651329877237
 20
168.8376157523952
 30
0.0
  0
ENDBLK
  5
17FE2
330
17FE0
100
AcDbEntity
  8
0
100
AcDbBlockEnd
  0
ENDSEC
  0
SECTION
  2
ENTITIES
  0
LINE
  5
2D2D
330
18
100
AcDbEntity
  8
WYMIARY
 62
     6
100
AcDbLine
 10
486.041244
 20
0.0
 30
0.0
 11
486.041244
 21
297.0
 31
0.0
  0
LINE
  5
2D2E
330
18
100
AcDbEntity
  8
WYMIARY
 62
     6
100
AcDbLine
 10
497.671651
 20
292.0
 30
0.0
 11
497.671651
 21
5.0
 31
0.0
  0
LINE
  5
2D34
330
18
100
AcDbEntity
  8
2
100
AcDbLine
 10
682.671651
 20
5.0
 30
0.0
 11
682.671651
 21
292.0
 31
0.0
  0
LINE
  5
2D35
330
18
100
AcDbEntity
  8
2
100
AcDbLine
 10
687.671651
 20
0.0
 30
0.0
 11
687.671651
 21
297.0
 31
0.0
  0
LINE
  5
2D36
330
18
100
AcDbEntity
  8
WY
  6
CONTINUOUS
 62
     3
100
AcDbLine
 10
682.671651
 20
19.689837
 30
0.0
 11
497.671651
 21
19.689837
 31
0.0
  0
LINE
  5
2D38
330
18
100
AcDbEntity
  8
2
100
AcDbLine
 10
497.671651
 20
5.0
 30
0.0
 11
682.671651
 21
5.0
 31
0.0
  0
LINE
  5
2D39
330
18
100
AcDbEntity
  8
2
 62
     6
100
AcDbLine
 10
497.671651
 20
0.0
 30
0.0
 11
687.671651
 21
0.0
 31
0.0
  0
LINE
  5
2D3A
330
18
100
AcDbEntity
  8
0
100
AcDbLine
 10
529.697667
 20
11.742481
 30
0.0
 11
528.795256
 21
11.742481
 31
0.0
  0
ELLIPSE
  5
2D3B
330
18
100
AcDbEntity
  8
0
100
AcDbEllipse
 10
529.697667
 20
11.742481
 30
0.0
 11
-1.203215696869327
 21
1.967000000000000E-13
 31
0.0
210
0.0
220
0.0
230
1.0
 40
0.958812
 41
-1.570796326794739
 42
0.0000000000001705
  0
TEXT
  5
2D3D
330
18
100
AcDbEntity
  8
1
100
AcDbText
 10
515.607578
 20
8.797457
 30
0.0
 40
5.0
  1
A4
 51
15.0
  7
ITALIC
100
AcDbText
  0
LINE
  5
2D40
330
18
100
AcDbEntity
  8
WYMIARY
 62
     6
100
AcDbLine
 10
497.671651
 20
0.0
 30
0.0
 11
486.041244
 21
0.0
 31
0.0
  0
TEXT
  5
2D42
330
18
100
AcDbEntity
  8
WY
100
AcDbText
 10
502.936765
 20
16.373844
 30
0.0
 40
2.0
  1
Skala
 51
15.0
  7
ITALIC
100
AcDbText
  0
TEXT
  5
2D43
330
18
100
AcDbEntity
  8
WY
100
AcDbText
 10
515.042219
 20
16.329369
 30
0.0
 40
2.0
  1
Format
 51
15.0
  7
ITALIC
100
AcDbText
  0
LINE
  5
2D44
330
18
100
AcDbEntity
  8
0
100
AcDbLine
 10
528.494452
 20
11.742481
 30
0.0
 11
528.795256
 21
11.742481
 31
0.0
  0
LINE
  5
2D45
330
18
100
AcDbEntity
  8
0
100
AcDbLine
 10
559.88722
 20
17.211264
 30
0.0
 11
559.88722
 21
9.015264
 31
0.0
  0
LINE
  5
2D46
330
18
100
AcDbEntity
  8
0
100
AcDbLine
 10
550.89322
 20
9.438264
 30
0.0
 11
550.89322
 21
7.416264
 31
0.0
  0
ARC
  5
2D47
330
18
100
AcDbEntity
  8
0
100
AcDbCircle
 10
551.5428
 20
9.724764
 30
0.0
 40
0.709955
100
AcDbArc
 50
203.80008
 51
272.051918
  0
LINE
  5
2D48
330
18
100
AcDbEntity
  8
0
100
AcDbLine
 10
549.34822
 20
7.416264
 30
0.0
 11
549.34822
 21
15.612264
 31
0.0
  0
ARC
  5
2D49
330
18
100
AcDbEntity
  8
0
100
AcDbCircle
 10
551.982126
 20
10.136416
 30
0.0
 40
1.128907
100
AcDbArc
 50
276.719576
 51
2.175194
  0
ARC
  5
2D4A
330
18
100
AcDbEntity
  8
0
100
AcDbCircle
 10
555.243059
 20
10.503572
 30
0.0
 40
1.488419
100
AcDbArc
 50
191.634268
 51
270.699113
  0
ARC
  5
2D4B
330
18
100
AcDbEntity
  8
0
100
AcDbCircle
 10
556.209381
 20
10.503572
 30
0.0
 40
1.488419
100
AcDbArc
 50
269.300887
 51
348.365732
  0
LINE
  5
2D4C
330
18
100
AcDbEntity
  8
0
100
AcDbLine
 10
558.34222
 20
9.015264
 30
0.0
 11
558.34222
 21
17.211264
 31
0.0
  0
ARC
  5
2D4D
330
18
100
AcDbEntity
  8
0
100
AcDbCircle
 10
545.056591
 20
10.472364
 30
0.0
 40
1.425319
100
AcDbArc
 50
269.703671
 51
350.465171
  0
ARC
  5
2D4E
330
18
100
AcDbEntity
  8
0
100
AcDbCircle
 10
544.201848
 20
10.472364
 30
0.0
 40
1.425319
100
AcDbArc
 50
189.534829
 51
270.2963290000001
  0
LINE
  5
2D4F
330
18
100
AcDbEntity
  8
0
100
AcDbLine
 10
547.14922
 20
9.015264
 30
0.0
 11
547.14922
 21
17.211264
 31
0.0
  0
LINE
  5
2D50
330
18
100
AcDbEntity
  8
0
100
AcDbLine
 10
548.69422
 20
17.211264
 30
0.0
 11
548.69422
 21
9.015264
 31
0.0
  0
LINE
  5
2D51
330
18
100
AcDbEntity
  8
0
100
AcDbLine
 10
539.892236
 20
14.361264
 30
0.0
 11
539.903809
 21
9.015264
 31
0.0
  0
LINE
  5
2D52
330
18
100
AcDbEntity
  8
0
100
AcDbLine
 10
538.361694
 20
9.015264
 30
0.0
 11
538.361694
 21
15.60367
 31
0.0
  0
LINE
  5
2D53
330
18
100
AcDbEntity
  8
0
100
AcDbLine
 10
529.697667
 20
9.895061
 30
0.0
 11
529.697667
 21
8.185369
 31
0.0
  0
LINE
  5
2D54
330
18
100
AcDbEntity
  8
0
100
AcDbLine
 10
535.613478
 20
8.185369
 30
0.0
 11
535.613478
 21
11.742481
 31
0.0
  0
LINE
  5
2D55
330
18
100
AcDbEntity
  8
1
100
AcDbLine
 10
563.469863
 20
5.0
 30
0.0
 11
563.469863
 21
19.689837
 31
0.0
  0
LINE
  5
2D56
330
18
100
AcDbEntity
  8
0
100
AcDbLine
 10
530.499811
 20
7.416263
 30
0.0
 11
534.811334
 21
7.416263
 31
0.0
  0
ELLIPSE
  5
2D57
330
18
100
AcDbEntity
  8
0
100
AcDbEllipse
 10
530.499811
 20
8.185369
 30
0.0
 11
-0.8021437979128705
 21
1.540000000000000E-14
 31
0.0
210
0.0
220
0.0
230
1.0
 40
0.958812
 41
0.00000000000002
 42
1.570796326794914
  0
ELLIPSE
  5
2D58
330
18
100
AcDbEntity
  8
0
100
AcDbEllipse
 10
534.811334
 20
8.185369
 30
0.0
 11
0.8021437979128704
 21
1.602000000000000E-13
 31
0.0
210
0.0
220
0.0
230
1.0
 40
0.958812
 41
4.712388980384497
 42
6.283185307179378
  0
LINE
  5
2D59
330
18
100
AcDbEntity
  8
0
100
AcDbLine
 10
539.892236
 20
9.015264
 30
0.0
 11
539.903809
 21
9.022759
 31
0.0
  0
LINE
  5
2D5A
330
18
100
AcDbEntity
  8
0
100
AcDbLine
 10
538.361694
 20
9.015264
 30
0.0
 11
539.903809
 21
9.015264
 31
0.0
  0
LINE
  5
2D5B
330
18
100
AcDbEntity
  8
0
100
AcDbLine
 10
544.194477
 20
9.047064
 30
0.0
 11
545.04922
 21
9.047064
 31
0.0
  0
LINE
  5
2D5C
330
18
100
AcDbEntity
  8
0
100
AcDbLine
 10
550.89322
 20
7.416264
 30
0.0
 11
549.34822
 21
7.416264
 31
0.0
  0
LINE
  5
2D5D
330
18
100
AcDbEntity
  8
0
100
AcDbLine
 10
548.69422
 20
9.015264
 30
0.0
 11
547.14922
 21
9.015264
 31
0.0
  0
LINE
  5
2D5E
330
18
100
AcDbEntity
  8
0
100
AcDbLine
 10
551.576266
 20
9.015264
 30
0.0
 11
552.11422
 21
9.015264
 31
0.0
  0
LINE
  5
2D5F
330
18
100
AcDbEntity
  8
0
100
AcDbLine
 10
555.26122
 20
9.015264
 30
0.0
 11
556.19122
 21
9.015264
 31
0.0
  0
LINE
  5
2D60
330
18
100
AcDbEntity
  8
0
100
AcDbLine
 10
559.88722
 20
9.015264
 30
0.0
 11
558.34222
 21
9.015264
 31
0.0
  0
ARC
  5
2D61
330
18
100
AcDbEntity
  8
0
100
AcDbCircle
 10
545.056591
 20
14.17837
 30
0.0
 40
1.425319
100
AcDbArc
 50
9.534829000000002
 51
90.296329
  0
LINE
  5
2D62
330
18
100
AcDbEntity
  8
0
100
AcDbLine
 10
546.46222
 20
11.81167
 30
0.0
 11
544.33822
 21
11.81167
 31
0.0
  0
LINE
  5
2D63
330
18
100
AcDbEntity
  8
0
100
AcDbLine
 10
545.01322
 20
11.13667
 30
0.0
 11
546.46222
 21
11.13667
 31
0.0
  0
LINE
  5
2D64
330
18
100
AcDbEntity
  8
0
100
AcDbLine
 10
529.697667
 20
13.461283
 30
0.0
 11
529.697667
 21
16.260974
 31
0.0
  0
ELLIPSE
  5
2D65
330
18
100
AcDbEntity
  8
0
100
AcDbEllipse
 10
532.630506
 20
15.17942
 30
0.0
 11
2.983077570132104
 21
2.996000000000000E-13
 31
0.0
210
0.0
220
0.0
230
1.0
 40
0.9588119999999999
 41
-1.562393163247347
 42
0.0084031635475457
  0
ELLIPSE
  5
2D66
330
18
100
AcDbEntity
  8
0
100
AcDbEllipse
 10
532.58733
 20
15.509539
 30
0.0
 11
-4.072692107280919
 21
9.250000000000000E-14
 31
0.0
210
0.0
220
0.0
230
1.0
 40
0.958812
 41
1.587553347046634
 42
2.408388587343224
  0
LINE
  5
2D67
330
18
100
AcDbEntity
  8
0
100
AcDbLine
 10
529.697667
 20
11.742481
 30
0.0
 11
529.697667
 21
11.034514
 31
0.0
  0
LINE
  5
2D68
330
18
100
AcDbEntity
  8
0
100
AcDbLine
 10
529.697667
 20
13.461283
 30
0.0
 11
529.697667
 21
12.896138
 31
0.0
  0
ELLIPSE
  5
2D69
330
18
100
AcDbEntity
  8
0
100
AcDbEllipse
 10
532.249598
 20
9.872487
 30
0.0
 11
2.960559210508897
 21
0.3570763225581005
 31
0.0
210
0.0
220
0.0
230
1.0
 40
0.820999
 41
1.335209029023201
 42
2.503032872947537
  0
ELLIPSE
  5
2D6A
330
18
100
AcDbEntity
  8
0
100
AcDbEllipse
 10
532.480104
 20
8.937306
 30
0.0
 11
3.015746449176215
 21
0.7746519372140024
 31
0.0
210
0.0
220
0.0
230
1.0
 40
0.8467750000000003
 41
1.29973646820557
 42
2.479974117225238
  0
LINE
  5
2D6B
330
18
100
AcDbEntity
  8
0
100
AcDbLine
 10
536.816694
 20
12.896138
 30
0.0
 11
536.51589
 21
12.896138
 31
0.0
  0
LINE
  5
2D6C
330
18
100
AcDbEntity
  8
0
100
AcDbLine
 10
535.613478
 20
12.896138
 30
0.0
 11
536.51589
 21
12.896138
 31
0.0
  0
ELLIPSE
  5
2D6D
330
18
100
AcDbEntity
  8
0
100
AcDbEllipse
 10
535.613478
 20
12.896138
 30
0.0
 11
1.203215696869352
 21
8.930000000000000E-14
 31
0.0
210
0.0
220
0.0
230
1.0
 40
0.9588119999999999
 41
4.712388980384611
 42
6.283185307179508
  0
LINE
  5
2D6E
330
18
100
AcDbEntity
  8
0
100
AcDbLine
 10
530.499811
 20
17.030079
 30
0.0
 11
534.811334
 21
17.030079
 31
0.0
  0
ELLIPSE
  5
2D6F
330
18
100
AcDbEntity
  8
0
100
AcDbEllipse
 10
530.499811
 20
16.260974
 30
0.0
 11
0.8021437979128704
 21
3.800000000000000E-14
 31
0.0
210
0.0
220
0.0
230
1.0
 40
0.958812
 41
1.570796326794851
 42
3.141592653589743
  0
LINE
  5
2D70
330
18
100
AcDbEntity
  8
0
100
AcDbLine
 10
535.613478
 20
15.155385
 30
0.0
 11
535.613478
 21
16.260974
 31
0.0
  0
ELLIPSE
  5
2D71
330
18
100
AcDbEntity
  8
0
100
AcDbEllipse
 10
534.811334
 20
16.260974
 30
0.0
 11
-0.8021437979128705
 21
3.800000000000000E-14
 31
0.0
210
0.0
220
0.0
230
1.0
 40
0.958812
 41
3.141592653589842
 42
4.712388980384734
  0
ARC
  5
2D72
330
18
100
AcDbEntity
  8
0
100
AcDbCircle
 10
540.798894
 20
14.34127
 30
0.0
 40
1.377457
100
AcDbArc
 50
16.265061
 51
130.527299
  0
ARC
  5
2D73
330
18
100
AcDbEntity
  8
0
100
AcDbCircle
 10
544.201848
 20
14.17837
 30
0.0
 40
1.425319
100
AcDbArc
 50
89.703671
 51
170.465171
  0
LINE
  5
2D74
330
18
100
AcDbEntity
  8
0
100
AcDbLine
 10
540.911147
 20
12.93607
 30
0.0
 11
542.12122
 21
12.93607
 31
0.0
  0
LINE
  5
2D75
330
18
100
AcDbEntity
  8
0
100
AcDbLine
 10
540.578809
 20
12.93607
 30
0.0
 11
542.12122
 21
12.93607
 31
0.0
  0
ARC
  5
2D76
330
18
100
AcDbEntity
  8
0
100
AcDbCircle
 10
540.229736
 20
14.361264
 30
0.0
 40
0.3375
100
AcDbArc
 50
360.0
 51
180.0
  0
LINE
  5
2D77
330
18
100
AcDbEntity
  8
0
100
AcDbLine
 10
540.567236
 20
14.361264
 30
0.0
 11
540.578809
 21
12.93607
 31
0.0
  0
ARC
  5
2D78
330
18
100
AcDbEntity
  8
0
100
AcDbCircle
 10
544.67572
 20
14.361264
 30
0.0
 40
0.3375
100
AcDbArc
 50
360.0
 51
180.0
  0
LINE
  5
2D79
330
18
100
AcDbEntity
  8
0
100
AcDbLine
 10
544.33822
 20
11.81167
 30
0.0
 11
544.33822
 21
10.236264
 31
0.0
  0
LINE
  5
2D7A
330
18
100
AcDbEntity
  8
0
100
AcDbLine
 10
544.33822
 20
12.71167
 30
0.0
 11
545.01322
 21
12.71167
 31
0.0
  0
LINE
  5
2D7B
330
18
100
AcDbEntity
  8
0
100
AcDbLine
 10
545.01322
 20
11.13667
 30
0.0
 11
545.01322
 21
10.252764
 31
0.0
  0
LINE
  5
2D7C
330
18
100
AcDbEntity
  8
0
100
AcDbLine
 10
544.33822
 20
11.81167
 30
0.0
 11
544.33822
 21
10.252764
 31
0.0
  0
ARC
  5
2D7D
330
18
100
AcDbEntity
  8
0
100
AcDbCircle
 10
544.67572
 20
10.252764
 30
0.0
 40
0.3375
100
AcDbArc
 50
180.0
 51
0.0
  0
LINE
  5
2D7E
330
18
100
AcDbEntity
  8
0
100
AcDbLine
 10
545.01322
 20
14.361264
 30
0.0
 11
545.01322
 21
12.71167
 31
0.0
  0
LINE
  5
2D7F
330
18
100
AcDbEntity
  8
0
100
AcDbLine
 10
544.33822
 20
14.361264
 30
0.0
 11
544.33822
 21
12.71167
 31
0.0
  0
LINE
  5
2D80
330
18
100
AcDbEntity
  8
0
100
AcDbLine
 10
542.12122
 20
12.93607
 30
0.0
 11
542.12122
 21
14.72707
 31
0.0
  0
LINE
  5
2D81
330
18
100
AcDbEntity
  8
0
100
AcDbLine
 10
542.79622
 20
10.236264
 30
0.0
 11
542.79622
 21
14.41447
 31
0.0
  0
LINE
  5
2D82
330
18
100
AcDbEntity
  8
0
100
AcDbLine
 10
539.903809
 20
15.60367
 30
0.0
 11
539.903809
 21
15.38827
 31
0.0
  0
LINE
  5
2D83
330
18
100
AcDbEntity
  8
0
100
AcDbLine
 10
538.361694
 20
15.60367
 30
0.0
 11
539.903809
 21
15.60367
 31
0.0
  0
LINE
  5
2D84
330
18
100
AcDbEntity
  8
0
100
AcDbLine
 10
544.194477
 20
15.60367
 30
0.0
 11
545.04922
 21
15.60367
 31
0.0
  0
ARC
  5
2D85
330
18
100
AcDbEntity
  8
0
100
AcDbCircle
 10
555.243059
 20
14.124104
 30
0.0
 40
1.488419
100
AcDbArc
 50
89.300887
 51
168.365732
  0
ARC
  5
2D86
330
18
100
AcDbEntity
  8
0
100
AcDbCircle
 10
551.752247
 20
14.207365
 30
0.0
 40
1.409039
100
AcDbArc
 50
15.47255
 51
127.56454
  0
LINE
  5
2D87
330
18
100
AcDbEntity
  8
0
100
AcDbLine
 10
546.46222
 20
11.13667
 30
0.0
 11
546.46222
 21
10.236264
 31
0.0
  0
LINE
  5
2D88
330
18
100
AcDbEntity
  8
0
100
AcDbLine
 10
546.46222
 20
11.81167
 30
0.0
 11
546.46222
 21
14.41447
 31
0.0
  0
LINE
  5
2D89
330
18
100
AcDbEntity
  8
0
100
AcDbLine
 10
553.11022
 20
14.583264
 30
0.0
 11
553.11022
 21
10.179264
 31
0.0
  0
LINE
  5
2D8A
330
18
100
AcDbEntity
  8
0
100
AcDbLine
 10
551.56822
 20
14.361264
 30
0.0
 11
551.56822
 21
10.252764
 31
0.0
  0
LINE
  5
2D8B
330
18
100
AcDbEntity
  8
0
100
AcDbLine
 10
550.89322
 20
14.361264
 30
0.0
 11
550.89322
 21
10.252764
 31
0.0
  0
ARC
  5
2D8C
330
18
100
AcDbEntity
  8
0
100
AcDbCircle
 10
551.23072
 20
10.252764
 30
0.0
 40
0.3375
100
AcDbArc
 50
180.0
 51
0.0
  0
ARC
  5
2D8D
330
18
100
AcDbEntity
  8
0
100
AcDbCircle
 10
551.23072
 20
14.361264
 30
0.0
 40
0.3375
100
AcDbArc
 50
360.0
 51
180.0
  0
LINE
  5
2D8E
330
18
100
AcDbEntity
  8
0
100
AcDbLine
 10
549.34822
 20
15.612264
 30
0.0
 11
550.89322
 21
15.612264
 31
0.0
  0
LINE
  5
2D8F
330
18
100
AcDbEntity
  8
0
100
AcDbLine
 10
547.14922
 20
17.211264
 30
0.0
 11
548.69422
 21
17.211264
 31
0.0
  0
LINE
  5
2D90
330
18
100
AcDbEntity
  8
0
100
AcDbLine
 10
550.89322
 20
15.612264
 30
0.0
 11
550.89322
 21
15.324264
 31
0.0
  0
ARC
  5
2D91
330
18
100
AcDbEntity
  8
0
100
AcDbCircle
 10
556.209381
 20
14.124104
 30
0.0
 40
1.488419
100
AcDbArc
 50
11.634268
 51
90.699113
  0
LINE
  5
2D92
330
18
100
AcDbEntity
  8
0
100
AcDbLine
 10
557.66722
 20
14.424264
 30
0.0
 11
557.66722
 21
10.203412
 31
0.0
  0
ARC
  5
2D93
330
18
100
AcDbEntity
  8
0
100
AcDbCircle
 10
555.72622
 20
14.361264
 30
0.0
 40
0.3375
100
AcDbArc
 50
360.0
 51
180.0
  0
ARC
  5
2D94
330
18
100
AcDbEntity
  8
0
100
AcDbCircle
 10
555.72622
 20
10.252764
 30
0.0
 40
0.3375
100
AcDbArc
 50
180.0
 51
0.0
  0
LINE
  5
2D95
330
18
100
AcDbEntity
  8
0
100
AcDbLine
 10
555.38872
 20
14.361264
 30
0.0
 11
555.38872
 21
10.252764
 31
0.0
  0
LINE
  5
2D96
330
18
100
AcDbEntity
  8
0
100
AcDbLine
 10
556.06372
 20
14.361264
 30
0.0
 11
556.06372
 21
10.252764
 31
0.0
  0
LINE
  5
2D97
330
18
100
AcDbEntity
  8
0
100
AcDbLine
 10
553.78522
 20
10.203412
 30
0.0
 11
553.78522
 21
14.424264
 31
0.0
  0
LINE
  5
2D98
330
18
100
AcDbEntity
  8
0
100
AcDbLine
 10
555.26122
 20
15.612412
 30
0.0
 11
556.19122
 21
15.612412
 31
0.0
  0
LINE
  5
2D99
330
18
100
AcDbEntity
  8
0
100
AcDbLine
 10
558.34222
 20
17.211264
 30
0.0
 11
559.88722
 21
17.211264
 31
0.0
  0
TEXT
  5
2D9A
330
18
100
AcDbEntity
  8
WY
100
AcDbText
 10
564.417407
 20
11.60401
 30
0.0
 40
1.999999999999999
  1
15-06-2016
 41
1.000000000000001
 51
15.0
  7
ITALIC
100
AcDbText
  0
TEXT
  5
2D9B
330
18
100
AcDbEntity
  8
WY
100
AcDbText
 10
568.848776
 20
16.149239
 30
0.0
 40
2.0
  1
Data
 51
15.0
  7
ITALIC
100
AcDbText
  0
TEXT
  5
2D9D
330
18
100
AcDbEntity
  8
1
100
AcDbText
 10
637.422754
 20
9.064009
 30
0.0
 40
5.0
  1
GZ-1050
 41
0.8
 51
15.0
  7
ITALIC
100
AcDbText
  0
LINE
  5
2D9E
330
18
100
AcDbEntity
  8
1
100
AcDbLine
 10
627.394234
 20
5.0
 30
0.0
 11
627.394234
 21
19.689837
 31
0.0
  0
TEXT
  5
2D9F
330
18
100
AcDbEntity
  8
WY
100
AcDbText
 10
629.585432
 20
16.599248
 30
0.0
 40
2.0
  1
Product type
 51
15.0
  7
ITALIC
100
AcDbText
  0
LINE
  5
2DF2
330
18
100
AcDbEntity
  8
2
100
AcDbLine
 10
682.671651
 20
292.0
 30
0.0
 11
497.671651
 21
292.0
 31
0.0
  0
LINE
  5
2DF3
330
18
100
AcDbEntity
  8
2
100
AcDbLine
 10
687.671651
 20
297.0
 30
0.0
 11
497.671651
 21
297.0
 31
0.0
  0
LINE
  5
2E74
330
18
100
AcDbEntity
  8
WYMIARY
 62
     6
100
AcDbLine
 10
497.671651
 20
297.0
 30
0.0
 11
486.041244
 21
297.0
 31
0.0
  0
MTEXT
  5
31F2
330
18
100
AcDbEntity
  8
WYMIARY
100
AcDbMText
 10
780.543201
 20
224.476865
 30
0.0
 40
3.5
 41
15.6
 71
     1
 72
     5
  1

  7
ITALIC
  0
TEXT
  5
478E
330
18
100
AcDbEntity
  8
1
100
AcDbText
 10
500.301985
 20
8.797457
 30
0.0
 40
5.0
  1
1:1
 51
15.0
  7
ITALIC
100
AcDbText
  0
LINE
  5
482F
330
18
100
AcDbEntity
  8
WYMIARY
 62
     6
100
AcDbLine
 10
687.671651
 20
0.0
 30
0.0
 11
687.671651
 21
297.0
 31
0.0
  0
LINE
  5
4AD7
330
18
100
AcDbEntity
  8
WYMIARY
 62
     3
100
AcDbLine
 10
512.671651
 20
19.689837
 30
0.0
 11
512.671651
 21
5.0
 31
0.0
  0
LINE
  5
4AD9
330
18
100
AcDbEntity
  8
WYMIARY
 62
     3
100
AcDbLine
 10
527.671651
 20
19.689837
 30
0.0
 11
527.671651
 21
5.0
 31
0.0
  0
LINE
  5
4ADA
330
18
100
AcDbEntity
  8
WYMIARY
 62
     3
100
AcDbLine
 10
586.373187
 20
19.689837
 30
0.0
 11
586.373187
 21
5.0
 31
0.0
  0
TEXT
  5
4ADB
330
18
100
AcDbEntity
  8
WY
100
AcDbText
 10
587.562196
 20
16.599248
 30
0.0
 40
2.0
  1
Draw. No.
 51
15.0
  7
ITALIC
100
AcDbText
  0
TEXT
  5
4ADF
330
18
100
AcDbEntity
  8
1
100
AcDbText
 10
591.935141
 20
9.064009
 30
0.0
 40
3.999999999999996
  1
GZ-1050-01A
 41
0.7000000000000007
 51
15.0
  7
ITALIC
100
AcDbText
  0
LINE
  5
4AE9
330
18
100
AcDbEntity
  8
WYMIARY
 62
     6
100
AcDbLine
 10
687.671651
 20
0.0
 30
0.0
 11
687.671651
 21
297.0
 31
0.0
  0
LINE
  5
6488
330
18
100
AcDbEntity
  8
WYMIARY
 62
     6
100
AcDbLine
 10
687.671651
 20
0.0
 30
0.0
 11
687.671651
 21
297.0
 31
0.0
  0
LINE
  5
648E
330
18
100
AcDbEntity
  8
2
100
AcDbLine
 10
687.671651
 20
0.0
 30
0.0
 11
687.671651
 21
297.0
 31
0.0
  0
LINE
  5
6CB6
330
18
100
AcDbEntity
  8
WYMIARY
 62
     6
100
AcDbLine
 10
687.671651
 20
0.0
 30
0.0
 11
687.671651
 21
297.0
 31
0.0
  0
LINE
  5
6CB8
330
18
100
AcDbEntity
  8
2
100
AcDbLine
 10
687.671651
 20
0.0
 30
0.0
 11
687.671651
 21
297.0
 31
0.0
  0
TEXT
  5
B62D
330
18
100
AcDbEntity
  8
1
100
AcDbText
 10
579.317934
 20
274.3510462125303
 30
0.0
 40
5.0
  1
GZ-1050
 41
0.8
 51
15.0
  7
ITALIC
100
AcDbText
  0
TEXT
  5
17A04
330
18
100
AcDbEntity
  8
1
100
AcDbText
 10
537.3136001651202
 20
263.3148018483084
 30
0.0
 40
5.0
  1
Obejma sprężynowa/Spring wire clip
 41
0.8
 51
15.0
  7
ITALIC
100
AcDbText
  0
LINE
  5
17E24
330
18
100
AcDbEntity
  8
1
  6
CONTINUOUS
100
AcDbLine
 10
545.8035971227246
 20
165.8323903562784
 30
0.0
 11
545.8035971227246
 21
187.4323903562783
 31
0.0
  0
LINE
  5
17E25
330
18
100
AcDbEntity
  8
1
  6
CONTINUOUS
100
AcDbLine
 10
545.0035971227246
 20
187.4323903562783
 30
0.0
 11
545.0035971227246
 21
165.8323903562784
 31
0.0
  0
ARC
  5
17E26
330
18
100
AcDbEntity
  8
1
  6
CONTINUOUS
100
AcDbCircle
 10
548.303597122718
 20
165.8323903562784
 30
0.0
 40
2.500000000000001
100
AcDbArc
 50
180.0
 51
289.9999999999563
  0
ARC
  5
17E27
330
18
100
AcDbEntity
  8
1
  6
CONTINUOUS
100
AcDbCircle
 10
548.303597122718
 20
165.8323903562784
 30
0.0
 40
3.30000000000003
100
AcDbArc
 50
180.0
 51
289.9999999999579
  0
LINE
  5
17E28
330
18
100
AcDbEntity
  8
1
  6
CONTINUOUS
100
AcDbLine
 10
545.0035971227246
 20
188.1323903562784
 30
0.0
 11
545.0035971227246
 21
187.4323903562783
 31
0.0
  0
LINE
  5
17E29
330
18
100
AcDbEntity
  8
1
  6
CONTINUOUS
100
AcDbLine
 10
545.8035971227246
 20
187.4323903562783
 30
0.0
 11
545.8035971227246
 21
188.1323903562784
 31
0.0
  0
SPLINE
  5
17E2A
330
18
100
AcDbEntity
  8
1
  6
CONTINUOUS
100
AcDbSpline
210
0.0
220
0.0
230
1.0
 70
     8
 71
     3
 72
    26
 73
    22
 74
     0
 42
0.000000001
 43
0.00000001
 40
0.0
 40
0.0
 40
0.0
 40
0.0
 40
0.0505533563541637
 40
0.1478016663696759
 40
0.2458315594359729
 40
0.3457662155408981
 40
0.4374562453038336
 40
0.4755672589301328
 40
0.5105971032555221
 40
0.5536716912048968
 40
0.6035734331625917
 40
0.6596807340058884
 40
0.7170581872050128
 40
0.7686484684520143
 40
0.8109062223191134
 40
0.847140813780658
 40
0.8779699616463332
 40
0.9034973020597191
 40
0.9301830786172278
 40
0.977042176637476
 40
1.0
 40
1.0
 40
1.0
 40
1.0
 10
545.2217916710171
 20
113.2514259303696
 30
0.0
 10
545.2107606586375
 20
113.209922330189
 30
0.0
 10
545.1785095455751
 20
113.0885792244204
 30
0.0
 10
545.1289278750983
 20
112.8921816657416
 30
0.0
 10
545.080646229726
 20
112.6882176299458
 30
0.0
 10
545.0484999377052
 20
112.5311193961909
 30
0.0
 10
545.0344994089797
 20
112.4494245838913
 30
0.0
 10
545.0300067177067
 20
112.361401707998
 30
0.0
 10
545.0407063316146
 20
112.2713873552527
 30
0.0
 10
545.0783763935832
 20
112.170538202843
 30
0.0
 10
545.1554423279805
 20
112.0687618666754
 30
0.0
 10
545.2729814834355
 20
111.9906267405081
 30
0.0
 10
545.4122109450266
 20
111.9586938285332
 30
0.0
 10
545.5413997541228
 20
111.9744024668118
 30
0.0
 10
545.642673942445
 20
112.0193409796879
 30
0.0
 10
545.7149214993971
 20
112.0756868588997
 30
0.0
 10
545.7628273189625
 20
112.1321077322875
 30
0.0
 10
545.7921870006093
 20
112.1792512483194
 30
0.0
 10
545.8143932907421
 20
112.2235812538199
 30
0.0
 10
545.8290590594398
 20
112.2588695192944
 30
0.0
 10
545.8396210763088
 20
112.2869665073944
 30
0.0
 10
545.8430941729855
 20
112.2962056098504
 30
0.0
  0
SPLINE
  5
17E2B
330
18
100
AcDbEntity
  8
1
  6
CONTINUOUS
100
AcDbSpline
210
0.0
220
0.0
230
1.0
 70
     8
 71
     3
 72
    14
 73
    10
 74
     0
 42
0.000000001
 43
0.00000001
 40
0.0
 40
0.0
 40
0.0
 40
0.0
 40
0.0406169994965045
 40
0.142000580819161
 40
0.3061253679553289
 40
0.5161525670169012
 40
0.7449772876837755
 40
0.9700245599018376
 40
1.0
 40
1.0
 40
1.0
 40
1.0
 10
545.8309226341019
 20
112.3553639782874
 30
0.0
 10
545.8309200572784
 20
112.3553605243102
 30
0.0
 10
545.8309110484787
 20
112.3553484489037
 30
0.0
 10
545.8355980038014
 20
112.3862094428113
 30
0.0
 10
545.8506660435478
 20
112.4621754547756
 30
0.0
 10
545.8824538151874
 20
112.6039939759262
 30
0.0
 10
545.9295841294214
 20
112.7967123457888
 30
0.0
 10
545.9700120561154
 20
112.9526667548892
 30
0.0
 10
545.9919533466895
 20
113.0347254881036
 30
0.0
 10
545.9945323320484
 20
113.0443706942881
 30
0.0
  0
LINE
  5
17E2C
330
18
100
AcDbEntity
  8
1
  6
CONTINUOUS
100
AcDbLine
 10
545.9945323320484
 20
113.0443706942881
 30
0.0
 11
558.3899674532153
 21
161.6445929873929
 31
0.0
  0
LINE
  5
17E2D
330
18
100
AcDbEntity
  8
1
  6
CONTINUOUS
100
AcDbLine
 10
557.617226792184
 20
161.8516482234754
 30
0.0
 11
545.2217916710171
 21
113.2514259303696
 31
0.0
  0
LINE
  5
17E2E
330
18
100
AcDbEntity
  8
1
  6
CONTINUOUS
100
AcDbLine
 10
554.0737457534892
 20
165.5996814848274
 30
0.0
 11
549.1586474810296
 21
163.4831588043135
 31
0.0
  0
LINE
  5
17E2F
330
18
100
AcDbEntity
  8
1
  6
CONTINUOUS
100
AcDbLine
 10
549.4322635956906
 20
162.731404707685
 30
0.0
 11
554.3473618681472
 21
164.8479273881987
 31
0.0
  0
ARC
  5
17E30
330
18
100
AcDbEntity
  8
1
  6
CONTINUOUS
100
AcDbCircle
 10
555.2024122264618
 20
162.4986958362331
 30
0.0
 40
2.500000000000004
100
AcDbArc
 50
344.9999999999676
 51
109.9999999999619
  0
ARC
  5
17E31
330
18
100
AcDbEntity
  8
1
  6
CONTINUOUS
100
AcDbCircle
 10
555.2024122264618
 20
162.4986958362331
 30
0.0
 40
3.299999999999997
100
AcDbArc
 50
344.9999999999674
 51
0.0
  0
ARC
  5
17E32
330
18
100
AcDbEntity
  8
1
  6
CONTINUOUS
100
AcDbCircle
 10
555.2024122264618
 20
162.4986958362331
 30
0.0
 40
3.300000000000011
100
AcDbArc
 50
0.0
 51
109.9999999999601
  0
LINE
  5
17E33
330
18
100
AcDbEntity
  8
1
  6
CONTINUOUS
100
AcDbLine
 10
545.8430941729855
 20
112.2962056098504
 30
0.0
 11
546.0578869350472
 21
112.8774401447787
 31
0.0
  0
ARC
  5
17E34
330
18
100
AcDbEntity
  8
1
  6
CONTINUOUS
100
AcDbCircle
 10
545.4035971227246
 20
188.1323903562784
 30
0.0
 40
0.3999999999999915
100
AcDbArc
 50
0.0
 51
180.0
  0
ARC
  5
17E35
330
18
100
AcDbEntity
  8
1
  6
CONTINUOUS
100
AcDbCircle
 10
545.7319824282051
 20
112.9944393786617
 30
0.0
 40
0.3462695024242978
100
AcDbArc
 50
340.251937373611
 51
30.9674312860326
  0
LINE
  5
17E36
330
18
100
AcDbEntity
  8
1
  6
CONTINUOUS
100
AcDbLine
 10
545.0035971227246
 20
165.8323903562784
 30
0.0
 11
545.8035971227246
 21
165.8323903562784
 31
0.0
  0
LINE
  5
17E37
330
18
100
AcDbEntity
  8
1
  6
CONTINUOUS
100
AcDbLine
 10
545.0035971227246
 20
187.4323903562783
 30
0.0
 11
545.8035971227246
 21
187.4323903562783
 31
0.0
  0
LWPOLYLINE
  5
17E38
330
18
100
AcDbEntity
  8
1
  6
CONTINUOUS
100
AcDbPolyline
 90
       10
 70
   128
 43
0.0
 10
549.4322635956879
 20
162.7314047076858
 10
549.4218501442977
 20
162.760016334907
 10
549.3921942599235
 20
162.8414959745208
 10
549.3478107821298
 20
162.9634390900105
 10
549.2954566930738
 20
163.1072809474599
 10
549.2431024282231
 20
163.2511229280022
 10
549.1987184498086
 20
163.3730663940305
 10
549.1690618162021
 20
163.4545465582623
 10
549.1586474810323
 20
163.4831588043127
 10
549.1586474810301
 20
163.4831588043135
  0
LWPOLYLINE
  5
17E39
330
18
100
AcDbEntity
  8
1
  6
CONTINUOUS
100
AcDbPolyline
 90
        3
 70
   128
 43
0.0
 10
545.8430860145814
 20
112.296183535443
 10
545.857287575581
 20
112.3467000035697
 10
545.8590744206716
 20
112.4663108042595
  0
LWPOLYLINE
  5
17E3A
330
18
100
AcDbEntity
  8
1
  6
CONTINUOUS
100
AcDbPolyline
 90
       10
 70
   128
 43
0.0
 10
545.2217916710171
 20
113.2514259303696
 10
545.2512023686932
 20
113.2435454483226
 10
545.334956934622
 20
113.221103556864
 10
545.460304495378
 20
113.1875168305322
 10
545.6081620211143
 20
113.1478985439466
 10
545.7560195438695
 20
113.1082802220993
 10
545.8813670961359
 20
113.0746933953506
 10
545.9651216493593
 20
113.0522513536076
 10
545.9945323320484
 20
113.0443706942881
 10
545.9945322854065
 20
113.0443707066694
  0
LWPOLYLINE
  5
17E3B
330
18
100
AcDbEntity
  8
1
  6
CONTINUOUS
100
AcDbPolyline
 90
       10
 70
   128
 43
0.0
 10
557.6172267921779
 20
161.8516482234765
 10
557.646637489854
 20
161.8437677414295
 10
557.7303920557829
 20
161.8213258499709
 10
557.8557396165388
 20
161.787739123639
 10
558.0035971422751
 20
161.7481208370534
 10
558.1514546650304
 20
161.7085025152062
 10
558.2768022172968
 20
161.6749156884575
 10
558.3605567705202
 20
161.6524736467145
 10
558.3899674532094
 20
161.644592987395
 10
558.3899674532094
 20
161.6445929873949
  0
LWPOLYLINE
  5
17E3C
330
18
100
AcDbEntity
  8
1
  6
CONTINUOUS
100
AcDbPolyline
 90
       10
 70
   128
 43
0.0
 10
554.3473618681472
 20
164.8479273881987
 10
554.3369484167571
 20
164.87653901542
 10
554.3072925323828
 20
164.9580186550337
 10
554.2629090545893
 20
165.0799617705235
 10
554.2105549655332
 20
165.2238036279729
 10
554.1582007006824
 20
165.3676456085152
 10
554.113816722268
 20
165.4895890745434
 10
554.0841600886615
 20
165.5710692387752
 10
554.0737457534917
 20
165.5996814848257
 10
554.0737457534889
 20
165.5996814848264
  0
LINE
  5
17E43
330
18
100
AcDbEntity
  8
1
  6
CONTINUOUS
100
AcDbLine
 10
641.0427177019548
 20
165.8822517689163
 30
0.0
 11
643.8620834539079
 21
187.2974607745906
 31
0.0
  0
LINE
  5
17E44
330
18
100
AcDbEntity
  8
1
  6
CONTINUOUS
100
AcDbLine
 10
643.0689275648089
 20
187.4018817283667
 30
0.0
 11
640.2495618128556
 21
165.9866727226924
 31
0.0
  0
ARC
  5
17E45
330
18
100
AcDbEntity
  8
1
  6
CONTINUOUS
100
AcDbCircle
 10
642.7714941063967
 20
187.4410395860327
 30
0.0
 40
0.3000000000000398
100
AcDbArc
 50
352.5000000000026
 51
82.49999999999395
  0
ARC
  5
17E46
330
18
100
AcDbEntity
  8
1
  6
CONTINUOUS
100
AcDbCircle
 10
642.7714941063967
 20
187.4410395860327
 30
0.0
 40
1.100000000000023
100
AcDbArc
 50
352.5000000000005
 51
82.50000000000246
  0
ARC
  5
17E47
330
18
100
AcDbEntity
  8
1
  6
CONTINUOUS
100
AcDbCircle
 10
608.0193352656125
 20
187.4349568978662
 30
0.0
 40
0.3000000000000398
100
AcDbArc
 50
97.50000000000676
 51
187.4999999999917
  0
ARC
  5
17E48
330
18
100
AcDbEntity
  8
1
  6
CONTINUOUS
100
AcDbCircle
 10
608.0193352656125
 20
187.4349568978662
 30
0.0
 40
1.100000000000023
100
AcDbArc
 50
97.50000000000342
 51
187.5000000000032
  0
LINE
  5
17E49
330
18
100
AcDbEntity
  8
1
  6
CONTINUOUS
100
AcDbLine
 10
627.5213670363726
 20
187.2800691689728
 30
0.0
 11
627.5281803597823
 21
187.1239524340631
 31
0.0
  0
LINE
  5
17E4A
330
18
100
AcDbEntity
  8
1
  6
CONTINUOUS
100
AcDbLine
 10
628.3274195795292
 20
187.1588332256001
 30
0.0
 11
628.3206062561196
 21
187.3149499605099
 31
0.0
  0
ARC
  5
17E4B
330
18
100
AcDbEntity
  8
1
  6
CONTINUOUS
100
AcDbCircle
 10
625.4301774079464
 20
187.0323903562784
 30
0.0
 40
2.099999999999994
100
AcDbArc
 50
180.0
 51
2.498944871629883
  0
ARC
  5
17E4C
330
18
100
AcDbEntity
  8
1
  6
CONTINUOUS
100
AcDbCircle
 10
625.4301774079464
 20
187.0323903562784
 30
0.0
 40
2.100000000000007
100
AcDbArc
 50
177.5010551283701
 51
180.0
  0
ARC
  5
17E4D
330
18
100
AcDbEntity
  8
1
  6
CONTINUOUS
100
AcDbCircle
 10
625.4301774079464
 20
187.0323903562784
 30
0.0
 40
2.900000000000006
100
AcDbArc
 50
177.5010551283701
 51
0.0
  0
ARC
  5
17E4E
330
18
100
AcDbEntity
  8
1
  6
CONTINUOUS
100
AcDbCircle
 10
625.4301774079464
 20
187.0323903562784
 30
0.0
 40
2.900000000000006
100
AcDbArc
 50
0.0
 51
2.498944871629925
  0
LINE
  5
17E4F
330
18
100
AcDbEntity
  8
1
  6
CONTINUOUS
100
AcDbLine
 10
610.5412675591534
 20
165.9805900345259
 30
0.0
 11
607.7219018072002
 21
187.3957990402002
 31
0.0
  0
LINE
  5
17E50
330
18
100
AcDbEntity
  8
1
  6
CONTINUOUS
100
AcDbLine
 10
606.9287459181013
 20
187.2913780864241
 30
0.0
 11
609.7481116700543
 21
165.8761690807499
 31
0.0
  0
LINE
  5
17E51
330
18
100
AcDbEntity
  8
1
  6
CONTINUOUS
100
AcDbLine
 10
622.5397485597733
 20
187.3149499605099
 30
0.0
 11
622.5329352363636
 21
187.1588332256001
 31
0.0
  0
LINE
  5
17E52
330
18
100
AcDbEntity
  8
1
  6
CONTINUOUS
100
AcDbLine
 10
623.3321744561106
 20
187.1239524340631
 30
0.0
 11
623.3389877795203
 21
187.2800691689728
 31
0.0
  0
ARC
  5
17E53
330
18
100
AcDbEntity
  8
1
  6
CONTINUOUS
100
AcDbCircle
 10
628.720225865993
 20
187.3323903562784
 30
0.0
 40
0.4000000000000057
100
AcDbArc
 50
180.0
 51
182.4989448716215
  0
ARC
  5
17E54
330
18
100
AcDbEntity
  8
1
  6
CONTINUOUS
100
AcDbCircle
 10
628.720225865993
 20
187.3323903562784
 30
0.0
 40
0.4000000000000341
100
AcDbArc
 50
90.0
 51
180.0
  0
ARC
  5
17E55
330
18
100
AcDbEntity
  8
1
  6
CONTINUOUS
100
AcDbCircle
 10
628.720225865993
 20
187.3323903562784
 30
0.0
 40
1.200000000000017
100
AcDbArc
 50
90.0
 51
182.4989448716299
  0
LINE
  5
17E56
330
18
100
AcDbEntity
  8
1
  6
CONTINUOUS
100
AcDbLine
 10
607.9801774079465
 20
187.7323903562784
 30
0.0
 11
622.1401289498999
 21
187.7323903562784
 31
0.0
  0
LINE
  5
17E57
330
18
100
AcDbEntity
  8
1
  6
CONTINUOUS
100
AcDbLine
 10
622.1401289498999
 20
188.5323903562784
 30
0.0
 11
607.8757564541704
 21
188.5255462453775
 31
0.0
  0
ARC
  5
17E58
330
18
100
AcDbEntity
  8
1
  6
CONTINUOUS
100
AcDbCircle
 10
622.1401289498999
 20
187.3323903562784
 30
0.0
 40
0.4000000000000341
100
AcDbArc
 50
357.5010551283785
 51
90.0
  0
ARC
  5
17E59
330
18
100
AcDbEntity
  8
1
  6
CONTINUOUS
100
AcDbCircle
 10
622.1401289498999
 20
187.3323903562784
 30
0.0
 40
1.199999999999989
100
AcDbArc
 50
357.5010551283728
 51
0.0
  0
ARC
  5
17E5A
330
18
100
AcDbEntity
  8
1
  6
CONTINUOUS
100
AcDbCircle
 10
622.1401289498999
 20
187.3323903562784
 30
0.0
 40
1.200000000000017
100
AcDbArc
 50
0.0
 51
90.0
  0
LINE
  5
17E5B
330
18
100
AcDbEntity
  8
1
  6
CONTINUOUS
100
AcDbLine
 10
642.9150729178388
 20
188.5316289335439
 30
0.0
 11
628.720225865993
 21
188.5323903562784
 31
0.0
  0
LINE
  5
17E5C
330
18
100
AcDbEntity
  8
1
  6
CONTINUOUS
100
AcDbLine
 10
628.720225865993
 20
187.7323903562784
 30
0.0
 11
642.8106519640628
 21
187.7384730444449
 31
0.0
  0
ARC
  5
17E5D
330
18
100
AcDbEntity
  8
1
  6
CONTINUOUS
100
AcDbCircle
 10
610.5232217567872
 20
163.0531902738978
 30
0.0
 40
0.4000000000000216
100
AcDbArc
 50
187.4998767525534
 51
7.500123247451224
  0
LWPOLYLINE
  5
17E5E
330
18
100
AcDbEntity
  8
1
  6
CONTINUOUS
100
AcDbPolyline
 90
        9
 70
   128
 43
0.0
 10
610.1038180190895
 20
163.1743752550404
 10
610.1091263364971
 20
163.1340526067623
 10
610.1137474537417
 20
163.098949734594
 10
610.1176725742635
 20
163.0691334588479
 10
610.1208942263726
 20
163.0446605364994
 10
610.1234062774712
 20
163.0255775531473
 10
610.1252039457273
 20
163.0119208343351
 10
610.1262838091773
 20
163.003716376403
 10
610.1266438122386
 20
163.0009797970098
  0
LWPOLYLINE
  5
17E5F
330
18
100
AcDbEntity
  8
1
  6
CONTINUOUS
100
AcDbPolyline
 90
       10
 70
   128
 43
0.0
 10
609.7481116700552
 20
165.87616908075
 10
609.8138421067242
 20
165.3768975721592
 10
609.8775755452566
 20
164.8927962004534
 10
609.9373754773732
 20
164.4385741408451
 10
609.991424912397
 20
164.0280327007678
 10
610.0380815855949
 20
163.6736459741343
 10
610.0759278575615
 20
163.386181822305
 10
610.103813788474
 20
163.1743746980694
 10
610.1208920784329
 20
163.0446602537178
 10
610.1266438122386
 20
163.0009797970098
  0
LWPOLYLINE
  5
17E60
330
18
100
AcDbEntity
  8
1
  6
CONTINUOUS
100
AcDbPolyline
 90
       10
 70
   128
 43
0.0
 10
610.9197997013358
 20
163.1054007507857
 10
610.9140479675293
 20
163.1490812075002
 10
610.8969696775705
 20
163.2787956518514
 10
610.869083746658
 20
163.4906027760865
 10
610.8312374746915
 20
163.7780669279151
 10
610.7845808014936
 20
164.1324536545478
 10
610.7305313664699
 20
164.5429950946242
 10
610.6707314343535
 20
164.9972171542315
 10
610.6069979958213
 20
165.4813185259361
 10
610.5412675591525
 20
165.9805900345258
  0
LWPOLYLINE
  5
17E61
330
18
100
AcDbEntity
  8
1
  6
CONTINUOUS
100
AcDbPolyline
 90
        9
 70
   128
 43
0.0
 10
610.9197997013358
 20
163.1054007507857
 10
610.9194396982735
 20
163.1081373301855
 10
610.9183598348238
 20
163.1163417881175
 10
610.9165621665675
 20
163.1299985069298
 10
610.914050115469
 20
163.1490814902817
 10
610.9108284633596
 20
163.1735544126301
 10
610.9069033428381
 20
163.2033706883762
 10
610.9022822255936
 20
163.2384735605444
 10
610.8969739081867
 20
163.2787962088163
  0
ARC
  5
17E62
330
18
100
AcDbEntity
  8
1
  6
CONTINUOUS
100
AcDbCircle
 10
640.267607615222
 20
163.0592729620642
 30
0.0
 40
0.4000000000000216
100
AcDbArc
 50
172.4998767525509
 51
352.5001232474527
  0
LWPOLYLINE
  5
17E63
330
18
100
AcDbEntity
  8
1
  6
CONTINUOUS
100
AcDbPolyline
 90
        9
 70
   128
 43
0.0
 10
639.8938554638224
 20
163.2848788969827
 10
639.8885471464148
 20
163.2445562487045
 10
639.8839260291703
 20
163.2094533765362
 10
639.8800009086484
 20
163.1796371007901
 10
639.8767792565393
 20
163.1551641784417
 10
639.8742672054406
 20
163.1360811950896
 10
639.8724695371845
 20
163.1224244762774
 10
639.8713896737346
 20
163.1142200183453
 10
639.8710296706734
 20
163.1114834389521
  0
LWPOLYLINE
  5
17E64
330
18
100
AcDbEntity
  8
1
  6
CONTINUOUS
100
AcDbPolyline
 90
       10
 70
   128
 43
0.0
 10
640.2495618128565
 20
165.9866727226923
 10
640.1838313761875
 20
165.4874012141014
 10
640.1200979376551
 20
165.0032998423957
 10
640.0602980055386
 20
164.5490777827874
 10
640.0062485705149
 20
164.13853634271
 10
639.959591897317
 20
163.7841496160765
 10
639.9217456253505
 20
163.4966854642472
 10
639.8938596944378
 20
163.2848783400116
 10
639.876781404479
 20
163.1551638956601
 10
639.8710296706734
 20
163.1114834389521
  0
LWPOLYLINE
  5
17E65
330
18
100
AcDbEntity
  8
1
  6
CONTINUOUS
100
AcDbPolyline
 90
       10
 70
   128
 43
0.0
 10
640.6641855597705
 20
163.0070624851763
 10
640.6699372935772
 20
163.0507429418908
 10
640.6870155835358
 20
163.1804573862421
 10
640.7149015144483
 20
163.3922645104772
 10
640.7527477864147
 20
163.6797286623058
 10
640.7994044596126
 20
164.0341153889385
 10
640.8534538946362
 20
164.4446568290148
 10
640.9132538267528
 20
164.8988788886222
 10
640.976987265285
 20
165.3829802603267
 10
641.0427177019537
 20
165.8822517689164
  0
LWPOLYLINE
  5
17E66
330
18
100
AcDbEntity
  8
1
  6
CONTINUOUS
100
AcDbPolyline
 90
        9
 70
   128
 43
0.0
 10
640.6641855597705
 20
163.0070624851763
 10
640.6645455628328
 20
163.0097990645762
 10
640.6656254262825
 20
163.0180035225082
 10
640.6674230945388
 20
163.0316602413204
 10
640.6699351456375
 20
163.0507432246724
 10
640.6731567977465
 20
163.0752161470208
 10
640.6770819182684
 20
163.1050324227668
 10
640.6817030355127
 20
163.1401352949351
 10
640.6870113529196
 20
163.1804579432069
  0
SPLINE
  5
17E67
330
18
100
AcDbEntity
  8
1
  6
CONTINUOUS
100
AcDbSpline
210
0.0
220
0.0
230
1.0
 70
     8
 71
     3
 72
    13
 73
     9
 74
     0
 42
0.000000001
 43
0.00000001
 40
0.0
 40
0.0
 40
0.0
 40
0.0
 40
0.0790414585706571
 40
0.2823868371110872
 40
0.4563724351044535
 40
0.6393070770362894
 40
0.8152321522899096
 40
0.9999999999999999
 40
0.9999999999999999
 40
0.9999999999999999
 40
0.9999999999999999
 10
633.3728548854142
 20
113.7529036769759
 30
0.0
 10
633.3694602219805
 20
113.7342858510224
 30
0.0
 10
633.3573323047145
 20
113.6677710234878
 30
0.0
 10
633.3004415844214
 20
113.5659161836011
 30
0.0
 10
633.1855348549163
 20
113.4704612564711
 30
0.0
 10
633.0454889550101
 20
113.4216480405786
 30
0.0
 10
632.890274886184
 20
113.4212407508768
 30
0.0
 10
632.8017916776512
 20
113.46286775237
 30
0.0
 10
632.756465443178
 20
113.4841915183296
 30
0.0
  0
SPLINE
  5
17E68
330
18
100
AcDbEntity
  8
1
  6
CONTINUOUS
100
AcDbSpline
210
0.0
220
0.0
230
1.0
 70
     8
 71
     3
 72
    16
 73
    12
 74
     0
 42
0.000000001
 43
0.00000001
 40
0.0
 40
0.0
 40
0.0
 40
0.0
 40
0.0785524934499183
 40
0.2027747142423114
 40
0.3274812017683004
 40
0.4525491038232926
 40
0.5777809870730065
 40
0.7029598256440653
 40
0.8278737201424441
 40
0.9523591834697803
 40
1.0
 40
1.0
 40
1.0
 40
1.0
 10
632.3416421324517
 20
112.8001435515332
 30
0.0
 10
632.3964053516314
 20
112.7703051870372
 30
0.0
 10
632.5377706429474
 20
112.693280695918
 30
0.0
 10
632.7929059157252
 20
112.6258961829778
 30
0.0
 10
633.0929707622654
 20
112.6175166184296
 30
0.0
 10
633.387358306692
 20
112.6828173138197
 30
0.0
 10
633.6566741139709
 20
112.8171758042604
 30
0.0
 10
633.8842097953473
 20
113.0128074978273
 30
0.0
 10
634.0542696940076
 20
113.2573134461632
 30
0.0
 10
634.1383957096824
 20
113.4782968246536
 30
0.0
 10
634.1600244662103
 20
113.6115904201287
 30
0.0
 10
634.1660108363473
 20
113.6484831928763
 30
0.0
  0
SPLINE
  5
17E69
330
18
100
AcDbEntity
  8
1
  6
CONTINUOUS
100
AcDbSpline
210
0.0
220
0.0
230
1.0
 70
     8
 71
     3
 72
    16
 73
    12
 74
     0
 42
0.000000001
 43
0.00000001
 40
0.0
 40
0.0
 40
0.0
 40
0.0
 40
0.0794260073741544
 40
0.2026236240601965
 40
0.3260114764603632
 40
0.4496931995843079
 40
0.5738054607812261
 40
0.6983788268438033
 40
0.8233485620349092
 40
0.9485512968942074
 40
1.0
 40
1.0
 40
1.0
 40
1.0
 10
616.6248185356618
 20
113.6424005047099
 30
0.0
 10
616.6359532315334
 20
113.5809933788301
 30
0.0
 10
616.66435894529
 20
113.4243377089778
 30
0.0
 10
616.772739117005
 20
113.1881340427297
 30
0.0
 10
616.9548842296742
 20
112.95676477705
 30
0.0
 10
617.1905992526068
 20
112.7761085439689
 30
0.0
 10
617.4644587634709
 20
112.6570792601281
 30
0.0
 10
617.7607477629213
 20
112.6070402029746
 30
0.0
 10
618.0606993802144
 20
112.6304574284026
 30
0.0
 10
618.2917177700627
 20
112.7051358887867
 30
0.0
 10
618.4136695062223
 20
112.7740035561052
 30
0.0
 10
618.4491872395572
 20
112.7940608633667
 30
0.0
  0
SPLINE
  5
17E6A
330
18
100
AcDbEntity
  8
1
  6
CONTINUOUS
100
AcDbSpline
210
0.0
220
0.0
230
1.0
 70
     8
 71
     3
 72
    14
 73
    10
 74
     0
 42
0.000000001
 43
0.00000001
 40
0.0
 40
0.0
 40
0.0
 40
0.0
 40
0.0788720408004313
 40
0.2544931710338443
 40
0.4293385343960251
 40
0.6029032911128719
 40
0.7803959900805496
 40
0.9732080142039152
 40
1.0
 40
1.0
 40
1.0
 40
1.0
 10
618.034363928831
 20
113.4781088301631
 30
0.0
 10
618.0159229626236
 20
113.4680730116554
 30
0.0
 10
617.9564202552067
 20
113.4356908487239
 30
0.0
 10
617.8380455506267
 20
113.4104227659904
 30
0.0
 10
617.6916922190017
 20
113.4280910555796
 30
0.0
 10
617.5620221315486
 20
113.4929263195653
 30
0.0
 10
617.4641303373502
 20
113.5965173660733
 30
0.0
 10
617.4266825399613
 20
113.6886170025969
 30
0.0
 10
617.4189213609199
 20
113.7404921506831
 30
0.0
 10
617.4179744865947
 20
113.7468209888095
 30
0.0
  0
LINE
  5
17E6D
330
18
100
AcDbEntity
  8
1
  6
CONTINUOUS
100
AcDbLine
 10
621.1209663059313
 20
115.349909498219
 30
0.0
 11
618.0339570337879
 21
113.4778720554207
 31
0.0
  0
LINE
  5
17E6E
330
18
100
AcDbEntity
  8
1
  6
CONTINUOUS
100
AcDbLine
 10
618.4491872395572
 20
112.7940608633667
 30
0.0
 11
621.5357896166577
 21
114.6658615314227
 31
0.0
  0
LINE
  5
17E6F
330
18
100
AcDbEntity
  8
1
  6
CONTINUOUS
100
AcDbLine
 10
617.4179744865947
 20
113.7468209888095
 30
0.0
 11
611.0744004755038
 21
161.9312653220796
 31
0.0
  0
LINE
  5
17E70
330
18
100
AcDbEntity
  8
1
  6
CONTINUOUS
100
AcDbLine
 10
610.2812445245709
 20
161.82684483798
 30
0.0
 11
616.6248236114121
 21
113.6423621642196
 31
0.0
  0
LINE
  5
17E71
330
18
100
AcDbEntity
  8
1
  6
CONTINUOUS
100
AcDbLine
 10
634.1660108363473
 20
113.6484831928763
 30
0.0
 11
640.5095848474383
 21
161.8329275261464
 31
0.0
  0
LINE
  5
17E72
330
18
100
AcDbEntity
  8
1
  6
CONTINUOUS
100
AcDbLine
 10
639.7164288965051
 20
161.9373480102461
 30
0.0
 11
633.3731339913608
 21
113.754601077268
 31
0.0
  0
LINE
  5
17E73
330
18
100
AcDbEntity
  8
1
  6
CONTINUOUS
100
AcDbLine
 10
640.1701043998062
 20
165.3832937214851
 30
0.0
 11
639.893855155263
 21
163.2848765531957
 31
0.0
  0
LINE
  5
17E74
330
18
100
AcDbEntity
  8
1
  6
CONTINUOUS
100
AcDbLine
 10
610.8969742167459
 20
163.2787938650293
 30
0.0
 11
610.620724972203
 21
165.3772110333187
 31
0.0
  0
LWPOLYLINE
  5
17E75
330
18
100
AcDbEntity
  8
1
  6
CONTINUOUS
100
AcDbPolyline
 90
       11
 70
   128
 43
0.0
 10
611.0744004454989
 20
161.9312655499821
 10
611.006129723155
 20
162.4498347168507
 10
610.9368641766167
 20
162.9759587337956
 10
610.8689235218433
 20
163.4920176102233
 10
610.8045831039234
 20
163.9807284389577
 10
610.7459976953475
 20
164.4257242039952
 10
610.6951293322801
 20
164.8121019148975
 10
610.6536816056042
 20
165.1269217106961
 10
610.6230426073488
 20
165.3596402182283
 10
610.6042384432296
 20
165.5024636516535
 10
610.5978988681806
 20
165.5506088277758
  0
LWPOLYLINE
  5
17E76
330
18
100
AcDbEntity
  8
1
  6
CONTINUOUS
100
AcDbPolyline
 90
        9
 70
   128
 43
0.0
 10
610.6207246645567
 20
165.37721337017
 10
610.6154163470981
 20
165.4175360184415
 10
610.6107952297009
 20
165.4526388905897
 10
610.6068701089249
 20
165.4824551663024
 10
610.6036484564606
 20
165.506928088604
 10
610.6011364049066
 20
165.5260110718962
 10
610.5993387360955
 20
165.5396677906353
 10
610.5982588719924
 20
165.5478722484814
 10
610.5978988681806
 20
165.5506088277758
  0
LWPOLYLINE
  5
17E77
330
18
100
AcDbEntity
  8
1
  6
CONTINUOUS
100
AcDbPolyline
 90
        4
 70
   128
 43
0.0
 10
610.1272249168368
 20
162.9967411633389
 10
610.1437082856935
 20
162.8715377938904
 10
610.2129738322315
 20
162.3454137769467
 10
610.2812445545756
 20
161.8268446100775
  0
LWPOLYLINE
  5
17E78
330
18
100
AcDbEntity
  8
1
  6
CONTINUOUS
100
AcDbPolyline
 90
        4
 70
   128
 43
0.0
 10
640.5095848174333
 20
161.832927298244
 10
640.5778555397776
 20
162.3514964651127
 10
640.6471210863158
 20
162.8776204820575
 10
640.6636044551723
 20
163.0028238515054
  0
LWPOLYLINE
  5
17E79
330
18
100
AcDbEntity
  8
1
  6
CONTINUOUS
100
AcDbPolyline
 90
        9
 70
   128
 43
0.0
 10
640.1929305038285
 20
165.5566915159422
 10
640.1925705000159
 20
165.5539549366412
 10
640.1914906359127
 20
165.5457504787952
 10
640.1896929671018
 20
165.5320937600561
 10
640.1871809155475
 20
165.513010776764
 10
640.1839592630834
 20
165.4885378544624
 10
640.1800341423074
 20
165.4587215787498
 10
640.1754130249101
 20
165.4236187066017
 10
640.1701047074523
 20
165.3832960583365
  0
LWPOLYLINE
  5
17E7A
330
18
100
AcDbEntity
  8
1
  6
CONTINUOUS
100
AcDbPolyline
 90
       11
 70
   128
 43
0.0
 10
640.1929305038285
 20
165.5566915159422
 10
640.1865909287785
 20
165.5085463398134
 10
640.1677867646595
 20
165.3657229063885
 10
640.1371477664043
 20
165.1330043988569
 10
640.0957000397284
 20
164.818184603059
 10
640.0448316766611
 20
164.4318068921576
 10
639.9862462680854
 20
163.9868111271211
 10
639.9219058501656
 20
163.498100298388
 10
639.8539651953923
 20
162.9820414219613
 10
639.7846996488543
 20
162.4559174050178
 10
639.7164289265099
 20
161.9373482381486
  0
ARC
  5
17E7D
330
18
100
AcDbEntity
  8
1
  6
CONTINUOUS
100
AcDbCircle
 10
620.8129325244315
 20
114.6007678927309
 30
0.0
 40
0.7257820317284082
100
AcDbArc
 50
5.145634427291525
 51
43.29640032579169
  0
ARC
  5
17E7E
330
18
100
AcDbEntity
  8
1
  6
CONTINUOUS
100
AcDbCircle
 10
620.872263830652
 20
114.9099478171816
 30
0.0
 40
0.5053901482927388
100
AcDbArc
 50
21.90454253363272
 51
60.52129999495269
  0
LINE
  5
17E7F
330
18
100
AcDbEntity
  8
1
  6
CONTINUOUS
100
AcDbLine
 10
640.6461397574052
 20
165.9344622458043
 30
0.0
 11
641.0427177019548
 21
165.8822517689163
 31
0.0
  0
LINE
  5
17E80
330
18
100
AcDbEntity
  8
1
  6
CONTINUOUS
100
AcDbLine
 10
640.2495618128556
 20
165.9866727226924
 30
0.0
 11
640.6461397574052
 21
165.9344622458043
 31
0.0
  0
LINE
  5
17E81
330
18
100
AcDbEntity
  8
1
  6
CONTINUOUS
100
AcDbLine
 10
643.4655055093584
 20
187.3496712514786
 30
0.0
 11
643.8620834539078
 21
187.2974607745906
 31
0.0
  0
LINE
  5
17E82
330
18
100
AcDbEntity
  8
1
  6
CONTINUOUS
100
AcDbLine
 10
643.0689275648087
 20
187.4018817283667
 30
0.0
 11
643.4655055093584
 21
187.3496712514786
 31
0.0
  0
LINE
  5
17E83
330
18
100
AcDbEntity
  8
1
  6
CONTINUOUS
100
AcDbLine
 10
642.8628624409508
 20
188.1350509889944
 30
0.0
 11
642.9150729178388
 21
188.5316289335439
 31
0.0
  0
LINE
  5
17E84
330
18
100
AcDbEntity
  8
1
  6
CONTINUOUS
100
AcDbLine
 10
642.8106519640628
 20
187.7384730444449
 30
0.0
 11
642.8628624409508
 21
188.1350509889944
 31
0.0
  0
LINE
  5
17E85
330
18
100
AcDbEntity
  8
1
  6
CONTINUOUS
100
AcDbLine
 10
607.3253238626509
 20
187.3435885633122
 30
0.0
 11
606.9287459181013
 21
187.2913780864241
 31
0.0
  0
LINE
  5
17E86
330
18
100
AcDbEntity
  8
1
  6
CONTINUOUS
100
AcDbLine
 10
607.7219018072002
 20
187.3957990402002
 30
0.0
 11
607.3253238626509
 21
187.3435885633122
 31
0.0
  0
LINE
  5
17E87
330
18
100
AcDbEntity
  8
1
  6
CONTINUOUS
100
AcDbLine
 10
607.9279669310584
 20
188.1289683008279
 30
0.0
 11
607.8757564541704
 21
188.5255462453775
 31
0.0
  0
LINE
  5
17E88
330
18
100
AcDbEntity
  8
1
  6
CONTINUOUS
100
AcDbLine
 10
607.9801774079465
 20
187.7323903562784
 30
0.0
 11
607.9279669310584
 21
188.1289683008279
 31
0.0
  0
LINE
  5
17E89
330
18
100
AcDbEntity
  8
1
  6
CONTINUOUS
100
AcDbLine
 10
627.9209866462461
 20
187.2975095647413
 30
0.0
 11
627.5213670363726
 21
187.2800691689728
 31
0.0
  0
LINE
  5
17E8A
330
18
100
AcDbEntity
  8
1
  6
CONTINUOUS
100
AcDbLine
 10
628.3206062561196
 20
187.3149499605099
 30
0.0
 11
627.9209866462461
 21
187.2975095647413
 31
0.0
  0
LINE
  5
17E8B
330
18
100
AcDbEntity
  8
1
  6
CONTINUOUS
100
AcDbLine
 10
627.9277999696558
 20
187.1413928298317
 30
0.0
 11
627.5281803597823
 21
187.1239524340631
 31
0.0
  0
LINE
  5
17E8C
330
18
100
AcDbEntity
  8
1
  6
CONTINUOUS
100
AcDbLine
 10
628.3274195795292
 20
187.1588332256001
 30
0.0
 11
627.9277999696558
 21
187.1413928298317
 31
0.0
  0
LINE
  5
17E8D
330
18
100
AcDbEntity
  8
1
  6
CONTINUOUS
100
AcDbLine
 10
622.9325548462372
 20
187.1413928298317
 30
0.0
 11
623.3321744561106
 21
187.1239524340631
 31
0.0
  0
LINE
  5
17E8E
330
18
100
AcDbEntity
  8
1
  6
CONTINUOUS
100
AcDbLine
 10
622.5329352363636
 20
187.1588332256001
 30
0.0
 11
622.9325548462372
 21
187.1413928298317
 31
0.0
  0
LINE
  5
17E8F
330
18
100
AcDbEntity
  8
1
  6
CONTINUOUS
100
AcDbLine
 10
610.1446896146039
 20
165.9283795576379
 30
0.0
 11
609.7481116700543
 21
165.8761690807499
 31
0.0
  0
LINE
  5
17E90
330
18
100
AcDbEntity
  8
1
  6
CONTINUOUS
100
AcDbLine
 10
610.5412675591534
 20
165.9805900345259
 30
0.0
 11
610.1446896146039
 21
165.9283795576379
 31
0.0
  0
LINE
  5
17E91
330
18
100
AcDbEntity
  8
1
  6
CONTINUOUS
100
AcDbLine
 10
622.9393681696469
 20
187.2975095647413
 30
0.0
 11
623.3389877795203
 21
187.2800691689728
 31
0.0
  0
LINE
  5
17E92
330
18
100
AcDbEntity
  8
1
  6
CONTINUOUS
100
AcDbLine
 10
622.5397485597733
 20
187.3149499605099
 30
0.0
 11
622.9393681696469
 21
187.2975095647413
 31
0.0
  0
LINE
  5
17E93
330
18
100
AcDbEntity
  8
1
  6
CONTINUOUS
100
AcDbLine
 10
628.720225865993
 20
188.1323903562784
 30
0.0
 11
628.720225865993
 21
188.5323903562784
 31
0.0
  0
LINE
  5
17E94
330
18
100
AcDbEntity
  8
1
  6
CONTINUOUS
100
AcDbLine
 10
628.720225865993
 20
187.7323903562784
 30
0.0
 11
628.720225865993
 21
188.1323903562784
 31
0.0
  0
LINE
  5
17E95
330
18
100
AcDbEntity
  8
1
  6
CONTINUOUS
100
AcDbLine
 10
622.1401289498999
 20
188.1323903562784
 30
0.0
 11
622.1401289498999
 21
188.5323903562784
 31
0.0
  0
LINE
  5
17E96
330
18
100
AcDbEntity
  8
1
  6
CONTINUOUS
100
AcDbLine
 10
622.1401289498999
 20
187.7323903562784
 30
0.0
 11
622.1401289498999
 21
188.1323903562784
 31
0.0
  0
ARC
  5
17E97
330
18
100
AcDbEntity
  8
1
  6
CONTINUOUS
100
AcDbCircle
 10
633.0647435931461
 20
112.7349179178781
 30
0.0
 40
0.7260504090259465
100
AcDbArc
 50
136.7092430887975
 51
174.845211765659
  0
ARC
  5
17E98
330
18
100
AcDbEntity
  8
1
  6
CONTINUOUS
100
AcDbCircle
 10
633.0064436681519
 20
113.0432880876358
 30
0.0
 40
0.5069252838775169
100
AcDbArc
 50
119.557437732866
 51
158.0504924386649
  0
LWPOLYLINE
  5
17E99
330
18
100
AcDbEntity
  8
1
  6
CONTINUOUS
100
AcDbPolyline
 90
        6
 70
   128
 43
0.0
 10
633.7829458859716
 20
113.8033353651988
 10
633.9336810887743
 20
113.7755422168595
 10
634.059410987794
 20
113.7363540199768
 10
634.1409943456496
 20
113.6917368222842
 10
634.1660108356624
 20
113.6484831876744
 10
634.1660059311896
 20
113.6484461341124
  0
ARC
  5
17E9A
330
18
100
AcDbEntity
  8
1
  6
CONTINUOUS
100
AcDbCircle
 10
633.6296018862492
 20
113.3453782309802
 30
0.0
 40
0.4829483606271604
100
AcDbArc
 50
71.4872095502337
 51
122.0761700784058
  0
ARC
  5
17E9B
330
18
100
AcDbEntity
  8
1
  6
CONTINUOUS
100
AcDbCircle
 10
617.7260500455045
 20
112.7288159285106
 30
0.0
 40
0.7260896536709002
100
AcDbArc
 50
5.15612634188885
 51
43.28993203483323
  0
ARC
  5
17E9C
330
18
100
AcDbEntity
  8
1
  6
CONTINUOUS
100
AcDbCircle
 10
617.7816581790665
 20
113.0351918763275
 30
0.0
 40
0.5102084385937224
100
AcDbArc
 50
22.04474262061347
 51
60.27545667759582
  0
LWPOLYLINE
  5
17E9D
330
18
100
AcDbEntity
  8
1
  6
CONTINUOUS
100
AcDbPolyline
 90
        6
 70
   128
 43
0.0
 10
617.0078834860376
 20
113.7972526770323
 10
616.8571482832349
 20
113.7694595286931
 10
616.731418384215
 20
113.7302713318103
 10
616.6498350263594
 20
113.6856541341177
 10
616.6248185363467
 20
113.6424004995079
 10
616.6248236114121
 20
113.6423621642196
  0
ARC
  5
17E9E
330
18
100
AcDbEntity
  8
1
  6
CONTINUOUS
100
AcDbCircle
 10
617.1609611938937
 20
113.3490679207991
 30
0.0
 40
0.4736057013617624
100
AcDbArc
 50
57.13519939739122
 51
108.8576249845594
  0
ARC
  5
17E9F
330
18
100
AcDbEntity
  8
1
  6
CONTINUOUS
100
AcDbCircle
 10
610.6323723718193
 20
161.5094725143398
 30
0.0
 40
0.4733032359315829
100
AcDbArc
 50
86.13091029431862
 51
137.8906620645313
  0
ARC
  5
17EA0
330
18
100
AcDbEntity
  8
1
  6
CONTINUOUS
100
AcDbCircle
 10
610.8173785335946
 20
161.5338287903477
 30
0.0
 40
0.473303369057135
100
AcDbArc
 50
57.1092782508401
 51
108.8690193119019
  0
ARC
  5
17EA1
330
18
100
AcDbEntity
  8
1
  6
CONTINUOUS
100
AcDbCircle
 10
640.1584570001896
 20
161.5155552025063
 30
0.0
 40
0.473303235931582
100
AcDbArc
 50
42.10933793546101
 51
93.86908970566766
  0
ARC
  5
17EA2
330
18
100
AcDbEntity
  8
1
  6
CONTINUOUS
100
AcDbCircle
 10
639.9734508384146
 20
161.5399114785142
 30
0.0
 40
0.4733033690570476
100
AcDbArc
 50
71.1309806881186
 51
122.8907217492058
  0
LINE
  5
17ECA
330
18
100
AcDbEntity
  8
OSIE
100
AcDbLine
 10
545.4035971227246
 20
191.640704640095
 30
0.0
 11
545.4035971227246
 21
109.3035440635916
 31
0.0
  0
LINE
  5
17ECE
330
18
100
AcDbEntity
  8
OSIE
100
AcDbLine
 10
625.4759693348813
 20
194.4924866385087
 30
0.0
 11
625.4759693348813
 21
101.3184967107785
 31
0.0
  0
DIMENSION
  5
17ED1
330
18
100
AcDbEntity
  8
WY
100
AcDbDimension
  2
*D172
 10
558.5024122264617
 20
195.6429405039314
 30
0.0
 11
551.7530046745932
 21
197.2679405039314
 31
0.0
 70
    32
  3
STANDARD
100
AcDbAlignedDimension
 13
545.0035971227246
 23
188.1323903562784
 33
0.0
 14
558.5024122264617
 24
162.4986958362331
 34
0.0
100
AcDbRotatedDimension
1001
ACAD
1000
DSTYLE
1002
{
1070
   287
1070
     4
1070
     3
1000
+0,5
1070
    41
1040
2.5
1070
   147
1040
0.75
1070
   174
1070
     1
1070
   279
1070
     1
1070
   172
1070
     1
1070
    74
1070
     1
1070
   140
1040
1.5
1070
   284
1070
     8
1070
    78
1070
     8
1002
}
  0
DIMENSION
  5
17EFE
330
18
100
AcDbEntity
  8
WY
100
AcDbDimension
  2
*D175
 10
643.9670915917369
 20
197.6325739102319
 30
0.0
 11
625.4301774079465
 21
199.1325739102319
 31
0.0
 70
    32
  3
STANDARD
100
AcDbAlignedDimension
 13
606.893263224156
 23
187.4326758898038
 33
0.0
 14
643.9670915917369
 24
187.4326758898038
 34
0.0
100
AcDbRotatedDimension
1001
ACAD
1000
DSTYLE
1002
{
1070
   287
1070
     4
1070
     3
1000
+1
1070
   271
1070
     1
1070
    41
1040
2.5
1070
   147
1040
0.75
1070
   174
1070
     1
1070
   279
1070
     1
1070
   172
1070
     1
1070
    74
1070
     1
1070
   140
1040
1.5
1070
   284
1070
     8
1070
    78
1070
     8
1002
}
  0
DIMENSION
  5
17F77
330
18
100
AcDbEntity
  8
WY
100
AcDbDimension
  2
*D178
 10
610.0323435753202
 20
112.3853588700298
 30
0.0
 11
606.595919318747
 21
149.7394972187755
 31
0.0
 70
    33
  3
STANDARD
100
AcDbAlignedDimension
 13
607.9801774079465
 23
187.7323903562784
 33
0.0
 14
617.8270321444174
 24
113.4181783535099
 34
0.0
1001
ACAD
1000
DSTYLE
1002
{
1070
   287
1070
     4
1070
     3
1000
-1
1070
   271
1070
     0
1070
    41
1040
2.5
1070
   147
1040
0.75
1070
   174
1070
     1
1070
   279
1070
     1
1070
   172
1070
     1
1070
    74
1070
     1
1070
   140
1040
1.5
1070
   284
1070
     8
1070
    78
1070
     8
1002
}
  0
DIMENSION
  5
17F86
330
18
100
AcDbEntity
  8
WY
100
AcDbDimension
  2
*D179
 10
607.7219018072002
 20
187.3957990402002
 30
0.0
 11
612.6971407559416
 21
183.3303613657901
 31
0.0
 70
    34
  1
<>
  3
STANDARD
100
AcDb2LineAngularDimension
 13
607.9801774079465
 23
187.7323903562784
 33
0.0
 14
622.1401289498999
 24
187.7323903562784
 34
0.0
 15
610.5412675591534
 25
165.9805900345259
 35
0.0
 16
612.3673552499974
 26
181.0347096340518
 36
0.0
1001
ACAD
1000
DSTYLE
1002
{
1070
   287
1070
     4
1070
    79
1070
     2
1070
   179
1070
     2
1070
    41
1040
2.5
1070
   147
1040
0.75
1070
   174
1070
     1
1070
   279
1070
     1
1070
   172
1070
     1
1070
    74
1070
     1
1070
   140
1040
1.5
1070
   284
1070
     8
1070
    78
1070
     8
1002
}
  0
DIMENSION
  5
17FDD
330
18
100
AcDbEntity
  8
WY
100
AcDbDimension
  2
*D180
 10
610.1651329877237
 20
168.8376157523952
 30
0.0
 11
617.9727612710425
 21
169.8655095161278
 31
0.0
 70
   161
  3
STANDARD
100
AcDbAlignedDimension
 13
609.7481116700552
 23
165.87616908075
 33
0.0
 14
610.5412675591525
 24
165.9805900345258
 34
0.0
1001
ACAD
1000
DSTYLE
1002
{
1070
   287
1070
     3
1070
     3
1000
%%c<>
1070
    41
1040
2.5
1070
   147
1040
0.75
1070
   174
1070
     1
1070
   279
1070
     0
1070
   172
1070
     1
1070
    74
1070
     0
1070
   140
1040
1.5
1070
   284
1070
     8
1070
    78
1070
     8
1002
}
  0
LINE
  5
18038
330
18
100
AcDbEntity
  8
1
  6
CONTINUOUS
100
AcDbLine
 10
629.6693702701014
 20
115.356280376613
 30
0.0
 11
632.7563795422448
 21
113.4842429338147
 31
0.0
  0
LINE
  5
18039
330
18
100
AcDbEntity
  8
1
  6
CONTINUOUS
100
AcDbLine
 10
632.3411493364755
 20
112.8004317417606
 30
0.0
 11
629.254546959375
 21
114.6722324098166
 31
0.0
  0
ARC
  5
1803A
330
18
100
AcDbEntity
  8
1
  6
CONTINUOUS
100
AcDbCircle
 10
629.9180727453808
 20
114.9163186955755
 30
0.0
 40
0.5053901482927388
100
AcDbArc
 50
119.4787000050481
 51
158.0954574663673
  0
ARC
  5
1803B
330
18
100
AcDbEntity
  8
1
  6
CONTINUOUS
100
AcDbCircle
 10
629.9774040516012
 20
114.6071387711249
 30
0.0
 40
0.7257820317284082
100
AcDbArc
 50
136.7035996742067
 51
174.8543655727085
  0
ENDSEC
  0
SECTION
  2
OBJECTS
  0
DICTIONARY
  5
C
330
0
100
AcDbDictionary
  3
ACAD_DETAILVIEWSTYLE
350
F5C4
  3
ACAD_GROUP
350
D
  3
ACAD_IMAGE_VARS
350
F140
  3
ACAD_MLINESTYLE
350
E
  3
ACAD_SCALELIST
350
18009
  3
ACAD_SECTIONVIEWSTYLE
350
F5C5
  3
ACDBVARIABLEDICTIONARY
350
C1B
  3
APPDATA
350
F13E
  3
DIMOFFSETDICTIONARY
350
13296
  3
DWGPROPS
350
1803D
  0
DICTIONARY
  5
13241
330
2
100
AcDbDictionary
280
     1
  3
ACAD_LAYERSTATES
360
13242
  0
DICTIONARY
  5
F5C4
102
{ACAD_REACTORS
330
C
102
}
330
C
100
AcDbDictionary
  0
DICTIONARY
  5
D
102
{ACAD_REACTORS
330
C
102
}
330
C
100
AcDbDictionary
  0
RASTERVARIABLES
  5
F140
102
{ACAD_REACTORS
330
C
102
}
330
C
100
AcDbRasterVariables
 90
        0
 70
     1
 71
     1
 72
     0
  0
DICTIONARY
  5
E
102
{ACAD_REACTORS
330
C
102
}
330
C
100
AcDbDictionary
  3
STANDARD
350
1B
  0
DICTIONARY
  5
18009
102
{ACAD_REACTORS
330
C
102
}
330
C
100
AcDbDictionary
  0
DICTIONARY
  5
F5C5
102
{ACAD_REACTORS
330
C
102
}
330
C
100
AcDbDictionary
  0
DICTIONARY
  5
C1B
102
{ACAD_REACTORS
330
C
102
}
330
C
100
AcDbDictionary
  3
HPTRANSPARENCY
350
13295
  3
SORTENTS
350
C1C
  0
DICTIONARY
  5
F13E
102
{ACAD_REACTORS
330
C
102
}
330
C
100
AcDbDictionary
  0
DICTIONARY
  5
13296
102
{ACAD_REACTORS
330
C
102
}
330
C
100
AcDbDictionary
  3
DIMRAILANGLE
350
17EB8
  3
DIMRAILFIRSTOFFSET
350
17EB6
  3
DIMRAILOFFSET
350
17EB7
  3
DIMRAILSENABLED
350
17EB9
  0
XRECORD
  5
1803D
102
{ACAD_REACTORS
330
C
102
}
330
C
100
AcDbXrecord
  1
DWGPROPS COOKIE
  2

  3

  4

  6

  7

  8
pikusl
  9

300
=
301
=
302
=
303
=
304
=
305
=
306
=
307
=
308
=
309
=
 40
0.0
 41
2448721.315803356
 42
2457560.360005093
  1

 90
        0
  0
DICTIONARY
  5
13242
102
{ACAD_REACTORS
330
13241
102
}
330
13241
100
AcDbDictionary
  0
MLINESTYLE
  5
1B
102
{ACAD_REACTORS
330
E
102
}
330
E
100
AcDbMlineStyle
  2
STANDARD
 70
     0
  3

 62
     0
 51
90.0
 52
90.0
 71
     2
 49
0.5
 62
   256
  6
BYLAYER
 49
-0.5
 62
   256
  6
BYLAYER
  0
DICTIONARYVAR
  5
13295
102
{ACAD_REACTORS
330
C1B
102
}
330
C1B
100
DictionaryVariables
280
     0
  1
ByLayer
  0
DICTIONARYVAR
  5
C1C
102
{ACAD_REACTORS
330
C1B
102
}
330
C1B
100
DictionaryVariables
280
     0
  1
96
  0
DICTIONARYVAR
  5
17EB8
102
{ACAD_REACTORS
330
13296
102
}
330
13296
100
DictionaryVariables
280
     0
  1
0.261799
  0
DICTIONARYVAR
  5
17EB6
102
{ACAD_REACTORS
330
13296
102
}
330
13296
100
DictionaryVariables
280
     0
  1
0.400000
  0
DICTIONARYVAR
  5
17EB7
102
{ACAD_REACTORS
330
13296
102
}
330
13296
100
DictionaryVariables
280
     0
  1
0.250000
  0
DICTIONARYVAR
  5
17EB9
102
{ACAD_REACTORS
330
13296
102
}
330
13296
100
DictionaryVariables
280
     0
  1
1
  0
ENDSEC
  0
EOF
