  0
SECTION
  2
HEADER
  9
$ACADVER
  1
AC1014
  9
$ACADMAINTVER
 70
     9
  9
$DWGCODEPAGE
  3
ANSI_1250
  9
$INSBASE
 10
0.0
 20
0.0
 30
0.0
  9
$EXTMIN
 10
486.041244
 20
0.0
 30
0.0
  9
$EXTMAX
 10
687.671651
 20
297.0
 30
0.0
  9
$LIMMIN
 10
0.0
 20
0.0
  9
$LIMMAX
 10
420.0
 20
297.0
  9
$ORTHOMODE
 70
     0
  9
$REGENMODE
 70
     1
  9
$FILLMODE
 70
     1
  9
$QTEXTMODE
 70
     0
  9
$MIRRTEXT
 70
     1
  9
$DRAGMODE
 70
     2
  9
$LTSCALE
 40
6.0
  9
$OSMODE
 70
 13247
  9
$ATTMODE
 70
     1
  9
$TEXTSIZE
 40
0.2
  9
$TRACEWID
 40
0.05
  9
$TEXTSTYLE
  7
ITALIC
  9
$CLAYER
  8
WY
  9
$CELTYPE
  6
BYLAYER
  9
$CECOLOR
 62
   256
  9
$CELTSCALE
 40
1.0
  9
$DELOBJ
 70
     1
  9
$DISPSILH
 70
     0
  9
$DIMSCALE
 40
1.0
  9
$DIMASZ
 40
2.5
  9
$DIMEXO
 40
1.5
  9
$DIMDLI
 40
7.0
  9
$DIMRND
 40
0.0
  9
$DIMDLE
 40
0.0
  9
$DIMEXE
 40
1.5
  9
$DIMTP
 40
0.1
  9
$DIMTM
 40
0.0
  9
$DIMTXT
 40
1.5
  9
$DIMCEN
 40
-1.0
  9
$DIMTSZ
 40
0.0
  9
$DIMTOL
 70
     0
  9
$DIMLIM
 70
     0
  9
$DIMTIH
 70
     0
  9
$DIMTOH
 70
     1
  9
$DIMSE1
 70
     0
  9
$DIMSE2
 70
     0
  9
$DIMTAD
 70
     1
  9
$DIMZIN
 70
     8
  9
$DIMBLK
  1

  9
$DIMASO
 70
     1
  9
$DIMSHO
 70
     0
  9
$DIMPOST
  1

  9
$DIMAPOST
  1

  9
$DIMALT
 70
     0
  9
$DIMALTD
 70
     2
  9
$DIMALTF
 40
25.4
  9
$DIMLFAC
 40
1.0
  9
$DIMTOFL
 70
     1
  9
$DIMTVP
 40
0.0
  9
$DIMTIX
 70
     1
  9
$DIMSOXD
 70
     0
  9
$DIMSAH
 70
     0
  9
$DIMBLK1
  1

  9
$DIMBLK2
  1

  9
$DIMSTYLE
  2
STANDARD
  9
$DIMCLRD
 70
     0
  9
$DIMCLRE
 70
     0
  9
$DIMCLRT
 70
     0
  9
$DIMTFAC
 40
1.0
  9
$DIMGAP
 40
0.75
  9
$DIMJUST
 70
     0
  9
$DIMSD1
 70
     0
  9
$DIMSD2
 70
     0
  9
$DIMTOLJ
 70
     1
  9
$DIMTZIN
 70
     8
  9
$DIMALTZ
 70
     0
  9
$DIMALTTZ
 70
     0
  9
$DIMFIT
 70
     4
  9
$DIMUPT
 70
     0
  9
$DIMUNIT
 70
     2
  9
$DIMDEC
 70
     2
  9
$DIMTDEC
 70
     4
  9
$DIMALTU
 70
     2
  9
$DIMALTTD
 70
     2
  9
$DIMTXSTY
  7
STANDARD
  9
$DIMAUNIT
 70
     0
  9
$LUNITS
 70
     2
  9
$LUPREC
 70
     2
  9
$SKETCHINC
 40
0.1
  9
$FILLETRAD
 40
0.1
  9
$AUNITS
 70
     0
  9
$AUPREC
 70
     2
  9
$MENU
  1
ACAD
  9
$ELEVATION
 40
0.0
  9
$PELEVATION
 40
0.0
  9
$THICKNESS
 40
0.0
  9
$LIMCHECK
 70
     0
  9
$CHAMFERA
 40
0.0
  9
$CHAMFERB
 40
0.0
  9
$CHAMFERC
 40
0.0
  9
$CHAMFERD
 40
0.0
  9
$SKPOLY
 70
     0
  9
$TDCREATE
 40
2448721.39913669
  9
$TDUPDATE
 40
2457556.422737604
  9
$TDINDWG
 40
1.5922125347
  9
$TDUSRTIMER
 40
2457556.33875331
  9
$USRTIMER
 70
     1
  9
$ANGBASE
 50
0.0
  9
$ANGDIR
 70
     0
  9
$PDMODE
 70
     0
  9
$PDSIZE
 40
0.0
  9
$PLINEWID
 40
0.5
  9
$COORDS
 70
     1
  9
$SPLFRAME
 70
     0
  9
$SPLINETYPE
 70
     6
  9
$SPLINESEGS
 70
     8
  9
$ATTDIA
 70
     0
  9
$ATTREQ
 70
     1
  9
$HANDLING
 70
     1
  9
$HANDSEED
  5
1809D
  9
$SURFTAB1
 70
     6
  9
$SURFTAB2
 70
     6
  9
$SURFTYPE
 70
     6
  9
$SURFU
 70
     6
  9
$SURFV
 70
     6
  9
$UCSNAME
  2

  9
$UCSORG
 10
0.0
 20
0.0
 30
0.0
  9
$UCSXDIR
 10
1.0
 20
0.0
 30
0.0
  9
$UCSYDIR
 10
0.0
 20
1.0
 30
0.0
  9
$PUCSNAME
  2

  9
$PUCSORG
 10
0.0
 20
0.0
 30
0.0
  9
$PUCSXDIR
 10
1.0
 20
0.0
 30
0.0
  9
$PUCSYDIR
 10
0.0
 20
1.0
 30
0.0
  9
$USERI1
 70
     0
  9
$USERI2
 70
     0
  9
$USERI3
 70
     0
  9
$USERI4
 70
     0
  9
$USERI5
 70
     0
  9
$USERR1
 40
0.0
  9
$USERR2
 40
0.0
  9
$USERR3
 40
0.0
  9
$USERR4
 40
0.0
  9
$USERR5
 40
0.0
  9
$WORLDVIEW
 70
     1
  9
$SHADEDGE
 70
     3
  9
$SHADEDIF
 70
    70
  9
$TILEMODE
 70
     1
  9
$MAXACTVP
 70
    16
  9
$PINSBASE
 10
0.0
 20
0.0
 30
0.0
  9
$PLIMCHECK
 70
     0
  9
$PEXTMIN
 10
1.000000000000000E+20
 20
1.000000000000000E+20
 30
1.000000000000000E+20
  9
$PEXTMAX
 10
-1.000000000000000E+20
 20
-1.000000000000000E+20
 30
-1.000000000000000E+20
  9
$PLIMMIN
 10
0.0
 20
0.0
  9
$PLIMMAX
 10
0.0
 20
0.0
  9
$UNITMODE
 70
     0
  9
$VISRETAIN
 70
     0
  9
$PLINEGEN
 70
     0
  9
$PSLTSCALE
 70
     0
  9
$TREEDEPTH
 70
  3020
  9
$PICKSTYLE
 70
     1
  9
$CMLSTYLE
  2
STANDARD
  9
$CMLJUST
 70
     0
  9
$CMLSCALE
 40
1.0
  9
$PROXYGRAPHICS
 70
     1
  9
$MEASUREMENT
 70
     0
  0
ENDSEC
  0
SECTION
  2
CLASSES
  0
CLASS
  1
HATCH
  2
AcDbHatch
  3
ObjectDBX Classes
 90
        0
280
     0
281
     1
  0
CLASS
  1
LWPOLYLINE
  2
AcDbPolyline
  3
ObjectDBX Classes
 90
        0
280
     0
281
     1
  0
CLASS
  1
DICTIONARYVAR
  2
AcDbDictionaryVar
  3
ObjectDBX Classes
 90
        0
280
     0
281
     0
  0
CLASS
  1
XRECORD
  2
AcDbXrecord
  3
ObjectDBX Classes
 90
        0
280
     0
281
     0
  0
CLASS
  1
SCALE
  2
AcDbScale
  3
ObjectDBX Classes
 90
     1153
280
     0
281
     0
  0
CLASS
  1
VISUALSTYLE
  2
AcDbVisualStyle
  3
ObjectDBX Classes
 90
     4095
280
     0
281
     0
  0
CLASS
  1
MATERIAL
  2
AcDbMaterial
  3
ObjectDBX Classes
 90
     1153
280
     0
281
     0
  0
CLASS
  1
TABLESTYLE
  2
AcDbTableStyle
  3
ObjectDBX Classes
 90
     4095
280
     0
281
     0
  0
CLASS
  1
MLEADERSTYLE
  2
AcDbMLeaderStyle
  3
ACDB_MLEADERSTYLE_CLASS
 90
     4095
280
     0
281
     0
  0
CLASS
  1
SUN
  2
AcDbSun
  3
SCENEOE
 90
     1153
280
     0
281
     0
  0
CLASS
  1
RASTERVARIABLES
  2
AcDbRasterVariables
  3
ISM
 90
        0
280
     0
281
     0
  0
CLASS
  1
DIMASSOC
  2
AcDbDimAssoc
  3
"AcDbDimAssoc|Product Desc:     AcDim ARX App For Dimension|Company:          Autodesk, Inc.|WEB Address:      www.autodesk.com"
 90
        0
280
     0
281
     0
  0
CLASS
  1
ACDBDICTIONARYWDFLT
  2
AcDbDictionaryWithDefault
  3
ObjectDBX Classes
 90
        0
280
     0
281
     0
  0
ENDSEC
  0
SECTION
  2
TABLES
  0
TABLE
  2
VPORT
  5
8
330
0
100
AcDbSymbolTable
 70
     1
  0
VPORT
  5
F0F7
330
8
100
AcDbSymbolTableRecord
100
AcDbViewportTableRecord
  2
*ACTIVE
 70
     0
 10
0.0
 20
0.0
 11
1.0
 21
1.0
 12
586.8564475000001
 22
148.5
 13
0.0
 23
0.0
 14
1.0
 24
1.0
 15
5.0
 25
5.0
 16
0.0
 26
0.0
 36
1.0
 17
0.0
 27
0.0
 37
0.0
 40
302.94
 41
2.811127379209371
 42
50.0
 43
0.0
 44
0.0
 50
0.0
 51
0.0
 71
    16
 72
   200
 73
     1
 74
     0
 75
     0
 76
     0
 77
     0
 78
     0
  0
ENDTAB
  0
TABLE
  2
LTYPE
  5
5
330
0
100
AcDbSymbolTable
 70
     5
  0
LTYPE
  5
12
330
5
100
AcDbSymbolTableRecord
100
AcDbLinetypeTableRecord
  2
BYBLOCK
 70
     0
  3

 72
    65
 73
     0
 40
0.0
  0
LTYPE
  5
13
330
5
100
AcDbSymbolTableRecord
100
AcDbLinetypeTableRecord
  2
BYLAYER
 70
     0
  3

 72
    65
 73
     0
 40
0.0
  0
LTYPE
  5
14
330
5
100
AcDbSymbolTableRecord
100
AcDbLinetypeTableRecord
  2
CONTINUOUS
 70
     0
  3
Solid line
 72
    65
 73
     0
 40
0.0
  0
LTYPE
  5
1D
330
5
100
AcDbSymbolTableRecord
100
AcDbLinetypeTableRecord
  2
CENTER
 70
     0
  3
____ _ ____ _ ____ _ ____ _ ____ _ ____ _ ____
 72
    65
 73
     4
 40
2.0
 49
1.25
 74
     0
 49
-0.25
 74
     0
 49
0.25
 74
     0
 49
-0.25
 74
     0
  0
LTYPE
  5
1E
330
5
100
AcDbSymbolTableRecord
100
AcDbLinetypeTableRecord
  2
HIDDEN
 70
     0
  3
_ _ _ _ _ _ _ _ _ _ _ _ _ _ _ _ _ _ _ _ _ _ _
 72
    65
 73
     2
 40
0.375
 49
0.25
 74
     0
 49
-0.125
 74
     0
  0
LTYPE
  5
8093
330
5
100
AcDbSymbolTableRecord
100
AcDbLinetypeTableRecord
  2
PHANTOM
 70
     0
  3
Phantom ______  __  __  ______  __  __  ______
 72
    65
 73
     6
 40
12.7
 49
6.35
 74
     0
 49
-1.27
 74
     0
 49
1.27
 74
     0
 49
-1.27
 74
     0
 49
1.27
 74
     0
 49
-1.27
 74
     0
  0
LTYPE
  5
1187C
330
5
100
AcDbSymbolTableRecord
100
AcDbLinetypeTableRecord
  2
CENTERX2
 70
     0
  3
Center (2x) ________  __  ________  __  _____
 72
    65
 73
     4
 40
20.32
 49
12.7
 74
     0
 49
-2.54
 74
     0
 49
2.54
 74
     0
 49
-2.54
 74
     0
  0
ENDTAB
  0
TABLE
  2
LAYER
  5
2
102
{ACAD_XDICTIONARY
360
13241
102
}
330
0
100
AcDbSymbolTable
 70
     8
  0
LAYER
  5
F
330
2
100
AcDbSymbolTableRecord
100
AcDbLayerTableRecord
  2
0
 70
     0
 62
     7
  6
CONTINUOUS
  0
LAYER
  5
21
330
2
100
AcDbSymbolTableRecord
100
AcDbLayerTableRecord
  2
1
 70
     0
 62
     3
  6
CONTINUOUS
  0
LAYER
  5
22
330
2
100
AcDbSymbolTableRecord
100
AcDbLayerTableRecord
  2
2
 70
     0
 62
     6
  6
CONTINUOUS
  0
LAYER
  5
23
330
2
100
AcDbSymbolTableRecord
100
AcDbLayerTableRecord
  2
3
 70
     0
 62
     4
  6
HIDDEN
  0
LAYER
  5
24
330
2
100
AcDbSymbolTableRecord
100
AcDbLayerTableRecord
  2
OSIE
 70
     0
 62
     2
  6
CENTER
  0
LAYER
  5
25
330
2
100
AcDbSymbolTableRecord
100
AcDbLayerTableRecord
  2
WY
 70
     0
 62
     1
  6
CONTINUOUS
  0
LAYER
  5
26
330
2
100
AcDbSymbolTableRecord
100
AcDbLayerTableRecord
  2
DEFPOINTS
 70
     0
 62
     7
  6
CONTINUOUS
  0
LAYER
  5
464
330
2
100
AcDbSymbolTableRecord
100
AcDbLayerTableRecord
  2
WYMIARY
 70
     0
 62
     1
  6
CONTINUOUS
  0
ENDTAB
  0
TABLE
  2
STYLE
  5
3
330
0
100
AcDbSymbolTable
 70
     4
  0
STYLE
  5
10
330
3
100
AcDbSymbolTableRecord
100
AcDbTextStyleTableRecord
  2
STANDARD
 70
     0
 40
0.0
 41
1.0
 50
0.0
 71
     0
 42
6.0
  3
txt
  4

  0
STYLE
  5
1C
330
3
100
AcDbSymbolTableRecord
100
AcDbTextStyleTableRecord
  2
ITALIC
 70
     0
 40
0.0
 41
1.0
 50
15.0
 71
     0
 42
0.2
  3
simplex
  4

  0
STYLE
  5
C512
330
3
100
AcDbSymbolTableRecord
100
AcDbTextStyleTableRecord
  2
SLDTEXTSTYLE2
 70
     0
 40
0.0
 41
0.7
 50
0.0
 71
     0
 42
0.2
  3
TXT
  4

  0
STYLE
  5
C513
330
3
100
AcDbSymbolTableRecord
100
AcDbTextStyleTableRecord
  2
SLDTEXTSTYLE6
 70
     0
 40
0.0
 41
0.605
 50
0.0
 71
     0
 42
0.2
  3
TXT
  4

  0
ENDTAB
  0
TABLE
  2
VIEW
  5
6
330
0
100
AcDbSymbolTable
 70
     0
  0
ENDTAB
  0
TABLE
  2
UCS
  5
7
330
0
100
AcDbSymbolTable
 70
     0
  0
ENDTAB
  0
TABLE
  2
APPID
  5
9
330
0
100
AcDbSymbolTable
 70
     4
  0
APPID
  5
11
330
9
100
AcDbSymbolTableRecord
100
AcDbRegAppTableRecord
  2
ACAD
 70
     0
  0
APPID
  5
15DA9
330
9
100
AcDbSymbolTableRecord
100
AcDbRegAppTableRecord
  2
ACAD_DSTYLE_DIMRADIAL_EXTE
 70
     0
  0
APPID
  5
16CFB
330
9
100
AcDbSymbolTableRecord
100
AcDbRegAppTableRecord
  2
ACAD_DSTYLE_DIMRADIAL_EXT0
 70
     0
  0
APPID
  5
176C1
330
9
100
AcDbSymbolTableRecord
100
AcDbRegAppTableRecord
  2
ACAD_DSTYLE_DIMRADIAL_EXT1
 70
     0
  0
ENDTAB
  0
TABLE
  2
DIMSTYLE
  5
A
330
0
100
AcDbSymbolTable
 70
     2
  0
DIMSTYLE
105
3B
102
{ACAD_REACTORS
330
17FFE
330
1800D
330
18076
330
1808C
102
}
330
A
100
AcDbSymbolTableRecord
100
AcDbDimStyleTableRecord
  2
STANDARD
 70
     0
  3

  4

  5

  6

  7

 40
1.0
 41
3.5
 42
1.5
 43
7.0
 44
1.5
 45
0.0
 46
0.0
 47
0.1
 48
0.0
140
3.6
141
-1.0
142
0.0
143
25.4
144
1.0
145
0.0
146
1.0
147
1.5
 71
     0
 72
     0
 73
     0
 74
     0
 75
     0
 76
     0
 77
     1
 78
     0
170
     0
171
     2
172
     0
173
     0
174
     0
175
     0
176
     0
177
     0
178
     0
270
     2
271
     2
272
     4
273
     2
274
     2
340
10
275
     0
280
     0
281
     0
282
     0
283
     1
284
     0
285
     0
286
     0
287
     3
288
     0
  0
DIMSTYLE
105
1187D
330
A
100
AcDbSymbolTableRecord
100
AcDbDimStyleTableRecord
  2
ISO-25
 70
     0
  3

  4

  5

  6

  7

 40
1.0
 41
2.5
 42
0.625
 43
3.75
 44
1.25
 45
0.0
 46
0.0
 47
0.0
 48
0.0
140
2.5
141
2.5
142
0.0
143
0.03937007874016
144
1.0
145
0.0
146
1.0
147
0.625
 71
     0
 72
     0
 73
     0
 74
     0
 75
     0
 76
     0
 77
     1
 78
     8
170
     0
171
     3
172
     1
173
     0
174
     0
175
     0
176
     0
177
     0
178
     0
270
     2
271
     2
272
     2
273
     2
274
     3
340
10
275
     0
280
     0
281
     0
282
     0
283
     0
284
     8
285
     0
286
     0
287
     3
288
     0
  0
ENDTAB
  0
TABLE
  2
BLOCK_RECORD
  5
1
330
0
100
AcDbSymbolTable
 70
   182
  0
BLOCK_RECORD
  5
18
330
1
100
AcDbSymbolTableRecord
100
AcDbBlockTableRecord
  2
*MODEL_SPACE
  0
BLOCK_RECORD
  5
15
330
1
100
AcDbSymbolTableRecord
100
AcDbBlockTableRecord
  2
*PAPER_SPACE
  0
BLOCK_RECORD
  5
7EA0
330
1
100
AcDbSymbolTableRecord
100
AcDbBlockTableRecord
  2
A$C312173AA
  0
BLOCK_RECORD
  5
C4F7
330
1
100
AcDbSymbolTableRecord
100
AcDbBlockTableRecord
  2
_DOT
  0
BLOCK_RECORD
  5
13341
330
1
100
AcDbSymbolTableRecord
100
AcDbBlockTableRecord
  2
_NONE
  0
BLOCK_RECORD
  5
13346
330
1
100
AcDbSymbolTableRecord
100
AcDbBlockTableRecord
  2
_OBLIQUE
  0
BLOCK_RECORD
  5
17DB1
330
1
100
AcDbSymbolTableRecord
100
AcDbBlockTableRecord
  2
SW_CENTERMARKSYMBOL_0
  0
BLOCK_RECORD
  5
18001
330
1
100
AcDbSymbolTableRecord
100
AcDbBlockTableRecord
  2
*D177
  0
BLOCK_RECORD
  5
18010
330
1
100
AcDbSymbolTableRecord
100
AcDbBlockTableRecord
  2
*D178
  0
BLOCK_RECORD
  5
18069
330
1
100
AcDbSymbolTableRecord
100
AcDbBlockTableRecord
  2
*D179
  0
BLOCK_RECORD
  5
18079
330
1
100
AcDbSymbolTableRecord
100
AcDbBlockTableRecord
  2
*D180
  0
BLOCK_RECORD
  5
1808F
330
1
100
AcDbSymbolTableRecord
100
AcDbBlockTableRecord
  2
*D181
  0
ENDTAB
  0
ENDSEC
  0
SECTION
  2
BLOCKS
  0
BLOCK
  5
29
330
18
100
AcDbEntity
  8
0
100
AcDbBlockBegin
  2
*MODEL_SPACE
 70
     0
 10
0.0
 20
0.0
 30
0.0
  3
*MODEL_SPACE
  1

  0
ENDBLK
  5
2A
330
18
100
AcDbEntity
  8
0
100
AcDbBlockEnd
  0
BLOCK
  5
27
330
15
100
AcDbEntity
 67
     1
  8
0
100
AcDbBlockBegin
  2
*PAPER_SPACE
 70
     0
 10
0.0
 20
0.0
 30
0.0
  3
*PAPER_SPACE
  1

  0
ENDBLK
  5
28
330
15
100
AcDbEntity
 67
     1
  8
0
100
AcDbBlockEnd
  0
BLOCK
  5
7EAF
330
7EA0
100
AcDbEntity
  8
0
100
AcDbBlockBegin
  2
A$C312173AA
 70
     0
 10
0.0
 20
0.0
 30
0.0
  3
A$C312173AA
  1
A$C312173AA
  0
HATCH
  5
7EA1
330
7EA0
100
AcDbEntity
  8
1
100
AcDbHatch
 10
0.0
 20
0.0
 30
0.0
210
0.0
220
0.0
230
1.0
  2
SOLID
 70
     1
 71
     1
 91
        1
 92
        7
 72
     0
 73
     1
 93
        4
 10
2.724690422176706
 20
5.013136352600668
 10
5.058157912552363
 20
1.095673373491763
 10
5.076413282682712
 20
1.095673373491763
 10
7.382430158279476
 20
5.013136352600668
 97
        4
330
7EA6
330
7EAA
330
7EA5
330
7EA8
 75
     0
 76
     1
 47
0.057765
 98
        1
 10
5.461965
 20
4.283681
  0
HATCH
  5
7EA2
330
7EA0
100
AcDbEntity
  8
1
100
AcDbHatch
 10
0.0
 20
0.0
 30
0.0
210
0.0
220
0.0
230
1.0
  2
SOLID
 70
     1
 71
     1
 91
        1
 92
        7
 72
     0
 73
     1
 93
        4
 10
2.724690422176706
 20
5.013136352600668
 10
5.058157912552363
 20
1.095673373491763
 10
5.076413282682712
 20
1.095673373491763
 10
7.382430158279476
 20
5.013136352600668
 97
        4
330
7EA4
330
7EA9
330
7EA3
330
7EA7
 75
     0
 76
     1
 47
0.057765
 98
        1
 10
5.461965
 20
4.283681
  0
LINE
  5
7EA3
102
{ACAD_REACTORS
330
7EA2
102
}
330
7EA0
100
AcDbEntity
  8
1
100
AcDbLine
 10
7.376974
 20
1.095673
 30
0.0
 11
2.719445
 21
1.095673
 31
0.0
  0
LINE
  5
7EA4
102
{ACAD_REACTORS
330
7EA2
102
}
330
7EA0
100
AcDbEntity
  8
1
100
AcDbLine
 10
2.716507
 20
5.013136
 30
0.0
 11
7.38243
 21
5.013136
 31
0.0
  0
LINE
  5
7EA5
102
{ACAD_REACTORS
330
7EA1
102
}
330
7EA0
100
AcDbEntity
  8
1
100
AcDbLine
 10
7.376974
 20
1.095673
 30
0.0
 11
2.719445
 21
1.095673
 31
0.0
  0
LINE
  5
7EA6
102
{ACAD_REACTORS
330
7EA1
102
}
330
7EA0
100
AcDbEntity
  8
1
100
AcDbLine
 10
2.716507
 20
5.013136
 30
0.0
 11
7.38243
 21
5.013136
 31
0.0
  0
LINE
  5
7EA7
102
{ACAD_REACTORS
330
7EA2
102
}
330
7EA0
100
AcDbEntity
  8
1
100
AcDbLine
 10
7.38243
 20
5.013136
 30
0.0
 11
5.049469
 21
1.0499
 31
0.0
  0
LINE
  5
7EA8
102
{ACAD_REACTORS
330
7EA1
102
}
330
7EA0
100
AcDbEntity
  8
1
100
AcDbLine
 10
7.38243
 20
5.013136
 30
0.0
 11
5.049469
 21
1.0499
 31
0.0
  0
LINE
  5
7EA9
102
{ACAD_REACTORS
330
7EA2
102
}
330
7EA0
100
AcDbEntity
  8
1
100
AcDbLine
 10
5.048209
 20
1.112376
 30
0.0
 11
2.719445
 21
5.021942
 31
0.0
  0
LINE
  5
7EAA
102
{ACAD_REACTORS
330
7EA1
102
}
330
7EA0
100
AcDbEntity
  8
1
100
AcDbLine
 10
5.048209
 20
1.112376
 30
0.0
 11
2.719445
 21
5.021942
 31
0.0
  0
LINE
  5
7EAB
330
7EA0
100
AcDbEntity
  8
1
100
AcDbLine
 10
3.176777
 20
2.240563
 30
0.0
 11
1.859991
 21
0.714974
 31
0.0
  0
LINE
  5
7EAC
330
7EA0
100
AcDbEntity
  8
1
100
AcDbLine
 10
1.935572
 20
2.29404
 30
0.0
 11
0.618786
 21
0.768452
 31
0.0
  0
HATCH
  5
7EAD
330
7EA0
100
AcDbEntity
  8
1
100
AcDbHatch
 10
0.0
 20
0.0
 30
0.0
210
0.0
220
0.0
230
1.0
  2
SOLID
 70
     1
 71
     0
 91
        1
 92
        7
 72
     0
 73
     1
 93
        3
 10
2.13435432304297
 20
0.5079866047149438
 10
1.594971700028992
 20
0.9149117569309055
 10
1.241204476589189
 20
0.0000001052034975
 97
        0
 75
     0
 76
     1
 47
0.009825
 98
        1
 10
1.617082
 20
0.370646
  0
HATCH
  5
7EAE
330
7EA0
100
AcDbEntity
  8
1
100
AcDbHatch
 10
0.0
 20
0.0
 30
0.0
210
0.0
220
0.0
230
1.0
  2
SOLID
 70
     1
 71
     0
 91
        1
 92
        7
 72
     0
 73
     1
 93
        3
 10
0.8931496793437361
 20
0.5614642425206
 10
0.3537670563297865
 20
0.9683893947365334
 10
-0.0000001671100733
 20
0.0534777430091538
 97
        0
 75
     0
 76
     1
 47
0.009825
 98
        1
 10
0.375878
 20
0.424123
  0
ENDBLK
  5
7EB0
330
7EA0
100
AcDbEntity
  8
0
100
AcDbBlockEnd
  0
BLOCK
  5
C4FC
330
C4F7
100
AcDbEntity
  8
0
100
AcDbBlockBegin
  2
_DOT
 70
     0
 10
0.0
 20
0.0
 30
0.0
  3
_DOT
  1
_DOT
  0
LWPOLYLINE
  5
C4F8
330
C4F7
100
AcDbEntity
  8
0
  6
BYBLOCK
 62
     0
100
AcDbPolyline
 90
        2
 70
     1
 43
0.5
 10
-0.25
 20
0.0
 42
1.0
 10
0.25
 20
0.0
 42
1.0
  0
LINE
  5
C4F9
330
C4F7
100
AcDbEntity
  8
0
  6
BYBLOCK
 62
     0
100
AcDbLine
 10
-0.5
 20
0.0
 30
0.0
 11
-1.0
 21
0.0
 31
0.0
  0
ENDBLK
  5
C4FD
330
C4F7
100
AcDbEntity
  8
0
100
AcDbBlockEnd
  0
BLOCK
  5
13342
330
13341
100
AcDbEntity
  8
0
100
AcDbBlockBegin
  2
_NONE
 70
     0
 10
0.0
 20
0.0
 30
0.0
  3
_NONE
  1
_NONE
  0
ENDBLK
  5
13343
330
13341
100
AcDbEntity
  8
0
100
AcDbBlockEnd
  0
BLOCK
  5
13347
330
13346
100
AcDbEntity
  8
0
100
AcDbBlockBegin
  2
_OBLIQUE
 70
     0
 10
0.0
 20
0.0
 30
0.0
  3
_OBLIQUE
  1
_OBLIQUE
  0
LINE
  5
13349
330
13346
100
AcDbEntity
  8
0
  6
BYBLOCK
 62
     0
100
AcDbLine
 10
-0.5
 20
-0.5
 30
0.0
 11
0.5
 21
0.5
 31
0.0
  0
ENDBLK
  5
13348
330
13346
100
AcDbEntity
  8
0
100
AcDbBlockEnd
  0
BLOCK
  5
17DB2
330
17DB1
100
AcDbEntity
  8
0
100
AcDbBlockBegin
  2
SW_CENTERMARKSYMBOL_0
 70
     0
 10
0.0
 20
0.0
 30
0.0
  3
SW_CENTERMARKSYMBOL_0
  1
SW_CENTERMARKSYMBOL_0
  0
LINE
  5
17DB3
330
17DB1
100
AcDbEntity
  8
0
  6
CONTINUOUS
 62
     0
100
AcDbLine
 10
0.0
 20
0.0
 30
0.0
 11
0.0
 21
2.500000000000002
 31
0.0
  0
LINE
  5
17DB4
330
17DB1
100
AcDbEntity
  8
0
  6
CONTINUOUS
 62
     0
100
AcDbLine
 10
0.0
 20
0.0
 30
0.0
 11
-2.500000000000002
 21
0.0
 31
0.0
  0
LINE
  5
17DB5
330
17DB1
100
AcDbEntity
  8
0
  6
CONTINUOUS
 62
     0
100
AcDbLine
 10
0.0
 20
0.0
 30
0.0
 11
0.0
 21
-2.500000000000002
 31
0.0
  0
LINE
  5
17DB6
330
17DB1
100
AcDbEntity
  8
0
  6
CONTINUOUS
 62
     0
100
AcDbLine
 10
0.0
 20
0.0
 30
0.0
 11
2.500000000000002
 21
0.0
 31
0.0
  0
LINE
  5
17DB7
330
17DB1
100
AcDbEntity
  8
0
  6
CONTINUOUS
 62
     0
100
AcDbLine
 10
0.0
 20
2.500000000000002
 30
0.0
 11
0.0
 21
2.900000000000014
 31
0.0
  0
LINE
  5
17DB8
330
17DB1
100
AcDbEntity
  8
0
  6
CONTINUOUS
 62
     0
100
AcDbLine
 10
-2.500000000000002
 20
0.0
 30
0.0
 11
-2.9
 21
0.0
 31
0.0
  0
LINE
  5
17DB9
330
17DB1
100
AcDbEntity
  8
0
  6
CONTINUOUS
 62
     0
100
AcDbLine
 10
0.0
 20
-2.500000000000002
 30
0.0
 11
0.0
 21
-2.899999999999986
 31
0.0
  0
LINE
  5
17DBA
330
17DB1
100
AcDbEntity
  8
0
  6
CONTINUOUS
 62
     0
100
AcDbLine
 10
2.500000000000002
 20
0.0
 30
0.0
 11
2.9
 21
0.0
 31
0.0
  0
ENDBLK
  5
17DBB
330
17DB1
100
AcDbEntity
  8
0
100
AcDbBlockEnd
  0
BLOCK
  5
18002
330
18001
100
AcDbEntity
  8
0
100
AcDbBlockBegin
  2
*D177
 70
     1
 10
0.0
 20
0.0
 30
0.0
  3
*D177
  1
*D177
  0
LINE
  5
18004
330
18001
100
AcDbEntity
  8
WY
 62
     0
100
AcDbLine
 10
647.0445246701612
 20
197.4850787981945
 30
0.0
 11
647.0445246701612
 21
207.5431181122659
 31
0.0
  0
LINE
  5
18005
330
18001
100
AcDbEntity
  8
WY
 62
     0
100
AcDbLine
 10
601.5445246701612
 20
197.4850787981945
 30
0.0
 11
601.5445246701612
 21
207.5431181122659
 31
0.0
  0
LINE
  5
18006
330
18001
100
AcDbEntity
  8
WY
 62
     0
100
AcDbLine
 10
644.5445246701612
 20
206.0431181122659
 30
0.0
 11
604.0445246701612
 21
206.0431181122659
 31
0.0
  0
SOLID
  5
18007
330
18001
100
AcDbEntity
  8
WY
 62
     0
100
AcDbTrace
 10
644.5445246701612
 20
205.6264514455993
 30
0.0
 11
644.5445246701612
 21
206.4597847789326
 31
0.0
 12
647.0445246701612
 22
206.0431181122659
 32
0.0
 13
647.0445246701612
 23
206.0431181122659
 33
0.0
  0
SOLID
  5
18008
330
18001
100
AcDbEntity
  8
WY
 62
     0
100
AcDbTrace
 10
604.0445246701612
 20
206.4597847789326
 30
0.0
 11
604.0445246701612
 21
205.6264514455993
 31
0.0
 12
601.5445246701612
 22
206.0431181122659
 32
0.0
 13
601.5445246701612
 23
206.0431181122659
 33
0.0
  0
MTEXT
  5
18009
330
18001
100
AcDbEntity
  8
WY
 62
     0
100
AcDbMText
 10
624.2945246701612
 20
207.6681181122659
 30
0.0
 40
1.5
 41
0.0
 71
     5
 72
     1
  1
\A1;45.5-0,3
  0
POINT
  5
1800A
330
18001
100
AcDbEntity
  8
DEFPOINTS
 62
     0
100
AcDbPoint
 10
647.0445246701612
 20
195.9850787981945
 30
0.0
  0
POINT
  5
1800B
330
18001
100
AcDbEntity
  8
DEFPOINTS
 62
     0
100
AcDbPoint
 10
601.5445246701612
 20
195.9850787981945
 30
0.0
  0
POINT
  5
1800C
330
18001
100
AcDbEntity
  8
DEFPOINTS
 62
     0
100
AcDbPoint
 10
601.5445246701612
 20
206.0431181122659
 30
0.0
  0
ENDBLK
  5
18003
330
18001
100
AcDbEntity
  8
0
100
AcDbBlockEnd
  0
BLOCK
  5
18011
330
18010
100
AcDbEntity
  8
0
100
AcDbBlockBegin
  2
*D178
 70
     1
 10
0.0
 20
0.0
 30
0.0
  3
*D178
  1
*D178
  0
LINE
  5
18013
330
18010
100
AcDbEntity
  8
WY
 62
     0
100
AcDbLine
 10
555.1697875270052
 20
197.8139824304539
 30
0.0
 11
536.3120022566437
 21
197.8139824304539
 31
0.0
  0
LINE
  5
18014
330
18010
100
AcDbEntity
  8
WY
 62
     0
100
AcDbLine
 10
555.1697875270052
 20
125.2139824304539
 30
0.0
 11
536.3120022566437
 21
125.2139824304539
 31
0.0
  0
LINE
  5
18015
330
18010
100
AcDbEntity
  8
WY
 62
     0
100
AcDbLine
 10
537.8120022566437
 20
195.3139824304539
 30
0.0
 11
537.8120022566437
 21
127.7139824304539
 31
0.0
  0
SOLID
  5
18016
330
18010
100
AcDbEntity
  8
WY
 62
     0
100
AcDbTrace
 10
538.2286689233104
 20
195.3139824304539
 30
0.0
 11
537.3953355899771
 21
195.3139824304539
 31
0.0
 12
537.8120022566437
 22
197.8139824304539
 32
0.0
 13
537.8120022566437
 23
197.8139824304539
 33
0.0
  0
SOLID
  5
18017
330
18010
100
AcDbEntity
  8
WY
 62
     0
100
AcDbTrace
 10
537.3953355899771
 20
127.7139824304539
 30
0.0
 11
538.2286689233104
 21
127.7139824304539
 31
0.0
 12
537.8120022566437
 22
125.2139824304539
 32
0.0
 13
537.8120022566437
 23
125.2139824304539
 33
0.0
  0
MTEXT
  5
18018
330
18010
100
AcDbEntity
  8
WY
 62
     0
100
AcDbMText
 10
536.1870022566437
 20
161.5139824304539
 30
0.0
 40
1.5
 41
0.0
 71
     5
 72
     1
  1
\A1;72.6-0,2
 11
0.0
 21
1.0
 31
0.0
  0
POINT
  5
18019
330
18010
100
AcDbEntity
  8
DEFPOINTS
 62
     0
100
AcDbPoint
 10
556.6697875270052
 20
197.8139824304539
 30
0.0
  0
POINT
  5
1801A
330
18010
100
AcDbEntity
  8
DEFPOINTS
 62
     0
100
AcDbPoint
 10
556.6697875270052
 20
125.2139824304539
 30
0.0
  0
POINT
  5
1801B
330
18010
100
AcDbEntity
  8
DEFPOINTS
 62
     0
100
AcDbPoint
 10
537.8120022566437
 20
125.2139824304539
 30
0.0
  0
ENDBLK
  5
18012
330
18010
100
AcDbEntity
  8
0
100
AcDbBlockEnd
  0
BLOCK
  5
1806A
330
18069
100
AcDbEntity
  8
0
100
AcDbBlockBegin
  2
*D179
 70
     1
 10
0.0
 20
0.0
 30
0.0
  3
*D179
  1
*D179
  0
LINE
  5
1806C
330
18069
100
AcDbEntity
  8
OSIE
 62
     0
100
AcDbLine
 10
601.9445246701612
 20
197.0139824304539
 30
0.0
 11
596.2611940202208
 21
197.0139824304539
 31
0.0
  0
LINE
  5
1806D
330
18069
100
AcDbEntity
  8
OSIE
 62
     0
100
AcDbLine
 10
601.4445246701612
 20
126.0139824304539
 30
0.0
 11
596.2611940202208
 21
126.0139824304539
 31
0.0
  0
LINE
  5
1806E
330
18069
100
AcDbEntity
  8
OSIE
 62
     0
100
AcDbLine
 10
597.7611940202208
 20
194.5139824304539
 30
0.0
 11
597.7611940202208
 21
128.5139824304539
 31
0.0
  0
SOLID
  5
1806F
330
18069
100
AcDbEntity
  8
OSIE
 62
     0
100
AcDbTrace
 10
598.1778606868875
 20
194.5139824304539
 30
0.0
 11
597.3445273535542
 21
194.5139824304539
 31
0.0
 12
597.7611940202208
 22
197.0139824304539
 32
0.0
 13
597.7611940202208
 23
197.0139824304539
 33
0.0
  0
SOLID
  5
18070
330
18069
100
AcDbEntity
  8
OSIE
 62
     0
100
AcDbTrace
 10
597.3445273535542
 20
128.5139824304539
 30
0.0
 11
598.1778606868875
 21
128.5139824304539
 31
0.0
 12
597.7611940202208
 22
126.0139824304539
 32
0.0
 13
597.7611940202208
 23
126.0139824304539
 33
0.0
  0
MTEXT
  5
18071
330
18069
100
AcDbEntity
  8
OSIE
 62
     0
100
AcDbMText
 10
596.2611940202208
 20
161.5139824304539
 30
0.0
 40
1.5
 41
0.0
 71
     5
 72
     1
  1
\A1;71
 11
0.0
 21
1.0
 31
0.0
  0
POINT
  5
18072
330
18069
100
AcDbEntity
  8
DEFPOINTS
 62
     0
100
AcDbPoint
 10
603.4445246701612
 20
197.0139824304539
 30
0.0
  0
POINT
  5
18073
330
18069
100
AcDbEntity
  8
DEFPOINTS
 62
     0
100
AcDbPoint
 10
602.9445246701612
 20
126.0139824304539
 30
0.0
  0
POINT
  5
18074
330
18069
100
AcDbEntity
  8
DEFPOINTS
 62
     0
100
AcDbPoint
 10
597.7611940202208
 20
126.0139824304539
 30
0.0
  0
ENDBLK
  5
1806B
330
18069
100
AcDbEntity
  8
0
100
AcDbBlockEnd
  0
BLOCK
  5
1807A
330
18079
100
AcDbEntity
  8
0
100
AcDbBlockBegin
  2
*D180
 70
     1
 10
0.0
 20
0.0
 30
0.0
  3
*D180
  1
*D180
  0
LINE
  5
1807C
330
18079
100
AcDbEntity
  8
WY
 62
     0
100
AcDbLine
 10
601.5445246701612
 20
176.042829694807
 30
0.0
 11
601.5445246701612
 21
178.8693217341192
 31
0.0
  0
LINE
  5
1807D
330
18079
100
AcDbEntity
  8
WY
 62
     0
100
AcDbLine
 10
602.3445246701611
 20
176.042829694807
 30
0.0
 11
602.3445246701611
 21
178.8693217341192
 31
0.0
  0
LINE
  5
1807E
330
18079
100
AcDbEntity
  8
WY
 62
     0
100
AcDbLine
 10
602.3445246701611
 20
177.3693217341192
 30
0.0
 11
613.0945246701611
 21
177.3693217341192
 31
0.0
  0
LINE
  5
1807F
330
18079
100
AcDbEntity
  8
WY
 62
     0
100
AcDbLine
 10
601.5445246701612
 20
177.3693217341192
 30
0.0
 11
602.3445246701611
 21
177.3693217341192
 31
0.0
  0
LINE
  5
18080
330
18079
100
AcDbEntity
  8
WY
 62
     0
100
AcDbLine
 10
599.0445246701612
 20
177.3693217341192
 30
0.0
 11
596.5445246701612
 21
177.3693217341192
 31
0.0
  0
LINE
  5
18081
330
18079
100
AcDbEntity
  8
WY
 62
     0
100
AcDbLine
 10
604.8445246701611
 20
177.3693217341192
 30
0.0
 11
607.3445246701611
 21
177.3693217341192
 31
0.0
  0
SOLID
  5
18082
330
18079
100
AcDbEntity
  8
WY
 62
     0
100
AcDbTrace
 10
599.0445246701612
 20
176.9526550674525
 30
0.0
 11
599.0445246701612
 21
177.7859884007858
 31
0.0
 12
601.5445246701612
 22
177.3693217341192
 32
0.0
 13
601.5445246701612
 23
177.3693217341192
 33
0.0
  0
SOLID
  5
18083
330
18079
100
AcDbEntity
  8
WY
 62
     0
100
AcDbTrace
 10
604.8445246701611
 20
177.7859884007858
 30
0.0
 11
604.8445246701611
 21
176.9526550674525
 31
0.0
 12
602.3445246701611
 22
177.3693217341192
 32
0.0
 13
602.3445246701611
 23
177.3693217341192
 33
0.0
  0
MTEXT
  5
18084
330
18079
100
AcDbEntity
  8
WY
 62
     0
100
AcDbMText
 10
610.2195246701611
 20
178.8693217341192
 30
0.0
 40
1.5
 41
0.0
 71
     5
 72
     1
  1
\A1;%%c0.8
  0
POINT
  5
18085
330
18079
100
AcDbEntity
  8
DEFPOINTS
 62
     0
100
AcDbPoint
 10
601.5445246701612
 20
174.542829694807
 30
0.0
  0
POINT
  5
18086
330
18079
100
AcDbEntity
  8
DEFPOINTS
 62
     0
100
AcDbPoint
 10
602.3445246701611
 20
174.542829694807
 30
0.0
  0
POINT
  5
18087
330
18079
100
AcDbEntity
  8
DEFPOINTS
 62
     0
100
AcDbPoint
 10
602.3445246701611
 20
177.3693217341192
 30
0.0
  0
ENDBLK
  5
1807B
330
18079
100
AcDbEntity
  8
0
100
AcDbBlockEnd
  0
BLOCK
  5
18090
330
1808F
100
AcDbEntity
  8
0
100
AcDbBlockBegin
  2
*D181
 70
     1
 10
0.0
 20
0.0
 30
0.0
  3
*D181
  1
*D181
  0
ARC
  5
18092
330
1808F
100
AcDbEntity
  8
WY
 62
     0
100
AcDbCircle
 10
602.3445246701611
 20
197.0139824304539
 30
0.0
 40
9.228964651352289
100
AcDbArc
 50
285.568491210124
 51
344.431508789876
  0
SOLID
  5
18093
330
1808F
100
AcDbEntity
  8
WY
 62
     0
100
AcDbTrace
 10
604.7650528267826
 20
188.5364527757004
 30
0.0
 11
604.8779221145109
 21
187.7107985088719
 31
0.0
 12
602.3445246701611
 22
187.7850177791016
 32
0.0
 13
602.3445246701611
 23
187.7850177791016
 33
0.0
  0
SOLID
  5
18094
330
1808F
100
AcDbEntity
  8
WY
 62
     0
100
AcDbTrace
 10
611.6477085917431
 20
194.4805849861042
 30
0.0
 11
610.8220543249147
 21
194.5934542738324
 31
0.0
 12
611.5734893215134
 22
197.0139824304539
 32
0.0
 13
611.5734893215134
 23
197.0139824304539
 33
0.0
  0
MTEXT
  5
18095
330
1808F
100
AcDbEntity
  8
WY
 62
     0
100
AcDbMText
 10
607.8097279866835
 20
191.5487791139316
 30
0.0
 40
1.5
 41
0.0
 71
     5
 72
     1
  1
\A1;90%%d
 11
0.7071067811865506
 21
0.7071067811865444
 31
0.0
  0
POINT
  5
18096
330
1808F
100
AcDbEntity
  8
DEFPOINTS
 62
     0
100
AcDbPoint
 10
606.9590069958373
 20
189.0214645917542
 30
0.0
  0
POINT
  5
18097
330
1808F
100
AcDbEntity
  8
DEFPOINTS
 62
     0
100
AcDbPoint
 10
603.4445246701612
 20
197.0139824304539
 30
0.0
  0
POINT
  5
18098
330
1808F
100
AcDbEntity
  8
DEFPOINTS
 62
     0
100
AcDbPoint
 10
602.3445246701611
 20
173.0255278341705
 30
0.0
  0
POINT
  5
18099
330
1808F
100
AcDbEntity
  8
DEFPOINTS
 62
     0
100
AcDbPoint
 10
602.3445246701611
 20
195.9850787981945
 30
0.0
  0
POINT
  5
1809A
330
1808F
100
AcDbEntity
  8
DEFPOINTS
 62
     0
100
AcDbPoint
 10
645.1445246701611
 20
197.0139824304539
 30
0.0
  0
ENDBLK
  5
18091
330
1808F
100
AcDbEntity
  8
0
100
AcDbBlockEnd
  0
ENDSEC
  0
SECTION
  2
ENTITIES
  0
LINE
  5
2D2D
330
18
100
AcDbEntity
  8
WYMIARY
 62
     6
100
AcDbLine
 10
486.041244
 20
0.0
 30
0.0
 11
486.041244
 21
297.0
 31
0.0
  0
LINE
  5
2D2E
330
18
100
AcDbEntity
  8
WYMIARY
 62
     6
100
AcDbLine
 10
497.671651
 20
292.0
 30
0.0
 11
497.671651
 21
5.0
 31
0.0
  0
LINE
  5
2D34
330
18
100
AcDbEntity
  8
2
100
AcDbLine
 10
682.671651
 20
5.0
 30
0.0
 11
682.671651
 21
292.0
 31
0.0
  0
LINE
  5
2D35
330
18
100
AcDbEntity
  8
2
100
AcDbLine
 10
687.671651
 20
0.0
 30
0.0
 11
687.671651
 21
297.0
 31
0.0
  0
LINE
  5
2D36
330
18
100
AcDbEntity
  8
WY
  6
CONTINUOUS
 62
     3
100
AcDbLine
 10
682.671651
 20
19.689837
 30
0.0
 11
497.671651
 21
19.689837
 31
0.0
  0
LINE
  5
2D38
330
18
100
AcDbEntity
  8
2
100
AcDbLine
 10
497.671651
 20
5.0
 30
0.0
 11
682.671651
 21
5.0
 31
0.0
  0
LINE
  5
2D39
330
18
100
AcDbEntity
  8
2
 62
     6
100
AcDbLine
 10
497.671651
 20
0.0
 30
0.0
 11
687.671651
 21
0.0
 31
0.0
  0
LINE
  5
2D3A
330
18
100
AcDbEntity
  8
0
100
AcDbLine
 10
529.697667
 20
11.742481
 30
0.0
 11
528.795256
 21
11.742481
 31
0.0
  0
ELLIPSE
  5
2D3B
330
18
100
AcDbEntity
  8
0
100
AcDbEllipse
 10
529.697667
 20
11.742481
 30
0.0
 11
-1.203215696869327
 21
1.967000000000000E-13
 31
0.0
210
0.0
220
0.0
230
1.0
 40
0.958812
 41
-1.570796326794739
 42
0.0000000000001705
  0
TEXT
  5
2D3D
330
18
100
AcDbEntity
  8
1
100
AcDbText
 10
515.607578
 20
8.797457
 30
0.0
 40
5.0
  1
A4
 51
15.0
  7
ITALIC
100
AcDbText
  0
LINE
  5
2D40
330
18
100
AcDbEntity
  8
WYMIARY
 62
     6
100
AcDbLine
 10
497.671651
 20
0.0
 30
0.0
 11
486.041244
 21
0.0
 31
0.0
  0
TEXT
  5
2D42
330
18
100
AcDbEntity
  8
WY
100
AcDbText
 10
502.936765
 20
16.373844
 30
0.0
 40
2.0
  1
Skala
 51
15.0
  7
ITALIC
100
AcDbText
  0
TEXT
  5
2D43
330
18
100
AcDbEntity
  8
WY
100
AcDbText
 10
515.042219
 20
16.329369
 30
0.0
 40
2.0
  1
Format
 51
15.0
  7
ITALIC
100
AcDbText
  0
LINE
  5
2D44
330
18
100
AcDbEntity
  8
0
100
AcDbLine
 10
528.494452
 20
11.742481
 30
0.0
 11
528.795256
 21
11.742481
 31
0.0
  0
LINE
  5
2D45
330
18
100
AcDbEntity
  8
0
100
AcDbLine
 10
559.88722
 20
17.211264
 30
0.0
 11
559.88722
 21
9.015264
 31
0.0
  0
LINE
  5
2D46
330
18
100
AcDbEntity
  8
0
100
AcDbLine
 10
550.89322
 20
9.438264
 30
0.0
 11
550.89322
 21
7.416264
 31
0.0
  0
ARC
  5
2D47
330
18
100
AcDbEntity
  8
0
100
AcDbCircle
 10
551.5428
 20
9.724764
 30
0.0
 40
0.709955
100
AcDbArc
 50
203.80008
 51
272.051918
  0
LINE
  5
2D48
330
18
100
AcDbEntity
  8
0
100
AcDbLine
 10
549.34822
 20
7.416264
 30
0.0
 11
549.34822
 21
15.612264
 31
0.0
  0
ARC
  5
2D49
330
18
100
AcDbEntity
  8
0
100
AcDbCircle
 10
551.982126
 20
10.136416
 30
0.0
 40
1.128907
100
AcDbArc
 50
276.719576
 51
2.175194
  0
ARC
  5
2D4A
330
18
100
AcDbEntity
  8
0
100
AcDbCircle
 10
555.243059
 20
10.503572
 30
0.0
 40
1.488419
100
AcDbArc
 50
191.634268
 51
270.699113
  0
ARC
  5
2D4B
330
18
100
AcDbEntity
  8
0
100
AcDbCircle
 10
556.209381
 20
10.503572
 30
0.0
 40
1.488419
100
AcDbArc
 50
269.300887
 51
348.365732
  0
LINE
  5
2D4C
330
18
100
AcDbEntity
  8
0
100
AcDbLine
 10
558.34222
 20
9.015264
 30
0.0
 11
558.34222
 21
17.211264
 31
0.0
  0
ARC
  5
2D4D
330
18
100
AcDbEntity
  8
0
100
AcDbCircle
 10
545.056591
 20
10.472364
 30
0.0
 40
1.425319
100
AcDbArc
 50
269.703671
 51
350.465171
  0
ARC
  5
2D4E
330
18
100
AcDbEntity
  8
0
100
AcDbCircle
 10
544.201848
 20
10.472364
 30
0.0
 40
1.425319
100
AcDbArc
 50
189.534829
 51
270.2963290000001
  0
LINE
  5
2D4F
330
18
100
AcDbEntity
  8
0
100
AcDbLine
 10
547.14922
 20
9.015264
 30
0.0
 11
547.14922
 21
17.211264
 31
0.0
  0
LINE
  5
2D50
330
18
100
AcDbEntity
  8
0
100
AcDbLine
 10
548.69422
 20
17.211264
 30
0.0
 11
548.69422
 21
9.015264
 31
0.0
  0
LINE
  5
2D51
330
18
100
AcDbEntity
  8
0
100
AcDbLine
 10
539.892236
 20
14.361264
 30
0.0
 11
539.903809
 21
9.015264
 31
0.0
  0
LINE
  5
2D52
330
18
100
AcDbEntity
  8
0
100
AcDbLine
 10
538.361694
 20
9.015264
 30
0.0
 11
538.361694
 21
15.60367
 31
0.0
  0
LINE
  5
2D53
330
18
100
AcDbEntity
  8
0
100
AcDbLine
 10
529.697667
 20
9.895061
 30
0.0
 11
529.697667
 21
8.185369
 31
0.0
  0
LINE
  5
2D54
330
18
100
AcDbEntity
  8
0
100
AcDbLine
 10
535.613478
 20
8.185369
 30
0.0
 11
535.613478
 21
11.742481
 31
0.0
  0
LINE
  5
2D55
330
18
100
AcDbEntity
  8
1
100
AcDbLine
 10
563.469863
 20
5.0
 30
0.0
 11
563.469863
 21
19.689837
 31
0.0
  0
LINE
  5
2D56
330
18
100
AcDbEntity
  8
0
100
AcDbLine
 10
530.499811
 20
7.416263
 30
0.0
 11
534.811334
 21
7.416263
 31
0.0
  0
ELLIPSE
  5
2D57
330
18
100
AcDbEntity
  8
0
100
AcDbEllipse
 10
530.499811
 20
8.185369
 30
0.0
 11
-0.8021437979128705
 21
1.540000000000000E-14
 31
0.0
210
0.0
220
0.0
230
1.0
 40
0.958812
 41
0.00000000000002
 42
1.570796326794914
  0
ELLIPSE
  5
2D58
330
18
100
AcDbEntity
  8
0
100
AcDbEllipse
 10
534.811334
 20
8.185369
 30
0.0
 11
0.8021437979128704
 21
1.602000000000000E-13
 31
0.0
210
0.0
220
0.0
230
1.0
 40
0.958812
 41
4.712388980384497
 42
6.283185307179378
  0
LINE
  5
2D59
330
18
100
AcDbEntity
  8
0
100
AcDbLine
 10
539.892236
 20
9.015264
 30
0.0
 11
539.903809
 21
9.022759
 31
0.0
  0
LINE
  5
2D5A
330
18
100
AcDbEntity
  8
0
100
AcDbLine
 10
538.361694
 20
9.015264
 30
0.0
 11
539.903809
 21
9.015264
 31
0.0
  0
LINE
  5
2D5B
330
18
100
AcDbEntity
  8
0
100
AcDbLine
 10
544.194477
 20
9.047064
 30
0.0
 11
545.04922
 21
9.047064
 31
0.0
  0
LINE
  5
2D5C
330
18
100
AcDbEntity
  8
0
100
AcDbLine
 10
550.89322
 20
7.416264
 30
0.0
 11
549.34822
 21
7.416264
 31
0.0
  0
LINE
  5
2D5D
330
18
100
AcDbEntity
  8
0
100
AcDbLine
 10
548.69422
 20
9.015264
 30
0.0
 11
547.14922
 21
9.015264
 31
0.0
  0
LINE
  5
2D5E
330
18
100
AcDbEntity
  8
0
100
AcDbLine
 10
551.576266
 20
9.015264
 30
0.0
 11
552.11422
 21
9.015264
 31
0.0
  0
LINE
  5
2D5F
330
18
100
AcDbEntity
  8
0
100
AcDbLine
 10
555.26122
 20
9.015264
 30
0.0
 11
556.19122
 21
9.015264
 31
0.0
  0
LINE
  5
2D60
330
18
100
AcDbEntity
  8
0
100
AcDbLine
 10
559.88722
 20
9.015264
 30
0.0
 11
558.34222
 21
9.015264
 31
0.0
  0
ARC
  5
2D61
330
18
100
AcDbEntity
  8
0
100
AcDbCircle
 10
545.056591
 20
14.17837
 30
0.0
 40
1.425319
100
AcDbArc
 50
9.534829000000002
 51
90.296329
  0
LINE
  5
2D62
330
18
100
AcDbEntity
  8
0
100
AcDbLine
 10
546.46222
 20
11.81167
 30
0.0
 11
544.33822
 21
11.81167
 31
0.0
  0
LINE
  5
2D63
330
18
100
AcDbEntity
  8
0
100
AcDbLine
 10
545.01322
 20
11.13667
 30
0.0
 11
546.46222
 21
11.13667
 31
0.0
  0
LINE
  5
2D64
330
18
100
AcDbEntity
  8
0
100
AcDbLine
 10
529.697667
 20
13.461283
 30
0.0
 11
529.697667
 21
16.260974
 31
0.0
  0
ELLIPSE
  5
2D65
330
18
100
AcDbEntity
  8
0
100
AcDbEllipse
 10
532.630506
 20
15.17942
 30
0.0
 11
2.983077570132104
 21
2.996000000000000E-13
 31
0.0
210
0.0
220
0.0
230
1.0
 40
0.9588119999999999
 41
-1.562393163247347
 42
0.0084031635475457
  0
ELLIPSE
  5
2D66
330
18
100
AcDbEntity
  8
0
100
AcDbEllipse
 10
532.58733
 20
15.509539
 30
0.0
 11
-4.072692107280919
 21
9.250000000000000E-14
 31
0.0
210
0.0
220
0.0
230
1.0
 40
0.958812
 41
1.587553347046634
 42
2.408388587343224
  0
LINE
  5
2D67
330
18
100
AcDbEntity
  8
0
100
AcDbLine
 10
529.697667
 20
11.742481
 30
0.0
 11
529.697667
 21
11.034514
 31
0.0
  0
LINE
  5
2D68
330
18
100
AcDbEntity
  8
0
100
AcDbLine
 10
529.697667
 20
13.461283
 30
0.0
 11
529.697667
 21
12.896138
 31
0.0
  0
ELLIPSE
  5
2D69
330
18
100
AcDbEntity
  8
0
100
AcDbEllipse
 10
532.249598
 20
9.872487
 30
0.0
 11
2.960559210508897
 21
0.3570763225581005
 31
0.0
210
0.0
220
0.0
230
1.0
 40
0.820999
 41
1.335209029023201
 42
2.503032872947537
  0
ELLIPSE
  5
2D6A
330
18
100
AcDbEntity
  8
0
100
AcDbEllipse
 10
532.480104
 20
8.937306
 30
0.0
 11
3.015746449176215
 21
0.7746519372140024
 31
0.0
210
0.0
220
0.0
230
1.0
 40
0.8467750000000003
 41
1.29973646820557
 42
2.479974117225238
  0
LINE
  5
2D6B
330
18
100
AcDbEntity
  8
0
100
AcDbLine
 10
536.816694
 20
12.896138
 30
0.0
 11
536.51589
 21
12.896138
 31
0.0
  0
LINE
  5
2D6C
330
18
100
AcDbEntity
  8
0
100
AcDbLine
 10
535.613478
 20
12.896138
 30
0.0
 11
536.51589
 21
12.896138
 31
0.0
  0
ELLIPSE
  5
2D6D
330
18
100
AcDbEntity
  8
0
100
AcDbEllipse
 10
535.613478
 20
12.896138
 30
0.0
 11
1.203215696869352
 21
8.930000000000000E-14
 31
0.0
210
0.0
220
0.0
230
1.0
 40
0.9588119999999999
 41
4.712388980384611
 42
6.283185307179508
  0
LINE
  5
2D6E
330
18
100
AcDbEntity
  8
0
100
AcDbLine
 10
530.499811
 20
17.030079
 30
0.0
 11
534.811334
 21
17.030079
 31
0.0
  0
ELLIPSE
  5
2D6F
330
18
100
AcDbEntity
  8
0
100
AcDbEllipse
 10
530.499811
 20
16.260974
 30
0.0
 11
0.8021437979128704
 21
3.800000000000000E-14
 31
0.0
210
0.0
220
0.0
230
1.0
 40
0.958812
 41
1.570796326794851
 42
3.141592653589743
  0
LINE
  5
2D70
330
18
100
AcDbEntity
  8
0
100
AcDbLine
 10
535.613478
 20
15.155385
 30
0.0
 11
535.613478
 21
16.260974
 31
0.0
  0
ELLIPSE
  5
2D71
330
18
100
AcDbEntity
  8
0
100
AcDbEllipse
 10
534.811334
 20
16.260974
 30
0.0
 11
-0.8021437979128705
 21
3.800000000000000E-14
 31
0.0
210
0.0
220
0.0
230
1.0
 40
0.958812
 41
3.141592653589842
 42
4.712388980384734
  0
ARC
  5
2D72
330
18
100
AcDbEntity
  8
0
100
AcDbCircle
 10
540.798894
 20
14.34127
 30
0.0
 40
1.377457
100
AcDbArc
 50
16.265061
 51
130.527299
  0
ARC
  5
2D73
330
18
100
AcDbEntity
  8
0
100
AcDbCircle
 10
544.201848
 20
14.17837
 30
0.0
 40
1.425319
100
AcDbArc
 50
89.703671
 51
170.465171
  0
LINE
  5
2D74
330
18
100
AcDbEntity
  8
0
100
AcDbLine
 10
540.911147
 20
12.93607
 30
0.0
 11
542.12122
 21
12.93607
 31
0.0
  0
LINE
  5
2D75
330
18
100
AcDbEntity
  8
0
100
AcDbLine
 10
540.578809
 20
12.93607
 30
0.0
 11
542.12122
 21
12.93607
 31
0.0
  0
ARC
  5
2D76
330
18
100
AcDbEntity
  8
0
100
AcDbCircle
 10
540.229736
 20
14.361264
 30
0.0
 40
0.3375
100
AcDbArc
 50
360.0
 51
180.0
  0
LINE
  5
2D77
330
18
100
AcDbEntity
  8
0
100
AcDbLine
 10
540.567236
 20
14.361264
 30
0.0
 11
540.578809
 21
12.93607
 31
0.0
  0
ARC
  5
2D78
330
18
100
AcDbEntity
  8
0
100
AcDbCircle
 10
544.67572
 20
14.361264
 30
0.0
 40
0.3375
100
AcDbArc
 50
360.0
 51
180.0
  0
LINE
  5
2D79
330
18
100
AcDbEntity
  8
0
100
AcDbLine
 10
544.33822
 20
11.81167
 30
0.0
 11
544.33822
 21
10.236264
 31
0.0
  0
LINE
  5
2D7A
330
18
100
AcDbEntity
  8
0
100
AcDbLine
 10
544.33822
 20
12.71167
 30
0.0
 11
545.01322
 21
12.71167
 31
0.0
  0
LINE
  5
2D7B
330
18
100
AcDbEntity
  8
0
100
AcDbLine
 10
545.01322
 20
11.13667
 30
0.0
 11
545.01322
 21
10.252764
 31
0.0
  0
LINE
  5
2D7C
330
18
100
AcDbEntity
  8
0
100
AcDbLine
 10
544.33822
 20
11.81167
 30
0.0
 11
544.33822
 21
10.252764
 31
0.0
  0
ARC
  5
2D7D
330
18
100
AcDbEntity
  8
0
100
AcDbCircle
 10
544.67572
 20
10.252764
 30
0.0
 40
0.3375
100
AcDbArc
 50
180.0
 51
0.0
  0
LINE
  5
2D7E
330
18
100
AcDbEntity
  8
0
100
AcDbLine
 10
545.01322
 20
14.361264
 30
0.0
 11
545.01322
 21
12.71167
 31
0.0
  0
LINE
  5
2D7F
330
18
100
AcDbEntity
  8
0
100
AcDbLine
 10
544.33822
 20
14.361264
 30
0.0
 11
544.33822
 21
12.71167
 31
0.0
  0
LINE
  5
2D80
330
18
100
AcDbEntity
  8
0
100
AcDbLine
 10
542.12122
 20
12.93607
 30
0.0
 11
542.12122
 21
14.72707
 31
0.0
  0
LINE
  5
2D81
330
18
100
AcDbEntity
  8
0
100
AcDbLine
 10
542.79622
 20
10.236264
 30
0.0
 11
542.79622
 21
14.41447
 31
0.0
  0
LINE
  5
2D82
330
18
100
AcDbEntity
  8
0
100
AcDbLine
 10
539.903809
 20
15.60367
 30
0.0
 11
539.903809
 21
15.38827
 31
0.0
  0
LINE
  5
2D83
330
18
100
AcDbEntity
  8
0
100
AcDbLine
 10
538.361694
 20
15.60367
 30
0.0
 11
539.903809
 21
15.60367
 31
0.0
  0
LINE
  5
2D84
330
18
100
AcDbEntity
  8
0
100
AcDbLine
 10
544.194477
 20
15.60367
 30
0.0
 11
545.04922
 21
15.60367
 31
0.0
  0
ARC
  5
2D85
330
18
100
AcDbEntity
  8
0
100
AcDbCircle
 10
555.243059
 20
14.124104
 30
0.0
 40
1.488419
100
AcDbArc
 50
89.300887
 51
168.365732
  0
ARC
  5
2D86
330
18
100
AcDbEntity
  8
0
100
AcDbCircle
 10
551.752247
 20
14.207365
 30
0.0
 40
1.409039
100
AcDbArc
 50
15.47255
 51
127.56454
  0
LINE
  5
2D87
330
18
100
AcDbEntity
  8
0
100
AcDbLine
 10
546.46222
 20
11.13667
 30
0.0
 11
546.46222
 21
10.236264
 31
0.0
  0
LINE
  5
2D88
330
18
100
AcDbEntity
  8
0
100
AcDbLine
 10
546.46222
 20
11.81167
 30
0.0
 11
546.46222
 21
14.41447
 31
0.0
  0
LINE
  5
2D89
330
18
100
AcDbEntity
  8
0
100
AcDbLine
 10
553.11022
 20
14.583264
 30
0.0
 11
553.11022
 21
10.179264
 31
0.0
  0
LINE
  5
2D8A
330
18
100
AcDbEntity
  8
0
100
AcDbLine
 10
551.56822
 20
14.361264
 30
0.0
 11
551.56822
 21
10.252764
 31
0.0
  0
LINE
  5
2D8B
330
18
100
AcDbEntity
  8
0
100
AcDbLine
 10
550.89322
 20
14.361264
 30
0.0
 11
550.89322
 21
10.252764
 31
0.0
  0
ARC
  5
2D8C
330
18
100
AcDbEntity
  8
0
100
AcDbCircle
 10
551.23072
 20
10.252764
 30
0.0
 40
0.3375
100
AcDbArc
 50
180.0
 51
0.0
  0
ARC
  5
2D8D
330
18
100
AcDbEntity
  8
0
100
AcDbCircle
 10
551.23072
 20
14.361264
 30
0.0
 40
0.3375
100
AcDbArc
 50
360.0
 51
180.0
  0
LINE
  5
2D8E
330
18
100
AcDbEntity
  8
0
100
AcDbLine
 10
549.34822
 20
15.612264
 30
0.0
 11
550.89322
 21
15.612264
 31
0.0
  0
LINE
  5
2D8F
330
18
100
AcDbEntity
  8
0
100
AcDbLine
 10
547.14922
 20
17.211264
 30
0.0
 11
548.69422
 21
17.211264
 31
0.0
  0
LINE
  5
2D90
330
18
100
AcDbEntity
  8
0
100
AcDbLine
 10
550.89322
 20
15.612264
 30
0.0
 11
550.89322
 21
15.324264
 31
0.0
  0
ARC
  5
2D91
330
18
100
AcDbEntity
  8
0
100
AcDbCircle
 10
556.209381
 20
14.124104
 30
0.0
 40
1.488419
100
AcDbArc
 50
11.634268
 51
90.699113
  0
LINE
  5
2D92
330
18
100
AcDbEntity
  8
0
100
AcDbLine
 10
557.66722
 20
14.424264
 30
0.0
 11
557.66722
 21
10.203412
 31
0.0
  0
ARC
  5
2D93
330
18
100
AcDbEntity
  8
0
100
AcDbCircle
 10
555.72622
 20
14.361264
 30
0.0
 40
0.3375
100
AcDbArc
 50
360.0
 51
180.0
  0
ARC
  5
2D94
330
18
100
AcDbEntity
  8
0
100
AcDbCircle
 10
555.72622
 20
10.252764
 30
0.0
 40
0.3375
100
AcDbArc
 50
180.0
 51
0.0
  0
LINE
  5
2D95
330
18
100
AcDbEntity
  8
0
100
AcDbLine
 10
555.38872
 20
14.361264
 30
0.0
 11
555.38872
 21
10.252764
 31
0.0
  0
LINE
  5
2D96
330
18
100
AcDbEntity
  8
0
100
AcDbLine
 10
556.06372
 20
14.361264
 30
0.0
 11
556.06372
 21
10.252764
 31
0.0
  0
LINE
  5
2D97
330
18
100
AcDbEntity
  8
0
100
AcDbLine
 10
553.78522
 20
10.203412
 30
0.0
 11
553.78522
 21
14.424264
 31
0.0
  0
LINE
  5
2D98
330
18
100
AcDbEntity
  8
0
100
AcDbLine
 10
555.26122
 20
15.612412
 30
0.0
 11
556.19122
 21
15.612412
 31
0.0
  0
LINE
  5
2D99
330
18
100
AcDbEntity
  8
0
100
AcDbLine
 10
558.34222
 20
17.211264
 30
0.0
 11
559.88722
 21
17.211264
 31
0.0
  0
TEXT
  5
2D9A
330
18
100
AcDbEntity
  8
WY
100
AcDbText
 10
564.417407
 20
11.60401
 30
0.0
 40
1.999999999999999
  1
15-06-2016
 41
1.000000000000001
 51
15.0
  7
ITALIC
100
AcDbText
  0
TEXT
  5
2D9B
330
18
100
AcDbEntity
  8
WY
100
AcDbText
 10
568.848776
 20
16.149239
 30
0.0
 40
2.0
  1
Data
 51
15.0
  7
ITALIC
100
AcDbText
  0
TEXT
  5
2D9D
330
18
100
AcDbEntity
  8
1
100
AcDbText
 10
637.422754
 20
9.064009
 30
0.0
 40
5.0
  1
GZ14-0737
 41
0.8
 51
15.0
  7
ITALIC
100
AcDbText
  0
LINE
  5
2D9E
330
18
100
AcDbEntity
  8
1
100
AcDbLine
 10
627.394234
 20
5.0
 30
0.0
 11
627.394234
 21
19.689837
 31
0.0
  0
TEXT
  5
2D9F
330
18
100
AcDbEntity
  8
WY
100
AcDbText
 10
629.585432
 20
16.599248
 30
0.0
 40
2.0
  1
Product type
 51
15.0
  7
ITALIC
100
AcDbText
  0
LINE
  5
2DF2
330
18
100
AcDbEntity
  8
2
100
AcDbLine
 10
682.671651
 20
292.0
 30
0.0
 11
497.671651
 21
292.0
 31
0.0
  0
LINE
  5
2DF3
330
18
100
AcDbEntity
  8
2
100
AcDbLine
 10
687.671651
 20
297.0
 30
0.0
 11
497.671651
 21
297.0
 31
0.0
  0
LINE
  5
2E74
330
18
100
AcDbEntity
  8
WYMIARY
 62
     6
100
AcDbLine
 10
497.671651
 20
297.0
 30
0.0
 11
486.041244
 21
297.0
 31
0.0
  0
MTEXT
  5
31F2
330
18
100
AcDbEntity
  8
WYMIARY
100
AcDbMText
 10
780.543201
 20
224.476865
 30
0.0
 40
3.5
 41
15.6
 71
     1
 72
     5
  1

  7
ITALIC
  0
TEXT
  5
478E
330
18
100
AcDbEntity
  8
1
100
AcDbText
 10
500.301985
 20
8.797457
 30
0.0
 40
5.0
  1
1:1
 51
15.0
  7
ITALIC
100
AcDbText
  0
LINE
  5
482F
330
18
100
AcDbEntity
  8
WYMIARY
 62
     6
100
AcDbLine
 10
687.671651
 20
0.0
 30
0.0
 11
687.671651
 21
297.0
 31
0.0
  0
LINE
  5
4AD7
330
18
100
AcDbEntity
  8
WYMIARY
 62
     3
100
AcDbLine
 10
512.671651
 20
19.689837
 30
0.0
 11
512.671651
 21
5.0
 31
0.0
  0
LINE
  5
4AD9
330
18
100
AcDbEntity
  8
WYMIARY
 62
     3
100
AcDbLine
 10
527.671651
 20
19.689837
 30
0.0
 11
527.671651
 21
5.0
 31
0.0
  0
LINE
  5
4ADA
330
18
100
AcDbEntity
  8
WYMIARY
 62
     3
100
AcDbLine
 10
586.373187
 20
19.689837
 30
0.0
 11
586.373187
 21
5.0
 31
0.0
  0
TEXT
  5
4ADB
330
18
100
AcDbEntity
  8
WY
100
AcDbText
 10
587.562196
 20
16.599248
 30
0.0
 40
2.0
  1
Draw. No.
 51
15.0
  7
ITALIC
100
AcDbText
  0
TEXT
  5
4ADF
330
18
100
AcDbEntity
  8
1
100
AcDbText
 10
590.3277942942187
 20
9.064009
 30
0.0
 40
3.999999999999994
  1
GZ14-0737-01A
 41
0.700000000000001
 51
15.0
  7
ITALIC
100
AcDbText
  0
LINE
  5
4AE9
330
18
100
AcDbEntity
  8
WYMIARY
 62
     6
100
AcDbLine
 10
687.671651
 20
0.0
 30
0.0
 11
687.671651
 21
297.0
 31
0.0
  0
LINE
  5
6488
330
18
100
AcDbEntity
  8
WYMIARY
 62
     6
100
AcDbLine
 10
687.671651
 20
0.0
 30
0.0
 11
687.671651
 21
297.0
 31
0.0
  0
LINE
  5
648E
330
18
100
AcDbEntity
  8
2
100
AcDbLine
 10
687.671651
 20
0.0
 30
0.0
 11
687.671651
 21
297.0
 31
0.0
  0
LINE
  5
6CB6
330
18
100
AcDbEntity
  8
WYMIARY
 62
     6
100
AcDbLine
 10
687.671651
 20
0.0
 30
0.0
 11
687.671651
 21
297.0
 31
0.0
  0
LINE
  5
6CB8
330
18
100
AcDbEntity
  8
2
100
AcDbLine
 10
687.671651
 20
0.0
 30
0.0
 11
687.671651
 21
297.0
 31
0.0
  0
TEXT
  5
B62D
330
18
100
AcDbEntity
  8
1
100
AcDbText
 10
579.317934
 20
274.3510462125303
 30
0.0
 40
5.0
  1
GZ14-0737
 41
0.8
 51
15.0
  7
ITALIC
100
AcDbText
  0
TEXT
  5
17A04
330
18
100
AcDbEntity
  8
1
100
AcDbText
 10
537.3136001651202
 20
263.3148018483084
 30
0.0
 40
5.0
  1
Obejma sprężynowa/Spring wire clip
 41
0.8
 51
15.0
  7
ITALIC
100
AcDbText
  0
LINE
  5
17FBE
330
18
100
AcDbEntity
  8
1
  6
CONTINUOUS
100
AcDbLine
 10
556.2887465584026
 20
197.5356696534745
 30
0.0
 11
555.8324194720753
 21
196.1067660212152
 31
0.0
  0
LINE
  5
17FBF
330
18
100
AcDbEntity
  8
1
  6
CONTINUOUS
100
AcDbLine
 10
556.5945014092804
 20
195.8633915751739
 30
0.0
 11
557.0508284956076
 21
197.2922952074333
 31
0.0
  0
LINE
  5
17FC0
330
18
100
AcDbEntity
  8
1
  6
CONTINUOUS
100
AcDbLine
 10
549.2622609710435
 20
172.9038406111499
 30
0.0
 11
556.5945014092804
 21
195.8633915751739
 31
0.0
  0
LINE
  5
17FC1
330
18
100
AcDbEntity
  8
1
  6
CONTINUOUS
100
AcDbLine
 10
555.8324194720753
 20
196.1067660212152
 30
0.0
 11
548.5001790338384
 21
173.1472150571911
 31
0.0
  0
ARC
  5
17FC2
330
18
100
AcDbEntity
  8
1
  6
CONTINUOUS
100
AcDbCircle
 10
550.3101236347003
 20
172.5692007478433
 30
0.0
 40
1.100000000000015
100
AcDbArc
 50
180.0
 51
282.2888734302459
  0
ARC
  5
17FC3
330
18
100
AcDbEntity
  8
1
  6
CONTINUOUS
100
AcDbCircle
 10
550.3101236347003
 20
172.5692007478433
 30
0.0
 40
1.099999999999987
100
AcDbArc
 50
162.2888734302376
 51
180.0
  0
ARC
  5
17FC4
330
18
100
AcDbEntity
  8
1
  6
CONTINUOUS
100
AcDbCircle
 10
550.3101236347003
 20
172.5692007478433
 30
0.0
 40
1.900000000000021
100
AcDbArc
 50
162.2888734302422
 51
282.288873430242
  0
LINE
  5
17FC5
330
18
100
AcDbEntity
  8
1
  6
CONTINUOUS
100
AcDbLine
 10
558.5317289002592
 20
173.2343327310851
 30
0.0
 11
550.5442483437862
 21
171.4944051297858
 31
0.0
  0
LINE
  5
17FC6
330
18
100
AcDbEntity
  8
1
  6
CONTINUOUS
100
AcDbLine
 10
550.7145208594851
 20
170.7127355893804
 30
0.0
 11
558.7020014159581
 21
172.4526631906797
 31
0.0
  0
LINE
  5
17FC7
330
18
100
AcDbEntity
  8
1
  6
CONTINUOUS
100
AcDbLine
 10
556.3532709939803
 20
126.643456706151
 30
0.0
 11
556.2711389446233
 21
125.6468352501967
 31
0.0
  0
LINE
  5
17FC8
330
18
100
AcDbEntity
  8
1
  6
CONTINUOUS
100
AcDbLine
 10
557.0684361093868
 20
125.5811296107111
 30
0.0
 11
557.1505681587438
 21
126.5777510666654
 31
0.0
  0
LINE
  5
17FC9
330
18
100
AcDbEntity
  8
1
  6
CONTINUOUS
100
AcDbLine
 10
557.1505681587438
 20
126.5777510666654
 30
0.0
 11
560.8297068913571
 21
171.221816678844
 31
0.0
  0
LINE
  5
17FCA
330
18
100
AcDbEntity
  8
1
  6
CONTINUOUS
100
AcDbLine
 10
560.0324097265936
 20
171.2875223183296
 30
0.0
 11
556.3532709939803
 21
126.643456706151
 31
0.0
  0
ARC
  5
17FCB
330
18
100
AcDbEntity
  8
1
  6
CONTINUOUS
100
AcDbCircle
 10
558.936126125044
 20
171.3778675726223
 30
0.0
 40
1.099999999999994
100
AcDbArc
 50
355.2888734302416
 51
102.2888734302402
  0
ARC
  5
17FCC
330
18
100
AcDbEntity
  8
1
  6
CONTINUOUS
100
AcDbCircle
 10
558.936126125044
 20
171.3778675726223
 30
0.0
 40
1.900000000000009
100
AcDbArc
 50
355.2888734302402
 51
0.0
  0
ARC
  5
17FCD
330
18
100
AcDbEntity
  8
1
  6
CONTINUOUS
100
AcDbCircle
 10
558.936126125044
 20
171.3778675726223
 30
0.0
 40
1.899999999999994
100
AcDbArc
 50
0.0
 51
102.2888734302422
  0
ARC
  5
17FCE
330
18
100
AcDbEntity
  8
1
  6
CONTINUOUS
100
AcDbCircle
 10
556.6697875270052
 20
197.4139824304539
 30
0.0
 40
0.3999999999999968
100
AcDbArc
 50
342.2888734302363
 51
162.288873430244
  0
ARC
  5
17FCF
330
18
100
AcDbEntity
  8
1
  6
CONTINUOUS
100
AcDbCircle
 10
556.6697875270052
 20
125.6139824304539
 30
0.0
 40
0.4000000000000146
100
AcDbArc
 50
175.2888734302403
 51
355.2888734302423
  0
LINE
  5
17FD0
330
18
100
AcDbEntity
  8
1
  6
PHANTOM
100
AcDbLine
 10
555.8324194720753
 20
196.1067660212152
 30
0.0
 11
556.5945014092804
 21
195.8633915751739
 31
0.0
  0
LINE
  5
17FD1
330
18
100
AcDbEntity
  8
1
  6
PHANTOM
100
AcDbLine
 10
548.5001790338384
 20
173.1472150571911
 30
0.0
 11
549.2622609710435
 21
172.9038406111499
 31
0.0
  0
LINE
  5
17FD2
330
18
100
AcDbEntity
  8
1
  6
PHANTOM
100
AcDbLine
 10
550.7145208594851
 20
170.7127355893804
 30
0.0
 11
550.5442483437862
 21
171.4944051297858
 31
0.0
  0
LINE
  5
17FD3
330
18
100
AcDbEntity
  8
1
  6
PHANTOM
100
AcDbLine
 10
558.7020014159581
 20
172.4526631906797
 30
0.0
 11
558.5317289002592
 21
173.2343327310851
 31
0.0
  0
LINE
  5
17FD4
330
18
100
AcDbEntity
  8
1
  6
PHANTOM
100
AcDbLine
 10
556.3532709939803
 20
126.643456706151
 30
0.0
 11
557.1505681587438
 21
126.5777510666654
 31
0.0
  0
LINE
  5
17FD5
330
18
100
AcDbEntity
  8
1
  6
PHANTOM
100
AcDbLine
 10
560.0324097265936
 20
171.2875223183296
 30
0.0
 11
560.8297068913571
 21
171.221816678844
 31
0.0
  0
ARC
  5
17FD6
330
18
100
AcDbEntity
  8
1
  6
CONTINUOUS
100
AcDbCircle
 10
646.6445246701611
 20
171.0692007478433
 30
0.0
 40
0.4000000000000341
100
AcDbArc
 50
180.0
 51
0.0
  0
LINE
  5
17FD7
330
18
100
AcDbEntity
  8
1
  6
CONTINUOUS
100
AcDbLine
 10
646.2445246701611
 20
173.0255278341705
 30
0.0
 11
646.2445246701611
 21
171.0692007478433
 31
0.0
  0
LINE
  5
17FD8
330
18
100
AcDbEntity
  8
1
  6
CONTINUOUS
100
AcDbLine
 10
647.0445246701612
 20
171.0692007478433
 30
0.0
 11
647.0445246701612
 21
173.0255278341705
 31
0.0
  0
ARC
  5
17FD9
330
18
100
AcDbEntity
  8
1
  6
CONTINUOUS
100
AcDbCircle
 10
601.9445246701612
 20
171.0692007478433
 30
0.0
 40
0.4000000000000199
100
AcDbArc
 50
180.0
 51
0.0
  0
LINE
  5
17FDA
330
18
100
AcDbEntity
  8
1
  6
CONTINUOUS
100
AcDbLine
 10
601.5445246701612
 20
173.0255278341705
 30
0.0
 11
601.5445246701612
 21
171.0692007478433
 31
0.0
  0
LINE
  5
17FDB
330
18
100
AcDbEntity
  8
1
  6
CONTINUOUS
100
AcDbLine
 10
602.3445246701611
 20
171.0692007478433
 30
0.0
 11
602.3445246701611
 21
173.0255278341705
 31
0.0
  0
LINE
  5
17FDC
102
{ACAD_REACTORS
102
}
330
18
100
AcDbEntity
  8
1
  6
CONTINUOUS
100
AcDbLine
 10
602.3445246701611
 20
173.0255278341705
 30
0.0
 11
602.3445246701611
 21
195.9850787981945
 31
0.0
  0
LINE
  5
17FDD
102
{ACAD_REACTORS
102
}
330
18
100
AcDbEntity
  8
1
  6
CONTINUOUS
100
AcDbLine
 10
601.5445246701612
 20
195.9850787981945
 30
0.0
 11
601.5445246701612
 21
173.0255278341705
 31
0.0
  0
LINE
  5
17FDE
330
18
100
AcDbEntity
  8
1
  6
CONTINUOUS
100
AcDbLine
 10
647.0445246701612
 20
173.0255278341705
 30
0.0
 11
647.0445246701612
 21
195.9850787981945
 31
0.0
  0
LINE
  5
17FDF
330
18
100
AcDbEntity
  8
1
  6
CONTINUOUS
100
AcDbLine
 10
646.2445246701611
 20
195.9850787981945
 30
0.0
 11
646.2445246701611
 21
173.0255278341705
 31
0.0
  0
SPLINE
  5
17FE0
330
18
100
AcDbEntity
  8
1
  6
CONTINUOUS
100
AcDbSpline
210
0.0
220
0.0
230
1.0
 70
     8
 71
     3
 72
    14
 73
    10
 74
     0
 42
0.000000001
 43
0.00000001
 40
0.0
 40
0.0
 40
0.0
 40
0.0
 40
0.0764548750158891
 40
0.2425063994969612
 40
0.4089120979239352
 40
0.5758254071577462
 40
0.7438680219475525
 40
0.9135680079988417
 40
1.0
 40
1.0
 40
1.0
 40
1.0
 10
645.1445246701611
 20
197.0139824304539
 30
0.0
 10
645.1889845574345
 20
197.0124498113399
 30
0.0
 10
645.3300063978661
 20
197.0075885131811
 30
0.0
 10
645.5629296226031
 20
196.9490075821564
 30
0.0
 10
645.816882776417
 20
196.8143569110226
 30
0.0
 10
646.0244088108426
 20
196.6220714242893
 30
0.0
 10
646.1704366226201
 20
196.3866089825215
 30
0.0
 10
646.2366923945107
 20
196.1666014874284
 30
0.0
 10
646.2425485160832
 20
196.0308786166093
 30
0.0
 10
646.2445246701611
 20
195.9850787981945
 30
0.0
  0
SPLINE
  5
17FE1
330
18
100
AcDbEntity
  8
1
  6
CONTINUOUS
100
AcDbSpline
210
0.0
220
0.0
230
1.0
 70
     8
 71
     3
 72
    16
 73
    12
 74
     0
 42
0.000000001
 43
0.00000001
 40
0.0
 40
0.0
 40
0.0
 40
0.0
 40
0.0764633092653285
 40
0.2049852075057314
 40
0.333598414465567
 40
0.4623350979139313
 40
0.591331543250227
 40
0.7206625306416857
 40
0.850340454043468
 40
0.973831562554909
 40
1.0
 40
1.0
 40
1.0
 40
1.0
 10
647.0445246701612
 20
195.9850787981945
 30
0.0
 10
647.0417731793542
 20
196.058549549323
 30
0.0
 10
647.0343968975868
 20
196.2555122142976
 30
0.0
 10
646.9577606016327
 20
196.5702546149661
 30
0.0
 10
646.7992114785503
 20
196.9096673332173
 30
0.0
 10
646.571928550777
 20
197.2111716216184
 30
0.0
 10
646.2865686708456
 20
197.4625035177736
 30
0.0
 10
645.9540956028133
 20
197.6536942412602
 30
0.0
 10
645.5941453031288
 20
197.7741078014108
 30
0.0
 10
645.3184604135412
 20
197.8118189803519
 30
0.0
 10
645.1704114859685
 20
197.8136604446837
 30
0.0
 10
645.1445246701611
 20
197.8139824304539
 30
0.0
  0
SPLINE
  5
17FE2
330
18
100
AcDbEntity
  8
1
  6
CONTINUOUS
100
AcDbSpline
210
0.0
220
0.0
230
1.0
 70
     8
 71
     3
 72
    16
 73
    12
 74
     0
 42
0.000000001
 43
0.00000001
 40
0.0
 40
0.0
 40
0.0
 40
0.0
 40
0.075543728411323
 40
0.2057444153756688
 40
0.3361372177129342
 40
0.4664529464974325
 40
0.5965658318456348
 40
0.7263664331230772
 40
0.855791198760442
 40
0.9778453227457017
 40
1.0
 40
1.0
 40
1.0
 40
1.0
 10
603.4445246701612
 20
197.8139824304539
 30
0.0
 10
603.369764221187
 20
197.811437589939
 30
0.0
 10
603.1661530784638
 20
197.8045066807162
 30
0.0
 10
602.8391270828945
 20
197.7314488181395
 30
0.0
 10
602.4838185268193
 20
197.5780007708636
 30
0.0
 10
602.1679942173345
 20
197.3570038300359
 30
0.0
 10
601.905318765742
 20
197.079116901468
 30
0.0
 10
601.7067050189787
 20
196.7557287957073
 30
0.0
 10
601.5832382663313
 20
196.4072267286793
 30
0.0
 10
601.5463668176878
 20
196.144852207045
 30
0.0
 10
601.5447699895321
 20
196.006355873782
 30
0.0
 10
601.5445246701612
 20
195.9850787981945
 30
0.0
  0
SPLINE
  5
17FE3
330
18
100
AcDbEntity
  8
1
  6
CONTINUOUS
100
AcDbSpline
210
0.0
220
0.0
230
1.0
 70
     8
 71
     3
 72
    14
 73
    10
 74
     0
 42
0.000000001
 43
0.00000001
 40
0.0
 40
0.0
 40
0.0
 40
0.0
 40
0.0756863030107569
 40
0.2477992166970605
 40
0.4197704181968109
 40
0.5903059104269185
 40
0.7592411792152786
 40
0.9268878740349725
 40
1.0
 40
1.0
 40
1.0
 40
1.0
 10
602.3445246701611
 20
195.9850787981945
 30
0.0
 10
602.3460522943265
 20
196.0251738514885
 30
0.0
 10
602.3510537814716
 20
196.1564462535537
 30
0.0
 10
602.4129690472704
 20
196.3750386238238
 30
0.0
 10
602.559394093969
 20
196.6165637767868
 30
0.0
 10
602.7702857393845
 20
196.8135824503425
 30
0.0
 10
603.0283642853262
 20
196.9501912509436
 30
0.0
 10
603.2620311195748
 20
197.0079493286993
 30
0.0
 10
603.4020151878518
 20
197.0125770984217
 30
0.0
 10
603.4445246701612
 20
197.0139824304539
 30
0.0
  0
LINE
  5
17FE4
330
18
100
AcDbEntity
  8
1
  6
CONTINUOUS
100
AcDbLine
 10
641.6445246701611
 20
125.2139824304539
 30
0.0
 11
645.6445246701611
 21
125.2139824304539
 31
0.0
  0
LINE
  5
17FE5
330
18
100
AcDbEntity
  8
1
  6
CONTINUOUS
100
AcDbLine
 10
645.6445246701611
 20
126.0139824304539
 30
0.0
 11
641.6445246701611
 21
126.0139824304539
 31
0.0
  0
LINE
  5
17FE6
330
18
100
AcDbEntity
  8
1
  6
CONTINUOUS
100
AcDbLine
 10
606.9445246701612
 20
126.0139824304539
 30
0.0
 11
602.9445246701612
 21
126.0139824304539
 31
0.0
  0
LINE
  5
17FE7
330
18
100
AcDbEntity
  8
1
  6
CONTINUOUS
100
AcDbLine
 10
602.9445246701612
 20
125.2139824304539
 30
0.0
 11
606.9445246701612
 21
125.2139824304539
 31
0.0
  0
SPLINE
  5
17FE8
330
18
100
AcDbEntity
  8
1
  6
CONTINUOUS
100
AcDbSpline
210
0.0
220
0.0
230
1.0
 70
     8
 71
     3
 72
    12
 73
     8
 74
     0
 42
0.000000001
 43
0.00000001
 40
0.0
 40
0.0
 40
0.0
 40
0.0
 40
0.0929800290855686
 40
0.3232381878729672
 40
0.5543755152248603
 40
0.7851171744013509
 40
0.9999999999999999
 40
0.9999999999999999
 40
0.9999999999999999
 40
0.9999999999999999
 10
646.2445246701611
 20
126.6106038864082
 30
0.0
 10
646.2432404355417
 20
126.5817537235239
 30
0.0
 10
646.2387758889583
 20
126.4814582680131
 30
0.0
 10
646.1801187276147
 20
126.3142068641743
 30
0.0
 10
646.0404567030348
 20
126.1456424883881
 30
0.0
 10
645.852317364885
 20
126.0344281641781
 30
0.0
 10
645.7121258619719
 20
126.020634040459
 30
0.0
 10
645.6445246701611
 20
126.0139824304539
 30
0.0
  0
SPLINE
  5
17FE9
330
18
100
AcDbEntity
  8
1
  6
CONTINUOUS
100
AcDbSpline
210
0.0
220
0.0
230
1.0
 70
     8
 71
     3
 72
    14
 73
    10
 74
     0
 42
0.000000001
 43
0.00000001
 40
0.0
 40
0.0
 40
0.0
 40
0.0
 40
0.0927069994231847
 40
0.2433332106843819
 40
0.3941822283901005
 40
0.5450164766232986
 40
0.6958177301565399
 40
0.8465759478437427
 40
0.9999999999999999
 40
0.9999999999999999
 40
0.9999999999999999
 40
0.9999999999999999
 10
645.6445246701611
 20
125.2139824304539
 30
0.0
 10
645.7123481183447
 20
125.2169182818199
 30
0.0
 10
645.8903680899638
 20
125.2246241739685
 30
0.0
 10
646.1714383835284
 20
125.3032362031005
 30
0.0
 10
646.4642332598683
 20
125.4621137368641
 30
0.0
 10
646.7118598633946
 20
125.6864063024805
 30
0.0
 10
646.8983002717808
 20
125.9620283772596
 30
0.0
 10
647.021073620759
 20
126.2757866958789
 30
0.0
 10
647.03666211483
 20
126.498347985139
 30
0.0
 10
647.0445246701612
 20
126.6106038864082
 30
0.0
  0
SPLINE
  5
17FEA
330
18
100
AcDbEntity
  8
1
  6
CONTINUOUS
100
AcDbSpline
210
0.0
220
0.0
230
1.0
 70
     8
 71
     3
 72
    14
 73
    10
 74
     0
 42
0.000000001
 43
0.00000001
 40
0.0
 40
0.0
 40
0.0
 40
0.0
 40
0.0928200495984591
 40
0.2432686239425674
 40
0.3939241635207744
 40
0.5445929806619283
 40
0.6952933498430437
 40
0.8460374186662144
 40
1.0
 40
1.0
 40
1.0
 40
1.0
 10
601.5445246701612
 20
126.6106038864082
 30
0.0
 10
601.5474785294991
 20
126.542814146644
 30
0.0
 10
601.5552201898362
 20
126.3651465330069
 30
0.0
 10
601.6340863889247
 20
126.0847840542218
 30
0.0
 10
601.7932367877526
 20
125.7929439538507
 30
0.0
 10
602.0178158217727
 20
125.5461179800149
 30
0.0
 10
602.293781895491
 20
125.3601869239733
 30
0.0
 10
602.608346879963
 20
125.2374752422855
 30
0.0
 10
602.8316790794556
 20
125.2218683179389
 30
0.0
 10
602.9445246701612
 20
125.2139824304539
 30
0.0
  0
SPLINE
  5
17FEB
330
18
100
AcDbEntity
  8
1
  6
CONTINUOUS
100
AcDbSpline
210
0.0
220
0.0
230
1.0
 70
     8
 71
     3
 72
    12
 73
     8
 74
     0
 42
0.000000001
 43
0.00000001
 40
0.0
 40
0.0
 40
0.0
 40
0.0
 40
0.0930450240186483
 40
0.321991983961837
 40
0.5520371465571754
 40
0.7824259125782259
 40
0.9999999999999999
 40
0.9999999999999999
 40
0.9999999999999999
 40
0.9999999999999999
 10
602.9445246701612
 20
126.0139824304539
 30
0.0
 10
602.915379799814
 20
126.0152704784365
 30
0.0
 10
602.8145209443904
 20
126.0197279024601
 30
0.0
 10
602.6465241627955
 20
126.0780769357568
 30
0.0
 10
602.4774920147058
 20
126.2163949109371
 30
0.0
 10
602.3653197711222
 20
126.4031811034413
 30
0.0
 10
602.3513229030415
 20
126.5427942428805
 30
0.0
 10
602.3445246701611
 20
126.6106038864082
 30
0.0
  0
LINE
  5
17FEC
330
18
100
AcDbEntity
  8
1
  6
CONTINUOUS
100
AcDbLine
 10
645.1445246701611
 20
197.8139824304539
 30
0.0
 11
603.4445246701612
 21
197.8139824304539
 31
0.0
  0
LINE
  5
17FED
102
{ACAD_REACTORS
330
18068
102
}
330
18
100
AcDbEntity
  8
1
  6
CONTINUOUS
100
AcDbLine
 10
603.4445246701612
 20
197.0139824304539
 30
0.0
 11
645.1445246701611
 21
197.0139824304539
 31
0.0
  0
LINE
  5
17FEE
330
18
100
AcDbEntity
  8
1
  6
CONTINUOUS
100
AcDbLine
 10
647.0445246701612
 20
126.6106038864082
 30
0.0
 11
647.0445246701612
 21
171.0692007478433
 31
0.0
  0
LINE
  5
17FEF
330
18
100
AcDbEntity
  8
1
  6
CONTINUOUS
100
AcDbLine
 10
646.2445246701611
 20
171.0692007478433
 30
0.0
 11
646.2445246701611
 21
126.6106038864082
 31
0.0
  0
LINE
  5
17FF0
330
18
100
AcDbEntity
  8
1
  6
CONTINUOUS
100
AcDbLine
 10
602.3445246701611
 20
126.6106038864082
 30
0.0
 11
602.3445246701611
 21
171.0692007478433
 31
0.0
  0
LINE
  5
17FF1
330
18
100
AcDbEntity
  8
1
  6
CONTINUOUS
100
AcDbLine
 10
601.5445246701612
 20
171.0692007478433
 30
0.0
 11
601.5445246701612
 21
126.6106038864082
 31
0.0
  0
LINE
  5
17FF2
330
18
100
AcDbEntity
  8
1
  6
CONTINUOUS
100
AcDbLine
 10
641.6445246701611
 20
126.0139824304539
 30
0.0
 11
641.6445246701611
 21
125.2139824304539
 31
0.0
  0
LINE
  5
17FF3
330
18
100
AcDbEntity
  8
1
  6
CONTINUOUS
100
AcDbLine
 10
606.9445246701612
 20
125.2139824304539
 30
0.0
 11
606.9445246701612
 21
126.0139824304539
 31
0.0
  0
LWPOLYLINE
  5
17FF4
330
18
100
AcDbEntity
  8
1
  6
PHANTOM
100
AcDbPolyline
 90
       10
 70
   128
 43
0.0
 10
646.2445246701611
 20
173.0255278341705
 10
646.2458760877794
 20
173.0355222551778
 10
646.2887936340561
 20
173.0811718283868
 10
646.3858680058698
 20
173.1183501078905
 10
646.5223205100934
 20
173.1413970376563
 10
646.677377489904
 20
173.1468039315484
 10
646.82743292572
 20
173.1337476389852
 10
646.9496422376949
 20
173.1042158621539
 10
647.0254001659102
 20
173.062704546371
 10
647.0445246701612
 20
173.0255278341705
  0
LWPOLYLINE
  5
17FF5
330
18
100
AcDbEntity
  8
1
  6
PHANTOM
100
AcDbPolyline
 90
       10
 70
   128
 43
0.0
 10
601.5445246701612
 20
173.0255278341705
 10
601.563649174412
 20
173.062704546371
 10
601.6394071026274
 20
173.1042158621539
 10
601.7616164146021
 20
173.1337476389852
 10
601.9116718504184
 20
173.1468039315484
 10
602.0667288302288
 20
173.1413970376563
 10
602.2031813344524
 20
173.1183501078905
 10
602.3002557062662
 20
173.0811718283868
 10
602.3431732525429
 20
173.0355222551778
 10
602.3445246701611
 20
173.0255278341705
  0
LWPOLYLINE
  5
17FF6
330
18
100
AcDbEntity
  8
1
  6
PHANTOM
100
AcDbPolyline
 90
       10
 70
   128
 43
0.0
 10
601.5445246701612
 20
195.9850787981945
 10
601.563649174412
 20
196.022255510395
 10
601.6394071026274
 20
196.063766826178
 10
601.7616164146021
 20
196.0932986030092
 10
601.9116718504183
 20
196.1063548955724
 10
602.0667288302288
 20
196.1009480016803
 10
602.2031813344524
 20
196.0779010719145
 10
602.3002557062662
 20
196.0407227924108
 10
602.3431732525429
 20
195.9950732192018
 10
602.3445246701611
 20
195.9850787981945
  0
LWPOLYLINE
  5
17FF7
330
18
100
AcDbEntity
  8
1
  6
PHANTOM
100
AcDbPolyline
 90
       10
 70
   128
 43
0.0
 10
646.2445246701611
 20
195.9850787981945
 10
646.2458760877794
 20
195.9950732192018
 10
646.2887936340561
 20
196.0407227924108
 10
646.3858680058698
 20
196.0779010719145
 10
646.5223205100934
 20
196.1009480016803
 10
646.677377489904
 20
196.1063548955724
 10
646.82743292572
 20
196.0932986030092
 10
646.9496422376949
 20
196.063766826178
 10
647.0254001659102
 20
196.022255510395
 10
647.0445246701612
 20
195.9850787981945
  0
LINE
  5
17FF8
330
18
100
AcDbEntity
  8
1
  6
PHANTOM
100
AcDbLine
 10
645.1445246701611
 20
197.0139836226027
 30
0.0
 11
645.1445246701611
 21
197.8139823772331
 31
0.0
  0
LINE
  5
17FF9
330
18
100
AcDbEntity
  8
1
  6
PHANTOM
100
AcDbLine
 10
603.4445246701612
 20
197.8139823990128
 30
0.0
 11
603.4445246701612
 21
197.0139825144421
 31
0.0
  0
LINE
  5
17FFA
330
18
100
AcDbEntity
  8
1
  6
PHANTOM
100
AcDbLine
 10
645.6445246701611
 20
126.0139824304539
 30
0.0
 11
645.6445246701611
 21
125.2139824304539
 31
0.0
  0
LINE
  5
17FFB
102
{ACAD_REACTORS
330
18068
102
}
330
18
100
AcDbEntity
  8
1
  6
PHANTOM
100
AcDbLine
 10
602.9445246701612
 20
125.2139824304539
 30
0.0
 11
602.9445246701612
 21
126.0139824304539
 31
0.0
  0
ARC
  5
17FFC
330
18
100
AcDbEntity
  8
1
  6
PHANTOM
100
AcDbCircle
 10
646.6442104026283
 20
124.9120273549401
 30
0.0
 40
1.745105029176689
100
AcDbArc
 50
76.73868309298788
 51
103.2399898231885
  0
ARC
  5
17FFD
330
18
100
AcDbEntity
  8
1
  6
PHANTOM
100
AcDbCircle
 10
601.9446390992608
 20
124.9516874649411
 30
0.0
 40
1.706471826002354
100
AcDbArc
 50
76.44760133546686
 51
103.5603119881237
  0
DIMENSION
  5
17FFE
330
18
100
AcDbEntity
  8
WY
100
AcDbDimension
  2
*D177
 10
601.5445246701612
 20
206.0431181122659
 30
0.0
 11
624.2945246701612
 21
207.6681181122659
 31
0.0
 70
    32
  3
STANDARD
100
AcDbAlignedDimension
 13
647.0445246701612
 23
195.9850787981945
 33
0.0
 14
601.5445246701612
 24
195.9850787981945
 34
0.0
100
AcDbRotatedDimension
1001
ACAD
1000
DSTYLE
1002
{
1070
   287
1070
     4
1070
     3
1000
-0,3
1070
    41
1040
2.5
1070
   147
1040
0.75
1070
   174
1070
     1
1070
   279
1070
     1
1070
   172
1070
     1
1070
    74
1070
     1
1070
   140
1040
1.5
1070
   284
1070
     8
1070
    78
1070
     8
1002
}
  0
DIMENSION
  5
1800D
330
18
100
AcDbEntity
  8
WY
100
AcDbDimension
  2
*D178
 10
537.8120022566437
 20
125.2139824304539
 30
0.0
 11
536.1870022566437
 21
161.5139824304539
 31
0.0
 70
    32
  3
STANDARD
100
AcDbAlignedDimension
 13
556.6697875270052
 23
197.8139824304539
 33
0.0
 14
556.6697875270052
 24
125.2139824304539
 34
0.0
 50
90.0
100
AcDbRotatedDimension
1001
ACAD
1000
DSTYLE
1002
{
1070
   287
1070
     4
1070
     3
1000
-0,2
1070
    41
1040
2.5
1070
   147
1040
0.75
1070
   174
1070
     1
1070
   279
1070
     1
1070
   172
1070
     1
1070
    74
1070
     1
1070
   140
1040
1.5
1070
   284
1070
     8
1070
    78
1070
     8
1002
}
  0
LINE
  5
1801D
330
18
100
AcDbEntity
  8
OSIE
100
AcDbLine
 10
556.6697875270052
 20
199.3607657403477
 30
0.0
 11
556.6697875270052
 21
122.7182740497509
 31
0.0
  0
DIMENSION
  5
18076
102
{ACAD_REACTORS
102
}
102
{ACAD_XDICTIONARY
360
18077
102
}
330
18
100
AcDbEntity
  8
WY
100
AcDbDimension
  2
*D180
 10
602.3445246701611
 20
177.3693217341192
 30
0.0
 11
610.2195246701611
 21
177.3693217341192
 31
0.0
 70
   160
  3
STANDARD
100
AcDbAlignedDimension
 13
601.5445246701612
 23
174.542829694807
 33
0.0
 14
602.3445246701611
 24
174.542829694807
 34
0.0
100
AcDbRotatedDimension
1001
ACAD
1000
DSTYLE
1002
{
1070
   287
1070
     3
1070
     3
1000
%%c<>
1070
    41
1040
2.5
1070
   147
1040
0.75
1070
   174
1070
     1
1070
   279
1070
     0
1070
   172
1070
     1
1070
    74
1070
     1
1070
   140
1040
1.5
1070
   284
1070
     8
1070
    78
1070
     8
1002
}
  0
DIMENSION
  5
1808C
102
{ACAD_REACTORS
102
}
102
{ACAD_XDICTIONARY
360
1808D
102
}
330
18
100
AcDbEntity
  8
WY
100
AcDbDimension
  2
*D181
 10
645.1445246701611
 20
197.0139824304539
 30
0.0
 11
607.8097279866835
 21
191.5487791139316
 31
0.0
 70
    34
  1
<>
  3
STANDARD
100
AcDb2LineAngularDimension
 13
602.3445246701611
 23
173.0255278341705
 33
0.0
 14
602.3445246701611
 24
195.9850787981945
 34
0.0
 15
603.4445246701612
 25
197.0139824304539
 35
0.0
 16
606.9590069958373
 26
189.0214645917542
 36
0.0
1001
ACAD
1000
DSTYLE
1002
{
1070
   287
1070
     4
1070
    41
1040
2.5
1070
   147
1040
0.75
1070
   174
1070
     1
1070
   279
1070
     1
1070
   172
1070
     1
1070
    74
1070
     1
1070
   140
1040
1.5
1070
   284
1070
     8
1070
    78
1070
     8
1002
}
  0
ENDSEC
  0
SECTION
  2
OBJECTS
  0
DICTIONARY
  5
C
330
0
100
AcDbDictionary
  3
ACAD_DETAILVIEWSTYLE
350
F5C4
  3
ACAD_GROUP
350
D
  3
ACAD_IMAGE_VARS
350
F140
  3
ACAD_MLINESTYLE
350
E
  3
ACAD_SCALELIST
350
18038
  3
ACAD_SECTIONVIEWSTYLE
350
F5C5
  3
ACDBVARIABLEDICTIONARY
350
C1B
  3
APPDATA
350
F13E
  3
DIMOFFSETDICTIONARY
350
13296
  3
DWGPROPS
350
1809C
  0
DICTIONARY
  5
13241
330
2
100
AcDbDictionary
280
     1
  3
ACAD_LAYERSTATES
360
13242
  0
DICTIONARY
  5
18077
330
18076
100
AcDbDictionary
280
     1
  0
DICTIONARY
  5
1808D
330
1808C
100
AcDbDictionary
280
     1
  0
DICTIONARY
  5
F5C4
102
{ACAD_REACTORS
330
C
102
}
330
C
100
AcDbDictionary
  0
DICTIONARY
  5
D
102
{ACAD_REACTORS
330
C
102
}
330
C
100
AcDbDictionary
  0
RASTERVARIABLES
  5
F140
102
{ACAD_REACTORS
330
C
102
}
330
C
100
AcDbRasterVariables
 90
        0
 70
     1
 71
     1
 72
     0
  0
DICTIONARY
  5
E
102
{ACAD_REACTORS
330
C
102
}
330
C
100
AcDbDictionary
  3
STANDARD
350
1B
  0
DICTIONARY
  5
18038
102
{ACAD_REACTORS
330
C
102
}
330
C
100
AcDbDictionary
  0
DICTIONARY
  5
F5C5
102
{ACAD_REACTORS
330
C
102
}
330
C
100
AcDbDictionary
  0
DICTIONARY
  5
C1B
102
{ACAD_REACTORS
330
C
102
}
330
C
100
AcDbDictionary
  3
HPTRANSPARENCY
350
13295
  3
SORTENTS
350
C1C
  0
DICTIONARY
  5
F13E
102
{ACAD_REACTORS
330
C
102
}
330
C
100
AcDbDictionary
  0
DICTIONARY
  5
13296
102
{ACAD_REACTORS
330
C
102
}
330
C
100
AcDbDictionary
  3
DIMRAILANGLE
350
17EB8
  3
DIMRAILFIRSTOFFSET
350
17EB6
  3
DIMRAILOFFSET
350
17EB7
  3
DIMRAILSENABLED
350
17EB9
  0
XRECORD
  5
1809C
102
{ACAD_REACTORS
330
C
102
}
330
C
100
AcDbXrecord
  1
DWGPROPS COOKIE
  2

  3

  4

  6

  7

  8
pikusl
  9

300
=
301
=
302
=
303
=
304
=
305
=
306
=
307
=
308
=
309
=
 40
0.0
 41
2448721.315803356
 42
2457556.339404271
  1

 90
        0
  0
DICTIONARY
  5
13242
102
{ACAD_REACTORS
330
13241
102
}
330
13241
100
AcDbDictionary
  0
MLINESTYLE
  5
1B
102
{ACAD_REACTORS
330
E
102
}
330
E
100
AcDbMlineStyle
  2
STANDARD
 70
     0
  3

 62
     0
 51
90.0
 52
90.0
 71
     2
 49
0.5
 62
   256
  6
BYLAYER
 49
-0.5
 62
   256
  6
BYLAYER
  0
DICTIONARYVAR
  5
13295
102
{ACAD_REACTORS
330
C1B
102
}
330
C1B
100
DictionaryVariables
280
     0
  1
ByLayer
  0
DICTIONARYVAR
  5
C1C
102
{ACAD_REACTORS
330
C1B
102
}
330
C1B
100
DictionaryVariables
280
     0
  1
96
  0
DICTIONARYVAR
  5
17EB8
102
{ACAD_REACTORS
330
13296
102
}
330
13296
100
DictionaryVariables
280
     0
  1
0.261799
  0
DICTIONARYVAR
  5
17EB6
102
{ACAD_REACTORS
330
13296
102
}
330
13296
100
DictionaryVariables
280
     0
  1
0.400000
  0
DICTIONARYVAR
  5
17EB7
102
{ACAD_REACTORS
330
13296
102
}
330
13296
100
DictionaryVariables
280
     0
  1
0.250000
  0
DICTIONARYVAR
  5
17EB9
102
{ACAD_REACTORS
330
13296
102
}
330
13296
100
DictionaryVariables
280
     0
  1
1
  0
ENDSEC
  0
EOF
