  0
SECTION
  2
HEADER
  9
$ACADVER
  1
AC1027
  9
$ACADMAINTVER
 70
     8
  9
$DWGCODEPAGE
  3
ANSI_1250
  9
$REQUIREDVERSIONS
160
                 0
  9
$LASTSAVEDBY
  1
kluskar
  9
$INSBASE
 10
0.0
 20
0.0
 30
0.0
  9
$EXTMIN
 10
486.041244
 20
0.0
 30
0.0
  9
$EXTMAX
 10
687.671651
 20
297.0
 30
0.0
  9
$LIMMIN
 10
0.0
 20
0.0
  9
$LIMMAX
 10
0.0
 20
0.0
  9
$ORTHOMODE
 70
     0
  9
$REGENMODE
 70
     1
  9
$FILLMODE
 70
     1
  9
$QTEXTMODE
 70
     0
  9
$MIRRTEXT
 70
     1
  9
$LTSCALE
 40
6.0
  9
$ATTMODE
 70
     1
  9
$TEXTSIZE
 40
0.2
  9
$TRACEWID
 40
0.05
  9
$TEXTSTYLE
  7
ITALIC
  9
$CLAYER
  8
WYMIARY
  9
$CELTYPE
  6
ByLayer
  9
$CECOLOR
 62
     1
  9
$CELTSCALE
 40
1.0
  9
$DISPSILH
 70
     0
  9
$DIMSCALE
 40
1.0
  9
$DIMASZ
 40
2.0
  9
$DIMEXO
 40
1.5
  9
$DIMDLI
 40
0.38
  9
$DIMRND
 40
0.0
  9
$DIMDLE
 40
0.0
  9
$DIMEXE
 40
1.5
  9
$DIMTP
 40
0.1
  9
$DIMTM
 40
0.0
  9
$DIMTXT
 40
2.0
  9
$DIMCEN
 40
0.09
  9
$DIMTSZ
 40
0.0
  9
$DIMTOL
 70
     0
  9
$DIMLIM
 70
     0
  9
$DIMTIH
 70
     0
  9
$DIMTOH
 70
     0
  9
$DIMSE1
 70
     0
  9
$DIMSE2
 70
     0
  9
$DIMTAD
 70
     1
  9
$DIMZIN
 70
     0
  9
$DIMBLK
  1
VDDIM_DEFAULT
  9
$DIMASO
 70
     1
  9
$DIMSHO
 70
     1
  9
$DIMPOST
  1

  9
$DIMAPOST
  1

  9
$DIMALT
 70
     0
  9
$DIMALTD
 70
     2
  9
$DIMALTF
 40
25.4
  9
$DIMLFAC
 40
1.0
  9
$DIMTOFL
 70
     1
  9
$DIMTVP
 40
0.0
  9
$DIMTIX
 70
     1
  9
$DIMSOXD
 70
     0
  9
$DIMSAH
 70
     0
  9
$DIMBLK1
  1

  9
$DIMBLK2
  1

  9
$DIMSTYLE
  2
STANDARD
  9
$DIMCLRD
 70
     0
  9
$DIMCLRE
 70
     0
  9
$DIMCLRT
 70
   256
  9
$DIMTFAC
 40
1.0
  9
$DIMGAP
 40
1.5
  9
$DIMJUST
 70
     0
  9
$DIMSD1
 70
     0
  9
$DIMSD2
 70
     0
  9
$DIMTOLJ
 70
     1
  9
$DIMTZIN
 70
     0
  9
$DIMALTZ
 70
     0
  9
$DIMALTTZ
 70
     0
  9
$DIMUPT
 70
     1
  9
$DIMDEC
 70
     2
  9
$DIMTDEC
 70
     4
  9
$DIMALTU
 70
     2
  9
$DIMALTTD
 70
     2
  9
$DIMTXSTY
  7
STANDARD
  9
$DIMAUNIT
 70
     0
  9
$DIMADEC
 70
     0
  9
$DIMALTRND
 40
0.0
  9
$DIMAZIN
 70
     0
  9
$DIMDSEP
 70
    46
  9
$DIMATFIT
 70
     3
  9
$DIMFRAC
 70
     0
  9
$DIMLDRBLK
  1

  9
$DIMLUNIT
 70
     2
  9
$DIMLWD
 70
    -2
  9
$DIMLWE
 70
    -2
  9
$DIMTMOVE
 70
     0
  9
$DIMFXL
 40
1.0
  9
$DIMFXLON
 70
     0
  9
$DIMJOGANG
 40
0.7853981633974483
  9
$DIMTFILL
 70
     0
  9
$DIMTFILLCLR
 70
     0
  9
$DIMARCSYM
 70
     0
  9
$DIMLTYPE
  6

  9
$DIMLTEX1
  6

  9
$DIMLTEX2
  6

  9
$DIMTXTDIRECTION
 70
     0
  9
$LUNITS
 70
     2
  9
$LUPREC
 70
     2
  9
$SKETCHINC
 40
0.1
  9
$FILLETRAD
 40
0.5
  9
$AUNITS
 70
     0
  9
$AUPREC
 70
     2
  9
$MENU
  1
.
  9
$ELEVATION
 40
0.0
  9
$PELEVATION
 40
0.0
  9
$THICKNESS
 40
0.0
  9
$LIMCHECK
 70
     0
  9
$CHAMFERA
 40
0.5
  9
$CHAMFERB
 40
0.5
  9
$CHAMFERC
 40
1.0
  9
$CHAMFERD
 40
0.0
  9
$SKPOLY
 70
     0
  9
$TDCREATE
 40
2457560.521991215
  9
$TDUCREATE
 40
2457560.480324549
  9
$TDUPDATE
 40
2457709.432537604
  9
$TDUUPDATE
 40
2457709.390870938
  9
$TDINDWG
 40
0.0464548264
  9
$TDUSRTIMER
 40
2457709.389215694
  9
$USRTIMER
 70
     1
  9
$ANGBASE
 50
0.0
  9
$ANGDIR
 70
     0
  9
$PDMODE
 70
     0
  9
$PDSIZE
 40
0.0
  9
$PLINEWID
 40
0.0
  9
$SPLFRAME
 70
     0
  9
$SPLINETYPE
 70
     6
  9
$SPLINESEGS
 70
     8
  9
$HANDSEED
  5
81BE
  9
$SURFTAB1
 70
     6
  9
$SURFTAB2
 70
     6
  9
$SURFTYPE
 70
     6
  9
$SURFU
 70
     6
  9
$SURFV
 70
     6
  9
$UCSBASE
  2

  9
$UCSNAME
  2

  9
$UCSORG
 10
0.0
 20
0.0
 30
0.0
  9
$UCSXDIR
 10
1.0
 20
0.0
 30
0.0
  9
$UCSYDIR
 10
0.0
 20
1.0
 30
0.0
  9
$UCSORTHOREF
  2

  9
$UCSORTHOVIEW
 70
     0
  9
$UCSORGTOP
 10
0.0
 20
0.0
 30
0.0
  9
$UCSORGBOTTOM
 10
0.0
 20
0.0
 30
0.0
  9
$UCSORGLEFT
 10
0.0
 20
0.0
 30
0.0
  9
$UCSORGRIGHT
 10
0.0
 20
0.0
 30
0.0
  9
$UCSORGFRONT
 10
0.0
 20
0.0
 30
0.0
  9
$UCSORGBACK
 10
0.0
 20
0.0
 30
0.0
  9
$PUCSBASE
  2

  9
$PUCSNAME
  2

  9
$PUCSORG
 10
0.0
 20
0.0
 30
0.0
  9
$PUCSXDIR
 10
1.0
 20
0.0
 30
0.0
  9
$PUCSYDIR
 10
0.0
 20
1.0
 30
0.0
  9
$PUCSORTHOREF
  2

  9
$PUCSORTHOVIEW
 70
     0
  9
$PUCSORGTOP
 10
0.0
 20
0.0
 30
0.0
  9
$PUCSORGBOTTOM
 10
0.0
 20
0.0
 30
0.0
  9
$PUCSORGLEFT
 10
0.0
 20
0.0
 30
0.0
  9
$PUCSORGRIGHT
 10
0.0
 20
0.0
 30
0.0
  9
$PUCSORGFRONT
 10
0.0
 20
0.0
 30
0.0
  9
$PUCSORGBACK
 10
0.0
 20
0.0
 30
0.0
  9
$USERI1
 70
     0
  9
$USERI2
 70
     0
  9
$USERI3
 70
     0
  9
$USERI4
 70
     0
  9
$USERI5
 70
     0
  9
$USERR1
 40
0.0
  9
$USERR2
 40
0.0
  9
$USERR3
 40
0.0
  9
$USERR4
 40
0.0
  9
$USERR5
 40
0.0
  9
$WORLDVIEW
 70
     1
  9
$SHADEDGE
 70
     3
  9
$SHADEDIF
 70
    70
  9
$TILEMODE
 70
     1
  9
$MAXACTVP
 70
    64
  9
$PINSBASE
 10
0.0
 20
0.0
 30
0.0
  9
$PLIMCHECK
 70
     0
  9
$PEXTMIN
 10
1.000000000000000E+20
 20
1.000000000000000E+20
 30
1.000000000000000E+20
  9
$PEXTMAX
 10
-1.000000000000000E+20
 20
-1.000000000000000E+20
 30
-1.000000000000000E+20
  9
$PLIMMIN
 10
0.0
 20
0.0
  9
$PLIMMAX
 10
0.0
 20
0.0
  9
$UNITMODE
 70
     0
  9
$VISRETAIN
 70
     1
  9
$PLINEGEN
 70
     0
  9
$PSLTSCALE
 70
     1
  9
$TREEDEPTH
 70
  3020
  9
$CMLSTYLE
  2
Standard
  9
$CMLJUST
 70
     0
  9
$CMLSCALE
 40
1.0
  9
$PROXYGRAPHICS
 70
     1
  9
$MEASUREMENT
 70
     0
  9
$CELWEIGHT
370
    -1
  9
$ENDCAPS
280
     0
  9
$JOINSTYLE
280
     0
  9
$LWDISPLAY
290
     0
  9
$INSUNITS
 70
     1
  9
$HYPERLINKBASE
  1

  9
$STYLESHEET
  1

  9
$XEDIT
290
     1
  9
$CEPSNTYPE
380
     0
  9
$PSTYLEMODE
290
     0
  9
$FINGERPRINTGUID
  2
{FAEB1C30-E019-11D5-929B-00C0DF256EC4}
  9
$VERSIONGUID
  2
{FAEB1C32-E019-11D5-929B-00C0DF256EC4}
  9
$EXTNAMES
290
     1
  9
$PSVPSCALE
 40
0.0
  9
$OLESTARTUP
290
     0
  9
$SORTENTS
280
   127
  9
$INDEXCTL
280
     0
  9
$HIDETEXT
280
     1
  9
$XCLIPFRAME
280
     2
  9
$HALOGAP
280
     0
  9
$OBSCOLOR
 70
   257
  9
$OBSLTYPE
280
     0
  9
$INTERSECTIONDISPLAY
280
     0
  9
$INTERSECTIONCOLOR
 70
   257
  9
$DIMASSOC
280
     2
  9
$PROJECTNAME
  1

  9
$CAMERADISPLAY
290
     0
  9
$LENSLENGTH
 40
50.0
  9
$CAMERAHEIGHT
 40
0.0
  9
$STEPSPERSEC
 40
2.0
  9
$STEPSIZE
 40
6.0
  9
$3DDWFPREC
 40
2.0
  9
$PSOLWIDTH
 40
0.25
  9
$PSOLHEIGHT
 40
4.0
  9
$LOFTANG1
 40
1.570796326794897
  9
$LOFTANG2
 40
1.570796326794897
  9
$LOFTMAG1
 40
0.0
  9
$LOFTMAG2
 40
0.0
  9
$LOFTPARAM
 70
     7
  9
$LOFTNORMALS
280
     1
  9
$LATITUDE
 40
37.795
  9
$LONGITUDE
 40
-122.394
  9
$NORTHDIRECTION
 40
0.0
  9
$TIMEZONE
 70
 -8000
  9
$LIGHTGLYPHDISPLAY
280
     1
  9
$TILEMODELIGHTSYNCH
280
     1
  9
$SOLIDHIST
280
     0
  9
$SHOWHIST
280
     1
  9
$DWFFRAME
280
     2
  9
$DGNFRAME
280
     2
  9
$REALWORLDSCALE
290
     1
  9
$INTERFERECOLOR
 62
   256
  9
$CSHADOW
280
     0
  9
$SHADOWPLANELOCATION
 40
0.0
  0
ENDSEC
  0
SECTION
  2
CLASSES
  0
CLASS
  1
ACDBDICTIONARYWDFLT
  2
AcDbDictionaryWithDefault
  3
ObjectDBX Classes
 90
        0
 91
        7
280
     0
281
     0
  0
CLASS
  1
ACDBPLACEHOLDER
  2
AcDbPlaceHolder
  3
ObjectDBX Classes
 90
        0
 91
        1
280
     0
281
     0
  0
CLASS
  1
LAYOUT
  2
AcDbLayout
  3
ObjectDBX Classes
 90
        0
 91
        1
280
     0
281
     0
  0
CLASS
  1
SCALE
  2
AcDbScale
  3
ObjectDBX Classes
 90
     1153
 91
        7
280
     0
281
     0
  0
CLASS
  1
VISUALSTYLE
  2
AcDbVisualStyle
  3
ObjectDBX Classes
 90
     4095
 91
        7
280
     0
281
     0
  0
CLASS
  1
MATERIAL
  2
AcDbMaterial
  3
ObjectDBX Classes
 90
     1153
 91
        7
280
     0
281
     0
  0
CLASS
  1
TABLESTYLE
  2
AcDbTableStyle
  3
ObjectDBX Classes
 90
     4095
 91
        7
280
     0
281
     0
  0
CLASS
  1
MLEADERSTYLE
  2
AcDbMLeaderStyle
  3
ACDB_MLEADERSTYLE_CLASS
 90
     4095
 91
        7
280
     0
281
     0
  0
CLASS
  1
SUN
  2
AcDbSun
  3
SCENEOE
 90
     1153
 91
        7
280
     0
281
     0
  0
CLASS
  1
RASTERVARIABLES
  2
AcDbRasterVariables
  3
ISM
 90
        0
 91
        7
280
     0
281
     0
  0
CLASS
  1
DICTIONARYVAR
  2
AcDbDictionaryVar
  3
ObjectDBX Classes
 90
        0
 91
        7
280
     0
281
     0
  0
CLASS
  1
CELLSTYLEMAP
  2
AcDbCellStyleMap
  3
ObjectDBX Classes
 90
     1152
 91
        4
280
     0
281
     0
  0
CLASS
  1
ACDB_ALDIMOBJECTCONTEXTDATA_CLASS
  2
AcDbAlignedDimensionObjectContextData
  3
ObjectDBX Classes
 90
     1153
 91
        4
280
     0
281
     0
  0
ENDSEC
  0
SECTION
  2
TABLES
  0
TABLE
  2
VPORT
  5
6308
330
0
100
AcDbSymbolTable
 70
     1
  0
VPORT
  5
6329
330
6308
100
AcDbSymbolTableRecord
100
AcDbViewportTableRecord
  2
*Active
 70
     0
 10
0.0
 20
0.0
 11
1.0
 21
1.0
 12
804.8516732903075
 22
102.2684355616017
 13
0.0
 23
0.0
 14
1.0
 24
1.0
 15
5.0
 25
5.0
 16
0.0
 26
0.0
 36
1.0
 17
0.0
 27
0.0
 37
0.0
 40
525.9292071478658
 41
3.068235294117647
 42
50.0
 43
0.0
 44
0.0
 50
0.0
 51
0.0
 71
    16
 72
   100
 73
     1
 74
     3
 75
     0
 76
     0
 77
     0
 78
     0
281
     0
 65
     1
110
0.0
120
0.0
130
0.0
111
1.0
121
0.0
131
0.0
112
0.0
122
1.0
132
0.0
 79
     0
146
0.0
348
6393
 60
     3
 61
     5
292
     1
282
     1
141
0.0
142
0.0
 63
   256
361
63B0
  0
ENDTAB
  0
TABLE
  2
LTYPE
  5
6305
330
0
100
AcDbSymbolTable
 70
    25
  0
LTYPE
  5
6314
330
6305
100
AcDbSymbolTableRecord
100
AcDbLinetypeTableRecord
  2
ByBlock
 70
     0
  3

 72
    65
 73
     0
 40
0.0
  0
LTYPE
  5
6315
330
6305
100
AcDbSymbolTableRecord
100
AcDbLinetypeTableRecord
  2
ByLayer
 70
     0
  3

 72
    65
 73
     0
 40
0.0
  0
LTYPE
  5
6316
330
6305
100
AcDbSymbolTableRecord
100
AcDbLinetypeTableRecord
  2
Continuous
 70
     0
  3
Solid line
 72
    65
 73
     0
 40
0.0
  0
LTYPE
  5
6331
330
6305
100
AcDbSymbolTableRecord
100
AcDbLinetypeTableRecord
  2
CENTER
 70
     0
  3
Center ____ _ ____ _ ____ _ ____ _ ____ _ ____
 72
    65
 73
     4
 40
2.0
 49
1.25
 74
     0
 49
-0.25
 74
     0
 49
0.25
 74
     0
 49
-0.25
 74
     0
  0
LTYPE
  5
6332
330
6305
100
AcDbSymbolTableRecord
100
AcDbLinetypeTableRecord
  2
DASHDOT
 70
     0
  3
Dashdot __ . __ . __ . __ . __ . __ . __ . __
 72
    65
 73
     4
 40
1.0
 49
0.5
 74
     0
 49
-0.25
 74
     0
 49
0.0
 74
     0
 49
-0.25
 74
     0
  0
LTYPE
  5
6333
330
6305
100
AcDbSymbolTableRecord
100
AcDbLinetypeTableRecord
  2
DASHED
 70
     0
  3
Dashed __ __ __ __ __ __ __ __ __ __ __ __ __ _
 72
    65
 73
     2
 40
0.75
 49
0.5
 74
     0
 49
-0.25
 74
     0
  0
LTYPE
  5
6334
330
6305
100
AcDbSymbolTableRecord
100
AcDbLinetypeTableRecord
  2
HIDDEN
 70
     0
  3
Hidden __ __ __ __ __ __ __ __ __ __ __ __ __ __
 72
    65
 73
     2
 40
0.375
 49
0.25
 74
     0
 49
-0.125
 74
     0
  0
LTYPE
  5
6335
330
6305
100
AcDbSymbolTableRecord
100
AcDbLinetypeTableRecord
  2
HIDDEN2
 70
     0
  3
Hidden2 _ _ _ _ _ _ _ _ _ _ _ _ _ _ _ _ _ 
 72
    65
 73
     2
 40
0.1875
 49
0.125
 74
     0
 49
-0.0625
 74
     0
  0
LTYPE
  5
6336
330
6305
100
AcDbSymbolTableRecord
100
AcDbLinetypeTableRecord
  2
BORDER
 70
     0
  3
Border __ __ . __ __ . __ __ . __ __ . __ __ .
 72
    65
 73
     6
 40
1.75
 49
0.5
 74
     0
 49
-0.25
 74
     0
 49
0.5
 74
     0
 49
-0.25
 74
     0
 49
0.0
 74
     0
 49
-0.25
 74
     0
  0
LTYPE
  5
6337
330
6305
100
AcDbSymbolTableRecord
100
AcDbLinetypeTableRecord
  2
BORDER2
 70
     0
  3
Border2 __.__.__.__.__.__.__.__.__.__.__.
 72
    65
 73
     6
 40
0.875
 49
0.25
 74
     0
 49
-0.125
 74
     0
 49
0.25
 74
     0
 49
-0.125
 74
     0
 49
0.0
 74
     0
 49
-0.125
 74
     0
  0
LTYPE
  5
6338
330
6305
100
AcDbSymbolTableRecord
100
AcDbLinetypeTableRecord
  2
BORDERX2
 70
     0
  3
Borderx2  ____  ____  .  ____  ____  .  ___
 72
    65
 73
     6
 40
3.5
 49
1.0
 74
     0
 49
-0.5
 74
     0
 49
1.0
 74
     0
 49
-0.5
 74
     0
 49
0.0
 74
     0
 49
-0.5
 74
     0
  0
LTYPE
  5
6339
330
6305
100
AcDbSymbolTableRecord
100
AcDbLinetypeTableRecord
  2
CENTER2
 70
     0
  3
Center2  ___ _ ___ _ ___ _ ___ _ ___ _ ___
 72
    65
 73
     4
 40
1.125
 49
0.75
 74
     0
 49
-0.125
 74
     0
 49
0.125
 74
     0
 49
-0.125
 74
     0
  0
LTYPE
  5
633A
330
6305
100
AcDbSymbolTableRecord
100
AcDbLinetypeTableRecord
  2
CENTERX2
 70
     0
  3
Centerx2  ________  __  ________  __  _____
 72
    65
 73
     4
 40
4.0
 49
2.5
 74
     0
 49
-0.5
 74
     0
 49
0.5
 74
     0
 49
-0.5
 74
     0
  0
LTYPE
  5
633B
330
6305
100
AcDbSymbolTableRecord
100
AcDbLinetypeTableRecord
  2
DASHDOT2
 70
     0
  3
Dashdot2  _._._._._._._._._._._._._._._.
 72
    65
 73
     4
 40
0.5
 49
0.25
 74
     0
 49
-0.125
 74
     0
 49
0.0
 74
     0
 49
-0.125
 74
     0
  0
LTYPE
  5
633C
330
6305
100
AcDbSymbolTableRecord
100
AcDbLinetypeTableRecord
  2
DASHDOTX2
 70
     0
  3
Dashdotx2 ____  .  ____  .  ____  .  ___
 72
    65
 73
     4
 40
2.0
 49
1.0
 74
     0
 49
-0.5
 74
     0
 49
0.0
 74
     0
 49
-0.5
 74
     0
  0
LTYPE
  5
633D
330
6305
100
AcDbSymbolTableRecord
100
AcDbLinetypeTableRecord
  2
DASHED2
 70
     0
  3
Dashed2 _ _ _ _ _ _ _ _ _ _ _ _ _ _ _ _ _ 
 72
    65
 73
     2
 40
0.375
 49
0.25
 74
     0
 49
-0.125
 74
     0
  0
LTYPE
  5
633E
330
6305
100
AcDbSymbolTableRecord
100
AcDbLinetypeTableRecord
  2
DASHEDX2
 70
     0
  3
Dashedx2 ____  ____  ____  ____  ____  ___
 72
    65
 73
     2
 40
1.5
 49
1.0
 74
     0
 49
-0.5
 74
     0
  0
LTYPE
  5
633F
330
6305
100
AcDbSymbolTableRecord
100
AcDbLinetypeTableRecord
  2
DIVIDE
 70
     0
  3
Divide ____ . . ____ . . ____ . . ____ . . ____
 72
    65
 73
     6
 40
1.25
 49
0.5
 74
     0
 49
-0.25
 74
     0
 49
0.0
 74
     0
 49
-0.25
 74
     0
 49
0.0
 74
     0
 49
-0.25
 74
     0
  0
LTYPE
  5
6340
330
6305
100
AcDbSymbolTableRecord
100
AcDbLinetypeTableRecord
  2
DIVIDE2
 70
     0
  3
Divide2 __..__..__..__..__..__..__..__.._
 72
    65
 73
     6
 40
0.625
 49
0.25
 74
     0
 49
-0.125
 74
     0
 49
0.0
 74
     0
 49
-0.125
 74
     0
 49
0.0
 74
     0
 49
-0.125
 74
     0
  0
LTYPE
  5
6341
330
6305
100
AcDbSymbolTableRecord
100
AcDbLinetypeTableRecord
  2
DIVIDEX2
 70
     0
  3
Dividex2 ________  .  .  ________  .  .  _
 72
    65
 73
     6
 40
2.5
 49
1.0
 74
     0
 49
-0.5
 74
     0
 49
0.0
 74
     0
 49
-0.5
 74
     0
 49
0.0
 74
     0
 49
-0.5
 74
     0
  0
LTYPE
  5
6342
330
6305
100
AcDbSymbolTableRecord
100
AcDbLinetypeTableRecord
  2
DOT
 70
     0
  3
Dot . . . . . . . . . . . . . . . . . . . . . . . .
 72
    65
 73
     2
 40
0.25
 49
0.0
 74
     0
 49
-0.25
 74
     0
  0
LTYPE
  5
6343
330
6305
100
AcDbSymbolTableRecord
100
AcDbLinetypeTableRecord
  2
DOT2
 70
     0
  3
Dot2 ........................................
 72
    65
 73
     2
 40
0.125
 49
0.0
 74
     0
 49
-0.125
 74
     0
  0
LTYPE
  5
6344
330
6305
100
AcDbSymbolTableRecord
100
AcDbLinetypeTableRecord
  2
DOTX2
 70
     0
  3
Dotx2 .  .  .  .  .  .  .  .  .  .  .  .  .  .
 72
    65
 73
     2
 40
0.5
 49
0.0
 74
     0
 49
-0.5
 74
     0
  0
LTYPE
  5
6345
330
6305
100
AcDbSymbolTableRecord
100
AcDbLinetypeTableRecord
  2
HIDDENX2
 70
     0
  3
Hiddenx2 ____ ____ ____ ____ ____ ____ ____ 
 72
    65
 73
     2
 40
0.75
 49
0.5
 74
     0
 49
-0.25
 74
     0
  0
LTYPE
  5
6346
330
6305
100
AcDbSymbolTableRecord
100
AcDbLinetypeTableRecord
  2
PHANTOM
 70
     0
  3
Phantom ______  __  __  ______  __  __  ______ 
 72
    65
 73
     6
 40
2.5
 49
1.25
 74
     0
 49
-0.25
 74
     0
 49
0.25
 74
     0
 49
-0.25
 74
     0
 49
0.25
 74
     0
 49
-0.25
 74
     0
  0
LTYPE
  5
6347
330
6305
100
AcDbSymbolTableRecord
100
AcDbLinetypeTableRecord
  2
PHANTOM2
 70
     0
  3
Phantom2 ___ _ _ ___ _ _ ___ _ _ ___ _ _
 72
    65
 73
     6
 40
1.25
 49
0.625
 74
     0
 49
-0.125
 74
     0
 49
0.125
 74
     0
 49
-0.125
 74
     0
 49
0.125
 74
     0
 49
-0.125
 74
     0
  0
LTYPE
  5
6348
330
6305
100
AcDbSymbolTableRecord
100
AcDbLinetypeTableRecord
  2
PHANTOMX2
 70
     0
  3
Phantomx2 ____________    ____    ____   _
 72
    65
 73
     6
 40
5.0
 49
2.5
 74
     0
 49
-0.5
 74
     0
 49
0.5
 74
     0
 49
-0.5
 74
     0
 49
0.5
 74
     0
 49
-0.5
 74
     0
  0
ENDTAB
  0
TABLE
  2
LAYER
  5
6302
330
0
100
AcDbSymbolTable
 70
    10
  0
LAYER
  5
6310
330
6302
100
AcDbSymbolTableRecord
100
AcDbLayerTableRecord
  2
0
 70
     0
 62
     7
  6
Continuous
370
     0
390
630F
347
63AA
348
0
  0
LAYER
  5
21
330
6302
100
AcDbSymbolTableRecord
100
AcDbLayerTableRecord
  2
1
 70
     0
 62
     3
  6
Continuous
370
     0
390
630F
347
63AA
348
0
  0
LAYER
  5
22
330
6302
100
AcDbSymbolTableRecord
100
AcDbLayerTableRecord
  2
2
 70
     0
 62
     6
  6
Continuous
370
     0
390
630F
347
63AA
348
0
  0
LAYER
  5
23
330
6302
100
AcDbSymbolTableRecord
100
AcDbLayerTableRecord
  2
3
 70
     0
 62
     4
  6
HIDDEN
370
     0
390
630F
347
63AA
348
0
  0
LAYER
  5
24
330
6302
100
AcDbSymbolTableRecord
100
AcDbLayerTableRecord
  2
OSIE
 70
     0
 62
     2
  6
CENTER
370
     0
390
630F
347
63AA
348
0
  0
LAYER
  5
25
330
6302
100
AcDbSymbolTableRecord
100
AcDbLayerTableRecord
  2
WY
 70
     0
 62
     1
  6
Continuous
370
     0
390
630F
347
63AA
348
0
  0
LAYER
  5
26
330
6302
100
AcDbSymbolTableRecord
100
AcDbLayerTableRecord
  2
DEFPOINTS
 70
     0
 62
     7
  6
Continuous
290
     0
370
     0
390
630F
347
63AA
348
0
  0
LAYER
  5
464
330
6302
100
AcDbSymbolTableRecord
100
AcDbLayerTableRecord
  2
WYMIARY
 70
     0
 62
     1
  6
Continuous
370
     0
390
630F
347
63AA
348
0
  0
LAYER
  5
663B
330
6302
100
AcDbSymbolTableRecord
100
AcDbLayerTableRecord
  2
DEFAULT_1
 70
     0
 62
     7
  6
CENTER
370
    -3
390
630F
347
63AA
348
0
  0
LAYER
  5
7FA8
330
6302
100
AcDbSymbolTableRecord
100
AcDbLayerTableRecord
  2
DEFAULT_2
 70
     0
 62
     8
  6
HIDDEN
370
    -3
390
630F
347
63AA
348
0
  0
ENDTAB
  0
TABLE
  2
STYLE
  5
6303
330
0
100
AcDbSymbolTable
 70
     4
  0
STYLE
  5
6311
330
6303
100
AcDbSymbolTableRecord
100
AcDbTextStyleTableRecord
  2
STANDARD
 70
     0
 40
0.0
 41
1.0
 50
0.0
 71
     0
 42
0.2
  3
txt.shx
  4

1001
ACAD
1000
txt.shx
1071
        0
  0
STYLE
  5
1C
330
6303
100
AcDbSymbolTableRecord
100
AcDbTextStyleTableRecord
  2
ITALIC
 70
     0
 40
0.0
 41
1.0
 50
0.0
 71
     0
 42
0.2
  3
simplex.shx
  4

1001
ACAD
1000
simplex.shx
1071
        0
  0
STYLE
  5
6446
330
6303
100
AcDbSymbolTableRecord
100
AcDbTextStyleTableRecord
  2
CONVERTER_11
 70
     0
 40
0.0
 41
0.9
 50
0.0
 71
     0
 42
0.2
  3
txt.shx
  4

  0
STYLE
  5
7FB3
330
6303
100
AcDbSymbolTableRecord
100
AcDbTextStyleTableRecord
  2
TEXTSTYLE_1
 70
     0
 40
0.0
 41
0.8
 50
0.0
 71
     0
 42
0.2
  3
gdt
  4

  0
ENDTAB
  0
TABLE
  2
VIEW
  5
6306
330
0
100
AcDbSymbolTable
 70
     0
  0
ENDTAB
  0
TABLE
  2
UCS
  5
6307
330
0
100
AcDbSymbolTable
 70
     0
  0
ENDTAB
  0
TABLE
  2
APPID
  5
6309
330
0
100
AcDbSymbolTable
 70
     7
  0
APPID
  5
6312
330
6309
100
AcDbSymbolTableRecord
100
AcDbRegAppTableRecord
  2
ACAD
 70
     0
  0
APPID
  5
632A
330
6309
100
AcDbSymbolTableRecord
100
AcDbRegAppTableRecord
  2
VD_INVISIBLE_NOT_FOR_READ
 70
     0
  0
APPID
  5
632B
330
6309
100
AcDbSymbolTableRecord
100
AcDbRegAppTableRecord
  2
VD_TEMPHATCH
 70
     0
  0
APPID
  5
632C
330
6309
100
AcDbSymbolTableRecord
100
AcDbRegAppTableRecord
  2
VDEXTRAPARAM
 70
     0
  0
APPID
  5
632D
330
6309
100
AcDbSymbolTableRecord
100
AcDbRegAppTableRecord
  2
PE_URL
 70
     0
  0
APPID
  5
632E
330
6309
100
AcDbSymbolTableRecord
100
AcDbRegAppTableRecord
  2
VD_UNKNOWN
 70
     0
  0
APPID
  5
6622
330
6309
100
AcDbSymbolTableRecord
100
AcDbRegAppTableRecord
  2
AcadAnnotative
 70
     0
  0
ENDTAB
  0
TABLE
  2
DIMSTYLE
  5
630A
330
0
100
AcDbSymbolTable
 70
     7
100
AcDbDimStyleTable
  0
DIMSTYLE
105
6327
330
630A
100
AcDbSymbolTableRecord
100
AcDbDimStyleTableRecord
  2
STANDARD
 70
     0
 41
2.0
 42
1.5
 44
1.5
 47
0.1
 73
     0
 74
     0
 77
     1
140
2.0
147
1.5
172
     1
174
     1
271
     2
178
   256
271
     2
288
     1
340
6311
342
6235
  0
DIMSTYLE
105
6445
102
{ACAD_REACTORS
330
64B4
102
}
330
630A
100
AcDbSymbolTableRecord
100
AcDbDimStyleTableRecord
  2
ME10_DIM_10
 70
     0
 41
1.75
 42
0.0
 44
1.0
 73
     0
 74
     0
 77
     1
 78
     8
140
1.75
147
1.0
172
     1
173
     1
174
     1
175
     1
176
     2
177
     2
178
     3
340
6446
  0
DIMSTYLE
105
6447
102
{ACAD_REACTORS
330
64F0
102
}
330
630A
100
AcDbSymbolTableRecord
100
AcDbDimStyleTableRecord
  2
ME10_DIM_11
 70
     0
 41
1.75
 42
0.0
 44
1.0
 73
     0
 74
     0
 77
     1
 78
     8
140
1.75
147
1.0
172
     1
173
     1
174
     1
175
     1
176
     2
177
     2
178
     3
340
6446
  0
DIMSTYLE
105
6448
102
{ACAD_REACTORS
330
64FA
102
}
330
630A
100
AcDbSymbolTableRecord
100
AcDbDimStyleTableRecord
  2
ME10_DIM_12
 70
     0
 41
1.75
 42
0.0
 44
1.0
 73
     0
 74
     0
 77
     1
 78
     8
140
1.75
147
1.0
172
     1
173
     1
174
     1
175
     1
176
     2
177
     2
178
     3
340
6446
  0
DIMSTYLE
105
6644
102
{ACAD_REACTORS
330
6664
330
666F
330
66A6
330
66B1
330
66BD
330
70C5
330
70D0
330
70FC
330
7108
330
7113
330
713A
330
7FD2
330
7FE8
330
7FFE
330
80C9
330
80CB
330
80CD
102
}
330
630A
100
AcDbSymbolTableRecord
100
AcDbDimStyleTableRecord
  2
DIMSTYLE_1
 70
     0
 41
3.0
 47
0.1
 48
0.1
 73
     0
 74
     0
 77
     1
 78
     8
140
3.0
271
     2
178
     5
271
     2
272
     2
284
     8
340
6311
341
6640
342
6640
343
6640
344
6640
  0
DIMSTYLE
105
6645
102
{ACAD_REACTORS
330
667A
330
6685
330
6690
330
669B
330
70DB
330
70E6
330
70F1
330
7FDD
330
80CA
102
}
330
630A
100
AcDbSymbolTableRecord
100
AcDbDimStyleTableRecord
  2
DIMSTYLE_2
 70
     0
 41
3.0
 47
0.15
 48
0.15
 73
     0
 74
     0
 77
     1
 78
     8
140
3.0
271
     2
178
     5
271
     2
272
     2
284
     8
340
6311
341
6640
342
6640
343
6640
344
6640
  0
DIMSTYLE
105
70A6
102
{ACAD_REACTORS
330
7120
330
712D
330
7FF3
330
80CC
102
}
330
630A
100
AcDbSymbolTableRecord
100
AcDbDimStyleTableRecord
  2
DIMSTYLE_3
 70
     0
 41
3.0
 47
0.05
 48
0.05
 73
     0
 74
     0
 77
     1
 78
     8
140
3.0
271
     2
178
     5
271
     2
272
     2
284
     8
340
6311
341
6640
342
6640
343
6640
344
6640
  0
ENDTAB
  0
TABLE
  2
BLOCK_RECORD
  5
6301
330
0
100
AcDbSymbolTable
 70
    80
  0
BLOCK_RECORD
  5
631F
330
6301
100
AcDbSymbolTableRecord
100
AcDbBlockTableRecord
  2
*Model_Space
340
6322
 70
     0
280
     1
281
     0
  0
BLOCK_RECORD
  5
631B
330
6301
100
AcDbSymbolTableRecord
100
AcDbBlockTableRecord
  2
*Paper_Space
340
631E
 70
     0
280
     1
281
     0
  0
BLOCK_RECORD
  5
6323
330
6301
100
AcDbSymbolTableRecord
100
AcDbBlockTableRecord
  2
*Paper_Space0
340
6326
 70
     0
280
     1
281
     0
  0
BLOCK_RECORD
  5
6235
330
6301
100
AcDbSymbolTableRecord
100
AcDbBlockTableRecord
  2
VDDIM_DEFAULT
340
0
102
{BLKREFS
331
6354
331
6355
331
6361
331
6362
331
65A0
331
65A1
331
65CA
331
65CB
331
65DA
331
65DB
331
662E
331
662F
102
}
 70
     0
280
     1
281
     0
  0
BLOCK_RECORD
  5
6237
330
6301
100
AcDbSymbolTableRecord
100
AcDbBlockTableRecord
  2
VDDIM_NONE
340
0
 70
     0
280
     1
281
     0
  0
BLOCK_RECORD
  5
634E
330
6301
100
AcDbSymbolTableRecord
100
AcDbBlockTableRecord
  2
*D3
340
0
 70
     0
280
     1
281
     0
  0
BLOCK_RECORD
  5
635B
330
6301
100
AcDbSymbolTableRecord
100
AcDbBlockTableRecord
  2
*D4
340
0
 70
     0
280
     1
281
     0
  0
BLOCK_RECORD
  5
6468
330
6301
100
AcDbSymbolTableRecord
100
AcDbBlockTableRecord
  2
Rckans1
340
0
 70
     0
280
     1
281
     0
  0
BLOCK_RECORD
  5
646B
330
6301
100
AcDbSymbolTableRecord
100
AcDbBlockTableRecord
  2
2987956_REL_MR_24AC_21_21_MS-select__3
340
0
102
{BLKREFS
331
646A
102
}
 70
     0
280
     1
281
     0
  0
BLOCK_RECORD
  5
6495
330
6301
100
AcDbSymbolTableRecord
100
AcDbBlockTableRecord
  2
SA_Links1
340
0
 70
     0
280
     1
281
     0
  0
BLOCK_RECORD
  5
6498
330
6301
100
AcDbSymbolTableRecord
100
AcDbBlockTableRecord
  2
2987956_REL_MR_24AC_21_21_MS-select__4
340
0
102
{BLKREFS
331
6497
102
}
 70
     0
280
     1
281
     0
  0
BLOCK_RECORD
  5
64B5
330
6301
100
AcDbSymbolTableRecord
100
AcDbBlockTableRecord
  2
*D9
340
0
 70
     0
280
     1
281
     0
  0
BLOCK_RECORD
  5
64C0
330
6301
100
AcDbSymbolTableRecord
100
AcDbBlockTableRecord
  2
SA_Rechts1
340
0
 70
     0
280
     1
281
     0
  0
BLOCK_RECORD
  5
64C3
330
6301
100
AcDbSymbolTableRecord
100
AcDbBlockTableRecord
  2
2987956_REL_MR_24AC_21_21_MS-select__5
340
0
102
{BLKREFS
331
64C2
102
}
 70
     0
280
     1
281
     0
  0
BLOCK_RECORD
  5
64E1
330
6301
100
AcDbSymbolTableRecord
100
AcDbBlockTableRecord
  2
Vordans1
340
0
 70
     0
280
     1
281
     0
  0
BLOCK_RECORD
  5
64E4
330
6301
100
AcDbSymbolTableRecord
100
AcDbBlockTableRecord
  2
2987956_REL_MR_24AC_21_21_MS-select__6
340
0
102
{BLKREFS
331
64E3
102
}
 70
     0
280
     1
281
     0
  0
BLOCK_RECORD
  5
64F1
330
6301
100
AcDbSymbolTableRecord
100
AcDbBlockTableRecord
  2
*D14
340
0
 70
     0
280
     1
281
     0
  0
BLOCK_RECORD
  5
64FB
330
6301
100
AcDbSymbolTableRecord
100
AcDbBlockTableRecord
  2
*D15
340
0
 70
     0
280
     1
281
     0
  0
BLOCK_RECORD
  5
654C
330
6301
100
AcDbSymbolTableRecord
100
AcDbBlockTableRecord
  2
*D16
340
0
 70
     0
280
     1
281
     0
  0
BLOCK_RECORD
  5
6556
330
6301
100
AcDbSymbolTableRecord
100
AcDbBlockTableRecord
  2
*D17
340
0
 70
     0
280
     1
281
     0
  0
BLOCK_RECORD
  5
6568
330
6301
100
AcDbSymbolTableRecord
100
AcDbBlockTableRecord
  2
*D18
340
0
 70
     0
280
     1
281
     0
  0
BLOCK_RECORD
  5
6574
330
6301
100
AcDbSymbolTableRecord
100
AcDbBlockTableRecord
  2
*D19
340
0
 70
     0
280
     1
281
     0
  0
BLOCK_RECORD
  5
658D
330
6301
100
AcDbSymbolTableRecord
100
AcDbBlockTableRecord
  2
*D20
340
0
 70
     0
280
     1
281
     0
  0
BLOCK_RECORD
  5
6599
330
6301
100
AcDbSymbolTableRecord
100
AcDbBlockTableRecord
  2
*D21
340
0
 70
     0
280
     1
281
     0
  0
BLOCK_RECORD
  5
65AB
330
6301
100
AcDbSymbolTableRecord
100
AcDbBlockTableRecord
  2
*D22
340
0
 70
     0
280
     1
281
     0
  0
BLOCK_RECORD
  5
65C1
330
6301
100
AcDbSymbolTableRecord
100
AcDbBlockTableRecord
  2
*D23
340
0
 70
     0
280
     1
281
     0
  0
BLOCK_RECORD
  5
65D1
330
6301
100
AcDbSymbolTableRecord
100
AcDbBlockTableRecord
  2
*D24
340
0
 70
     0
280
     1
281
     0
  0
BLOCK_RECORD
  5
6627
330
6301
100
AcDbSymbolTableRecord
100
AcDbBlockTableRecord
  2
*D25
340
0
 70
     0
280
     1
281
     0
  0
BLOCK_RECORD
  5
6640
330
6301
100
AcDbSymbolTableRecord
100
AcDbBlockTableRecord
  2
_FILLED
340
0
102
{BLKREFS
331
0
331
0
331
0
331
0
331
0
331
0
331
0
331
0
331
0
331
0
331
0
331
0
331
0
331
0
331
0
331
0
331
66C5
331
0
331
666A
331
666B
331
6675
331
6676
331
6680
331
6681
331
668B
331
668C
331
6696
331
6697
331
66A1
331
66A2
331
66AC
331
66AD
331
66B8
331
66B9
331
66C4
331
7029
331
702A
331
7035
331
7036
331
7041
331
7042
331
704D
331
704E
331
7059
331
705A
331
7065
331
7066
331
7071
331
7072
331
707E
331
707F
331
708B
331
708C
331
70CB
331
70CC
331
70D6
331
70D7
331
70E1
331
70E2
331
70EC
331
70ED
331
70F7
331
70F8
331
7103
331
7104
331
710E
331
710F
331
7119
331
711A
331
7128
331
7129
331
7135
331
7136
331
7141
331
7142
331
7F14
331
7F15
331
7F20
331
7F21
331
7F2C
331
7F2D
331
7F38
331
7F39
331
7F44
331
7F45
331
7F51
331
7F52
331
7F5D
331
7F5E
331
7F69
331
7F6A
331
7F77
331
7F78
331
7F85
331
7F86
331
7F92
331
7F93
331
0
331
0
331
7FD8
331
7FD9
331
7FE3
331
7FE4
331
7FEE
331
7FEF
331
7FF8
331
8004
331
8005
331
8189
331
818A
331
8195
331
8196
331
81A1
331
81A2
331
81AC
331
81B5
331
81B6
102
}
 70
     0
280
     1
281
     0
  0
BLOCK_RECORD
  5
6665
330
6301
100
AcDbSymbolTableRecord
100
AcDbBlockTableRecord
  2
*D28
340
0
 70
     0
280
     1
281
     0
  0
BLOCK_RECORD
  5
6670
330
6301
100
AcDbSymbolTableRecord
100
AcDbBlockTableRecord
  2
*D29
340
0
 70
     0
280
     1
281
     0
  0
BLOCK_RECORD
  5
667B
330
6301
100
AcDbSymbolTableRecord
100
AcDbBlockTableRecord
  2
*D30
340
0
 70
     0
280
     1
281
     0
  0
BLOCK_RECORD
  5
6686
330
6301
100
AcDbSymbolTableRecord
100
AcDbBlockTableRecord
  2
*D31
340
0
 70
     0
280
     1
281
     0
  0
BLOCK_RECORD
  5
6691
330
6301
100
AcDbSymbolTableRecord
100
AcDbBlockTableRecord
  2
*D32
340
0
 70
     0
280
     1
281
     0
  0
BLOCK_RECORD
  5
669C
330
6301
100
AcDbSymbolTableRecord
100
AcDbBlockTableRecord
  2
*D33
340
0
 70
     0
280
     1
281
     0
  0
BLOCK_RECORD
  5
66A7
330
6301
100
AcDbSymbolTableRecord
100
AcDbBlockTableRecord
  2
*D34
340
0
 70
     0
280
     1
281
     0
  0
BLOCK_RECORD
  5
66B2
330
6301
100
AcDbSymbolTableRecord
100
AcDbBlockTableRecord
  2
*D35
340
0
 70
     0
280
     1
281
     0
  0
BLOCK_RECORD
  5
66BE
330
6301
100
AcDbSymbolTableRecord
100
AcDbBlockTableRecord
  2
*D36
340
0
 70
     0
280
     1
281
     0
  0
BLOCK_RECORD
  5
7023
330
6301
100
AcDbSymbolTableRecord
100
AcDbBlockTableRecord
  2
*D37
340
0
 70
     0
280
     1
281
     0
  0
BLOCK_RECORD
  5
702F
330
6301
100
AcDbSymbolTableRecord
100
AcDbBlockTableRecord
  2
*D38
340
0
 70
     0
280
     1
281
     0
  0
BLOCK_RECORD
  5
703B
330
6301
100
AcDbSymbolTableRecord
100
AcDbBlockTableRecord
  2
*D39
340
0
 70
     0
280
     1
281
     0
  0
BLOCK_RECORD
  5
7047
330
6301
100
AcDbSymbolTableRecord
100
AcDbBlockTableRecord
  2
*D40
340
0
 70
     0
280
     1
281
     0
  0
BLOCK_RECORD
  5
7053
330
6301
100
AcDbSymbolTableRecord
100
AcDbBlockTableRecord
  2
*D41
340
0
 70
     0
280
     1
281
     0
  0
BLOCK_RECORD
  5
705F
330
6301
100
AcDbSymbolTableRecord
100
AcDbBlockTableRecord
  2
*D42
340
0
 70
     0
280
     1
281
     0
  0
BLOCK_RECORD
  5
706B
330
6301
100
AcDbSymbolTableRecord
100
AcDbBlockTableRecord
  2
*D43
340
0
 70
     0
280
     1
281
     0
  0
BLOCK_RECORD
  5
7077
330
6301
100
AcDbSymbolTableRecord
100
AcDbBlockTableRecord
  2
*D44
340
0
 70
     0
280
     1
281
     0
  0
BLOCK_RECORD
  5
7084
330
6301
100
AcDbSymbolTableRecord
100
AcDbBlockTableRecord
  2
*D45
340
0
 70
     0
280
     1
281
     0
  0
BLOCK_RECORD
  5
70C6
330
6301
100
AcDbSymbolTableRecord
100
AcDbBlockTableRecord
  2
*D47
340
0
 70
     0
280
     1
281
     0
  0
BLOCK_RECORD
  5
70D1
330
6301
100
AcDbSymbolTableRecord
100
AcDbBlockTableRecord
  2
*D48
340
0
 70
     0
280
     1
281
     0
  0
BLOCK_RECORD
  5
70DC
330
6301
100
AcDbSymbolTableRecord
100
AcDbBlockTableRecord
  2
*D49
340
0
 70
     0
280
     1
281
     0
  0
BLOCK_RECORD
  5
70E7
330
6301
100
AcDbSymbolTableRecord
100
AcDbBlockTableRecord
  2
*D50
340
0
 70
     0
280
     1
281
     0
  0
BLOCK_RECORD
  5
70F2
330
6301
100
AcDbSymbolTableRecord
100
AcDbBlockTableRecord
  2
*D51
340
0
 70
     0
280
     1
281
     0
  0
BLOCK_RECORD
  5
70FD
330
6301
100
AcDbSymbolTableRecord
100
AcDbBlockTableRecord
  2
*D52
340
0
 70
     0
280
     1
281
     0
  0
BLOCK_RECORD
  5
7109
330
6301
100
AcDbSymbolTableRecord
100
AcDbBlockTableRecord
  2
*D53
340
0
 70
     0
280
     1
281
     0
  0
BLOCK_RECORD
  5
7114
330
6301
100
AcDbSymbolTableRecord
100
AcDbBlockTableRecord
  2
*D54
340
0
 70
     0
280
     1
281
     0
  0
BLOCK_RECORD
  5
7121
330
6301
100
AcDbSymbolTableRecord
100
AcDbBlockTableRecord
  2
*D55
340
0
 70
     0
280
     1
281
     0
  0
BLOCK_RECORD
  5
712E
330
6301
100
AcDbSymbolTableRecord
100
AcDbBlockTableRecord
  2
*D56
340
0
 70
     0
280
     1
281
     0
  0
BLOCK_RECORD
  5
713B
330
6301
100
AcDbSymbolTableRecord
100
AcDbBlockTableRecord
  2
*D57
340
0
 70
     0
280
     1
281
     0
  0
BLOCK_RECORD
  5
7F0E
330
6301
100
AcDbSymbolTableRecord
100
AcDbBlockTableRecord
  2
*D58
340
0
 70
     0
280
     1
281
     0
  0
BLOCK_RECORD
  5
7F1A
330
6301
100
AcDbSymbolTableRecord
100
AcDbBlockTableRecord
  2
*D59
340
0
 70
     0
280
     1
281
     0
  0
BLOCK_RECORD
  5
7F26
330
6301
100
AcDbSymbolTableRecord
100
AcDbBlockTableRecord
  2
*D60
340
0
 70
     0
280
     1
281
     0
  0
BLOCK_RECORD
  5
7F32
330
6301
100
AcDbSymbolTableRecord
100
AcDbBlockTableRecord
  2
*D61
340
0
 70
     0
280
     1
281
     0
  0
BLOCK_RECORD
  5
7F3E
330
6301
100
AcDbSymbolTableRecord
100
AcDbBlockTableRecord
  2
*D62
340
0
 70
     0
280
     1
281
     0
  0
BLOCK_RECORD
  5
7F4A
330
6301
100
AcDbSymbolTableRecord
100
AcDbBlockTableRecord
  2
*D63
340
0
 70
     0
280
     1
281
     0
  0
BLOCK_RECORD
  5
7F57
330
6301
100
AcDbSymbolTableRecord
100
AcDbBlockTableRecord
  2
*D64
340
0
 70
     0
280
     1
281
     0
  0
BLOCK_RECORD
  5
7F63
330
6301
100
AcDbSymbolTableRecord
100
AcDbBlockTableRecord
  2
*D65
340
0
 70
     0
280
     1
281
     0
  0
BLOCK_RECORD
  5
7F6F
330
6301
100
AcDbSymbolTableRecord
100
AcDbBlockTableRecord
  2
*D66
340
0
 70
     0
280
     1
281
     0
  0
BLOCK_RECORD
  5
7F7D
330
6301
100
AcDbSymbolTableRecord
100
AcDbBlockTableRecord
  2
*D67
340
0
 70
     0
280
     1
281
     0
  0
BLOCK_RECORD
  5
7F8B
330
6301
100
AcDbSymbolTableRecord
100
AcDbBlockTableRecord
  2
*D68
340
0
 70
     0
280
     1
281
     0
  0
BLOCK_RECORD
  5
7FD3
330
6301
100
AcDbSymbolTableRecord
100
AcDbBlockTableRecord
  2
*D70
340
0
 70
     0
280
     1
281
     0
  0
BLOCK_RECORD
  5
7FDE
330
6301
100
AcDbSymbolTableRecord
100
AcDbBlockTableRecord
  2
*D71
340
0
 70
     0
280
     1
281
     0
  0
BLOCK_RECORD
  5
7FE9
330
6301
100
AcDbSymbolTableRecord
100
AcDbBlockTableRecord
  2
*D72
340
0
 70
     0
280
     1
281
     0
  0
BLOCK_RECORD
  5
7FF4
330
6301
100
AcDbSymbolTableRecord
100
AcDbBlockTableRecord
  2
*D73
340
0
 70
     0
280
     1
281
     0
  0
BLOCK_RECORD
  5
7FFF
330
6301
100
AcDbSymbolTableRecord
100
AcDbBlockTableRecord
  2
*D74
340
0
 70
     0
280
     1
281
     0
  0
BLOCK_RECORD
  5
8183
330
6301
100
AcDbSymbolTableRecord
100
AcDbBlockTableRecord
  2
*D75
340
0
 70
     0
280
     1
281
     0
  0
BLOCK_RECORD
  5
818F
330
6301
100
AcDbSymbolTableRecord
100
AcDbBlockTableRecord
  2
*D76
340
0
 70
     0
280
     1
281
     0
  0
BLOCK_RECORD
  5
819B
330
6301
100
AcDbSymbolTableRecord
100
AcDbBlockTableRecord
  2
*D77
340
0
 70
     0
280
     1
281
     0
  0
BLOCK_RECORD
  5
81A7
330
6301
100
AcDbSymbolTableRecord
100
AcDbBlockTableRecord
  2
*D78
340
0
 70
     0
280
     1
281
     0
  0
BLOCK_RECORD
  5
81AF
330
6301
100
AcDbSymbolTableRecord
100
AcDbBlockTableRecord
  2
*D79
340
0
 70
     0
280
     1
281
     0
  0
ENDTAB
  0
ENDSEC
  0
SECTION
  2
BLOCKS
  0
BLOCK
  5
6320
330
631F
100
AcDbEntity
  8
0
100
AcDbBlockBegin
  2
*Model_Space
 70
     0
 10
0.0
 20
0.0
 30
0.0
  3
*Model_Space
  1
*Model_Space
  0
ENDBLK
  5
6321
330
631F
100
AcDbEntity
  8
0
100
AcDbBlockEnd
  0
BLOCK
  5
631C
330
631B
100
AcDbEntity
 67
     1
  8
0
100
AcDbBlockBegin
  2
*Paper_Space
 70
     0
 10
0.0
 20
0.0
 30
0.0
  3
*Paper_Space
  1
*Paper_Space
  0
ENDBLK
  5
631D
330
631B
100
AcDbEntity
 67
     1
  8
0
100
AcDbBlockEnd
  0
BLOCK
  5
6324
330
6323
100
AcDbEntity
  8
0
100
AcDbBlockBegin
  2
*Paper_Space0
 70
     0
 10
0.0
 20
0.0
 30
0.0
  3
*Paper_Space0
  1
*Paper_Space0
  0
VIEWPORT
  5
636A
330
6323
100
AcDbEntity
  8
0
 60
     1
100
AcDbViewport
 10
0.0
 20
0.0
 30
0.0
 40
10.0
 41
10.0
 69
     1
 12
0.0
 22
0.0
 13
0.0
 23
0.0
 14
1.0
 24
1.0
 15
0.0
 25
0.0
 16
0.0
 26
0.0
 36
1.0
 17
0.0
 27
0.0
 37
0.0
 42
0.0
 43
0.0
 44
0.0
 45
10.0
 50
0.0
 51
0.0000000000007958
 72
   100
 90
   163872
  1

281
     0
 71
     0
 74
     0
110
0.0
120
0.0
130
0.0
111
1.0
121
0.0
131
0.0
112
0.0
122
1.0
132
0.0
 79
     0
146
0.0
170
     0
 61
     5
348
6393
292
     1
282
     1
141
0.0
142
0.0
 63
   256
1001
VD_INVISIBLE_NOT_FOR_READ
1000
VD_INVISIBLE_NOT_FOR_READ
  0
VIEWPORT
  5
636B
330
6323
100
AcDbEntity
  8
0
 60
     1
100
AcDbViewport
 10
0.0
 20
0.0
 30
0.0
 40
10.0
 41
10.0
 69
     2
 12
0.0
 22
0.0
 13
0.0
 23
0.0
 14
1.0
 24
1.0
 15
0.0
 25
0.0
 16
0.0
 26
0.0
 36
1.0
 17
0.0
 27
0.0
 37
0.0
 42
0.0
 43
0.0
 44
0.0
 45
10.0
 50
0.0
 51
0.0000000000007958
 72
   100
 90
   163872
  1

281
     0
 71
     0
 74
     0
110
0.0
120
0.0
130
0.0
111
1.0
121
0.0
131
0.0
112
0.0
122
1.0
132
0.0
 79
     0
146
0.0
170
     0
 61
     5
348
6393
292
     1
282
     1
141
0.0
142
0.0
 63
   256
1001
VD_INVISIBLE_NOT_FOR_READ
1000
VD_INVISIBLE_NOT_FOR_READ
  0
ENDBLK
  5
6325
330
6323
100
AcDbEntity
  8
0
100
AcDbBlockEnd
  0
BLOCK
  5
6349
330
6235
100
AcDbEntity
  8
0
100
AcDbBlockBegin
  2
VDDIM_DEFAULT
 70
     0
 10
0.0
 20
0.0
 30
0.0
  3
VDDIM_DEFAULT
  1
VDDIM_DEFAULT
  0
LWPOLYLINE
  5
6236
330
6235
100
AcDbEntity
  8
0
  6
Continuous
 62
     0
100
AcDbPolyline
 90
        4
 70
     0
 43
0.0
 10
0.0
 20
0.0
 10
-1.0
 20
-0.1665
 10
-1.0
 20
0.1665
 10
0.0
 20
0.0
1001
VDEXTRAPARAM
1071
        1
1071
        0
1071
        0
1040
1.0
1000

1000

1040
0.0
1040
0.0
  0
HATCH
  5
634D
330
6235
100
AcDbEntity
  8
0
  6
Continuous
 62
     0
100
AcDbHatch
 10
0.0
 20
0.0
 30
0.0
210
0.0
220
0.0
230
1.0
  2
SOLID
 70
     1
 71
     0
 91
        1
 92
        2
 72
     0
 73
     1
 93
        3
 10
0.0
 20
0.0
 10
-1.0
 20
-0.1665
 10
-1.0
 20
0.1665
 97
        0
 75
     0
 76
     1
 98
        1
 10
0.0
 20
0.0
1001
VDEXTRAPARAM
1071
        1
1071
        0
1071
        0
1040
1.0
1000

1000

1040
0.0
1040
0.0
1001
VD_TEMPHATCH
1000
VD_TEMPHATCH
  0
ENDBLK
  5
634A
330
6235
100
AcDbEntity
  8
0
100
AcDbBlockEnd
  0
BLOCK
  5
634B
330
6237
100
AcDbEntity
  8
0
100
AcDbBlockBegin
  2
VDDIM_NONE
 70
     0
 10
0.0
 20
0.0
 30
0.0
  3
VDDIM_NONE
  1
VDDIM_NONE
  0
ENDBLK
  5
634C
330
6237
100
AcDbEntity
  8
0
100
AcDbBlockEnd
  0
BLOCK
  5
6359
330
634E
100
AcDbEntity
  8
0
100
AcDbBlockBegin
  2
*D3
 70
     1
 10
0.0
 20
0.0
 30
0.0
  3
*D3
  1
*D3
  0
LINE
  5
634F
330
634E
100
AcDbEntity
  8
WYMIARY
 62
     0
370
    -2
100
AcDbLine
 10
577.7786460129181
 20
235.4332173870351
 30
0.0
 11
577.7786460129181
 21
240.4449751142432
 31
0.0
  0
LINE
  5
6350
330
634E
100
AcDbEntity
  8
WYMIARY
 62
     0
370
    -2
100
AcDbLine
 10
606.8590603380529
 20
235.8679659531532
 30
0.0
 11
606.8590603380529
 21
240.4449751142432
 31
0.0
  0
LINE
  5
6351
330
634E
100
AcDbEntity
  8
WYMIARY
 62
     0
370
    -2
100
AcDbLine
 10
577.7786460129181
 20
238.9449751142432
 30
0.0
 11
606.8590603380529
 21
238.9449751142432
 31
0.0
  0
LINE
  5
6352
330
634E
100
AcDbEntity
  8
WYMIARY
 62
     0
370
    -2
100
AcDbLine
 10
575.7786460129181
 20
238.9449751142432
 30
0.0
 11
573.7786460129181
 21
238.9449751142432
 31
0.0
  0
LINE
  5
6353
330
634E
100
AcDbEntity
  8
WYMIARY
 62
     0
370
    -2
100
AcDbLine
 10
608.8590603380529
 20
238.9449751142432
 30
0.0
 11
610.8590603380529
 21
238.9449751142432
 31
0.0
  0
INSERT
  5
6354
330
634E
100
AcDbEntity
  8
WYMIARY
 62
     0
370
    -2
100
AcDbBlockReference
  2
VDDIM_DEFAULT
 10
577.7786460129181
 20
238.9449751142432
 30
0.0
 41
2.0
 42
2.0
 43
2.0
  0
INSERT
  5
6355
330
634E
100
AcDbEntity
  8
WYMIARY
 62
     0
370
    -2
100
AcDbBlockReference
  2
VDDIM_DEFAULT
 10
606.8590603380529
 20
238.9449751142432
 30
0.0
 41
2.0
 42
2.0
 43
2.0
 50
180.0
  0
MTEXT
  5
6356
330
634E
100
AcDbEntity
  8
WYMIARY
100
AcDbMText
 10
591.6654563047496
 20
241.4449751142432
 30
0.0
 40
2.0
 41
0.0
 46
0.0
 71
     5
 72
     1
  1
\A1;29.08
 73
     1
 44
1.0
  0
POINT
  5
6357
330
634E
100
AcDbEntity
  8
DEFPOINTS
 62
     0
100
AcDbPoint
 10
577.7786460129181
 20
233.9332173870351
 30
0.0
  0
POINT
  5
63B2
330
634E
100
AcDbEntity
  8
DEFPOINTS
 62
     0
100
AcDbPoint
 10
606.8590603380529
 20
234.3679659531532
 30
0.0
  0
POINT
  5
63B3
330
634E
100
AcDbEntity
  8
DEFPOINTS
 62
     0
100
AcDbPoint
 10
606.8590603380529
 20
238.9449751142432
 30
0.0
  0
ENDBLK
  5
635A
330
634E
100
AcDbEntity
  8
0
100
AcDbBlockEnd
  0
BLOCK
  5
6366
330
635B
100
AcDbEntity
  8
0
100
AcDbBlockBegin
  2
*D4
 70
     1
 10
0.0
 20
0.0
 30
0.0
  3
*D4
  1
*D4
  0
LINE
  5
635C
330
635B
100
AcDbEntity
  8
WYMIARY
 62
     0
370
    -2
100
AcDbLine
 10
576.2786460129181
 20
233.9332173870351
 30
0.0
 11
571.6516739933426
 21
233.9332173870351
 31
0.0
  0
LINE
  5
635D
330
635B
100
AcDbEntity
  8
WYMIARY
 62
     0
370
    -2
100
AcDbLine
 10
576.2786460129181
 20
223.6369509007831
 30
0.0
 11
571.6516739933426
 21
223.6369509007831
 31
0.0
  0
LINE
  5
635E
330
635B
100
AcDbEntity
  8
WYMIARY
 62
     0
370
    -2
100
AcDbLine
 10
573.1516739933426
 20
233.9332173870351
 30
0.0
 11
573.1516739933426
 21
223.6369509007831
 31
0.0
  0
LINE
  5
635F
330
635B
100
AcDbEntity
  8
WYMIARY
 62
     0
370
    -2
100
AcDbLine
 10
573.1516739933426
 20
235.9332173870351
 30
0.0
 11
573.1516739933426
 21
237.9332173870351
 31
0.0
  0
LINE
  5
6360
330
635B
100
AcDbEntity
  8
WYMIARY
 62
     0
370
    -2
100
AcDbLine
 10
573.1516739933426
 20
221.6369509007831
 30
0.0
 11
573.1516739933426
 21
219.6369509007831
 31
0.0
  0
INSERT
  5
6361
330
635B
100
AcDbEntity
  8
WYMIARY
 62
     0
370
    -2
100
AcDbBlockReference
  2
VDDIM_DEFAULT
 10
573.1516739933426
 20
233.9332173870351
 30
0.0
 41
2.0
 42
2.0
 43
2.0
 50
270.0
  0
INSERT
  5
6362
330
635B
100
AcDbEntity
  8
WYMIARY
 62
     0
370
    -2
100
AcDbBlockReference
  2
VDDIM_DEFAULT
 10
573.1516739933426
 20
223.6369509007831
 30
0.0
 41
2.0
 42
2.0
 43
2.0
 50
90.0
  0
MTEXT
  5
6363
330
635B
100
AcDbEntity
  8
WYMIARY
100
AcDbMText
 10
570.6516739933426
 20
228.7850841439091
 30
0.0
 40
2.0
 41
0.0
 46
0.0
 71
     5
 72
     1
  1
\A1;10.30
 11
0.0
 21
1.0
 31
0.0
 73
     1
 44
1.0
  0
POINT
  5
6364
330
635B
100
AcDbEntity
  8
DEFPOINTS
 62
     0
100
AcDbPoint
 10
577.7786460129181
 20
233.9332173870351
 30
0.0
  0
POINT
  5
63B4
330
635B
100
AcDbEntity
  8
DEFPOINTS
 62
     0
100
AcDbPoint
 10
577.7786460129181
 20
223.6369509007831
 30
0.0
  0
POINT
  5
63B5
330
635B
100
AcDbEntity
  8
DEFPOINTS
 62
     0
100
AcDbPoint
 10
573.1516739933426
 20
223.6369509007831
 30
0.0
  0
ENDBLK
  5
6367
330
635B
100
AcDbEntity
  8
0
100
AcDbBlockEnd
  0
BLOCK
  5
6469
330
6468
100
AcDbEntity
  8
0
100
AcDbBlockBegin
  2
Rckans1
 70
     0
 10
-4.5
 20
78.00000000000028
 30
0.0
  3
Rckans1
  1
Rckans1
  0
INSERT
  5
646A
330
6468
100
AcDbEntity
  8
0
100
AcDbBlockReference
  2
2987956_REL_MR_24AC_21_21_MS-select__3
 10
-10.85000000329804
 20
63.49999999855988
 30
0.0
  0
MTEXT
  5
6492
330
6468
100
AcDbEntity
  8
1
 62
     6
100
AcDbMText
 10
-4.5
 20
60.99999999855413
 30
0.0
 40
2.5
 41
0.0
 46
0.0
 71
     2
 72
     1
  1
 
  7
CONVERTER_11
 73
     1
 44
1.32052821128451
  0
ENDBLK
  5
6493
330
6468
100
AcDbEntity
  8
0
100
AcDbBlockEnd
  0
BLOCK
  5
646C
330
646B
100
AcDbEntity
  8
0
100
AcDbBlockBegin
  2
2987956_REL_MR_24AC_21_21_MS-select__3
 70
     0
 10
-10.85000000329804
 20
63.49999999855988
 30
0.0
  3
2987956_REL_MR_24AC_21_21_MS-select__3
  1
2987956_REL_MR_24AC_21_21_MS-select__3
  0
LINE
  5
646D
330
646B
100
AcDbEntity
  8
0
  6
Continuous
 62
     7
100
AcDbLine
 10
-7.92500000280334
 20
65.6750000007832
 30
0.0
 11
-8.67500000280334
 21
65.67500000095379
 31
0.0
  0
LINE
  5
646E
330
646B
100
AcDbEntity
  8
0
  6
Continuous
 62
     7
100
AcDbLine
 10
-8.67500000280334
 20
65.67500000095379
 30
0.0
 11
-8.67500000263275
 21
66.42500000095379
 31
0.0
  0
LINE
  5
646F
330
646B
100
AcDbEntity
  8
0
  6
Continuous
 62
     7
100
AcDbLine
 10
-8.67500000263275
 20
66.42500000095379
 30
0.0
 11
-7.92500000263275
 21
66.4250000007832
 31
0.0
  0
LINE
  5
6470
330
646B
100
AcDbEntity
  8
0
  6
Continuous
 62
     7
100
AcDbLine
 10
-8.84999999936314
 20
80.8000000009936
 30
0.0
 11
-8.84999999920392
 21
81.50000000099361
 31
0.0
  0
LINE
  5
6471
330
646B
100
AcDbEntity
  8
0
  6
Continuous
 62
     7
100
AcDbLine
 10
-7.92500000263275
 20
66.4250000007832
 30
0.0
 11
-7.92500000280334
 21
65.6750000007832
 31
0.0
  0
LINE
  5
6472
330
646B
100
AcDbEntity
  8
0
  6
Continuous
 62
     7
100
AcDbLine
 10
-8.84999999805529
 20
86.5500000009936
 30
0.0
 11
-8.84999999821451
 21
85.8500000009936
 31
0.0
  0
LINE
  5
6473
330
646B
100
AcDbEntity
  8
0
  6
Continuous
 62
     7
100
AcDbLine
 10
-7.74999999821451
 20
85.8500000007434
 30
0.0
 11
-7.74999999805529
 21
86.55000000074341
 31
0.0
  0
LINE
  5
6474
330
646B
100
AcDbEntity
  8
0
  6
Continuous
 62
     7
100
AcDbLine
 10
-8.84999999821451
 20
85.8500000009936
 30
0.0
 11
-7.74999999821451
 21
85.8500000007434
 31
0.0
  0
LINE
  5
6475
330
646B
100
AcDbEntity
  8
0
  6
Continuous
 62
     7
100
AcDbLine
 10
-7.74999999805529
 20
86.55000000074341
 30
0.0
 11
-8.84999999805529
 21
86.5500000009936
 31
0.0
  0
LINE
  5
6476
330
646B
100
AcDbEntity
  8
0
  6
Continuous
 62
     7
100
AcDbLine
 10
-1.24999999690666
 20
91.59999999926498
 30
0.0
 11
-1.24999999706588
 21
90.89999999926496
 31
0.0
  0
LINE
  5
6477
330
646B
100
AcDbEntity
  8
0
  6
Continuous
 62
     7
100
AcDbLine
 10
-0.14999999706588
 20
90.89999999901478
 30
0.0
 11
-0.14999999690666
 21
91.59999999901478
 31
0.0
  0
LINE
  5
6478
330
646B
100
AcDbEntity
  8
0
  6
Continuous
 62
     7
100
AcDbLine
 10
-8.84999999690666
 20
91.6000000009936
 30
0.0
 11
-7.74999999690666
 21
91.6000000007434
 31
0.0
  0
LINE
  5
6479
330
646B
100
AcDbEntity
  8
0
  6
Continuous
 62
     7
100
AcDbLine
 10
-8.84999999706588
 20
90.9000000009936
 30
0.0
 11
-8.84999999690666
 21
91.6000000009936
 31
0.0
  0
LINE
  5
647A
330
646B
100
AcDbEntity
  8
0
  6
Continuous
 62
     7
100
AcDbLine
 10
-7.74999999690666
 20
91.6000000007434
 30
0.0
 11
-7.74999999706588
 21
90.9000000007434
 31
0.0
  0
LINE
  5
647B
330
646B
100
AcDbEntity
  8
0
  6
Continuous
 62
     7
100
AcDbLine
 10
-7.74999999706588
 20
90.9000000007434
 30
0.0
 11
-8.84999999706588
 21
90.9000000009936
 31
0.0
  0
LINE
  5
647C
330
646B
100
AcDbEntity
  8
0
  6
Continuous
 62
     7
100
AcDbLine
 10
-0.14999999690666
 20
91.59999999901478
 30
0.0
 11
-1.24999999690666
 21
91.59999999926498
 31
0.0
  0
LINE
  5
647D
330
646B
100
AcDbEntity
  8
0
  6
Continuous
 62
     7
100
AcDbLine
 10
-7.74999999936314
 20
80.80000000074341
 30
0.0
 11
-8.84999999936314
 21
80.8000000009936
 31
0.0
  0
LINE
  5
647E
330
646B
100
AcDbEntity
  8
0
  6
Continuous
 62
     7
100
AcDbLine
 10
-0.32500000280333
 20
65.67499999905458
 30
0.0
 11
-1.07500000280334
 21
65.67499999922518
 31
0.0
  0
LINE
  5
647F
330
646B
100
AcDbEntity
  8
0
  6
Continuous
 62
     7
100
AcDbLine
 10
-1.07500000280334
 20
65.67499999922518
 30
0.0
 11
-1.07500000263275
 21
66.42499999922518
 31
0.0
  0
LINE
  5
6480
330
646B
100
AcDbEntity
  8
0
  6
Continuous
 62
     7
100
AcDbLine
 10
-1.07500000263275
 20
66.42499999922518
 30
0.0
 11
-0.32500000263275
 21
66.42499999905458
 31
0.0
  0
LINE
  5
6481
330
646B
100
AcDbEntity
  8
0
  6
Continuous
 62
     7
100
AcDbLine
 10
-1.24999999805529
 20
86.54999999926497
 30
0.0
 11
-1.24999999821451
 21
85.84999999926498
 31
0.0
  0
LINE
  5
6482
330
646B
100
AcDbEntity
  8
0
  6
Continuous
 62
     7
100
AcDbLine
 10
-1.24999999821451
 20
85.84999999926498
 30
0.0
 11
-0.14999999821451
 21
85.84999999901478
 31
0.0
  0
LINE
  5
6483
330
646B
100
AcDbEntity
  8
0
  6
Continuous
 62
     7
100
AcDbLine
 10
-0.14999999821451
 20
85.84999999901478
 30
0.0
 11
-0.14999999805529
 21
86.54999999901477
 31
0.0
  0
LINE
  5
6484
330
646B
100
AcDbEntity
  8
0
  6
Continuous
 62
     7
100
AcDbLine
 10
-0.14999999805529
 20
86.54999999901477
 30
0.0
 11
-1.24999999805529
 21
86.54999999926497
 31
0.0
  0
LINE
  5
6485
330
646B
100
AcDbEntity
  8
0
  6
Continuous
 62
     7
100
AcDbLine
 10
-1.24999999706588
 20
90.89999999926496
 30
0.0
 11
-0.14999999706588
 21
90.89999999901478
 31
0.0
  0
LINE
  5
6486
330
646B
100
AcDbEntity
  8
0
  6
Continuous
 62
     7
100
AcDbLine
 10
-0.32500000263275
 20
66.42499999905458
 30
0.0
 11
-0.32500000280333
 21
65.67499999905458
 31
0.0
  0
LINE
  5
6487
330
646B
100
AcDbEntity
  8
0
  6
Continuous
 62
     7
100
AcDbLine
 10
-8.84999999920392
 20
81.50000000099361
 30
0.0
 11
-7.74999999920392
 21
81.5000000007434
 31
0.0
  0
LINE
  5
6488
330
646B
100
AcDbEntity
  8
0
  6
Continuous
 62
     7
100
AcDbLine
 10
-1.24999999920392
 20
81.49999999926499
 30
0.0
 11
-0.14999999920392
 21
81.49999999901478
 31
0.0
  0
LINE
  5
6489
330
646B
100
AcDbEntity
  8
0
  6
Continuous
 62
     7
100
AcDbLine
 10
-1.24999999936314
 20
80.79999999926497
 30
0.0
 11
-1.24999999920392
 21
81.49999999926499
 31
0.0
  0
LINE
  5
648A
330
646B
100
AcDbEntity
  8
0
  6
Continuous
 62
     7
100
AcDbLine
 10
-0.14999999920392
 20
81.49999999901478
 30
0.0
 11
-0.14999999936314
 21
80.79999999901477
 31
0.0
  0
LINE
  5
648B
330
646B
100
AcDbEntity
  8
0
  6
Continuous
 62
     7
100
AcDbLine
 10
-7.74999999920392
 20
81.5000000007434
 30
0.0
 11
-7.74999999936314
 21
80.80000000074341
 31
0.0
  0
LINE
  5
648C
330
646B
100
AcDbEntity
  8
0
  6
Continuous
 62
     7
100
AcDbLine
 10
-0.14999999936314
 20
80.79999999901477
 30
0.0
 11
-1.24999999936314
 21
80.79999999926497
 31
0.0
  0
LINE
  5
648D
330
646B
100
AcDbEntity
  8
0
  6
Continuous
 62
     7
100
AcDbLine
 10
1.84999999670196
 20
63.49999999855988
 30
0.0
 11
-10.85000000329804
 21
63.50000000144851
 31
0.0
  0
LINE
  5
648E
330
646B
100
AcDbEntity
  8
0
  6
Continuous
 62
     7
100
AcDbLine
 10
-10.85000000329804
 20
63.50000000144851
 30
0.0
 11
-10.84999999670196
 21
92.50000000144851
 31
0.0
  0
LINE
  5
648F
330
646B
100
AcDbEntity
  8
0
  6
Continuous
 62
     7
100
AcDbLine
 10
-10.84999999670196
 20
92.50000000144851
 30
0.0
 11
1.85000000329804
 21
92.49999999855987
 31
0.0
  0
LINE
  5
6490
330
646B
100
AcDbEntity
  8
0
  6
Continuous
 62
     7
100
AcDbLine
 10
1.85000000329804
 20
92.49999999855987
 30
0.0
 11
1.84999999670196
 21
63.49999999855988
 31
0.0
  0
ENDBLK
  5
6491
330
646B
100
AcDbEntity
  8
0
100
AcDbBlockEnd
  0
BLOCK
  5
6496
330
6495
100
AcDbEntity
  8
0
100
AcDbBlockBegin
  2
SA_Links1
 70
     0
 10
-32.64999986029867
 20
78.00000000000013
 30
0.0
  3
SA_Links1
  1
SA_Links1
  0
INSERT
  5
6497
330
6495
100
AcDbEntity
  8
0
100
AcDbBlockReference
  2
2987956_REL_MR_24AC_21_21_MS-select__4
 10
-44.44999990803424
 20
63.49999999855468
 30
0.0
  0
MTEXT
  5
64B3
330
6495
100
AcDbEntity
  8
1
 62
     6
100
AcDbMText
 10
-32.64999986029881
 20
60.99999999855413
 30
0.0
 40
2.5
 41
0.0
 46
0.0
 71
     2
 72
     1
  1
 
  7
CONVERTER_11
 73
     1
 44
1.32052821128451
  0
DIMENSION
  5
64B4
330
6495
100
AcDbEntity
  8
1
100
AcDbDimension
280
     0
  2
*D9
 10
-40.84999990803045
 20
58.49999999855467
 30
0.0
 11
-30.84999990803046
 21
60.37499999855467
 31
0.0
 70
    33
  1
<>
 71
     5
 42
-1.0
 73
     0
 74
     0
 75
     0
 53
0.00013888888889
  3
ME10_DIM_10
100
AcDbAlignedDimension
 13
-20.84999990803046
 23
63.49999999855737
 33
0.0
 14
-40.84999990803046
 24
63.49999999855468
 34
0.0
  0
ENDBLK
  5
64BE
330
6495
100
AcDbEntity
  8
0
100
AcDbBlockEnd
  0
BLOCK
  5
6499
330
6498
100
AcDbEntity
  8
0
100
AcDbBlockBegin
  2
2987956_REL_MR_24AC_21_21_MS-select__4
 70
     0
 10
-44.44999990803424
 20
63.49999999855468
 30
0.0
  3
2987956_REL_MR_24AC_21_21_MS-select__4
  1
2987956_REL_MR_24AC_21_21_MS-select__4
  0
LINE
  5
649A
330
6498
100
AcDbEntity
  8
0
  6
Continuous
 62
     7
100
AcDbLine
 10
-40.84999990803046
 20
63.49999999855468
 30
0.0
 11
-20.84999990803046
 21
63.49999999855737
 31
0.0
  0
LINE
  5
649B
330
6498
100
AcDbEntity
  8
0
  6
Continuous
 62
     7
100
AcDbLine
 10
-40.84999990803074
 20
65.67499999904939
 30
0.0
 11
-44.44999990803074
 21
65.67499999904891
 31
0.0
  0
LINE
  5
649C
330
6498
100
AcDbEntity
  8
0
  6
Continuous
 62
     7
100
AcDbLine
 10
-40.84999990803414
 20
90.9000000007382
 30
0.0
 11
-44.44999990803414
 21
90.90000000073773
 31
0.0
  0
LINE
  5
649D
330
6498
100
AcDbEntity
  8
0
  6
Continuous
 62
     7
100
AcDbLine
 10
-44.44999990803424
 20
91.60000000073774
 30
0.0
 11
-44.44999990803414
 21
90.90000000073773
 31
0.0
  0
LINE
  5
649E
330
6498
100
AcDbEntity
  8
0
  6
Continuous
 62
     7
100
AcDbLine
 10
-40.84999990803424
 20
91.6000000007382
 30
0.0
 11
-44.44999990803424
 21
91.60000000073774
 31
0.0
  0
LINE
  5
649F
330
6498
100
AcDbEntity
  8
0
  6
Continuous
 62
     7
100
AcDbLine
 10
-40.84999990803357
 20
86.55000000073821
 30
0.0
 11
-44.44999990803356
 21
86.55000000073773
 31
0.0
  0
LINE
  5
64A0
330
6498
100
AcDbEntity
  8
0
  6
Continuous
 62
     7
100
AcDbLine
 10
-40.84999990803346
 20
85.8500000007382
 30
0.0
 11
-44.44999990803346
 21
85.85000000073772
 31
0.0
  0
LINE
  5
64A1
330
6498
100
AcDbEntity
  8
0
  6
Continuous
 62
     7
100
AcDbLine
 10
-40.84999990803279
 20
80.80000000073821
 30
0.0
 11
-44.44999990803278
 21
80.80000000073773
 31
0.0
  0
LINE
  5
64A2
330
6498
100
AcDbEntity
  8
0
  6
Continuous
 62
     7
100
AcDbLine
 10
-40.84999990803085
 20
66.42499999904939
 30
0.0
 11
-44.44999990803085
 21
66.42499999904891
 31
0.0
  0
LINE
  5
64A3
330
6498
100
AcDbEntity
  8
0
  6
Continuous
 62
     7
100
AcDbLine
 10
-40.84999990803289
 20
81.50000000073821
 30
0.0
 11
-44.44999990803288
 21
81.50000000073773
 31
0.0
  0
LINE
  5
64A4
330
6498
100
AcDbEntity
  8
0
  6
Continuous
 62
     7
100
AcDbLine
 10
-40.84999990803085
 20
66.42499999904939
 30
0.0
 11
-40.84999990803074
 21
65.67499999904939
 31
0.0
  0
LINE
  5
64A5
330
6498
100
AcDbEntity
  8
0
  6
Continuous
 62
     7
100
AcDbLine
 10
-40.84999990803074
 20
65.67499999904939
 30
0.0
 11
-40.84999990803046
 21
63.49999999855468
 31
0.0
  0
LINE
  5
64A6
330
6498
100
AcDbEntity
  8
0
  6
Continuous
 62
     7
100
AcDbLine
 10
-40.84999990803289
 20
81.50000000073821
 30
0.0
 11
-40.84999990803279
 21
80.80000000073821
 31
0.0
  0
LINE
  5
64A7
330
6498
100
AcDbEntity
  8
0
  6
Continuous
 62
     7
100
AcDbLine
 10
-40.84999990803357
 20
86.55000000073821
 30
0.0
 11
-40.84999990803346
 21
85.8500000007382
 31
0.0
  0
LINE
  5
64A8
330
6498
100
AcDbEntity
  8
0
  6
Continuous
 62
     7
100
AcDbLine
 10
-40.84999990803414
 20
90.9000000007382
 30
0.0
 11
-40.84999990803357
 21
86.55000000073821
 31
0.0
  0
LINE
  5
64A9
330
6498
100
AcDbEntity
  8
0
  6
Continuous
 62
     7
100
AcDbLine
 10
-40.84999990803424
 20
91.6000000007382
 30
0.0
 11
-40.84999990803414
 21
90.9000000007382
 31
0.0
  0
LINE
  5
64AA
330
6498
100
AcDbEntity
  8
0
  6
Continuous
 62
     7
100
AcDbLine
 10
-40.84999990803436
 20
92.49999999855469
 30
0.0
 11
-40.84999990803424
 21
91.6000000007382
 31
0.0
  0
LINE
  5
64AB
330
6498
100
AcDbEntity
  8
0
  6
Continuous
 62
     7
100
AcDbLine
 10
-40.84999990803346
 20
85.8500000007382
 30
0.0
 11
-40.84999990803289
 21
81.50000000073821
 31
0.0
  0
LINE
  5
64AC
330
6498
100
AcDbEntity
  8
0
  6
Continuous
 62
     7
100
AcDbLine
 10
-40.84999990803279
 20
80.80000000073821
 30
0.0
 11
-40.84999990803085
 21
66.42499999904939
 31
0.0
  0
LINE
  5
64AD
330
6498
100
AcDbEntity
  8
0
  6
Continuous
 62
     7
100
AcDbLine
 10
-40.84999990803436
 20
92.49999999855469
 30
0.0
 11
-20.84999990803436
 21
92.49999999855739
 31
0.0
  0
LINE
  5
64AE
330
6498
100
AcDbEntity
  8
0
  6
Continuous
 62
     7
100
AcDbLine
 10
-44.44999990803346
 20
85.85000000073772
 30
0.0
 11
-44.44999990803356
 21
86.55000000073773
 31
0.0
  0
LINE
  5
64AF
330
6498
100
AcDbEntity
  8
0
  6
Continuous
 62
     7
100
AcDbLine
 10
-44.44999990803288
 20
81.50000000073773
 30
0.0
 11
-44.44999990803278
 21
80.80000000073773
 31
0.0
  0
LINE
  5
64B0
330
6498
100
AcDbEntity
  8
0
  6
Continuous
 62
     7
100
AcDbLine
 10
-44.44999990803085
 20
66.42499999904891
 30
0.0
 11
-44.44999990803074
 21
65.67499999904891
 31
0.0
  0
LINE
  5
64B1
330
6498
100
AcDbEntity
  8
0
  6
Continuous
 62
     7
100
AcDbLine
 10
-20.84999990803436
 20
92.49999999855739
 30
0.0
 11
-20.84999990803046
 21
63.49999999855737
 31
0.0
  0
ENDBLK
  5
64B2
330
6498
100
AcDbEntity
  8
0
100
AcDbBlockEnd
  0
BLOCK
  5
64B6
330
64B5
100
AcDbEntity
  8
0
100
AcDbBlockBegin
  2
*D9
 70
     1
 10
0.0
 20
0.0
 30
0.0
  3
*D9
  1
*D10
  0
LINE
  5
64B7
330
64B5
100
AcDbEntity
  8
1
  6
Continuous
 62
     2
100
AcDbLine
 10
-40.84999990803045
 20
58.49999999855467
 30
0.0
 11
-20.84999990803046
 21
58.49999999855467
 31
0.0
  0
LINE
  5
64B8
330
64B5
100
AcDbEntity
  8
1
  6
Continuous
 62
     2
100
AcDbLine
 10
-40.84999990803045
 20
63.49999999855468
 30
0.0
 11
-40.84999990803045
 21
57.49999999855467
 31
0.0
  0
LINE
  5
64B9
330
64B5
100
AcDbEntity
  8
1
  6
Continuous
 62
     2
100
AcDbLine
 10
-20.84999990803046
 20
63.49999999855737
 30
0.0
 11
-20.84999990803046
 21
57.49999999855467
 31
0.0
  0
SOLID
  5
64BA
330
64B5
100
AcDbEntity
  8
1
 62
     2
100
AcDbTrace
 10
-39.09999990803045
 20
58.73039186933261
 30
0.0
 11
-39.09999990803045
 21
58.26960812777673
 31
0.0
 12
-40.84999990803045
 22
58.49999999855467
 32
0.0
 13
-40.84999990803045
 23
58.49999999855467
 33
0.0
  0
SOLID
  5
64BB
330
64B5
100
AcDbEntity
  8
1
 62
     2
100
AcDbTrace
 10
-22.59999990803046
 20
58.26960812777673
 30
0.0
 11
-22.59999990803046
 21
58.73039186933261
 31
0.0
 12
-20.84999990803046
 22
58.49999999855467
 32
0.0
 13
-20.84999990803046
 23
58.49999999855467
 33
0.0
  0
MTEXT
  5
64BC
330
64B5
100
AcDbEntity
  8
1
 62
     3
100
AcDbMText
 10
-32.16249990803045
 20
59.49999999855467
 30
0.0
 40
1.75
 41
0.0
 46
0.0
 71
     7
 72
     1
  1
20
  7
CONVERTER_11
 11
0.9999999999970619
 21
2.424068405545306E-6
 31
0.0
 73
     1
 44
0.60024009603842
  0
ENDBLK
  5
64BD
330
64B5
100
AcDbEntity
  8
0
100
AcDbBlockEnd
  0
BLOCK
  5
64C1
330
64C0
100
AcDbEntity
  8
0
100
AcDbBlockBegin
  2
SA_Rechts1
 70
     0
 10
-93.94999958069667
 20
78.00000000000028
 30
0.0
  3
SA_Rechts1
  1
SA_Rechts1
  0
INSERT
  5
64C2
330
64C0
100
AcDbEntity
  8
0
100
AcDbBlockReference
  2
2987956_REL_MR_24AC_21_21_MS-select__5
 10
-105.7499995329649
 20
63.50000000144347
 30
0.0
  0
MTEXT
  5
64DE
330
64C0
100
AcDbEntity
  8
1
 62
     6
100
AcDbMText
 10
-93.94999958069644
 20
60.99999999855413
 30
0.0
 40
2.5
 41
0.0
 46
0.0
 71
     2
 72
     1
  1
 
  7
CONVERTER_11
 73
     1
 44
1.32052821128451
  0
ENDBLK
  5
64DF
330
64C0
100
AcDbEntity
  8
0
100
AcDbBlockEnd
  0
BLOCK
  5
64C4
330
64C3
100
AcDbEntity
  8
0
100
AcDbBlockBegin
  2
2987956_REL_MR_24AC_21_21_MS-select__5
 70
     0
 10
-105.7499995329649
 20
63.50000000144347
 30
0.0
  3
2987956_REL_MR_24AC_21_21_MS-select__5
  1
2987956_REL_MR_24AC_21_21_MS-select__5
  0
LINE
  5
64C5
330
64C3
100
AcDbEntity
  8
0
  6
Continuous
 62
     7
100
AcDbLine
 10
-85.74999953296256
 20
80.80000000098855
 30
0.0
 11
-82.14999953296257
 21
80.80000000098808
 31
0.0
  0
LINE
  5
64C6
330
64C3
100
AcDbEntity
  8
0
  6
Continuous
 62
     7
100
AcDbLine
 10
-85.7499995329645
 20
66.42499999922012
 30
0.0
 11
-82.1499995329645
 21
66.42499999921964
 31
0.0
  0
LINE
  5
64C7
330
64C3
100
AcDbEntity
  8
0
  6
Continuous
 62
     7
100
AcDbLine
 10
-85.74999953296111
 20
91.60000000098856
 30
0.0
 11
-82.1499995329611
 21
91.60000000098808
 31
0.0
  0
LINE
  5
64C8
330
64C3
100
AcDbEntity
  8
0
  6
Continuous
 62
     7
100
AcDbLine
 10
-82.1499995329612
 20
90.90000000098807
 30
0.0
 11
-82.1499995329611
 21
91.60000000098808
 31
0.0
  0
LINE
  5
64C9
330
64C3
100
AcDbEntity
  8
0
  6
Continuous
 62
     7
100
AcDbLine
 10
-82.14999953296179
 20
86.55000000098808
 30
0.0
 11
-82.14999953296189
 21
85.85000000098808
 31
0.0
  0
LINE
  5
64CA
330
64C3
100
AcDbEntity
  8
0
  6
Continuous
 62
     7
100
AcDbLine
 10
-85.7499995329612
 20
90.90000000098857
 30
0.0
 11
-82.1499995329612
 21
90.90000000098807
 31
0.0
  0
LINE
  5
64CB
330
64C3
100
AcDbEntity
  8
0
  6
Continuous
 62
     7
100
AcDbLine
 10
-85.74999953296248
 20
81.50000000098856
 30
0.0
 11
-82.14999953296245
 21
81.50000000098808
 31
0.0
  0
LINE
  5
64CC
330
64C3
100
AcDbEntity
  8
0
  6
Continuous
 62
     7
100
AcDbLine
 10
-85.74999953296489
 20
63.50000000144347
 30
0.0
 11
-105.7499995329649
 21
63.50000000144615
 31
0.0
  0
LINE
  5
64CD
330
64C3
100
AcDbEntity
  8
0
  6
Continuous
 62
     7
100
AcDbLine
 10
-85.74999953296461
 20
65.67499999922012
 30
0.0
 11
-82.14999953296461
 21
65.67499999921964
 31
0.0
  0
LINE
  5
64CE
330
64C3
100
AcDbEntity
  8
0
  6
Continuous
 62
     7
100
AcDbLine
 10
-82.14999953296257
 20
80.80000000098808
 30
0.0
 11
-82.14999953296245
 21
81.50000000098808
 31
0.0
  0
LINE
  5
64CF
330
64C3
100
AcDbEntity
  8
0
  6
Continuous
 62
     7
100
AcDbLine
 10
-82.14999953296461
 20
65.67499999921964
 30
0.0
 11
-82.1499995329645
 21
66.42499999921964
 31
0.0
  0
LINE
  5
64D0
330
64C3
100
AcDbEntity
  8
0
  6
Continuous
 62
     7
100
AcDbLine
 10
-85.74999953296461
 20
65.67499999922012
 30
0.0
 11
-85.7499995329645
 21
66.42499999922012
 31
0.0
  0
LINE
  5
64D1
330
64C3
100
AcDbEntity
  8
0
  6
Continuous
 62
     7
100
AcDbLine
 10
-85.74999953296489
 20
63.50000000144347
 30
0.0
 11
-85.74999953296461
 21
65.67499999922012
 31
0.0
  0
LINE
  5
64D2
330
64C3
100
AcDbEntity
  8
0
  6
Continuous
 62
     7
100
AcDbLine
 10
-85.74999953296188
 20
85.85000000098856
 30
0.0
 11
-85.74999953296178
 21
86.55000000098856
 31
0.0
  0
LINE
  5
64D3
330
64C3
100
AcDbEntity
  8
0
  6
Continuous
 62
     7
100
AcDbLine
 10
-85.74999953296248
 20
81.50000000098856
 30
0.0
 11
-85.74999953296188
 21
85.85000000098856
 31
0.0
  0
LINE
  5
64D4
330
64C3
100
AcDbEntity
  8
0
  6
Continuous
 62
     7
100
AcDbLine
 10
-85.7499995329612
 20
90.90000000098857
 30
0.0
 11
-85.74999953296111
 21
91.60000000098856
 31
0.0
  0
LINE
  5
64D5
330
64C3
100
AcDbEntity
  8
0
  6
Continuous
 62
     7
100
AcDbLine
 10
-85.74999953296111
 20
91.60000000098856
 30
0.0
 11
-85.74999953296098
 21
92.50000000144347
 31
0.0
  0
LINE
  5
64D6
330
64C3
100
AcDbEntity
  8
0
  6
Continuous
 62
     7
100
AcDbLine
 10
-85.74999953296256
 20
80.80000000098855
 30
0.0
 11
-85.74999953296248
 21
81.50000000098856
 31
0.0
  0
LINE
  5
64D7
330
64C3
100
AcDbEntity
  8
0
  6
Continuous
 62
     7
100
AcDbLine
 10
-85.74999953296178
 20
86.55000000098856
 30
0.0
 11
-85.7499995329612
 21
90.90000000098857
 31
0.0
  0
LINE
  5
64D8
330
64C3
100
AcDbEntity
  8
0
  6
Continuous
 62
     7
100
AcDbLine
 10
-85.7499995329645
 20
66.42499999922012
 30
0.0
 11
-85.74999953296256
 21
80.80000000098855
 31
0.0
  0
LINE
  5
64D9
330
64C3
100
AcDbEntity
  8
0
  6
Continuous
 62
     7
100
AcDbLine
 10
-85.74999953296178
 20
86.55000000098856
 30
0.0
 11
-82.14999953296179
 21
86.55000000098808
 31
0.0
  0
LINE
  5
64DA
330
64C3
100
AcDbEntity
  8
0
  6
Continuous
 62
     7
100
AcDbLine
 10
-85.74999953296188
 20
85.85000000098856
 30
0.0
 11
-82.14999953296189
 21
85.85000000098808
 31
0.0
  0
LINE
  5
64DB
330
64C3
100
AcDbEntity
  8
0
  6
Continuous
 62
     7
100
AcDbLine
 10
-85.74999953296098
 20
92.50000000144347
 30
0.0
 11
-105.749999532961
 21
92.50000000144615
 31
0.0
  0
LINE
  5
64DC
330
64C3
100
AcDbEntity
  8
0
  6
Continuous
 62
     7
100
AcDbLine
 10
-105.7499995329649
 20
63.50000000144615
 30
0.0
 11
-105.749999532961
 21
92.50000000144615
 31
0.0
  0
ENDBLK
  5
64DD
330
64C3
100
AcDbEntity
  8
0
100
AcDbBlockEnd
  0
BLOCK
  5
64E2
330
64E1
100
AcDbEntity
  8
0
100
AcDbBlockBegin
  2
Vordans1
 70
     0
 10
-60.79999972049767
 20
78.00000000000026
 30
0.0
  3
Vordans1
  1
Vordans1
  0
INSERT
  5
64E3
330
64E1
100
AcDbEntity
  8
0
100
AcDbBlockReference
  2
2987956_REL_MR_24AC_21_21_MS-select__6
 10
-67.1499997237957
 20
63.49999999855198
 30
0.0
  0
MTEXT
  5
64EF
330
64E1
100
AcDbEntity
  8
1
 62
     6
100
AcDbMText
 10
-60.79999972049768
 20
60.99999999855413
 30
0.0
 40
2.5
 41
0.0
 46
0.0
 71
     2
 72
     1
  1
 
  7
CONVERTER_11
 73
     1
 44
1.32052821128451
  0
DIMENSION
  5
64F0
330
64E1
100
AcDbEntity
  8
1
100
AcDbDimension
280
     0
  2
*D14
 10
-67.14999971606237
 20
58.49999999855197
 30
0.0
 11
-60.79999971650873
 21
60.46249999999629
 31
0.0
 70
    33
  1
<>
 71
     5
 42
-1.0
 73
     0
 74
     0
 75
     0
 53
0.00013888888889
  3
ME10_DIM_11
100
AcDbAlignedDimension
 13
-54.44999971719962
 23
63.50000000144061
 33
0.0
 14
-67.14999971719962
 24
63.49999999855198
 34
0.0
  0
DIMENSION
  5
64FA
330
64E1
100
AcDbEntity
  8
1
100
AcDbDimension
280
     0
  2
*D15
 10
-72.14999972379569
 20
63.49999999855198
 30
0.0
 11
-74.02499972379569
 21
77.99999999855197
 31
0.0
 70
    32
  1
<>
 71
     5
 42
-1.0
 73
     0
 74
     0
 75
     0
 53
90.0
  3
ME10_DIM_12
100
AcDbAlignedDimension
 13
-67.1499997237957
 23
92.49999999855197
 33
0.0
 14
-67.14999971719962
 24
63.49999999855198
 34
0.0
 50
90.0
100
AcDbRotatedDimension
  0
ENDBLK
  5
6504
330
64E1
100
AcDbEntity
  8
0
100
AcDbBlockEnd
  0
BLOCK
  5
64E5
330
64E4
100
AcDbEntity
  8
0
100
AcDbBlockBegin
  2
2987956_REL_MR_24AC_21_21_MS-select__6
 70
     0
 10
-67.1499997237957
 20
63.49999999855198
 30
0.0
  3
2987956_REL_MR_24AC_21_21_MS-select__6
  1
2987956_REL_MR_24AC_21_21_MS-select__6
  0
LINE
  5
64E6
330
64E4
100
AcDbEntity
  8
0
  6
Continuous
 62
     7
100
AcDbLine
 10
-65.14999971992904
 20
75.49999999900687
 30
0.0
 11
-65.14999971765452
 21
65.49999999900687
 31
0.0
  0
LINE
  5
64E7
330
64E4
100
AcDbEntity
  8
0
  6
Continuous
 62
     7
100
AcDbLine
 10
-65.14999971765452
 20
65.49999999900687
 30
0.0
 11
-56.44999971765453
 21
65.50000000098571
 31
0.0
  0
LINE
  5
64E8
330
64E4
100
AcDbEntity
  8
0
  6
Continuous
 62
     7
100
AcDbLine
 10
-56.44999971765453
 20
65.50000000098571
 30
0.0
 11
-56.44999971992904
 21
75.50000000098571
 31
0.0
  0
LINE
  5
64E9
330
64E4
100
AcDbEntity
  8
0
  6
Continuous
 62
     7
100
AcDbLine
 10
-56.44999971992904
 20
75.50000000098571
 30
0.0
 11
-65.14999971992904
 21
75.49999999900687
 31
0.0
  0
LINE
  5
64EA
330
64E4
100
AcDbEntity
  8
0
  6
Continuous
 62
     7
100
AcDbLine
 10
-67.1499997237957
 20
92.49999999855197
 30
0.0
 11
-67.14999971719962
 21
63.49999999855198
 31
0.0
  0
LINE
  5
64EB
330
64E4
100
AcDbEntity
  8
0
  6
Continuous
 62
     7
100
AcDbLine
 10
-54.44999972379571
 20
92.50000000144061
 30
0.0
 11
-67.1499997237957
 21
92.49999999855197
 31
0.0
  0
LINE
  5
64EC
330
64E4
100
AcDbEntity
  8
0
  6
Continuous
 62
     7
100
AcDbLine
 10
-67.14999971719962
 20
63.49999999855198
 30
0.0
 11
-54.44999971719962
 21
63.50000000144061
 31
0.0
  0
LINE
  5
64ED
330
64E4
100
AcDbEntity
  8
0
  6
Continuous
 62
     7
100
AcDbLine
 10
-54.44999971719962
 20
63.50000000144061
 30
0.0
 11
-54.44999972379571
 21
92.50000000144061
 31
0.0
  0
ENDBLK
  5
64EE
330
64E4
100
AcDbEntity
  8
0
100
AcDbBlockEnd
  0
BLOCK
  5
64F2
330
64F1
100
AcDbEntity
  8
0
100
AcDbBlockBegin
  2
*D14
 70
     1
 10
0.0
 20
0.0
 30
0.0
  3
*D14
  1
*D15
  0
LINE
  5
64F3
330
64F1
100
AcDbEntity
  8
1
  6
Continuous
 62
     2
100
AcDbLine
 10
-67.14999971606237
 20
58.49999999855197
 30
0.0
 11
-54.44999971606236
 21
58.5000000014406
 31
0.0
  0
LINE
  5
64F4
330
64F1
100
AcDbEntity
  8
1
  6
Continuous
 62
     2
100
AcDbLine
 10
-67.14999971719962
 20
63.49999999855198
 30
0.0
 11
-67.14999971583492
 21
57.49999999855197
 31
0.0
  0
LINE
  5
64F5
330
64F1
100
AcDbEntity
  8
1
  6
Continuous
 62
     2
100
AcDbLine
 10
-54.44999971719962
 20
63.50000000144061
 30
0.0
 11
-54.44999971583491
 21
57.5000000014406
 31
0.0
  0
SOLID
  5
64F6
330
64F1
100
AcDbEntity
  8
1
 62
     2
100
AcDbTrace
 10
-65.39999971611478
 20
58.73039186972795
 30
0.0
 11
-65.39999971600996
 21
58.26960812817207
 31
0.0
 12
-67.14999971606237
 22
58.49999999855197
 32
0.0
 13
-67.14999971606237
 23
58.49999999855197
 33
0.0
  0
SOLID
  5
64F7
330
64F1
100
AcDbEntity
  8
1
 62
     2
100
AcDbTrace
 10
-56.19999971600996
 20
58.26960813026462
 30
0.0
 11
-56.19999971611476
 21
58.73039187182051
 31
0.0
 12
-54.44999971606236
 22
58.5000000014406
 32
0.0
 13
-54.44999971606236
 23
58.5000000014406
 33
0.0
  0
MTEXT
  5
64F8
330
64F1
100
AcDbEntity
  8
1
 62
     3
100
AcDbMText
 10
-62.94374971650873
 20
59.67499999999629
 30
0.0
 40
1.75
 41
0.0
 46
0.0
 71
     7
 72
     1
  1
12,7
  7
CONVERTER_11
 11
0.9999999999970619
 21
2.424068405545306E-6
 31
0.0
 73
     1
 44
0.60024009603842
  0
ENDBLK
  5
64F9
330
64F1
100
AcDbEntity
  8
0
100
AcDbBlockEnd
  0
BLOCK
  5
64FC
330
64FB
100
AcDbEntity
  8
0
100
AcDbBlockBegin
  2
*D15
 70
     1
 10
0.0
 20
0.0
 30
0.0
  3
*D15
  1
*D16
  0
LINE
  5
64FD
330
64FB
100
AcDbEntity
  8
1
  6
Continuous
 62
     2
100
AcDbLine
 10
-72.14999972379569
 20
63.49999999855198
 30
0.0
 11
-72.14999972379569
 21
92.49999999855197
 31
0.0
  0
LINE
  5
64FE
330
64FB
100
AcDbEntity
  8
1
  6
Continuous
 62
     2
100
AcDbLine
 10
-67.14999971719962
 20
63.49999999855198
 30
0.0
 11
-73.14999972379569
 21
63.49999999855198
 31
0.0
  0
LINE
  5
64FF
330
64FB
100
AcDbEntity
  8
1
  6
Continuous
 62
     2
100
AcDbLine
 10
-67.1499997237957
 20
92.49999999855197
 30
0.0
 11
-73.14999972379569
 21
92.49999999855197
 31
0.0
  0
SOLID
  5
6500
330
64FB
100
AcDbEntity
  8
1
 62
     2
100
AcDbTrace
 10
-72.38039159457362
 20
65.24999999855198
 30
0.0
 11
-71.91960785301775
 21
65.24999999855198
 31
0.0
 12
-72.14999972379569
 22
63.49999999855198
 32
0.0
 13
-72.14999972379569
 23
63.49999999855198
 33
0.0
  0
SOLID
  5
6501
330
64FB
100
AcDbEntity
  8
1
 62
     2
100
AcDbTrace
 10
-71.91960785301775
 20
90.74999999855197
 30
0.0
 11
-72.38039159457362
 21
90.74999999855197
 31
0.0
 12
-72.14999972379569
 22
92.49999999855197
 32
0.0
 13
-72.14999972379569
 23
92.49999999855197
 33
0.0
  0
MTEXT
  5
6502
330
64FB
100
AcDbEntity
  8
1
 62
     3
100
AcDbMText
 10
-73.14999972379569
 20
76.68749999855197
 30
0.0
 40
1.75
 41
0.0
 46
0.0
 71
     7
 72
     1
  1
29
  7
CONVERTER_11
 11
0.0
 21
1.0
 31
0.0
 73
     1
 44
0.60024009603842
  0
ENDBLK
  5
6503
330
64FB
100
AcDbEntity
  8
0
100
AcDbBlockEnd
  0
BLOCK
  5
654D
330
654C
100
AcDbEntity
  8
0
100
AcDbBlockBegin
  2
*D16
 70
     1
 10
0.0
 20
0.0
 30
0.0
  3
*D16
  1
*D18
  0
LINE
  5
654E
330
654C
100
AcDbEntity
  8
1
  6
Continuous
 62
     2
100
AcDbLine
 10
-67.14999971606237
 20
58.49999999855197
 30
0.0
 11
-54.44999971606236
 21
58.5000000014406
 31
0.0
  0
LINE
  5
654F
330
654C
100
AcDbEntity
  8
1
  6
Continuous
 62
     2
100
AcDbLine
 10
-67.14999971719962
 20
63.49999999855198
 30
0.0
 11
-67.14999971583492
 21
57.49999999855197
 31
0.0
  0
LINE
  5
6550
330
654C
100
AcDbEntity
  8
1
  6
Continuous
 62
     2
100
AcDbLine
 10
-54.44999971719962
 20
63.50000000144061
 30
0.0
 11
-54.44999971583491
 21
57.5000000014406
 31
0.0
  0
SOLID
  5
6551
330
654C
100
AcDbEntity
  8
1
 62
     2
100
AcDbTrace
 10
-65.39999971611478
 20
58.73039186972795
 30
0.0
 11
-65.39999971600996
 21
58.26960812817207
 31
0.0
 12
-67.14999971606237
 22
58.49999999855197
 32
0.0
 13
-67.14999971606237
 23
58.49999999855197
 33
0.0
  0
SOLID
  5
6552
330
654C
100
AcDbEntity
  8
1
 62
     2
100
AcDbTrace
 10
-56.19999971600996
 20
58.26960813026462
 30
0.0
 11
-56.19999971611476
 21
58.73039187182051
 31
0.0
 12
-54.44999971606236
 22
58.5000000014406
 32
0.0
 13
-54.44999971606236
 23
58.5000000014406
 33
0.0
  0
MTEXT
  5
6553
330
654C
100
AcDbEntity
  8
1
 62
     3
100
AcDbMText
 10
-62.94374971650873
 20
59.67499999999629
 30
0.0
 40
1.75
 41
0.0
 46
0.0
 71
     7
 72
     1
  1
12,7
  7
CONVERTER_11
 11
0.9999999999970619
 21
2.424068405545306E-6
 31
0.0
 73
     1
 44
0.60024009603842
  0
ENDBLK
  5
6554
330
654C
100
AcDbEntity
  8
0
100
AcDbBlockEnd
  0
BLOCK
  5
6557
330
6556
100
AcDbEntity
  8
0
100
AcDbBlockBegin
  2
*D17
 70
     1
 10
0.0
 20
0.0
 30
0.0
  3
*D17
  1
*D19
  0
LINE
  5
6558
330
6556
100
AcDbEntity
  8
1
  6
Continuous
 62
     2
100
AcDbLine
 10
-72.14999972379569
 20
63.49999999855198
 30
0.0
 11
-72.14999972379569
 21
92.49999999855197
 31
0.0
  0
LINE
  5
6559
330
6556
100
AcDbEntity
  8
1
  6
Continuous
 62
     2
100
AcDbLine
 10
-67.14999971719962
 20
63.49999999855198
 30
0.0
 11
-73.14999972379569
 21
63.49999999855198
 31
0.0
  0
LINE
  5
655A
330
6556
100
AcDbEntity
  8
1
  6
Continuous
 62
     2
100
AcDbLine
 10
-67.1499997237957
 20
92.49999999855197
 30
0.0
 11
-73.14999972379569
 21
92.49999999855197
 31
0.0
  0
SOLID
  5
655B
330
6556
100
AcDbEntity
  8
1
 62
     2
100
AcDbTrace
 10
-72.38039159457362
 20
65.24999999855198
 30
0.0
 11
-71.91960785301775
 21
65.24999999855198
 31
0.0
 12
-72.14999972379569
 22
63.49999999855198
 32
0.0
 13
-72.14999972379569
 23
63.49999999855198
 33
0.0
  0
SOLID
  5
655C
330
6556
100
AcDbEntity
  8
1
 62
     2
100
AcDbTrace
 10
-71.91960785301775
 20
90.74999999855197
 30
0.0
 11
-72.38039159457362
 21
90.74999999855197
 31
0.0
 12
-72.14999972379569
 22
92.49999999855197
 32
0.0
 13
-72.14999972379569
 23
92.49999999855197
 33
0.0
  0
MTEXT
  5
655D
330
6556
100
AcDbEntity
  8
1
 62
     3
100
AcDbMText
 10
-73.14999972379569
 20
76.68749999855197
 30
0.0
 40
1.75
 41
0.0
 46
0.0
 71
     7
 72
     1
  1
29
  7
CONVERTER_11
 11
0.0
 21
1.0
 31
0.0
 73
     1
 44
0.60024009603842
  0
ENDBLK
  5
655E
330
6556
100
AcDbEntity
  8
0
100
AcDbBlockEnd
  0
BLOCK
  5
6569
330
6568
100
AcDbEntity
  8
0
100
AcDbBlockBegin
  2
*D18
 70
     1
 10
0.0
 20
0.0
 30
0.0
  3
*D18
  1
*D20
  0
LINE
  5
656B
330
6568
100
AcDbEntity
  8
1
 62
     2
370
    -2
100
AcDbLine
 10
602.4839449038933
 20
152.7294180548745
 30
0.0
 11
602.4839449063953
 21
141.7294180548745
 31
0.0
  0
LINE
  5
656C
330
6568
100
AcDbEntity
  8
1
 62
     2
370
    -2
100
AcDbLine
 10
577.0839449038933
 20
152.7294180490973
 30
0.0
 11
577.0839449063953
 21
141.7294180490972
 31
0.0
  0
LINE
  5
656D
330
6568
100
AcDbEntity
  8
1
 62
     2
370
    -2
100
AcDbLine
 10
600.7339449061678
 20
142.7294180544764
 30
0.0
 11
578.8339449061679
 21
142.7294180494953
 31
0.0
  0
SOLID
  5
656E
330
6568
100
AcDbEntity
  8
1
 62
     2
100
AcDbTrace
 10
600.7339449062342
 20
142.4377513878098
 30
0.0
 11
600.7339449061014
 21
143.0210847211431
 31
0.0
 12
602.4839449061678
 22
142.7294180548745
 32
0.0
 13
602.4839449061678
 23
142.7294180548745
 33
0.0
  0
SOLID
  5
656F
330
6568
100
AcDbEntity
  8
1
 62
     2
100
AcDbTrace
 10
578.8339449061015
 20
143.0210847161619
 30
0.0
 11
578.8339449062343
 21
142.4377513828286
 31
0.0
 12
577.0839449061679
 22
142.7294180490972
 32
0.0
 13
577.0839449061679
 23
142.7294180490972
 33
0.0
  0
MTEXT
  5
6570
330
6568
100
AcDbEntity
  8
1
 62
     3
100
AcDbMText
 10
589.7839449057414
 20
144.6044180519859
 30
0.0
 40
1.75
 41
0.0
 46
0.0
 71
     5
 72
     1
  1
\A1;25.4
  7
CONVERTER_11
 11
1.0
 21
2.274508840239684E-10
 31
0.0
 73
     1
 44
1.0
  0
POINT
  5
6571
330
6568
100
AcDbEntity
  8
DEFPOINTS
 62
     0
100
AcDbPoint
 10
602.4839449038933
 20
152.7294180548745
 30
0.0
  0
POINT
  5
6572
330
6568
100
AcDbEntity
  8
DEFPOINTS
 62
     0
100
AcDbPoint
 10
577.0839449038933
 20
152.7294180490973
 30
0.0
  0
POINT
  5
6573
330
6568
100
AcDbEntity
  8
DEFPOINTS
 62
     0
100
AcDbPoint
 10
577.0839449061679
 20
142.7294180490972
 30
0.0
  0
ENDBLK
  5
656A
330
6568
100
AcDbEntity
  8
0
100
AcDbBlockEnd
  0
BLOCK
  5
6575
330
6574
100
AcDbEntity
  8
0
100
AcDbBlockBegin
  2
*D19
 70
     1
 10
0.0
 20
0.0
 30
0.0
  3
*D19
  1
*D21
  0
LINE
  5
6577
330
6574
100
AcDbEntity
  8
1
 62
     2
370
    -2
100
AcDbLine
 10
577.0839448907011
 20
210.7294180490972
 30
0.0
 11
566.0839448907011
 21
210.7294180490972
 31
0.0
  0
LINE
  5
6578
330
6574
100
AcDbEntity
  8
1
 62
     2
370
    -2
100
AcDbLine
 10
577.0839449038933
 20
152.7294180490973
 30
0.0
 11
566.0839448907011
 21
152.7294180490973
 31
0.0
  0
LINE
  5
6579
330
6574
100
AcDbEntity
  8
1
 62
     2
370
    -2
100
AcDbLine
 10
567.0839448907011
 20
208.9794180490972
 30
0.0
 11
567.0839448907011
 21
184.0419180490973
 31
0.0
  0
LINE
  5
657A
330
6574
100
AcDbEntity
  8
1
 62
     2
370
    -2
100
AcDbLine
 10
567.0839448907011
 20
154.4794180490973
 30
0.0
 11
567.0839448907011
 21
179.4169180490973
 31
0.0
  0
SOLID
  5
657B
330
6574
100
AcDbEntity
  8
1
 62
     2
100
AcDbTrace
 10
567.3756115573677
 20
208.9794180490972
 30
0.0
 11
566.7922782240345
 21
208.9794180490972
 31
0.0
 12
567.0839448907011
 22
210.7294180490972
 32
0.0
 13
567.0839448907011
 23
210.7294180490972
 33
0.0
  0
SOLID
  5
657C
330
6574
100
AcDbEntity
  8
1
 62
     2
100
AcDbTrace
 10
566.7922782240345
 20
154.4794180490973
 30
0.0
 11
567.3756115573677
 21
154.4794180490973
 31
0.0
 12
567.0839448907011
 22
152.7294180490973
 32
0.0
 13
567.0839448907011
 23
152.7294180490973
 33
0.0
  0
MTEXT
  5
657D
330
6574
100
AcDbEntity
  8
1
 62
     3
100
AcDbMText
 10
567.0839448907011
 20
181.7294180490973
 30
0.0
 40
1.75
 41
0.0
 46
0.0
 71
     5
 72
     1
  1
\A1;58
  7
CONVERTER_11
 11
6.123233995736766E-17
 21
1.0
 31
0.0
 73
     1
 44
1.0
  0
POINT
  5
657E
330
6574
100
AcDbEntity
  8
DEFPOINTS
 62
     0
100
AcDbPoint
 10
577.0839448907011
 20
210.7294180490972
 30
0.0
  0
POINT
  5
657F
330
6574
100
AcDbEntity
  8
DEFPOINTS
 62
     0
100
AcDbPoint
 10
577.0839449038933
 20
152.7294180490973
 30
0.0
  0
POINT
  5
6580
330
6574
100
AcDbEntity
  8
DEFPOINTS
 62
     0
100
AcDbPoint
 10
567.0839448907011
 20
152.7294180490973
 30
0.0
  0
ENDBLK
  5
6576
330
6574
100
AcDbEntity
  8
0
100
AcDbBlockEnd
  0
BLOCK
  5
658E
330
658D
100
AcDbEntity
  8
0
100
AcDbBlockBegin
  2
*D20
 70
     1
 10
0.0
 20
0.0
 30
0.0
  3
*D20
  1
*D22
  0
LINE
  5
6590
330
658D
100
AcDbEntity
  8
1
 62
     0
370
    -2
100
AcDbLine
 10
597.1514905616534
 20
197.4615142329715
 30
0.0
 11
597.1495302471022
 21
186.4647268989958
 31
0.0
  0
LINE
  5
6591
330
658D
100
AcDbEntity
  8
1
 62
     0
370
    -2
100
AcDbLine
 10
584.1523379986407
 20
197.4638314941086
 30
0.0
 11
584.1503776840896
 21
186.4670441601329
 31
0.0
  0
LINE
  5
6592
330
658D
100
AcDbEntity
  8
1
 62
     0
370
    -2
100
AcDbLine
 10
595.3997085373819
 20
187.4650388424371
 30
0.0
 11
585.9005559187586
 21
187.466732184914
 31
0.0
  0
SOLID
  5
6593
330
658D
100
AcDbEntity
  8
1
 62
     0
100
AcDbTrace
 10
595.3996565441603
 20
187.1733721804047
 30
0.0
 11
595.3997605306035
 21
187.7567055044696
 31
0.0
 12
597.1497085095766
 22
187.464726883107
 32
0.0
 13
597.1497085095766
 23
187.464726883107
 33
0.0
  0
SOLID
  5
6594
330
658D
100
AcDbEntity
  8
1
 62
     0
100
AcDbTrace
 10
585.9006079119803
 20
187.7583988469464
 30
0.0
 11
585.900503925537
 21
187.1750655228816
 31
0.0
 12
584.1505559465639
 22
187.4670441442441
 32
0.0
 13
584.1505559465639
 23
187.4670441442441
 33
0.0
  0
MTEXT
  5
6595
330
658D
100
AcDbEntity
  8
1
 62
     0
100
AcDbMText
 10
590.6504664702097
 20
189.3408854838842
 30
0.0
 40
1.75
 41
0.0
 46
0.0
 71
     5
 72
     1
  1
\A1;13
  7
CONVERTER_11
 11
0.999999984111245
 21
-0.0001782624743464524
 31
0.0
 73
     1
 44
1.0
  0
POINT
  5
6596
330
658D
100
AcDbEntity
  8
DEFPOINTS
 62
     0
100
AcDbPoint
 10
597.1514905616534
 20
197.4615142329715
 30
0.0
  0
POINT
  5
6597
330
658D
100
AcDbEntity
  8
DEFPOINTS
 62
     0
100
AcDbPoint
 10
584.1523379986407
 20
197.4638314941086
 30
0.0
  0
POINT
  5
6598
330
658D
100
AcDbEntity
  8
DEFPOINTS
 62
     0
100
AcDbPoint
 10
584.1505559465639
 20
187.4670441442441
 30
0.0
  0
ENDBLK
  5
658F
330
658D
100
AcDbEntity
  8
0
100
AcDbBlockEnd
  0
BLOCK
  5
659A
330
6599
100
AcDbEntity
  8
0
100
AcDbBlockBegin
  2
*D21
 70
     1
 10
0.0
 20
0.0
 30
0.0
  3
*D21
  1
*D23
  0
LINE
  5
659C
330
6599
100
AcDbEntity
  8
WYMIARY
 62
     0
370
    -2
100
AcDbLine
 10
582.828585204577
 20
226.4702129127016
 30
0.0
 11
572.8272621664223
 21
226.4702129127016
 31
0.0
  0
LINE
  5
659D
330
6599
100
AcDbEntity
  8
WYMIARY
 62
     0
370
    -2
100
AcDbLine
 10
582.8272621796145
 20
197.4670016893447
 30
0.0
 11
572.8272621664223
 21
197.4670016893447
 31
0.0
  0
LINE
  5
659E
330
6599
100
AcDbEntity
  8
WYMIARY
 62
     0
370
    -2
100
AcDbLine
 10
574.3272621664223
 20
224.4702129127016
 30
0.0
 11
574.3272621664223
 21
216.3019406343565
 31
0.0
  0
LINE
  5
659F
330
6599
100
AcDbEntity
  8
WYMIARY
 62
     0
370
    -2
100
AcDbLine
 10
574.3272621664223
 20
199.4670016893447
 30
0.0
 11
574.3272621664223
 21
207.6352739676898
 31
0.0
  0
INSERT
  5
65A0
330
6599
100
AcDbEntity
  8
WYMIARY
 62
     0
370
    -2
100
AcDbBlockReference
  2
VDDIM_DEFAULT
 10
574.3272621664223
 20
226.4702129127016
 30
0.0
 41
2.0
 42
2.0
 43
2.0
 50
90.0
  0
INSERT
  5
65A1
330
6599
100
AcDbEntity
  8
WYMIARY
 62
     0
370
    -2
100
AcDbBlockReference
  2
VDDIM_DEFAULT
 10
574.3272621664223
 20
197.4670016893447
 30
0.0
 41
2.0
 42
2.0
 43
2.0
 50
270.0
  0
MTEXT
  5
65A2
330
6599
100
AcDbEntity
  8
WYMIARY
 62
     1
100
AcDbMText
 10
574.3272621664223
 20
211.9686073010232
 30
0.0
 40
2.0
 41
0.0
 46
0.0
 71
     5
 72
     1
  1
\A1;29.0
 11
6.123233995736766E-17
 21
1.0
 31
0.0
 73
     1
 44
1.0
  0
POINT
  5
65A3
330
6599
100
AcDbEntity
  8
DEFPOINTS
 62
     0
100
AcDbPoint
 10
584.328585204577
 20
226.4702129127016
 30
0.0
  0
POINT
  5
65A4
330
6599
100
AcDbEntity
  8
DEFPOINTS
 62
     0
100
AcDbPoint
 10
584.3272621796145
 20
197.4670016893447
 30
0.0
  0
POINT
  5
65A5
330
6599
100
AcDbEntity
  8
DEFPOINTS
 62
     0
100
AcDbPoint
 10
574.3272621664223
 20
197.4670016893447
 30
0.0
  0
ENDBLK
  5
659B
330
6599
100
AcDbEntity
  8
0
100
AcDbBlockEnd
  0
BLOCK
  5
65AC
330
65AB
100
AcDbEntity
  8
0
100
AcDbBlockBegin
  2
*D22
 70
     1
 10
0.0
 20
0.0
 30
0.0
  3
*D22
  1
*D24
  0
LINE
  5
65AE
330
65AB
100
AcDbEntity
  8
1
 62
     2
370
    -2
100
AcDbLine
 10
616.5895465364259
 20
157.0756385803995
 30
0.0
 11
616.5895465364274
 21
146.0756385803995
 31
0.0
  0
LINE
  5
65AF
330
65AB
100
AcDbEntity
  8
1
 62
     2
370
    -2
100
AcDbLine
 10
576.5895465364259
 20
157.0756385803941
 30
0.0
 11
576.5895465364274
 21
146.0756385803941
 31
0.0
  0
LINE
  5
65B0
330
65AB
100
AcDbEntity
  8
1
 62
     2
370
    -2
100
AcDbLine
 10
614.8395465364273
 20
147.0756385803993
 30
0.0
 11
578.3395465364273
 21
147.0756385803944
 31
0.0
  0
SOLID
  5
65B1
330
65AB
100
AcDbEntity
  8
1
 62
     2
100
AcDbTrace
 10
614.8395465364273
 20
146.7839719137326
 30
0.0
 11
614.8395465364273
 21
147.367305247066
 31
0.0
 12
616.5895465364273
 22
147.0756385803995
 32
0.0
 13
616.5895465364273
 23
147.0756385803995
 33
0.0
  0
SOLID
  5
65B2
330
65AB
100
AcDbEntity
  8
1
 62
     2
100
AcDbTrace
 10
578.3395465364273
 20
147.367305247061
 30
0.0
 11
578.3395465364273
 21
146.7839719137277
 31
0.0
 12
576.5895465364273
 22
147.0756385803941
 32
0.0
 13
576.5895465364273
 23
147.0756385803941
 33
0.0
  0
MTEXT
  5
65B3
330
65AB
100
AcDbEntity
  8
1
 62
     3
100
AcDbMText
 10
596.5895465364271
 20
148.9506385803968
 30
0.0
 40
1.75
 41
0.0
 46
0.0
 71
     5
 72
     1
  1
\A1;40
  7
CONVERTER_11
 73
     1
 44
1.0
  0
POINT
  5
65B4
330
65AB
100
AcDbEntity
  8
DEFPOINTS
 62
     0
100
AcDbPoint
 10
616.5895465364259
 20
157.0756385803995
 30
0.0
  0
POINT
  5
65B5
330
65AB
100
AcDbEntity
  8
DEFPOINTS
 62
     0
100
AcDbPoint
 10
576.5895465364259
 20
157.0756385803941
 30
0.0
  0
POINT
  5
65B6
330
65AB
100
AcDbEntity
  8
DEFPOINTS
 62
     0
100
AcDbPoint
 10
576.5895465364273
 20
147.0756385803941
 30
0.0
  0
ENDBLK
  5
65AD
330
65AB
100
AcDbEntity
  8
0
100
AcDbBlockEnd
  0
BLOCK
  5
65C2
330
65C1
100
AcDbEntity
  8
0
100
AcDbBlockBegin
  2
*D23
 70
     1
 10
0.0
 20
0.0
 30
0.0
  3
*D23
  1
*D25
  0
LINE
  5
65C4
330
65C1
100
AcDbEntity
  8
WYMIARY
 62
     0
370
    -2
100
AcDbLine
 10
527.9392594210478
 20
157.0537163099706
 30
0.0
 11
532.9560319717908
 21
157.0537163099706
 31
0.0
  0
LINE
  5
65C5
330
65C1
100
AcDbEntity
  8
WYMIARY
 62
     0
370
    -2
100
AcDbLine
 10
528.9219588197693
 20
159.1254554214858
 30
0.0
 11
532.9560319717908
 21
159.1254554214858
 31
0.0
  0
LINE
  5
65C6
330
65C1
100
AcDbEntity
  8
WYMIARY
 62
     0
370
    -2
100
AcDbLine
 10
531.4560319717908
 20
157.0537163099706
 30
0.0
 11
531.4560319717908
 21
144.3870496433038
 31
0.0
  0
LINE
  5
65C7
330
65C1
100
AcDbEntity
  8
WYMIARY
 62
     0
370
    -2
100
AcDbLine
 10
531.4560319717908
 20
157.0537163099706
 30
0.0
 11
531.4560319717908
 21
159.1254554214858
 31
0.0
  0
LINE
  5
65C8
330
65C1
100
AcDbEntity
  8
WYMIARY
 62
     0
370
    -2
100
AcDbLine
 10
531.4560319717908
 20
155.0537163099706
 30
0.0
 11
531.4560319717908
 21
153.0537163099706
 31
0.0
  0
LINE
  5
65C9
330
65C1
100
AcDbEntity
  8
WYMIARY
 62
     0
370
    -2
100
AcDbLine
 10
531.4560319717908
 20
161.1254554214858
 30
0.0
 11
531.4560319717908
 21
163.1254554214858
 31
0.0
  0
INSERT
  5
65CA
330
65C1
100
AcDbEntity
  8
WYMIARY
 62
     0
370
    -2
100
AcDbBlockReference
  2
VDDIM_DEFAULT
 10
531.4560319717908
 20
157.0537163099706
 30
0.0
 41
2.0
 42
2.0
 43
2.0
 50
90.0
  0
INSERT
  5
65CB
330
65C1
100
AcDbEntity
  8
WYMIARY
 62
     0
370
    -2
100
AcDbBlockReference
  2
VDDIM_DEFAULT
 10
531.4560319717908
 20
159.1254554214858
 30
0.0
 41
2.0
 42
2.0
 43
2.0
 50
270.0
  0
MTEXT
  5
65CC
330
65C1
100
AcDbEntity
  8
WYMIARY
100
AcDbMText
 10
528.9560319717908
 20
148.7203829766372
 30
0.0
 40
2.0
 41
0.0
 46
0.0
 71
     5
 72
     1
  1
\A1;2.07
 11
0.0
 21
1.0
 31
0.0
 73
     1
 44
1.0
  0
POINT
  5
65CD
330
65C1
100
AcDbEntity
  8
DEFPOINTS
 62
     0
100
AcDbPoint
 10
526.4392594210478
 20
157.0537163099706
 30
0.0
  0
POINT
  5
65CE
330
65C1
100
AcDbEntity
  8
DEFPOINTS
 62
     0
100
AcDbPoint
 10
527.4219588197693
 20
159.1254554214858
 30
0.0
  0
POINT
  5
65CF
330
65C1
100
AcDbEntity
  8
DEFPOINTS
 62
     0
100
AcDbPoint
 10
531.4560319717908
 20
159.1254554214858
 30
0.0
  0
ENDBLK
  5
65C3
330
65C1
100
AcDbEntity
  8
0
100
AcDbBlockEnd
  0
BLOCK
  5
65D2
330
65D1
100
AcDbEntity
  8
0
100
AcDbBlockBegin
  2
*D24
 70
     1
 10
0.0
 20
0.0
 30
0.0
  3
*D24
  1
*D26
  0
LINE
  5
65D4
330
65D1
100
AcDbEntity
  8
WYMIARY
 62
     0
370
    -2
100
AcDbLine
 10
534.7214838485356
 20
160.5855000609618
 30
0.0
 11
534.7214838485356
 21
160.4516423575715
 31
0.0
  0
LINE
  5
65D5
330
65D1
100
AcDbEntity
  8
WYMIARY
 62
     0
370
    -2
100
AcDbLine
 10
536.7227100573019
 20
160.5855000609618
 30
0.0
 11
536.7227100573019
 21
160.4516423575715
 31
0.0
  0
LINE
  5
65D6
330
65D1
100
AcDbEntity
  8
WYMIARY
 62
     0
370
    -2
100
AcDbLine
 10
536.7227100573019
 20
161.9516423575715
 30
0.0
 11
549.0560433906352
 21
161.9516423575715
 31
0.0
  0
LINE
  5
65D7
330
65D1
100
AcDbEntity
  8
WYMIARY
 62
     0
370
    -2
100
AcDbLine
 10
534.7214838485356
 20
161.9516423575715
 30
0.0
 11
536.7227100573019
 21
161.9516423575715
 31
0.0
  0
LINE
  5
65D8
330
65D1
100
AcDbEntity
  8
WYMIARY
 62
     0
370
    -2
100
AcDbLine
 10
532.7214838485356
 20
161.9516423575715
 30
0.0
 11
530.7214838485356
 21
161.9516423575715
 31
0.0
  0
LINE
  5
65D9
330
65D1
100
AcDbEntity
  8
WYMIARY
 62
     0
370
    -2
100
AcDbLine
 10
538.7227100573019
 20
161.9516423575715
 30
0.0
 11
540.7227100573019
 21
161.9516423575715
 31
0.0
  0
INSERT
  5
65DA
330
65D1
100
AcDbEntity
  8
WYMIARY
 62
     0
370
    -2
100
AcDbBlockReference
  2
VDDIM_DEFAULT
 10
534.7214838485356
 20
161.9516423575715
 30
0.0
 41
2.0
 42
2.0
 43
2.0
  0
INSERT
  5
65DB
330
65D1
100
AcDbEntity
  8
WYMIARY
 62
     0
370
    -2
100
AcDbBlockReference
  2
VDDIM_DEFAULT
 10
536.7227100573019
 20
161.9516423575715
 30
0.0
 41
2.0
 42
2.0
 43
2.0
 50
180.0
  0
MTEXT
  5
65DC
330
65D1
100
AcDbEntity
  8
WYMIARY
100
AcDbMText
 10
544.8893767239686
 20
164.4516423575715
 30
0.0
 40
2.0
 41
0.0
 46
0.0
 71
     5
 72
     1
  1
\A1;2.00
 73
     1
 44
1.0
  0
POINT
  5
65DD
330
65D1
100
AcDbEntity
  8
DEFPOINTS
 62
     0
100
AcDbPoint
 10
534.7214838485356
 20
162.0855000609618
 30
0.0
  0
POINT
  5
65DE
330
65D1
100
AcDbEntity
  8
DEFPOINTS
 62
     0
100
AcDbPoint
 10
536.7227100573019
 20
162.0855000609618
 30
0.0
  0
POINT
  5
65DF
330
65D1
100
AcDbEntity
  8
DEFPOINTS
 62
     0
100
AcDbPoint
 10
536.7227100573019
 20
161.9516423575715
 30
0.0
  0
ENDBLK
  5
65D3
330
65D1
100
AcDbEntity
  8
0
100
AcDbBlockEnd
  0
BLOCK
  5
6628
330
6627
100
AcDbEntity
  8
0
100
AcDbBlockBegin
  2
*D25
 70
     1
 10
0.0
 20
0.0
 30
0.0
  3
*D25
  1
*D27
  0
LINE
  5
662A
330
6627
100
AcDbEntity
  8
WYMIARY
 62
     0
370
    -2
100
AcDbLine
 10
582.828585204577
 20
226.4702129127016
 30
0.0
 11
572.8272621664223
 21
226.4702129127016
 31
0.0
  0
LINE
  5
662B
330
6627
100
AcDbEntity
  8
WYMIARY
 62
     0
370
    -2
100
AcDbLine
 10
582.8272621796145
 20
197.4670016893447
 30
0.0
 11
572.8272621664223
 21
197.4670016893447
 31
0.0
  0
LINE
  5
662C
330
6627
100
AcDbEntity
  8
WYMIARY
 62
     0
370
    -2
100
AcDbLine
 10
574.3272621664223
 20
224.4702129127016
 30
0.0
 11
574.3272621664223
 21
216.3019406343565
 31
0.0
  0
LINE
  5
662D
330
6627
100
AcDbEntity
  8
WYMIARY
 62
     0
370
    -2
100
AcDbLine
 10
574.3272621664223
 20
199.4670016893447
 30
0.0
 11
574.3272621664223
 21
207.6352739676898
 31
0.0
  0
INSERT
  5
662E
330
6627
100
AcDbEntity
  8
WYMIARY
 62
     0
370
    -2
100
AcDbBlockReference
  2
VDDIM_DEFAULT
 10
574.3272621664223
 20
226.4702129127016
 30
0.0
 41
2.0
 42
2.0
 43
2.0
 50
90.0
  0
INSERT
  5
662F
330
6627
100
AcDbEntity
  8
WYMIARY
 62
     0
370
    -2
100
AcDbBlockReference
  2
VDDIM_DEFAULT
 10
574.3272621664223
 20
197.4670016893447
 30
0.0
 41
2.0
 42
2.0
 43
2.0
 50
270.0
  0
MTEXT
  5
6630
330
6627
100
AcDbEntity
  8
WYMIARY
 62
     1
100
AcDbMText
 10
574.3272621664223
 20
211.9686073010232
 30
0.0
 40
2.0
 41
0.0
 46
0.0
 71
     5
 72
     1
  1
\A1;29.0
 11
6.123233995736766E-17
 21
1.0
 31
0.0
 73
     1
 44
1.0
  0
POINT
  5
6631
330
6627
100
AcDbEntity
  8
DEFPOINTS
 62
     0
100
AcDbPoint
 10
584.328585204577
 20
226.4702129127016
 30
0.0
  0
POINT
  5
6632
330
6627
100
AcDbEntity
  8
DEFPOINTS
 62
     0
100
AcDbPoint
 10
584.3272621796145
 20
197.4670016893447
 30
0.0
  0
POINT
  5
6633
330
6627
100
AcDbEntity
  8
DEFPOINTS
 62
     0
100
AcDbPoint
 10
574.3272621664223
 20
197.4670016893447
 30
0.0
  0
ENDBLK
  5
6629
330
6627
100
AcDbEntity
  8
0
100
AcDbBlockEnd
  0
BLOCK
  5
6641
330
6640
100
AcDbEntity
  8
0
100
AcDbBlockBegin
  2
_FILLED
 70
     0
 10
0.0
 20
0.0
 30
0.0
  3
_FILLED
  1
_FILLED
  0
SOLID
  5
6642
330
6640
100
AcDbEntity
  8
0
  6
ByBlock
 62
     0
100
AcDbTrace
 10
0.0
 20
0.0
 30
0.0
 11
-1.0
 21
0.25
 31
0.0
 12
-1.0
 22
-0.25
 32
0.0
 13
-1.0
 23
-0.25
 33
0.0
  0
ENDBLK
  5
6643
330
6640
100
AcDbEntity
  8
0
  6
ByBlock
 62
     0
100
AcDbBlockEnd
  0
BLOCK
  5
6666
330
6665
100
AcDbEntity
  8
0
100
AcDbBlockBegin
  2
*D28
 70
     1
 10
0.0
 20
0.0
 30
0.0
  3
*D28
  1
*D28
  0
LINE
  5
6667
330
6665
100
AcDbEntity
  8
0
  6
Continuous
 62
     0
370
    -2
100
AcDbLine
 10
129.0362033324
 20
113.6874338239
 30
0.0
 11
142.8073694848
 21
113.6874338239
 31
0.0
  0
LINE
  5
6668
330
6665
100
AcDbEntity
  8
0
  6
Continuous
 62
     0
370
    -2
100
AcDbLine
 10
125.5625191219
 20
86.73743382389999
 30
0.0
 11
142.8073694848
 21
86.73743382389999
 31
0.0
  0
LINE
  5
6669
330
6665
100
AcDbEntity
  8
0
  6
Continuous
 62
     0
370
    -2
100
AcDbLine
 10
142.6273694848
 20
110.6874338239
 30
0.0
 11
142.6273694848
 21
89.73743382389999
 31
0.0
  0
INSERT
  5
666A
330
6665
100
AcDbEntity
  8
0
 62
     0
370
    -2
100
AcDbBlockReference
  2
_FILLED
 10
142.6273694848
 20
113.6874338239
 30
0.0
 41
3.0
 42
3.0
 43
3.0
 50
90.0
  0
INSERT
  5
666B
330
6665
100
AcDbEntity
  8
0
 62
     0
370
    -2
100
AcDbBlockReference
  2
_FILLED
 10
142.6273694848
 20
86.73743382389999
 30
0.0
 41
3.0
 42
3.0
 43
3.0
 50
270.0
  0
MTEXT
  5
666C
330
6665
100
AcDbEntity
  8
0
 62
     5
100
AcDbMText
 10
139.5373694848
 20
98.06684183130001
 30
0.0
 40
3.0
 41
0.0
 46
0.0
 71
     2
 72
     1
  1
\A1;26.95
 11
0.0
 21
1.0
 31
0.0
 73
     1
 44
1.0
  0
POINT
  5
666D
330
6665
100
AcDbEntity
  8
DEFPOINTS
 62
     0
100
AcDbPoint
 10
128.9737033324
 20
113.6874338239
 30
0.0
  0
POINT
  5
6B68
330
6665
100
AcDbEntity
  8
DEFPOINTS
 62
     0
100
AcDbPoint
 10
125.5000191219
 20
86.73743382389999
 30
0.0
  0
POINT
  5
6B69
330
6665
100
AcDbEntity
  8
DEFPOINTS
 62
     0
100
AcDbPoint
 10
143.8019928061
 20
86.73743382389999
 30
0.0
  0
ENDBLK
  5
666E
330
6665
100
AcDbEntity
  8
0
  6
ByBlock
 62
     0
100
AcDbBlockEnd
  0
BLOCK
  5
6671
330
6670
100
AcDbEntity
  8
0
100
AcDbBlockBegin
  2
*D29
 70
     1
 10
0.0
 20
0.0
 30
0.0
  3
*D29
  1
*D29
  0
LINE
  5
6672
330
6670
100
AcDbEntity
  8
0
  6
Continuous
 62
     0
370
    -2
100
AcDbLine
 10
29.91936649030001
 20
110.6874338239
 30
0.0
 11
20.39537667870001
 21
110.6874338239
 31
0.0
  0
LINE
  5
6673
330
6670
100
AcDbEntity
  8
0
  6
Continuous
 62
     0
370
    -2
100
AcDbLine
 10
29.91936649030001
 20
86.73743382389999
 30
0.0
 11
20.39537667870001
 21
86.73743382389999
 31
0.0
  0
LINE
  5
6674
330
6670
100
AcDbEntity
  8
0
  6
Continuous
 62
     0
370
    -2
100
AcDbLine
 10
20.57537667870001
 20
107.6874338239
 30
0.0
 11
20.57537667870001
 21
89.73743382389999
 31
0.0
  0
INSERT
  5
6675
330
6670
100
AcDbEntity
  8
0
 62
     0
370
    -2
100
AcDbBlockReference
  2
_FILLED
 10
20.57537667870001
 20
110.6874338239
 30
0.0
 41
3.0
 42
3.0
 43
3.0
 50
90.0
  0
INSERT
  5
6676
330
6670
100
AcDbEntity
  8
0
 62
     0
370
    -2
100
AcDbBlockReference
  2
_FILLED
 10
20.57537667870001
 20
86.73743382389999
 30
0.0
 41
3.0
 42
3.0
 43
3.0
 50
270.0
  0
MTEXT
  5
6677
330
6670
100
AcDbEntity
  8
0
 62
     5
100
AcDbMText
 10
17.48537667870001
 20
96.56684183130001
 30
0.0
 40
3.0
 41
0.0
 46
0.0
 71
     2
 72
     1
  1
\A1;23.95
 11
1.483387757327974E-16
 21
1.0
 31
0.0
 73
     1
 44
1.0
  0
POINT
  5
6678
330
6670
100
AcDbEntity
  8
DEFPOINTS
 62
     0
100
AcDbPoint
 10
29.98186649030001
 20
110.6874338239
 30
0.0
  0
POINT
  5
6B6A
330
6670
100
AcDbEntity
  8
DEFPOINTS
 62
     0
100
AcDbPoint
 10
29.98186649030001
 20
86.73743382389999
 30
0.0
  0
POINT
  5
6B6B
330
6670
100
AcDbEntity
  8
DEFPOINTS
 62
     0
100
AcDbPoint
 10
21.75000000000001
 20
86.73743382389999
 30
0.0
  0
ENDBLK
  5
6679
330
6670
100
AcDbEntity
  8
0
  6
ByBlock
 62
     0
100
AcDbBlockEnd
  0
BLOCK
  5
667C
330
667B
100
AcDbEntity
  8
0
100
AcDbBlockBegin
  2
*D30
 70
     1
 10
0.0
 20
0.0
 30
0.0
  3
*D30
  1
*D30
  0
LINE
  5
667D
330
667B
100
AcDbEntity
  8
0
  6
Continuous
 62
     0
370
    -2
100
AcDbLine
 10
42.36905070080002
 20
119.9374338239
 30
0.0
 11
12.47075335740002
 21
119.9374338239
 31
0.0
  0
LINE
  5
667E
330
667B
100
AcDbEntity
  8
0
  6
Continuous
 62
     0
370
    -2
100
AcDbLine
 10
29.74151385870002
 20
86.73743382389999
 30
0.0
 11
12.47075335740001
 21
86.7374338239
 31
0.0
  0
LINE
  5
667F
330
667B
100
AcDbEntity
  8
0
  6
Continuous
 62
     0
370
    -2
100
AcDbLine
 10
12.65075335740002
 20
116.9374338239
 30
0.0
 11
12.65075335740001
 21
89.7374338239
 31
0.0
  0
INSERT
  5
6680
330
667B
100
AcDbEntity
  8
0
 62
     0
370
    -2
100
AcDbBlockReference
  2
_FILLED
 10
12.65075335740002
 20
119.9374338239
 30
0.0
 41
3.0
 42
3.0
 43
3.0
 50
90.0
  0
INSERT
  5
6681
330
667B
100
AcDbEntity
  8
0
 62
     0
370
    -2
100
AcDbBlockReference
  2
_FILLED
 10
12.65075335740001
 20
86.7374338239
 30
0.0
 41
3.0
 42
3.0
 43
3.0
 50
270.0
  0
MTEXT
  5
6682
330
667B
100
AcDbEntity
  8
0
 62
     5
100
AcDbMText
 10
9.560753357400014
 20
99.04624983859999
 30
0.0
 40
3.0
 41
0.0
 46
0.0
 71
     2
 72
     1
  1
\A1;33.2
 11
1.605141722349622E-16
 21
1.0
 31
0.0
 73
     1
 44
1.0
  0
POINT
  5
6683
330
667B
100
AcDbEntity
  8
DEFPOINTS
 62
     0
100
AcDbPoint
 10
42.43155070080002
 20
119.9374338239
 30
0.0
  0
POINT
  5
6B6C
330
667B
100
AcDbEntity
  8
DEFPOINTS
 62
     0
100
AcDbPoint
 10
29.80401385870002
 20
86.73743382389999
 30
0.0
  0
POINT
  5
6B6D
330
667B
100
AcDbEntity
  8
DEFPOINTS
 62
     0
100
AcDbPoint
 10
12.75000000000001
 20
86.73743382389999
 30
0.0
  0
ENDBLK
  5
6684
330
667B
100
AcDbEntity
  8
0
  6
ByBlock
 62
     0
100
AcDbBlockEnd
  0
BLOCK
  5
6687
330
6686
100
AcDbEntity
  8
0
100
AcDbBlockBegin
  2
*D31
 70
     1
 10
0.0
 20
0.0
 30
0.0
  3
*D31
  1
*D31
  0
LINE
  5
6688
330
6686
100
AcDbEntity
  8
0
  6
Continuous
 62
     0
370
    -2
100
AcDbLine
 10
53.07633491130001
 20
129.1874338239
 30
0.0
 11
3.470753357400017
 21
129.1874338239
 31
0.0
  0
LINE
  5
6689
330
6686
100
AcDbEntity
  8
0
  6
Continuous
 62
     0
370
    -2
100
AcDbLine
 10
29.91936649030001
 20
86.73743382389999
 30
0.0
 11
3.470753357400011
 21
86.73743382389999
 31
0.0
  0
LINE
  5
668A
330
6686
100
AcDbEntity
  8
0
  6
Continuous
 62
     0
370
    -2
100
AcDbLine
 10
3.650753357400017
 20
126.1874338239
 30
0.0
 11
3.650753357400011
 21
89.73743382389999
 31
0.0
  0
INSERT
  5
668B
330
6686
100
AcDbEntity
  8
0
 62
     0
370
    -2
100
AcDbBlockReference
  2
_FILLED
 10
3.650753357400017
 20
129.1874338239
 30
0.0
 41
3.0
 42
3.0
 43
3.0
 50
90.0
  0
INSERT
  5
668C
330
6686
100
AcDbEntity
  8
0
 62
     0
370
    -2
100
AcDbBlockReference
  2
_FILLED
 10
3.650753357400011
 20
86.73743382389999
 30
0.0
 41
3.0
 42
3.0
 43
3.0
 50
270.0
  0
MTEXT
  5
668D
330
6686
100
AcDbEntity
  8
0
 62
     5
100
AcDbMText
 10
0.5607533574000136
 20
103.6712498386
 30
0.0
 40
3.0
 41
0.0
 46
0.0
 71
     2
 72
     1
  1
\A1;42.45
 11
1.569219822791741E-16
 21
1.0
 31
0.0
 73
     1
 44
1.0
  0
POINT
  5
668E
330
6686
100
AcDbEntity
  8
DEFPOINTS
 62
     0
100
AcDbPoint
 10
53.13883491130001
 20
129.1874338239
 30
0.0
  0
POINT
  5
6B6E
330
6686
100
AcDbEntity
  8
DEFPOINTS
 62
     0
100
AcDbPoint
 10
29.98186649030001
 20
86.73743382389999
 30
0.0
  0
POINT
  5
6B6F
330
6686
100
AcDbEntity
  8
DEFPOINTS
 62
     0
100
AcDbPoint
 10
3.750000000000007
 20
86.73743382389999
 30
0.0
  0
ENDBLK
  5
668F
330
6686
100
AcDbEntity
  8
0
  6
ByBlock
 62
     0
100
AcDbBlockEnd
  0
BLOCK
  5
6692
330
6691
100
AcDbEntity
  8
0
100
AcDbBlockBegin
  2
*D32
 70
     1
 10
0.0
 20
0.0
 30
0.0
  3
*D32
  1
*D32
  0
LINE
  5
6693
330
6691
100
AcDbEntity
  8
0
  6
Continuous
 62
     0
370
    -2
100
AcDbLine
 10
30.41610333240001
 20
30.99999999999999
 30
0.0
 11
17.18651137950001
 21
30.99999999999999
 31
0.0
  0
LINE
  5
6694
330
6691
100
AcDbEntity
  8
0
  6
Continuous
 62
     0
370
    -2
100
AcDbLine
 10
29.9608005955
 20
0.0
 30
0.0
 11
17.18651137950001
 21
0.0000000000000036
 31
0.0
  0
LINE
  5
6695
330
6691
100
AcDbEntity
  8
0
  6
Continuous
 62
     0
370
    -2
100
AcDbLine
 10
17.36651137950001
 20
27.99999999999999
 30
0.0
 11
17.36651137950001
 21
3.000000000000004
 31
0.0
  0
INSERT
  5
6696
330
6691
100
AcDbEntity
  8
0
 62
     0
370
    -2
100
AcDbBlockReference
  2
_FILLED
 10
17.36651137950001
 20
30.99999999999999
 30
0.0
 41
3.0
 42
3.0
 43
3.0
 50
90.0
  0
INSERT
  5
6697
330
6691
100
AcDbEntity
  8
0
 62
     0
370
    -2
100
AcDbBlockReference
  2
_FILLED
 10
17.36651137950001
 20
0.0000000000000036
 30
0.0
 41
3.0
 42
3.0
 43
3.0
 50
270.0
  0
MTEXT
  5
6698
330
6691
100
AcDbEntity
  8
0
 62
     5
100
AcDbMText
 10
14.27651137950001
 20
13.35440800729999
 30
0.0
 40
3.0
 41
0.0
 46
0.0
 71
     2
 72
     1
  1
\A1;31
 11
1.146036670580807E-16
 21
1.0
 31
0.0
 73
     1
 44
1.0
  0
POINT
  5
6699
330
6691
100
AcDbEntity
  8
DEFPOINTS
 62
     0
100
AcDbPoint
 10
30.47860333240001
 20
30.99999999999999
 30
0.0
  0
POINT
  5
6B70
330
6691
100
AcDbEntity
  8
DEFPOINTS
 62
     0
100
AcDbPoint
 10
30.0233005955
 20
0.0
 30
0.0
  0
POINT
  5
6B71
330
6691
100
AcDbEntity
  8
DEFPOINTS
 62
     0
100
AcDbPoint
 10
18.54113470080001
 20
0.0000000000000018
 30
0.0
  0
ENDBLK
  5
669A
330
6691
100
AcDbEntity
  8
0
  6
ByBlock
 62
     0
100
AcDbBlockEnd
  0
BLOCK
  5
669D
330
669C
100
AcDbEntity
  8
0
100
AcDbBlockBegin
  2
*D33
 70
     1
 10
0.0
 20
0.0
 30
0.0
  3
*D33
  1
*D33
  0
LINE
  5
669E
330
669C
100
AcDbEntity
  8
0
  6
Continuous
 62
     0
370
    -2
100
AcDbLine
 10
31.45000000000002
 20
32.4549635094
 30
0.0
 11
31.45000000000002
 21
46.4125957668
 31
0.0
  0
LINE
  5
669F
330
669C
100
AcDbEntity
  8
0
  6
Continuous
 62
     0
370
    -2
100
AcDbLine
 10
126.4
 20
32.23264772
 30
0.0
 11
126.4
 21
46.4125957668
 31
0.0
  0
LINE
  5
66A0
330
669C
100
AcDbEntity
  8
0
  6
Continuous
 62
     0
370
    -2
100
AcDbLine
 10
34.45000000000002
 20
46.2325957668
 30
0.0
 11
123.4
 21
46.2325957668
 31
0.0
  0
INSERT
  5
66A1
330
669C
100
AcDbEntity
  8
0
 62
     0
370
    -2
100
AcDbBlockReference
  2
_FILLED
 10
31.45000000000002
 20
46.2325957668
 30
0.0
 41
3.0
 42
3.0
 43
3.0
 50
180.0
  0
INSERT
  5
66A2
330
669C
100
AcDbEntity
  8
0
 62
     0
370
    -2
100
AcDbBlockReference
  2
_FILLED
 10
126.4
 20
46.2325957668
 30
0.0
 41
3.0
 42
3.0
 43
3.0
  0
MTEXT
  5
66A3
330
669C
100
AcDbEntity
  8
0
 62
     5
100
AcDbMText
 10
76.525
 20
49.32259576680001
 30
0.0
 40
3.0
 41
0.0
 46
0.0
 71
     2
 72
     1
  1
\A1;94.95
 73
     1
 44
1.0
  0
POINT
  5
66A4
330
669C
100
AcDbEntity
  8
DEFPOINTS
 62
     0
100
AcDbPoint
 10
31.45000000000002
 20
32.3924635094
 30
0.0
  0
POINT
  5
6B72
330
669C
100
AcDbEntity
  8
DEFPOINTS
 62
     0
100
AcDbPoint
 10
126.4
 20
32.17014772
 30
0.0
  0
POINT
  5
6B73
330
669C
100
AcDbEntity
  8
DEFPOINTS
 62
     0
100
AcDbPoint
 10
126.4
 20
43.9825957668
 30
0.0
  0
ENDBLK
  5
66A5
330
669C
100
AcDbEntity
  8
0
  6
ByBlock
 62
     0
100
AcDbBlockEnd
  0
BLOCK
  5
66A8
330
66A7
100
AcDbEntity
  8
0
100
AcDbBlockBegin
  2
*D34
 70
     1
 10
0.0
 20
0.0
 30
0.0
  3
*D34
  1
*D34
  0
LINE
  5
66A9
330
66A7
100
AcDbEntity
  8
0
  6
Continuous
 62
     0
370
    -2
100
AcDbLine
 10
71.25000000000001
 20
128.7499338239
 30
0.0
 11
71.25000000000001
 21
159.6174338239
 31
0.0
  0
LINE
  5
66AA
330
66A7
100
AcDbEntity
  8
0
  6
Continuous
 62
     0
370
    -2
100
AcDbLine
 10
56.25000000000001
 20
128.7499338239
 30
0.0
 11
56.25000000000001
 21
159.6174338239
 31
0.0
  0
LINE
  5
66AB
330
66A7
100
AcDbEntity
  8
0
  6
Continuous
 62
     0
370
    -2
100
AcDbLine
 10
68.25000000000001
 20
159.4374338239
 30
0.0
 11
59.25000000000001
 21
159.4374338239
 31
0.0
  0
INSERT
  5
66AC
330
66A7
100
AcDbEntity
  8
0
 62
     0
370
    -2
100
AcDbBlockReference
  2
_FILLED
 10
71.25000000000001
 20
159.4374338239
 30
0.0
 41
3.0
 42
3.0
 43
3.0
  0
INSERT
  5
66AD
330
66A7
100
AcDbEntity
  8
0
 62
     0
370
    -2
100
AcDbBlockReference
  2
_FILLED
 10
56.25000000000001
 20
159.4374338239
 30
0.0
 41
3.0
 42
3.0
 43
3.0
 50
180.0
  0
MTEXT
  5
66AE
330
66A7
100
AcDbEntity
  8
0
 62
     5
100
AcDbMText
 10
61.35000000000001
 20
162.5274338239
 30
0.0
 40
3.0
 41
0.0
 46
0.0
 71
     2
 72
     1
  1
\A1;15
 73
     1
 44
1.0
  0
POINT
  5
66AF
330
66A7
100
AcDbEntity
  8
DEFPOINTS
 62
     0
100
AcDbPoint
 10
71.25000000000001
 20
128.6874338239
 30
0.0
  0
POINT
  5
6B74
330
66A7
100
AcDbEntity
  8
DEFPOINTS
 62
     0
100
AcDbPoint
 10
56.25000000000001
 20
128.6874338239
 30
0.0
  0
POINT
  5
6B75
330
66A7
100
AcDbEntity
  8
DEFPOINTS
 62
     0
100
AcDbPoint
 10
56.25000000000001
 20
157.1874338239
 30
0.0
  0
ENDBLK
  5
66B0
330
66A7
100
AcDbEntity
  8
0
  6
ByBlock
 62
     0
100
AcDbBlockEnd
  0
BLOCK
  5
66B3
330
66B2
100
AcDbEntity
  8
0
100
AcDbBlockBegin
  2
*D35
 70
     1
 10
0.0
 20
0.0
 30
0.0
  3
*D35
  1
*D35
  0
LINE
  5
66B4
330
66B2
100
AcDbEntity
  8
0
  6
Continuous
 62
     0
370
    -2
100
AcDbLine
 10
43.85000000000001
 20
119.4999338239
 30
0.0
 11
43.85000000000001
 21
150.6174338239
 31
0.0
  0
LINE
  5
66B5
330
66B2
100
AcDbEntity
  8
0
  6
Continuous
 62
     0
370
    -2
100
AcDbLine
 10
56.25000000000001
 20
128.7499338239
 30
0.0
 11
56.25000000000001
 21
150.6174338239
 31
0.0
  0
LINE
  5
66B6
330
66B2
100
AcDbEntity
  8
0
  6
Continuous
 62
     0
370
    -2
100
AcDbLine
 10
43.85000000000001
 20
150.4374338239
 30
0.0
 11
24.5406380006
 21
150.4374338239
 31
0.0
  0
LINE
  5
66B7
330
66B2
100
AcDbEntity
  8
0
  6
Continuous
 62
     0
370
    -2
100
AcDbLine
 10
46.85000000000001
 20
150.4374338239
 30
0.0
 11
53.25000000000001
 21
150.4374338239
 31
0.0
  0
INSERT
  5
66B8
330
66B2
100
AcDbEntity
  8
0
 62
     0
370
    -2
100
AcDbBlockReference
  2
_FILLED
 10
43.85000000000001
 20
150.4374338239
 30
0.0
 41
3.0
 42
3.0
 43
3.0
 50
180.0
  0
INSERT
  5
66B9
330
66B2
100
AcDbEntity
  8
0
 62
     0
370
    -2
100
AcDbBlockReference
  2
_FILLED
 10
56.25000000000001
 20
150.4374338239
 30
0.0
 41
3.0
 42
3.0
 43
3.0
  0
MTEXT
  5
66BA
330
66B2
100
AcDbEntity
  8
0
 62
     5
100
AcDbMText
 10
32.63063800060001
 20
153.5274338239
 30
0.0
 40
3.0
 41
0.0
 46
0.0
 71
     3
 72
     1
  1
\A1;12.4
 73
     1
 44
1.0
  0
POINT
  5
66BB
330
66B2
100
AcDbEntity
  8
DEFPOINTS
 62
     0
100
AcDbPoint
 10
43.85000000000001
 20
119.4374338239
 30
0.0
  0
POINT
  5
6B76
330
66B2
100
AcDbEntity
  8
DEFPOINTS
 62
     0
100
AcDbPoint
 10
56.25000000000001
 20
128.6874338239
 30
0.0
  0
POINT
  5
6B77
330
66B2
100
AcDbEntity
  8
DEFPOINTS
 62
     0
100
AcDbPoint
 10
56.25000000000001
 20
148.1874338239
 30
0.0
  0
ENDBLK
  5
66BC
330
66B2
100
AcDbEntity
  8
0
  6
ByBlock
 62
     0
100
AcDbBlockEnd
  0
BLOCK
  5
66BF
330
66BE
100
AcDbEntity
  8
0
100
AcDbBlockBegin
  2
*D36
 70
     1
 10
0.0
 20
0.0
 30
0.0
  3
*D36
  1
*D36
  0
LINE
  5
66C0
330
66BE
100
AcDbEntity
  8
0
  6
Continuous
 62
     0
370
    -2
100
AcDbLine
 10
31.45000000000002
 20
110.2499338239
 30
0.0
 11
31.45000000000002
 21
141.6174338239
 31
0.0
  0
LINE
  5
66C1
330
66BE
100
AcDbEntity
  8
0
  6
Continuous
 62
     0
370
    -2
100
AcDbLine
 10
43.85000000000001
 20
119.4999338239
 30
0.0
 11
43.85000000000001
 21
141.6174338239
 31
0.0
  0
LINE
  5
66C2
330
66BE
100
AcDbEntity
  8
0
  6
Continuous
 62
     0
370
    -2
100
AcDbLine
 10
31.45000000000002
 20
141.4374338239
 30
0.0
 11
20.27000000000002
 21
141.4374338239
 31
0.0
  0
LINE
  5
66C3
330
66BE
100
AcDbEntity
  8
0
  6
Continuous
 62
     0
370
    -2
100
AcDbLine
 10
34.45000000000002
 20
141.4374338239
 30
0.0
 11
40.85000000000001
 21
141.4374338239
 31
0.0
  0
INSERT
  5
66C4
330
66BE
100
AcDbEntity
  8
0
 62
     0
370
    -2
100
AcDbBlockReference
  2
_FILLED
 10
31.45000000000002
 20
141.4374338239
 30
0.0
 41
3.0
 42
3.0
 43
3.0
 50
180.0
  0
INSERT
  5
66C5
330
66BE
100
AcDbEntity
  8
0
 62
     0
370
    -2
100
AcDbBlockReference
  2
_FILLED
 10
43.85000000000001
 20
141.4374338239
 30
0.0
 41
3.0
 42
3.0
 43
3.0
  0
MTEXT
  5
66C6
330
66BE
100
AcDbEntity
  8
0
 62
     5
100
AcDbMText
 10
24.36000000000002
 20
144.5274338239
 30
0.0
 40
3.0
 41
0.0
 46
0.0
 71
     2
 72
     1
  1
\A1;12.4
 73
     1
 44
1.0
  0
POINT
  5
6B78
330
66BE
100
AcDbEntity
  8
DEFPOINTS
 62
     0
100
AcDbPoint
 10
31.45000000000002
 20
110.1874338239
 30
0.0
  0
POINT
  5
6B79
330
66BE
100
AcDbEntity
  8
DEFPOINTS
 62
     0
100
AcDbPoint
 10
43.85000000000001
 20
119.4374338239
 30
0.0
  0
POINT
  5
6B7A
330
66BE
100
AcDbEntity
  8
DEFPOINTS
 62
     0
100
AcDbPoint
 10
43.85000000000001
 20
139.1874338239
 30
0.0
  0
ENDBLK
  5
66C7
330
66BE
100
AcDbEntity
  8
0
  6
ByBlock
 62
     0
100
AcDbBlockEnd
  0
BLOCK
  5
7024
330
7023
100
AcDbEntity
  8
0
100
AcDbBlockBegin
  2
*D37
 70
     1
 10
0.0
 20
0.0
 30
0.0
  3
*D37
  1
*D37
  0
LINE
  5
7026
330
7023
100
AcDbEntity
  8
0
  6
Continuous
 62
     0
370
    -2
100
AcDbLine
 10
648.8397280052504
 20
193.4194167190362
 30
0.0
 11
662.6108941576505
 21
193.4194167190362
 31
0.0
  0
LINE
  5
7027
330
7023
100
AcDbEntity
  8
0
  6
Continuous
 62
     0
370
    -2
100
AcDbLine
 10
645.3660437947505
 20
166.4694167190362
 30
0.0
 11
662.6108941576505
 21
166.4694167190362
 31
0.0
  0
LINE
  5
7028
330
7023
100
AcDbEntity
  8
0
  6
Continuous
 62
     0
370
    -2
100
AcDbLine
 10
662.4308941576505
 20
190.4194167190362
 30
0.0
 11
662.4308941576505
 21
169.4694167190362
 31
0.0
  0
INSERT
  5
7029
330
7023
100
AcDbEntity
  8
0
 62
     0
370
    -2
100
AcDbBlockReference
  2
_FILLED
 10
662.4308941576505
 20
193.4194167190362
 30
0.0
 41
3.0
 42
3.0
 43
3.0
 50
90.0
  0
INSERT
  5
702A
330
7023
100
AcDbEntity
  8
0
 62
     0
370
    -2
100
AcDbBlockReference
  2
_FILLED
 10
662.4308941576505
 20
166.4694167190362
 30
0.0
 41
3.0
 42
3.0
 43
3.0
 50
270.0
  0
MTEXT
  5
702B
330
7023
100
AcDbEntity
  8
0
 62
     5
100
AcDbMText
 10
659.3408941576505
 20
177.7988247264362
 30
0.0
 40
3.0
 41
0.0
 46
0.0
 71
     2
 72
     1
  1
\A1;26.95
 11
0.0
 21
1.0
 31
0.0
 73
     1
 44
1.0
  0
POINT
  5
702C
330
7023
100
AcDbEntity
  8
DEFPOINTS
 62
     0
100
AcDbPoint
 10
648.7772280052504
 20
193.4194167190362
 30
0.0
  0
POINT
  5
702D
330
7023
100
AcDbEntity
  8
DEFPOINTS
 62
     0
100
AcDbPoint
 10
645.3035437947505
 20
166.4694167190362
 30
0.0
  0
POINT
  5
702E
330
7023
100
AcDbEntity
  8
DEFPOINTS
 62
     0
100
AcDbPoint
 10
662.4308941576505
 20
166.4694167190362
 30
0.0
  0
ENDBLK
  5
7025
330
7023
100
AcDbEntity
  8
0
100
AcDbBlockEnd
  0
BLOCK
  5
7030
330
702F
100
AcDbEntity
  8
0
100
AcDbBlockBegin
  2
*D38
 70
     1
 10
0.0
 20
0.0
 30
0.0
  3
*D38
  1
*D38
  0
LINE
  5
7032
330
702F
100
AcDbEntity
  8
0
  6
Continuous
 62
     0
370
    -2
100
AcDbLine
 10
549.7228911631505
 20
190.4194167190362
 30
0.0
 11
540.1989013515505
 21
190.4194167190362
 31
0.0
  0
LINE
  5
7033
330
702F
100
AcDbEntity
  8
0
  6
Continuous
 62
     0
370
    -2
100
AcDbLine
 10
549.7228911631505
 20
166.4694167190362
 30
0.0
 11
540.1989013515505
 21
166.4694167190362
 31
0.0
  0
LINE
  5
7034
330
702F
100
AcDbEntity
  8
0
  6
Continuous
 62
     0
370
    -2
100
AcDbLine
 10
540.3789013515504
 20
187.4194167190362
 30
0.0
 11
540.3789013515504
 21
169.4694167190362
 31
0.0
  0
INSERT
  5
7035
330
702F
100
AcDbEntity
  8
0
 62
     0
370
    -2
100
AcDbBlockReference
  2
_FILLED
 10
540.3789013515504
 20
190.4194167190362
 30
0.0
 41
3.0
 42
3.0
 43
3.0
 50
90.0
  0
INSERT
  5
7036
330
702F
100
AcDbEntity
  8
0
 62
     0
370
    -2
100
AcDbBlockReference
  2
_FILLED
 10
540.3789013515504
 20
166.4694167190362
 30
0.0
 41
3.0
 42
3.0
 43
3.0
 50
270.0
  0
MTEXT
  5
7037
330
702F
100
AcDbEntity
  8
0
 62
     5
100
AcDbMText
 10
537.2889013515504
 20
176.2988247264362
 30
0.0
 40
3.0
 41
0.0
 46
0.0
 71
     2
 72
     1
  1
\A1;23.95
 11
0.0
 21
1.0
 31
0.0
 73
     1
 44
1.0
  0
POINT
  5
7038
330
702F
100
AcDbEntity
  8
DEFPOINTS
 62
     0
100
AcDbPoint
 10
549.7853911631505
 20
190.4194167190362
 30
0.0
  0
POINT
  5
7039
330
702F
100
AcDbEntity
  8
DEFPOINTS
 62
     0
100
AcDbPoint
 10
549.7853911631505
 20
166.4694167190362
 30
0.0
  0
POINT
  5
703A
330
702F
100
AcDbEntity
  8
DEFPOINTS
 62
     0
100
AcDbPoint
 10
540.3789013515504
 20
166.4694167190362
 30
0.0
  0
ENDBLK
  5
7031
330
702F
100
AcDbEntity
  8
0
100
AcDbBlockEnd
  0
BLOCK
  5
703C
330
703B
100
AcDbEntity
  8
0
100
AcDbBlockBegin
  2
*D39
 70
     1
 10
0.0
 20
0.0
 30
0.0
  3
*D39
  1
*D39
  0
LINE
  5
703E
330
703B
100
AcDbEntity
  8
0
  6
Continuous
 62
     0
370
    -2
100
AcDbLine
 10
562.1725753736505
 20
199.6694167190362
 30
0.0
 11
532.2742780302506
 21
199.6694167190362
 31
0.0
  0
LINE
  5
703F
330
703B
100
AcDbEntity
  8
0
  6
Continuous
 62
     0
370
    -2
100
AcDbLine
 10
549.5450385315505
 20
166.4694167190362
 30
0.0
 11
532.2742780302506
 21
166.4694167190362
 31
0.0
  0
LINE
  5
7040
330
703B
100
AcDbEntity
  8
0
  6
Continuous
 62
     0
370
    -2
100
AcDbLine
 10
532.4542780302505
 20
196.6694167190362
 30
0.0
 11
532.4542780302505
 21
169.4694167190362
 31
0.0
  0
INSERT
  5
7041
330
703B
100
AcDbEntity
  8
0
 62
     0
370
    -2
100
AcDbBlockReference
  2
_FILLED
 10
532.4542780302505
 20
199.6694167190362
 30
0.0
 41
3.0
 42
3.0
 43
3.0
 50
90.0
  0
INSERT
  5
7042
330
703B
100
AcDbEntity
  8
0
 62
     0
370
    -2
100
AcDbBlockReference
  2
_FILLED
 10
532.4542780302505
 20
166.4694167190362
 30
0.0
 41
3.0
 42
3.0
 43
3.0
 50
270.0
  0
MTEXT
  5
7043
330
703B
100
AcDbEntity
  8
0
 62
     5
100
AcDbMText
 10
529.3642780302505
 20
178.7782327337362
 30
0.0
 40
3.0
 41
0.0
 46
0.0
 71
     2
 72
     1
  1
\A1;33.2
 11
0.0
 21
1.0
 31
0.0
 73
     1
 44
1.0
  0
POINT
  5
7044
330
703B
100
AcDbEntity
  8
DEFPOINTS
 62
     0
100
AcDbPoint
 10
562.2350753736505
 20
199.6694167190362
 30
0.0
  0
POINT
  5
7045
330
703B
100
AcDbEntity
  8
DEFPOINTS
 62
     0
100
AcDbPoint
 10
549.6075385315505
 20
166.4694167190362
 30
0.0
  0
POINT
  5
7046
330
703B
100
AcDbEntity
  8
DEFPOINTS
 62
     0
100
AcDbPoint
 10
532.4542780302505
 20
166.4694167190362
 30
0.0
  0
ENDBLK
  5
703D
330
703B
100
AcDbEntity
  8
0
100
AcDbBlockEnd
  0
BLOCK
  5
7048
330
7047
100
AcDbEntity
  8
0
100
AcDbBlockBegin
  2
*D40
 70
     1
 10
0.0
 20
0.0
 30
0.0
  3
*D40
  1
*D40
  0
LINE
  5
704A
330
7047
100
AcDbEntity
  8
0
  6
Continuous
 62
     0
370
    -2
100
AcDbLine
 10
572.8798595841505
 20
208.9194167190362
 30
0.0
 11
523.2742780302506
 21
208.9194167190362
 31
0.0
  0
LINE
  5
704B
330
7047
100
AcDbEntity
  8
0
  6
Continuous
 62
     0
370
    -2
100
AcDbLine
 10
549.7228911631505
 20
166.4694167190362
 30
0.0
 11
523.2742780302506
 21
166.4694167190362
 31
0.0
  0
LINE
  5
704C
330
7047
100
AcDbEntity
  8
0
  6
Continuous
 62
     0
370
    -2
100
AcDbLine
 10
523.4542780302505
 20
205.9194167190362
 30
0.0
 11
523.4542780302505
 21
169.4694167190362
 31
0.0
  0
INSERT
  5
704D
330
7047
100
AcDbEntity
  8
0
 62
     0
370
    -2
100
AcDbBlockReference
  2
_FILLED
 10
523.4542780302505
 20
208.9194167190362
 30
0.0
 41
3.0
 42
3.0
 43
3.0
 50
90.0
  0
INSERT
  5
704E
330
7047
100
AcDbEntity
  8
0
 62
     0
370
    -2
100
AcDbBlockReference
  2
_FILLED
 10
523.4542780302505
 20
166.4694167190362
 30
0.0
 41
3.0
 42
3.0
 43
3.0
 50
270.0
  0
MTEXT
  5
704F
330
7047
100
AcDbEntity
  8
0
 62
     5
100
AcDbMText
 10
520.3642780302505
 20
183.4032327337362
 30
0.0
 40
3.0
 41
0.0
 46
0.0
 71
     2
 72
     1
  1
\A1;42.45
 11
0.0
 21
1.0
 31
0.0
 73
     1
 44
1.0
  0
POINT
  5
7050
330
7047
100
AcDbEntity
  8
DEFPOINTS
 62
     0
100
AcDbPoint
 10
572.9423595841505
 20
208.9194167190362
 30
0.0
  0
POINT
  5
7051
330
7047
100
AcDbEntity
  8
DEFPOINTS
 62
     0
100
AcDbPoint
 10
549.7853911631505
 20
166.4694167190362
 30
0.0
  0
POINT
  5
7052
330
7047
100
AcDbEntity
  8
DEFPOINTS
 62
     0
100
AcDbPoint
 10
523.4542780302505
 20
166.4694167190362
 30
0.0
  0
ENDBLK
  5
7049
330
7047
100
AcDbEntity
  8
0
100
AcDbBlockEnd
  0
BLOCK
  5
7054
330
7053
100
AcDbEntity
  8
0
100
AcDbBlockBegin
  2
*D41
 70
     1
 10
0.0
 20
0.0
 30
0.0
  3
*D41
  1
*D41
  0
LINE
  5
7056
330
7053
100
AcDbEntity
  8
0
  6
Continuous
 62
     0
370
    -2
100
AcDbLine
 10
550.2196280052505
 20
110.7319828951362
 30
0.0
 11
536.9900360523505
 21
110.7319828951362
 31
0.0
  0
LINE
  5
7057
330
7053
100
AcDbEntity
  8
0
  6
Continuous
 62
     0
370
    -2
100
AcDbLine
 10
549.7643252683505
 20
79.73198289513621
 30
0.0
 11
536.9900360523505
 21
79.73198289513621
 31
0.0
  0
LINE
  5
7058
330
7053
100
AcDbEntity
  8
0
  6
Continuous
 62
     0
370
    -2
100
AcDbLine
 10
537.1700360523505
 20
107.7319828951362
 30
0.0
 11
537.1700360523505
 21
82.73198289513621
 31
0.0
  0
INSERT
  5
7059
330
7053
100
AcDbEntity
  8
0
 62
     0
370
    -2
100
AcDbBlockReference
  2
_FILLED
 10
537.1700360523505
 20
110.7319828951362
 30
0.0
 41
3.0
 42
3.0
 43
3.0
 50
90.0
  0
INSERT
  5
705A
330
7053
100
AcDbEntity
  8
0
 62
     0
370
    -2
100
AcDbBlockReference
  2
_FILLED
 10
537.1700360523505
 20
79.73198289513621
 30
0.0
 41
3.0
 42
3.0
 43
3.0
 50
270.0
  0
MTEXT
  5
705B
330
7053
100
AcDbEntity
  8
0
 62
     5
100
AcDbMText
 10
534.0800360523505
 20
93.08639090243621
 30
0.0
 40
3.0
 41
0.0
 46
0.0
 71
     2
 72
     1
  1
\A1;31
 11
0.0
 21
1.0
 31
0.0
 73
     1
 44
1.0
  0
POINT
  5
705C
330
7053
100
AcDbEntity
  8
DEFPOINTS
 62
     0
100
AcDbPoint
 10
550.2821280052505
 20
110.7319828951362
 30
0.0
  0
POINT
  5
705D
330
7053
100
AcDbEntity
  8
DEFPOINTS
 62
     0
100
AcDbPoint
 10
549.8268252683505
 20
79.73198289513621
 30
0.0
  0
POINT
  5
705E
330
7053
100
AcDbEntity
  8
DEFPOINTS
 62
     0
100
AcDbPoint
 10
537.1700360523505
 20
79.73198289513621
 30
0.0
  0
ENDBLK
  5
7055
330
7053
100
AcDbEntity
  8
0
100
AcDbBlockEnd
  0
BLOCK
  5
7060
330
705F
100
AcDbEntity
  8
0
100
AcDbBlockBegin
  2
*D42
 70
     1
 10
0.0
 20
0.0
 30
0.0
  3
*D42
  1
*D42
  0
LINE
  5
7062
330
705F
100
AcDbEntity
  8
0
  6
Continuous
 62
     0
370
    -2
100
AcDbLine
 10
551.2535246728505
 20
112.1869464045362
 30
0.0
 11
551.2535246728505
 21
126.1445786619362
 31
0.0
  0
LINE
  5
7063
330
705F
100
AcDbEntity
  8
0
  6
Continuous
 62
     0
370
    -2
100
AcDbLine
 10
646.2035246728504
 20
111.9646306151362
 30
0.0
 11
646.2035246728504
 21
126.1445786619362
 31
0.0
  0
LINE
  5
7064
330
705F
100
AcDbEntity
  8
0
  6
Continuous
 62
     0
370
    -2
100
AcDbLine
 10
554.2535246728505
 20
125.9645786619362
 30
0.0
 11
643.2035246728504
 21
125.9645786619362
 31
0.0
  0
INSERT
  5
7065
330
705F
100
AcDbEntity
  8
0
 62
     0
370
    -2
100
AcDbBlockReference
  2
_FILLED
 10
551.2535246728505
 20
125.9645786619362
 30
0.0
 41
3.0
 42
3.0
 43
3.0
 50
180.0
  0
INSERT
  5
7066
330
705F
100
AcDbEntity
  8
0
 62
     0
370
    -2
100
AcDbBlockReference
  2
_FILLED
 10
646.2035246728504
 20
125.9645786619362
 30
0.0
 41
3.0
 42
3.0
 43
3.0
  0
MTEXT
  5
7067
330
705F
100
AcDbEntity
  8
0
 62
     5
100
AcDbMText
 10
596.3285246728504
 20
129.0545786619362
 30
0.0
 40
3.0
 41
0.0
 46
0.0
 71
     2
 72
     1
  1
\A1;94.95
 73
     1
 44
1.0
  0
POINT
  5
7068
330
705F
100
AcDbEntity
  8
DEFPOINTS
 62
     0
100
AcDbPoint
 10
551.2535246728505
 20
112.1244464045362
 30
0.0
  0
POINT
  5
7069
330
705F
100
AcDbEntity
  8
DEFPOINTS
 62
     0
100
AcDbPoint
 10
646.2035246728504
 20
111.9021306151362
 30
0.0
  0
POINT
  5
706A
330
705F
100
AcDbEntity
  8
DEFPOINTS
 62
     0
100
AcDbPoint
 10
646.2035246728504
 20
125.9645786619362
 30
0.0
  0
ENDBLK
  5
7061
330
705F
100
AcDbEntity
  8
0
100
AcDbBlockEnd
  0
BLOCK
  5
706C
330
706B
100
AcDbEntity
  8
0
100
AcDbBlockBegin
  2
*D43
 70
     1
 10
0.0
 20
0.0
 30
0.0
  3
*D43
  1
*D43
  0
LINE
  5
706E
330
706B
100
AcDbEntity
  8
0
  6
Continuous
 62
     0
370
    -2
100
AcDbLine
 10
591.0535246728505
 20
208.4819167190362
 30
0.0
 11
591.0535246728505
 21
239.3494167190362
 31
0.0
  0
LINE
  5
706F
330
706B
100
AcDbEntity
  8
0
  6
Continuous
 62
     0
370
    -2
100
AcDbLine
 10
576.0535246728505
 20
208.4819167190362
 30
0.0
 11
576.0535246728505
 21
239.3494167190362
 31
0.0
  0
LINE
  5
7070
330
706B
100
AcDbEntity
  8
0
  6
Continuous
 62
     0
370
    -2
100
AcDbLine
 10
588.0535246728505
 20
239.1694167190362
 30
0.0
 11
579.0535246728505
 21
239.1694167190362
 31
0.0
  0
INSERT
  5
7071
330
706B
100
AcDbEntity
  8
0
 62
     0
370
    -2
100
AcDbBlockReference
  2
_FILLED
 10
591.0535246728505
 20
239.1694167190362
 30
0.0
 41
3.0
 42
3.0
 43
3.0
  0
INSERT
  5
7072
330
706B
100
AcDbEntity
  8
0
 62
     0
370
    -2
100
AcDbBlockReference
  2
_FILLED
 10
576.0535246728505
 20
239.1694167190362
 30
0.0
 41
3.0
 42
3.0
 43
3.0
 50
180.0
  0
MTEXT
  5
7073
330
706B
100
AcDbEntity
  8
0
 62
     5
100
AcDbMText
 10
581.1535246728505
 20
242.2594167190362
 30
0.0
 40
3.0
 41
0.0
 46
0.0
 71
     2
 72
     1
  1
\A1;15
 73
     1
 44
1.0
  0
POINT
  5
7074
330
706B
100
AcDbEntity
  8
DEFPOINTS
 62
     0
100
AcDbPoint
 10
591.0535246728505
 20
208.4194167190362
 30
0.0
  0
POINT
  5
7075
330
706B
100
AcDbEntity
  8
DEFPOINTS
 62
     0
100
AcDbPoint
 10
576.0535246728505
 20
208.4194167190362
 30
0.0
  0
POINT
  5
7076
330
706B
100
AcDbEntity
  8
DEFPOINTS
 62
     0
100
AcDbPoint
 10
576.0535246728505
 20
239.1694167190362
 30
0.0
  0
ENDBLK
  5
706D
330
706B
100
AcDbEntity
  8
0
100
AcDbBlockEnd
  0
BLOCK
  5
7078
330
7077
100
AcDbEntity
  8
0
100
AcDbBlockBegin
  2
*D44
 70
     1
 10
0.0
 20
0.0
 30
0.0
  3
*D44
  1
*D44
  0
LINE
  5
707A
330
7077
100
AcDbEntity
  8
0
  6
Continuous
 62
     0
370
    -2
100
AcDbLine
 10
563.6535246728505
 20
199.2319167190362
 30
0.0
 11
563.6535246728505
 21
230.3494167190362
 31
0.0
  0
LINE
  5
707B
330
7077
100
AcDbEntity
  8
0
  6
Continuous
 62
     0
370
    -2
100
AcDbLine
 10
576.0535246728505
 20
208.4819167190362
 30
0.0
 11
576.0535246728505
 21
230.3494167190362
 31
0.0
  0
LINE
  5
707C
330
7077
100
AcDbEntity
  8
0
  6
Continuous
 62
     0
370
    -2
100
AcDbLine
 10
563.6535246728505
 20
230.1694167190362
 30
0.0
 11
544.3441626734505
 21
230.1694167190362
 31
0.0
  0
LINE
  5
707D
330
7077
100
AcDbEntity
  8
0
  6
Continuous
 62
     0
370
    -2
100
AcDbLine
 10
566.6535246728505
 20
230.1694167190362
 30
0.0
 11
573.0535246728505
 21
230.1694167190362
 31
0.0
  0
INSERT
  5
707E
330
7077
100
AcDbEntity
  8
0
 62
     0
370
    -2
100
AcDbBlockReference
  2
_FILLED
 10
563.6535246728505
 20
230.1694167190362
 30
0.0
 41
3.0
 42
3.0
 43
3.0
 50
180.0
  0
INSERT
  5
707F
330
7077
100
AcDbEntity
  8
0
 62
     0
370
    -2
100
AcDbBlockReference
  2
_FILLED
 10
576.0535246728505
 20
230.1694167190362
 30
0.0
 41
3.0
 42
3.0
 43
3.0
  0
MTEXT
  5
7080
330
7077
100
AcDbEntity
  8
0
 62
     5
100
AcDbMText
 10
552.4341626734505
 20
233.2594167190362
 30
0.0
 40
3.0
 41
0.0
 46
0.0
 71
     3
 72
     1
  1
\A1;12.4
 73
     1
 44
1.0
  0
POINT
  5
7081
330
7077
100
AcDbEntity
  8
DEFPOINTS
 62
     0
100
AcDbPoint
 10
563.6535246728505
 20
199.1694167190362
 30
0.0
  0
POINT
  5
7082
330
7077
100
AcDbEntity
  8
DEFPOINTS
 62
     0
100
AcDbPoint
 10
576.0535246728505
 20
208.4194167190362
 30
0.0
  0
POINT
  5
7083
330
7077
100
AcDbEntity
  8
DEFPOINTS
 62
     0
100
AcDbPoint
 10
576.0535246728505
 20
230.1694167190362
 30
0.0
  0
ENDBLK
  5
7079
330
7077
100
AcDbEntity
  8
0
100
AcDbBlockEnd
  0
BLOCK
  5
7085
330
7084
100
AcDbEntity
  8
0
100
AcDbBlockBegin
  2
*D45
 70
     1
 10
0.0
 20
0.0
 30
0.0
  3
*D45
  1
*D45
  0
LINE
  5
7087
330
7084
100
AcDbEntity
  8
0
  6
Continuous
 62
     0
370
    -2
100
AcDbLine
 10
551.2535246728505
 20
189.9819167190362
 30
0.0
 11
551.2535246728505
 21
221.3494167190362
 31
0.0
  0
LINE
  5
7088
330
7084
100
AcDbEntity
  8
0
  6
Continuous
 62
     0
370
    -2
100
AcDbLine
 10
563.6535246728505
 20
199.2319167190362
 30
0.0
 11
563.6535246728505
 21
221.3494167190362
 31
0.0
  0
LINE
  5
7089
330
7084
100
AcDbEntity
  8
0
  6
Continuous
 62
     0
370
    -2
100
AcDbLine
 10
551.2535246728505
 20
221.1694167190362
 30
0.0
 11
540.0735246728505
 21
221.1694167190362
 31
0.0
  0
LINE
  5
708A
330
7084
100
AcDbEntity
  8
0
  6
Continuous
 62
     0
370
    -2
100
AcDbLine
 10
554.2535246728505
 20
221.1694167190362
 30
0.0
 11
560.6535246728505
 21
221.1694167190362
 31
0.0
  0
INSERT
  5
708B
330
7084
100
AcDbEntity
  8
0
 62
     0
370
    -2
100
AcDbBlockReference
  2
_FILLED
 10
551.2535246728505
 20
221.1694167190362
 30
0.0
 41
3.0
 42
3.0
 43
3.0
 50
180.0
  0
INSERT
  5
708C
330
7084
100
AcDbEntity
  8
0
 62
     0
370
    -2
100
AcDbBlockReference
  2
_FILLED
 10
563.6535246728505
 20
221.1694167190362
 30
0.0
 41
3.0
 42
3.0
 43
3.0
  0
MTEXT
  5
708D
330
7084
100
AcDbEntity
  8
0
 62
     5
100
AcDbMText
 10
544.1635246728505
 20
224.2594167190362
 30
0.0
 40
3.0
 41
0.0
 46
0.0
 71
     2
 72
     1
  1
\A1;12.4
 73
     1
 44
1.0
  0
POINT
  5
708E
330
7084
100
AcDbEntity
  8
DEFPOINTS
 62
     0
100
AcDbPoint
 10
551.2535246728505
 20
189.9194167190362
 30
0.0
  0
POINT
  5
708F
330
7084
100
AcDbEntity
  8
DEFPOINTS
 62
     0
100
AcDbPoint
 10
563.6535246728505
 20
199.1694167190362
 30
0.0
  0
POINT
  5
7090
330
7084
100
AcDbEntity
  8
DEFPOINTS
 62
     0
100
AcDbPoint
 10
563.6535246728505
 20
221.1694167190362
 30
0.0
  0
ENDBLK
  5
7086
330
7084
100
AcDbEntity
  8
0
100
AcDbBlockEnd
  0
BLOCK
  5
70C7
330
70C6
100
AcDbEntity
  8
0
100
AcDbBlockBegin
  2
*D47
 70
     1
 10
0.0
 20
0.0
 30
0.0
  3
*D47
  1
*D47
  0
LINE
  5
70C8
330
70C6
100
AcDbEntity
  8
0
  6
Continuous
 62
     0
370
    -2
100
AcDbLine
 10
25.91206779129999
 20
106.5771980993
 30
0.0
 11
25.91206779129999
 21
138.3374155605
 31
0.0
  0
LINE
  5
70C9
330
70C6
100
AcDbEntity
  8
0
  6
Continuous
 62
     0
370
    -2
100
AcDbLine
 10
51.78379247629999
 20
105.4699155605
 30
0.0
 11
51.78379247629999
 21
138.3374155605
 31
0.0
  0
LINE
  5
70CA
330
70C6
100
AcDbEntity
  8
0
  6
Continuous
 62
     0
370
    -2
100
AcDbLine
 10
28.91206779129999
 20
138.1574155605
 30
0.0
 11
48.78379247629999
 21
138.1574155605
 31
0.0
  0
INSERT
  5
70CB
330
70C6
100
AcDbEntity
  8
0
 62
     0
370
    -2
100
AcDbBlockReference
  2
_FILLED
 10
25.91206779129999
 20
138.1574155605
 30
0.0
 41
3.0
 42
3.0
 43
3.0
 50
180.0
  0
INSERT
  5
70CC
330
70C6
100
AcDbEntity
  8
0
 62
     0
370
    -2
100
AcDbBlockReference
  2
_FILLED
 10
51.78379247629999
 20
138.1574155605
 30
0.0
 41
3.0
 42
3.0
 43
3.0
  0
MTEXT
  5
70CD
330
70C6
100
AcDbEntity
  8
0
 62
     5
100
AcDbMText
 10
36.44793013379999
 20
141.2474155605
 30
0.0
 40
3.0
 41
0.0
 46
0.0
 71
     2
 72
     1
  1
\A1;25.87
 73
     1
 44
1.0
  0
POINT
  5
70CE
330
70C6
100
AcDbEntity
  8
DEFPOINTS
 62
     0
100
AcDbPoint
 10
25.91206779129999
 20
106.5146980993
 30
0.0
  0
POINT
  5
781C
330
70C6
100
AcDbEntity
  8
DEFPOINTS
 62
     0
100
AcDbPoint
 10
51.78379247629999
 20
105.4074155605
 30
0.0
  0
POINT
  5
781D
330
70C6
100
AcDbEntity
  8
DEFPOINTS
 62
     0
100
AcDbPoint
 10
51.78379247629999
 20
135.9074155605
 30
0.0
  0
ENDBLK
  5
70CF
330
70C6
100
AcDbEntity
  8
0
  6
ByBlock
 62
     0
100
AcDbBlockEnd
  0
BLOCK
  5
70D2
330
70D1
100
AcDbEntity
  8
0
100
AcDbBlockBegin
  2
*D48
 70
     1
 10
0.0
 20
0.0
 30
0.0
  3
*D48
  1
*D48
  0
LINE
  5
70D3
330
70D1
100
AcDbEntity
  8
0
  6
Continuous
 62
     0
370
    -2
100
AcDbLine
 10
24.49020860069999
 20
105.4074155605
 30
0.0
 11
13.63282114869999
 21
105.4074155605
 31
0.0
  0
LINE
  5
70D4
330
70D1
100
AcDbEntity
  8
0
  6
Continuous
 62
     0
370
    -2
100
AcDbLine
 10
25.62316506169999
 20
78.72405044050001
 30
0.0
 11
13.63282114869999
 21
78.72405044050001
 31
0.0
  0
LINE
  5
70D5
330
70D1
100
AcDbEntity
  8
0
  6
Continuous
 62
     0
370
    -2
100
AcDbLine
 10
13.81282114869999
 20
102.4074155605
 30
0.0
 11
13.81282114869999
 21
81.72405044050001
 31
0.0
  0
INSERT
  5
70D6
330
70D1
100
AcDbEntity
  8
0
 62
     0
370
    -2
100
AcDbBlockReference
  2
_FILLED
 10
13.81282114869999
 20
105.4074155605
 30
0.0
 41
3.0
 42
3.0
 43
3.0
 50
90.0
  0
INSERT
  5
70D7
330
70D1
100
AcDbEntity
  8
0
 62
     0
370
    -2
100
AcDbBlockReference
  2
_FILLED
 10
13.81282114869999
 20
78.72405044050001
 30
0.0
 41
3.0
 42
3.0
 43
3.0
 50
270.0
  0
MTEXT
  5
70D8
330
70D1
100
AcDbEntity
  8
0
 62
     5
100
AcDbMText
 10
10.72282114869999
 20
87.7745490152
 30
0.0
 40
3.0
 41
0.0
 46
0.0
 71
     2
 72
     1
  1
\A1;26.68
 11
1.331433896295799E-16
 21
1.0
 31
0.0
 73
     1
 44
1.0
  0
POINT
  5
70D9
330
70D1
100
AcDbEntity
  8
DEFPOINTS
 62
     0
100
AcDbPoint
 10
24.55270860069999
 20
105.4074155605
 30
0.0
  0
POINT
  5
781E
330
70D1
100
AcDbEntity
  8
DEFPOINTS
 62
     0
100
AcDbPoint
 10
25.68566506169999
 20
78.72405044050001
 30
0.0
  0
POINT
  5
781F
330
70D1
100
AcDbEntity
  8
DEFPOINTS
 62
     0
100
AcDbPoint
 10
13.91206779129999
 20
78.72405044050001
 30
0.0
  0
ENDBLK
  5
70DA
330
70D1
100
AcDbEntity
  8
0
  6
ByBlock
 62
     0
100
AcDbBlockEnd
  0
BLOCK
  5
70DD
330
70DC
100
AcDbEntity
  8
0
100
AcDbBlockBegin
  2
*D49
 70
     1
 10
0.0
 20
0.0
 30
0.0
  3
*D49
  1
*D49
  0
LINE
  5
70DE
330
70DC
100
AcDbEntity
  8
0
  6
Continuous
 62
     0
370
    -2
100
AcDbLine
 10
50.43491155759999
 20
115.0574155605
 30
0.0
 11
4.632821148699993
 21
115.0574155605
 31
0.0
  0
LINE
  5
70DF
330
70DC
100
AcDbEntity
  8
0
  6
Continuous
 62
     0
370
    -2
100
AcDbLine
 10
25.0566868312
 20
78.72405044050001
 30
0.0
 11
4.632821148699986
 21
78.72405044050001
 31
0.0
  0
LINE
  5
70E0
330
70DC
100
AcDbEntity
  8
0
  6
Continuous
 62
     0
370
    -2
100
AcDbLine
 10
4.812821148699991
 20
112.0574155605
 30
0.0
 11
4.812821148699987
 21
81.72405044050001
 31
0.0
  0
INSERT
  5
70E1
330
70DC
100
AcDbEntity
  8
0
 62
     0
370
    -2
100
AcDbBlockReference
  2
_FILLED
 10
4.812821148699992
 20
115.0574155605
 30
0.0
 41
3.0
 42
3.0
 43
3.0
 50
90.0
  0
INSERT
  5
70E2
330
70DC
100
AcDbEntity
  8
0
 62
     0
370
    -2
100
AcDbBlockReference
  2
_FILLED
 10
4.812821148699986
 20
78.72405044050001
 30
0.0
 41
3.0
 42
3.0
 43
3.0
 50
270.0
  0
MTEXT
  5
70E3
330
70DC
100
AcDbEntity
  8
0
 62
     5
100
AcDbMText
 10
1.722821148699989
 20
92.59954901520001
 30
0.0
 40
3.0
 41
0.0
 46
0.0
 71
     2
 72
     1
  1
\A1;36.33
 11
1.711167935413321E-16
 21
1.0
 31
0.0
 73
     1
 44
1.0
  0
POINT
  5
70E4
330
70DC
100
AcDbEntity
  8
DEFPOINTS
 62
     0
100
AcDbPoint
 10
50.49741155759999
 20
115.0574155605
 30
0.0
  0
POINT
  5
7820
330
70DC
100
AcDbEntity
  8
DEFPOINTS
 62
     0
100
AcDbPoint
 10
25.1191868312
 20
78.72405044050001
 30
0.0
  0
POINT
  5
7821
330
70DC
100
AcDbEntity
  8
DEFPOINTS
 62
     0
100
AcDbPoint
 10
4.912067791299989
 20
78.72405044050001
 30
0.0
  0
ENDBLK
  5
70E5
330
70DC
100
AcDbEntity
  8
0
  6
ByBlock
 62
     0
100
AcDbBlockEnd
  0
BLOCK
  5
70E8
330
70E7
100
AcDbEntity
  8
0
100
AcDbBlockBegin
  2
*D50
 70
     1
 10
0.0
 20
0.0
 30
0.0
  3
*D50
  1
*D50
  0
LINE
  5
70E9
330
70E7
100
AcDbEntity
  8
0
  6
Continuous
 62
     0
370
    -2
100
AcDbLine
 10
100.6461325159
 20
123.9074155605
 30
0.0
 11
137.7327533728
 21
123.9074155605
 31
0.0
  0
LINE
  5
70EA
330
70E7
100
AcDbEntity
  8
0
  6
Continuous
 62
     0
370
    -2
100
AcDbLine
 10
123.1610007497
 20
78.72405044050001
 30
0.0
 11
137.7327533728
 21
78.72405044050001
 31
0.0
  0
LINE
  5
70EB
330
70E7
100
AcDbEntity
  8
0
  6
Continuous
 62
     0
370
    -2
100
AcDbLine
 10
137.5527533728
 20
120.9074155605
 30
0.0
 11
137.5527533728
 21
81.72405044050001
 31
0.0
  0
INSERT
  5
70EC
330
70E7
100
AcDbEntity
  8
0
 62
     0
370
    -2
100
AcDbBlockReference
  2
_FILLED
 10
137.5527533728
 20
123.9074155605
 30
0.0
 41
3.0
 42
3.0
 43
3.0
 50
90.0
  0
INSERT
  5
70ED
330
70E7
100
AcDbEntity
  8
0
 62
     0
370
    -2
100
AcDbBlockReference
  2
_FILLED
 10
137.5527533728
 20
78.72405044050001
 30
0.0
 41
3.0
 42
3.0
 43
3.0
 50
270.0
  0
MTEXT
  5
70EE
330
70E7
100
AcDbEntity
  8
0
 62
     5
100
AcDbMText
 10
134.4627533728
 20
97.0245490152
 30
0.0
 40
3.0
 41
0.0
 46
0.0
 71
     2
 72
     1
  1
\A1;45.18
 11
0.0
 21
1.0
 31
0.0
 73
     1
 44
1.0
  0
POINT
  5
70EF
330
70E7
100
AcDbEntity
  8
DEFPOINTS
 62
     0
100
AcDbPoint
 10
100.5836325159
 20
123.9074155605
 30
0.0
  0
POINT
  5
7822
330
70E7
100
AcDbEntity
  8
DEFPOINTS
 62
     0
100
AcDbPoint
 10
123.0985007497
 20
78.72405044050001
 30
0.0
  0
POINT
  5
7823
330
70E7
100
AcDbEntity
  8
DEFPOINTS
 62
     0
100
AcDbPoint
 10
137.6520000154
 20
78.72405044050001
 30
0.0
  0
ENDBLK
  5
70F0
330
70E7
100
AcDbEntity
  8
0
  6
ByBlock
 62
     0
100
AcDbBlockEnd
  0
BLOCK
  5
70F3
330
70F2
100
AcDbEntity
  8
0
100
AcDbBlockBegin
  2
*D51
 70
     1
 10
0.0
 20
0.0
 30
0.0
  3
*D51
  1
*D51
  0
LINE
  5
70F4
330
70F2
100
AcDbEntity
  8
0
  6
Continuous
 62
     0
370
    -2
100
AcDbLine
 10
25.91206779129999
 20
87.1809834869
 30
0.0
 11
25.91206779129999
 21
147.3374155605
 31
0.0
  0
LINE
  5
70F5
330
70F2
100
AcDbEntity
  8
0
  6
Continuous
 62
     0
370
    -2
100
AcDbLine
 10
122.6837924763
 20
107.534634821
 30
0.0
 11
122.6837924763
 21
147.3374155605
 31
0.0
  0
LINE
  5
70F6
330
70F2
100
AcDbEntity
  8
0
  6
Continuous
 62
     0
370
    -2
100
AcDbLine
 10
28.91206779129999
 20
147.1574155605
 30
0.0
 11
119.6837924763
 21
147.1574155605
 31
0.0
  0
INSERT
  5
70F7
330
70F2
100
AcDbEntity
  8
0
 62
     0
370
    -2
100
AcDbBlockReference
  2
_FILLED
 10
25.91206779129999
 20
147.1574155605
 30
0.0
 41
3.0
 42
3.0
 43
3.0
 50
180.0
  0
INSERT
  5
70F8
330
70F2
100
AcDbEntity
  8
0
 62
     0
370
    -2
100
AcDbBlockReference
  2
_FILLED
 10
122.6837924763
 20
147.1574155605
 30
0.0
 41
3.0
 42
3.0
 43
3.0
  0
MTEXT
  5
70F9
330
70F2
100
AcDbEntity
  8
0
 62
     5
100
AcDbMText
 10
69.4979301338
 20
150.2474155605
 30
0.0
 40
3.0
 41
0.0
 46
0.0
 71
     2
 72
     1
  1
\A1;96.77
 73
     1
 44
1.0
  0
POINT
  5
70FA
330
70F2
100
AcDbEntity
  8
DEFPOINTS
 62
     0
100
AcDbPoint
 10
25.91206779129999
 20
87.1184834869
 30
0.0
  0
POINT
  5
7824
330
70F2
100
AcDbEntity
  8
DEFPOINTS
 62
     0
100
AcDbPoint
 10
122.6837924763
 20
107.472134821
 30
0.0
  0
POINT
  5
7825
330
70F2
100
AcDbEntity
  8
DEFPOINTS
 62
     0
100
AcDbPoint
 10
122.6837924763
 20
144.9074155605
 30
0.0
  0
ENDBLK
  5
70FB
330
70F2
100
AcDbEntity
  8
0
  6
ByBlock
 62
     0
100
AcDbBlockEnd
  0
BLOCK
  5
70FE
330
70FD
100
AcDbEntity
  8
0
100
AcDbBlockBegin
  2
*D52
 70
     1
 10
0.0
 20
0.0
 30
0.0
  3
*D52
  1
*D52
  0
LINE
  5
70FF
330
70FD
100
AcDbEntity
  8
0
  6
Continuous
 62
     0
370
    -2
100
AcDbLine
 10
53.99379247629999
 20
13.8375024986
 30
0.0
 11
9.726256239399985
 21
13.83750249860001
 31
0.0
  0
LINE
  5
7100
330
70FD
100
AcDbEntity
  8
0
  6
Continuous
 62
     0
370
    -2
100
AcDbLine
 10
53.99379247629999
 20
6.237502498600008
 30
0.0
 11
9.726256239399984
 21
6.237502498600016
 31
0.0
  0
LINE
  5
7101
330
70FD
100
AcDbEntity
  8
0
  6
Continuous
 62
     0
370
    -2
100
AcDbLine
 10
9.906256239399985
 20
13.83750249860001
 30
0.0
 11
9.906256239399987
 21
26.89570999190002
 31
0.0
  0
LINE
  5
7102
330
70FD
100
AcDbEntity
  8
0
  6
Continuous
 62
     0
370
    -2
100
AcDbLine
 10
9.906256239399985
 20
10.83750249860001
 30
0.0
 11
9.906256239399983
 21
9.237502498600016
 31
0.0
  0
INSERT
  5
7103
330
70FD
100
AcDbEntity
  8
0
 62
     0
370
    -2
100
AcDbBlockReference
  2
_FILLED
 10
9.906256239399985
 20
13.83750249860001
 30
0.0
 41
3.0
 42
3.0
 43
3.0
 50
89.99999999999999
  0
INSERT
  5
7104
330
70FD
100
AcDbEntity
  8
0
 62
     0
370
    -2
100
AcDbBlockReference
  2
_FILLED
 10
9.906256239399983
 20
6.237502498600016
 30
0.0
 41
3.0
 42
3.0
 43
3.0
 50
270.0
  0
MTEXT
  5
7105
330
70FD
100
AcDbEntity
  8
0
 62
     5
100
AcDbMText
 10
6.816256239399986
 20
20.80570999190002
 30
0.0
 40
3.0
 41
0.0
 46
0.0
 71
     1
 72
     1
  1
\A1;7.6
 11
2.337311630789805E-16
 21
1.0
 31
0.0
 73
     1
 44
1.0
  0
POINT
  5
7106
330
70FD
100
AcDbEntity
  8
DEFPOINTS
 62
     0
100
AcDbPoint
 10
54.05629247629999
 20
13.8375024986
 30
0.0
  0
POINT
  5
7826
330
70FD
100
AcDbEntity
  8
DEFPOINTS
 62
     0
100
AcDbPoint
 10
54.05629247629999
 20
6.237502498600008
 30
0.0
  0
POINT
  5
7827
330
70FD
100
AcDbEntity
  8
DEFPOINTS
 62
     0
100
AcDbPoint
 10
12.15625623939999
 20
6.237502498600016
 30
0.0
  0
ENDBLK
  5
7107
330
70FD
100
AcDbEntity
  8
0
  6
ByBlock
 62
     0
100
AcDbBlockEnd
  0
BLOCK
  5
710A
330
7109
100
AcDbEntity
  8
0
100
AcDbBlockBegin
  2
*D53
 70
     1
 10
0.0
 20
0.0
 30
0.0
  3
*D53
  1
*D53
  0
LINE
  5
710B
330
7109
100
AcDbEntity
  8
0
  6
Continuous
 62
     0
370
    -2
100
AcDbLine
 10
23.42517420719999
 20
18.0332012113
 30
0.0
 11
2.395376678699991
 21
18.0332012113
 31
0.0
  0
LINE
  5
710C
330
7109
100
AcDbEntity
  8
0
  6
Continuous
 62
     0
370
    -2
100
AcDbLine
 10
23.42517420719999
 20
2.041803785799999
 30
0.0
 11
2.395376678699988
 21
2.041803785800003
 31
0.0
  0
LINE
  5
710D
330
7109
100
AcDbEntity
  8
0
  6
Continuous
 62
     0
370
    -2
100
AcDbLine
 10
2.57537667869999
 20
15.0332012113
 30
0.0
 11
2.575376678699989
 21
5.041803785800003
 31
0.0
  0
INSERT
  5
710E
330
7109
100
AcDbEntity
  8
0
 62
     0
370
    -2
100
AcDbBlockReference
  2
_FILLED
 10
2.575376678699991
 20
18.0332012113
 30
0.0
 41
3.0
 42
3.0
 43
3.0
 50
90.0
  0
INSERT
  5
710F
330
7109
100
AcDbEntity
  8
0
 62
     0
370
    -2
100
AcDbBlockReference
  2
_FILLED
 10
2.575376678699988
 20
2.041803785800003
 30
0.0
 41
3.0
 42
3.0
 43
3.0
 50
270.0
  0
MTEXT
  5
7110
330
7109
100
AcDbEntity
  8
0
 62
     5
100
AcDbMText
 10
-0.5146233213000111
 20
7.8919105059
 30
0.0
 40
3.0
 41
0.0
 46
0.0
 71
     2
 72
     1
  1
\A1;15.99
 11
1.666230403886710E-16
 21
1.0
 31
0.0
 73
     1
 44
1.0
  0
POINT
  5
7111
330
7109
100
AcDbEntity
  8
DEFPOINTS
 62
     0
100
AcDbPoint
 10
23.48767420719999
 20
18.0332012113
 30
0.0
  0
POINT
  5
7828
330
7109
100
AcDbEntity
  8
DEFPOINTS
 62
     0
100
AcDbPoint
 10
23.48767420719999
 20
2.041803785799999
 30
0.0
  0
POINT
  5
7829
330
7109
100
AcDbEntity
  8
DEFPOINTS
 62
     0
100
AcDbPoint
 10
3.749999999999993
 20
2.041803785800002
 30
0.0
  0
ENDBLK
  5
7112
330
7109
100
AcDbEntity
  8
0
  6
ByBlock
 62
     0
100
AcDbBlockEnd
  0
BLOCK
  5
7115
330
7114
100
AcDbEntity
  8
0
100
AcDbBlockBegin
  2
*D54
 70
     1
 10
0.0
 20
0.0
 30
0.0
  3
*D54
  1
*D54
  0
LINE
  5
7116
330
7114
100
AcDbEntity
  8
0
  6
Continuous
 62
     0
370
    -2
100
AcDbLine
 10
75.36379247629999
 20
15.0406684193
 30
0.0
 11
75.36379247629999
 21
50.4632012113
 31
0.0
  0
LINE
  5
7117
330
7114
100
AcDbEntity
  8
0
  6
Continuous
 62
     0
370
    -2
100
AcDbLine
 10
55.04379247629998
 20
15.0406684193
 30
0.0
 11
55.04379247629998
 21
50.4632012113
 31
0.0
  0
LINE
  5
7118
330
7114
100
AcDbEntity
  8
0
  6
Continuous
 62
     0
370
    -2
100
AcDbLine
 10
72.36379247629999
 20
50.2832012113
 30
0.0
 11
58.04379247629998
 21
50.2832012113
 31
0.0
  0
INSERT
  5
7119
330
7114
100
AcDbEntity
  8
0
 62
     0
370
    -2
100
AcDbBlockReference
  2
_FILLED
 10
75.36379247629999
 20
50.2832012113
 30
0.0
 41
3.0
 42
3.0
 43
3.0
  0
INSERT
  5
711A
330
7114
100
AcDbEntity
  8
0
 62
     0
370
    -2
100
AcDbBlockReference
  2
_FILLED
 10
55.04379247629998
 20
50.2832012113
 30
0.0
 41
3.0
 42
3.0
 43
3.0
 50
180.0
  0
MTEXT
  5
711B
330
7114
100
AcDbEntity
  8
0
 62
     5
100
AcDbMText
 10
60.40379247629998
 20
53.3732012113
 30
0.0
 40
3.0
 41
0.0
 46
0.0
 71
     2
 72
     1
  1
\A1;20.32
 73
     1
 44
1.0
  0
POINT
  5
711C
330
7114
100
AcDbEntity
  8
DEFPOINTS
 62
     0
100
AcDbPoint
 10
75.36379247629999
 20
14.9781684193
 30
0.0
  0
POINT
  5
711D
330
7114
100
AcDbEntity
  8
DEFPOINTS
 62
     0
100
AcDbPoint
 10
55.04379247629998
 20
14.9781684193
 30
0.0
  0
POINT
  5
711E
330
7114
100
AcDbEntity
  8
DEFPOINTS
 62
     0
100
AcDbPoint
 10
55.04379247629998
 20
48.0332012113
 30
0.0
  0
ENDBLK
  5
711F
330
7114
100
AcDbEntity
  8
0
  6
ByBlock
 62
     0
100
AcDbBlockEnd
  0
BLOCK
  5
7122
330
7121
100
AcDbEntity
  8
0
100
AcDbBlockBegin
  2
*D55
 70
     1
 10
0.0
 20
0.0
 30
0.0
  3
*D55
  1
*D55
  0
LINE
  5
7123
330
7121
100
AcDbEntity
  8
0
  6
Continuous
 62
     0
370
    -2
100
AcDbLine
 10
70.2837924763
 20
15.0406684193
 30
0.0
 11
70.2837924763
 21
32.4632012113
 31
0.0
  0
LINE
  5
7124
330
7121
100
AcDbEntity
  8
0
  6
Continuous
 62
     0
370
    -2
100
AcDbLine
 10
75.36379247629999
 20
15.0406684193
 30
0.0
 11
75.36379247629999
 21
32.4632012113
 31
0.0
  0
LINE
  5
7125
330
7121
100
AcDbEntity
  8
0
  6
Continuous
 62
     0
370
    -2
100
AcDbLine
 10
70.2837924763
 20
32.2832012113
 30
0.0
 11
51.02671373729999
 21
32.2832012113
 31
0.0
  0
LINE
  5
7126
330
7121
100
AcDbEntity
  8
0
  6
Continuous
 62
     0
370
    -2
100
AcDbLine
 10
67.2837924763
 20
32.2832012113
 30
0.0
 11
64.2837924763
 21
32.2832012113
 31
0.0
  0
LINE
  5
7127
330
7121
100
AcDbEntity
  8
0
  6
Continuous
 62
     0
370
    -2
100
AcDbLine
 10
78.36379247629999
 20
32.2832012113
 30
0.0
 11
81.36379247629999
 21
32.2832012113
 31
0.0
  0
INSERT
  5
7128
330
7121
100
AcDbEntity
  8
0
 62
     0
370
    -2
100
AcDbBlockReference
  2
_FILLED
 10
70.2837924763
 20
32.2832012113
 30
0.0
 41
3.0
 42
3.0
 43
3.0
  0
INSERT
  5
7129
330
7121
100
AcDbEntity
  8
0
 62
     0
370
    -2
100
AcDbBlockReference
  2
_FILLED
 10
75.36379247629999
 20
32.2832012113
 30
0.0
 41
3.0
 42
3.0
 43
3.0
 50
180.0
  0
MTEXT
  5
712A
330
7121
100
AcDbEntity
  8
0
 62
     5
100
AcDbMText
 10
59.61671373729999
 20
35.3732012113
 30
0.0
 40
3.0
 41
0.0
 46
0.0
 71
     3
 72
     1
  1
\A1;5.08
 73
     1
 44
1.0
  0
POINT
  5
712B
330
7121
100
AcDbEntity
  8
DEFPOINTS
 62
     0
100
AcDbPoint
 10
70.2837924763
 20
14.9781684193
 30
0.0
  0
POINT
  5
782A
330
7121
100
AcDbEntity
  8
DEFPOINTS
 62
     0
100
AcDbPoint
 10
75.36379247629999
 20
14.9781684193
 30
0.0
  0
POINT
  5
782B
330
7121
100
AcDbEntity
  8
DEFPOINTS
 62
     0
100
AcDbPoint
 10
75.36379247629999
 20
30.0332012113
 30
0.0
  0
ENDBLK
  5
712C
330
7121
100
AcDbEntity
  8
0
  6
ByBlock
 62
     0
100
AcDbBlockEnd
  0
BLOCK
  5
712F
330
712E
100
AcDbEntity
  8
0
100
AcDbBlockBegin
  2
*D56
 70
     1
 10
0.0
 20
0.0
 30
0.0
  3
*D56
  1
*D56
  0
LINE
  5
7130
330
712E
100
AcDbEntity
  8
0
  6
Continuous
 62
     0
370
    -2
100
AcDbLine
 10
75.36379247629999
 20
15.0406684193
 30
0.0
 11
75.36379247629999
 21
41.4632012113
 31
0.0
  0
LINE
  5
7131
330
712E
100
AcDbEntity
  8
0
  6
Continuous
 62
     0
370
    -2
100
AcDbLine
 10
80.44379247629999
 20
15.0406684193
 30
0.0
 11
80.44379247629999
 21
41.4632012113
 31
0.0
  0
LINE
  5
7132
330
712E
100
AcDbEntity
  8
0
  6
Continuous
 62
     0
370
    -2
100
AcDbLine
 10
80.44379247629999
 20
41.2832012113
 30
0.0
 11
95.1237924763
 21
41.2832012113
 31
0.0
  0
LINE
  5
7133
330
712E
100
AcDbEntity
  8
0
  6
Continuous
 62
     0
370
    -2
100
AcDbLine
 10
72.36379247629999
 20
41.2832012113
 30
0.0
 11
69.36379247629999
 21
41.2832012113
 31
0.0
  0
LINE
  5
7134
330
712E
100
AcDbEntity
  8
0
  6
Continuous
 62
     0
370
    -2
100
AcDbLine
 10
83.44379247629999
 20
41.2832012113
 30
0.0
 11
86.44379247629999
 21
41.2832012113
 31
0.0
  0
INSERT
  5
7135
330
712E
100
AcDbEntity
  8
0
 62
     0
370
    -2
100
AcDbBlockReference
  2
_FILLED
 10
75.36379247629999
 20
41.2832012113
 30
0.0
 41
3.0
 42
3.0
 43
3.0
  0
INSERT
  5
7136
330
712E
100
AcDbEntity
  8
0
 62
     0
370
    -2
100
AcDbBlockReference
  2
_FILLED
 10
80.44379247629999
 20
41.2832012113
 30
0.0
 41
3.0
 42
3.0
 43
3.0
 50
180.0
  0
MTEXT
  5
7137
330
712E
100
AcDbEntity
  8
0
 62
     5
100
AcDbMText
 10
86.5337924763
 20
44.3732012113
 30
0.0
 40
3.0
 41
0.0
 46
0.0
 71
     1
 72
     1
  1
\A1;5.08
 73
     1
 44
1.0
  0
POINT
  5
7138
330
712E
100
AcDbEntity
  8
DEFPOINTS
 62
     0
100
AcDbPoint
 10
75.36379247629999
 20
14.9781684193
 30
0.0
  0
POINT
  5
782C
330
712E
100
AcDbEntity
  8
DEFPOINTS
 62
     0
100
AcDbPoint
 10
80.44379247629999
 20
14.9781684193
 30
0.0
  0
POINT
  5
782D
330
712E
100
AcDbEntity
  8
DEFPOINTS
 62
     0
100
AcDbPoint
 10
80.44379247629999
 20
39.0332012113
 30
0.0
  0
ENDBLK
  5
7139
330
712E
100
AcDbEntity
  8
0
  6
ByBlock
 62
     0
100
AcDbBlockEnd
  0
BLOCK
  5
713C
330
713B
100
AcDbEntity
  8
0
100
AcDbBlockBegin
  2
*D57
 70
     1
 10
0.0
 20
0.0
 30
0.0
  3
*D57
  1
*D57
  0
LINE
  5
713D
330
713B
100
AcDbEntity
  8
0
  6
Continuous
 62
     0
370
    -2
100
AcDbLine
 10
74.89629247629999
 20
85.0574155605
 30
0.0
 11
67.03629361149999
 21
85.0574155605
 31
0.0
  0
LINE
  5
713E
330
713B
100
AcDbEntity
  8
0
  6
Continuous
 62
     0
370
    -2
100
AcDbLine
 10
57.90801936479998
 20
78.72405044050001
 30
0.0
 11
67.3962936115
 21
78.72405044050001
 31
0.0
  0
LINE
  5
713F
330
713B
100
AcDbEntity
  8
0
  6
Continuous
 62
     0
370
    -2
100
AcDbLine
 10
67.21629361149999
 20
78.72405044050001
 30
0.0
 11
67.21629361149999
 21
60.55924087150001
 31
0.0
  0
LINE
  5
7140
330
713B
100
AcDbEntity
  8
0
  6
Continuous
 62
     0
370
    -2
100
AcDbLine
 10
67.21629361149999
 20
82.0574155605
 30
0.0
 11
67.21629361149999
 21
81.72405044050001
 31
0.0
  0
INSERT
  5
7141
330
713B
100
AcDbEntity
  8
0
 62
     0
370
    -2
100
AcDbBlockReference
  2
_FILLED
 10
67.21629361149999
 20
85.0574155605
 30
0.0
 41
3.0
 42
3.0
 43
3.0
 50
90.0
  0
INSERT
  5
7142
330
713B
100
AcDbEntity
  8
0
 62
     0
370
    -2
100
AcDbBlockReference
  2
_FILLED
 10
67.21629361149999
 20
78.72405044050001
 30
0.0
 41
3.0
 42
3.0
 43
3.0
 50
270.0
  0
MTEXT
  5
7143
330
713B
100
AcDbEntity
  8
0
 62
     5
100
AcDbMText
 10
64.12629361149999
 20
69.64924087150001
 30
0.0
 40
3.0
 41
0.0
 46
0.0
 71
     3
 72
     1
  1
\A1;6.33
 11
0.0
 21
1.0
 31
0.0
 73
     1
 44
1.0
  0
POINT
  5
7144
330
713B
100
AcDbEntity
  8
DEFPOINTS
 62
     0
100
AcDbPoint
 10
74.95879247629999
 20
85.0574155605
 30
0.0
  0
POINT
  5
7145
330
713B
100
AcDbEntity
  8
DEFPOINTS
 62
     0
100
AcDbPoint
 10
57.84551936479998
 20
78.72405044050001
 30
0.0
  0
POINT
  5
782E
330
713B
100
AcDbEntity
  8
DEFPOINTS
 62
     0
100
AcDbPoint
 10
66.24016357529999
 20
78.72405044050001
 30
0.0
  0
ENDBLK
  5
7146
330
713B
100
AcDbEntity
  8
0
  6
ByBlock
 62
     0
100
AcDbBlockEnd
  0
BLOCK
  5
7F0F
330
7F0E
100
AcDbEntity
  8
0
100
AcDbBlockBegin
  2
*D58
 70
     1
 10
0.0
 20
0.0
 30
0.0
  3
*D58
  1
*D58
  0
LINE
  5
7F11
330
7F0E
100
AcDbEntity
  8
0
  6
Continuous
 62
     0
370
    -2
100
AcDbLine
 10
544.2643220288323
 20
190.3614304142998
 30
0.0
 11
544.2643220288323
 21
222.1216478754998
 31
0.0
  0
LINE
  5
7F12
330
7F0E
100
AcDbEntity
  8
0
  6
Continuous
 62
     0
370
    -2
100
AcDbLine
 10
570.1360467138322
 20
189.2541478754998
 30
0.0
 11
570.1360467138322
 21
222.1216478754998
 31
0.0
  0
LINE
  5
7F13
330
7F0E
100
AcDbEntity
  8
0
  6
Continuous
 62
     0
370
    -2
100
AcDbLine
 10
547.2643220288323
 20
221.9416478754998
 30
0.0
 11
567.1360467138322
 21
221.9416478754998
 31
0.0
  0
INSERT
  5
7F14
330
7F0E
100
AcDbEntity
  8
0
 62
     0
370
    -2
100
AcDbBlockReference
  2
_FILLED
 10
544.2643220288323
 20
221.9416478754998
 30
0.0
 41
3.0
 42
3.0
 43
3.0
 50
180.0
  0
INSERT
  5
7F15
330
7F0E
100
AcDbEntity
  8
0
 62
     0
370
    -2
100
AcDbBlockReference
  2
_FILLED
 10
570.1360467138322
 20
221.9416478754998
 30
0.0
 41
3.0
 42
3.0
 43
3.0
  0
MTEXT
  5
7F16
330
7F0E
100
AcDbEntity
  8
0
 62
     5
100
AcDbMText
 10
554.8001843713323
 20
225.0316478754998
 30
0.0
 40
3.0
 41
0.0
 46
0.0
 71
     2
 72
     1
  1
\A1;25.87
 73
     1
 44
1.0
  0
POINT
  5
7F17
330
7F0E
100
AcDbEntity
  8
DEFPOINTS
 62
     0
100
AcDbPoint
 10
544.2643220288323
 20
190.2989304142998
 30
0.0
  0
POINT
  5
7F18
330
7F0E
100
AcDbEntity
  8
DEFPOINTS
 62
     0
100
AcDbPoint
 10
570.1360467138322
 20
189.1916478754998
 30
0.0
  0
POINT
  5
7F19
330
7F0E
100
AcDbEntity
  8
DEFPOINTS
 62
     0
100
AcDbPoint
 10
570.1360467138322
 20
221.9416478754998
 30
0.0
  0
ENDBLK
  5
7F10
330
7F0E
100
AcDbEntity
  8
0
100
AcDbBlockEnd
  0
BLOCK
  5
7F1B
330
7F1A
100
AcDbEntity
  8
0
100
AcDbBlockBegin
  2
*D59
 70
     1
 10
0.0
 20
0.0
 30
0.0
  3
*D59
  1
*D59
  0
LINE
  5
7F1D
330
7F1A
100
AcDbEntity
  8
0
  6
Continuous
 62
     0
370
    -2
100
AcDbLine
 10
542.8424628382322
 20
189.1916478754998
 30
0.0
 11
531.9850753862323
 21
189.1916478754998
 31
0.0
  0
LINE
  5
7F1E
330
7F1A
100
AcDbEntity
  8
0
  6
Continuous
 62
     0
370
    -2
100
AcDbLine
 10
543.9754192992323
 20
162.5082827554998
 30
0.0
 11
531.9850753862323
 21
162.5082827554998
 31
0.0
  0
LINE
  5
7F1F
330
7F1A
100
AcDbEntity
  8
0
  6
Continuous
 62
     0
370
    -2
100
AcDbLine
 10
532.1650753862323
 20
186.1916478754998
 30
0.0
 11
532.1650753862323
 21
165.5082827554998
 31
0.0
  0
INSERT
  5
7F20
330
7F1A
100
AcDbEntity
  8
0
 62
     0
370
    -2
100
AcDbBlockReference
  2
_FILLED
 10
532.1650753862323
 20
189.1916478754998
 30
0.0
 41
3.0
 42
3.0
 43
3.0
 50
90.0
  0
INSERT
  5
7F21
330
7F1A
100
AcDbEntity
  8
0
 62
     0
370
    -2
100
AcDbBlockReference
  2
_FILLED
 10
532.1650753862323
 20
162.5082827554998
 30
0.0
 41
3.0
 42
3.0
 43
3.0
 50
270.0
  0
MTEXT
  5
7F22
330
7F1A
100
AcDbEntity
  8
0
 62
     5
100
AcDbMText
 10
529.0750753862322
 20
171.5587813301998
 30
0.0
 40
3.0
 41
0.0
 46
0.0
 71
     2
 72
     1
  1
\A1;26.68
 11
0.0
 21
1.0
 31
0.0
 73
     1
 44
1.0
  0
POINT
  5
7F23
330
7F1A
100
AcDbEntity
  8
DEFPOINTS
 62
     0
100
AcDbPoint
 10
542.9049628382322
 20
189.1916478754998
 30
0.0
  0
POINT
  5
7F24
330
7F1A
100
AcDbEntity
  8
DEFPOINTS
 62
     0
100
AcDbPoint
 10
544.0379192992323
 20
162.5082827554998
 30
0.0
  0
POINT
  5
7F25
330
7F1A
100
AcDbEntity
  8
DEFPOINTS
 62
     0
100
AcDbPoint
 10
532.1650753862323
 20
162.5082827554998
 30
0.0
  0
ENDBLK
  5
7F1C
330
7F1A
100
AcDbEntity
  8
0
100
AcDbBlockEnd
  0
BLOCK
  5
7F27
330
7F26
100
AcDbEntity
  8
0
100
AcDbBlockBegin
  2
*D60
 70
     1
 10
0.0
 20
0.0
 30
0.0
  3
*D60
  1
*D60
  0
LINE
  5
7F29
330
7F26
100
AcDbEntity
  8
0
  6
Continuous
 62
     0
370
    -2
100
AcDbLine
 10
568.7871657951323
 20
198.8416478754998
 30
0.0
 11
522.9850753862323
 21
198.8416478754998
 31
0.0
  0
LINE
  5
7F2A
330
7F26
100
AcDbEntity
  8
0
  6
Continuous
 62
     0
370
    -2
100
AcDbLine
 10
543.4089410687322
 20
162.5082827554998
 30
0.0
 11
522.9850753862323
 21
162.5082827554998
 31
0.0
  0
LINE
  5
7F2B
330
7F26
100
AcDbEntity
  8
0
  6
Continuous
 62
     0
370
    -2
100
AcDbLine
 10
523.1650753862323
 20
195.8416478754998
 30
0.0
 11
523.1650753862323
 21
165.5082827554998
 31
0.0
  0
INSERT
  5
7F2C
330
7F26
100
AcDbEntity
  8
0
 62
     0
370
    -2
100
AcDbBlockReference
  2
_FILLED
 10
523.1650753862323
 20
198.8416478754998
 30
0.0
 41
3.0
 42
3.0
 43
3.0
 50
90.0
  0
INSERT
  5
7F2D
330
7F26
100
AcDbEntity
  8
0
 62
     0
370
    -2
100
AcDbBlockReference
  2
_FILLED
 10
523.1650753862323
 20
162.5082827554998
 30
0.0
 41
3.0
 42
3.0
 43
3.0
 50
270.0
  0
MTEXT
  5
7F2E
330
7F26
100
AcDbEntity
  8
0
 62
     5
100
AcDbMText
 10
520.0750753862322
 20
176.3837813301998
 30
0.0
 40
3.0
 41
0.0
 46
0.0
 71
     2
 72
     1
  1
\A1;36.33
 11
0.0
 21
1.0
 31
0.0
 73
     1
 44
1.0
  0
POINT
  5
7F2F
330
7F26
100
AcDbEntity
  8
DEFPOINTS
 62
     0
100
AcDbPoint
 10
568.8496657951323
 20
198.8416478754998
 30
0.0
  0
POINT
  5
7F30
330
7F26
100
AcDbEntity
  8
DEFPOINTS
 62
     0
100
AcDbPoint
 10
543.4714410687322
 20
162.5082827554998
 30
0.0
  0
POINT
  5
7F31
330
7F26
100
AcDbEntity
  8
DEFPOINTS
 62
     0
100
AcDbPoint
 10
523.1650753862323
 20
162.5082827554998
 30
0.0
  0
ENDBLK
  5
7F28
330
7F26
100
AcDbEntity
  8
0
100
AcDbBlockEnd
  0
BLOCK
  5
7F33
330
7F32
100
AcDbEntity
  8
0
100
AcDbBlockBegin
  2
*D61
 70
     1
 10
0.0
 20
0.0
 30
0.0
  3
*D61
  1
*D61
  0
LINE
  5
7F35
330
7F32
100
AcDbEntity
  8
0
  6
Continuous
 62
     0
370
    -2
100
AcDbLine
 10
618.9983867534323
 20
207.6916478754998
 30
0.0
 11
656.0850076103322
 21
207.6916478754998
 31
0.0
  0
LINE
  5
7F36
330
7F32
100
AcDbEntity
  8
0
  6
Continuous
 62
     0
370
    -2
100
AcDbLine
 10
641.5132549872322
 20
162.5082827554998
 30
0.0
 11
656.0850076103322
 21
162.5082827554998
 31
0.0
  0
LINE
  5
7F37
330
7F32
100
AcDbEntity
  8
0
  6
Continuous
 62
     0
370
    -2
100
AcDbLine
 10
655.9050076103323
 20
204.6916478754998
 30
0.0
 11
655.9050076103323
 21
165.5082827554998
 31
0.0
  0
INSERT
  5
7F38
330
7F32
100
AcDbEntity
  8
0
 62
     0
370
    -2
100
AcDbBlockReference
  2
_FILLED
 10
655.9050076103323
 20
207.6916478754998
 30
0.0
 41
3.0
 42
3.0
 43
3.0
 50
90.0
  0
INSERT
  5
7F39
330
7F32
100
AcDbEntity
  8
0
 62
     0
370
    -2
100
AcDbBlockReference
  2
_FILLED
 10
655.9050076103323
 20
162.5082827554998
 30
0.0
 41
3.0
 42
3.0
 43
3.0
 50
270.0
  0
MTEXT
  5
7F3A
330
7F32
100
AcDbEntity
  8
0
 62
     5
100
AcDbMText
 10
652.8150076103323
 20
180.8087813301998
 30
0.0
 40
3.0
 41
0.0
 46
0.0
 71
     2
 72
     1
  1
\A1;45.18
 11
0.0
 21
1.0
 31
0.0
 73
     1
 44
1.0
  0
POINT
  5
7F3B
330
7F32
100
AcDbEntity
  8
DEFPOINTS
 62
     0
100
AcDbPoint
 10
618.9358867534323
 20
207.6916478754998
 30
0.0
  0
POINT
  5
7F3C
330
7F32
100
AcDbEntity
  8
DEFPOINTS
 62
     0
100
AcDbPoint
 10
641.4507549872322
 20
162.5082827554998
 30
0.0
  0
POINT
  5
7F3D
330
7F32
100
AcDbEntity
  8
DEFPOINTS
 62
     0
100
AcDbPoint
 10
655.9050076103323
 20
162.5082827554998
 30
0.0
  0
ENDBLK
  5
7F34
330
7F32
100
AcDbEntity
  8
0
100
AcDbBlockEnd
  0
BLOCK
  5
7F3F
330
7F3E
100
AcDbEntity
  8
0
100
AcDbBlockBegin
  2
*D62
 70
     1
 10
0.0
 20
0.0
 30
0.0
  3
*D62
  1
*D62
  0
LINE
  5
7F41
330
7F3E
100
AcDbEntity
  8
0
  6
Continuous
 62
     0
370
    -2
100
AcDbLine
 10
544.2643220288323
 20
170.9652158018998
 30
0.0
 11
544.2643220288323
 21
231.1216478754998
 31
0.0
  0
LINE
  5
7F42
330
7F3E
100
AcDbEntity
  8
0
  6
Continuous
 62
     0
370
    -2
100
AcDbLine
 10
641.0360467138323
 20
191.3188671359998
 30
0.0
 11
641.0360467138323
 21
231.1216478754998
 31
0.0
  0
LINE
  5
7F43
330
7F3E
100
AcDbEntity
  8
0
  6
Continuous
 62
     0
370
    -2
100
AcDbLine
 10
547.2643220288323
 20
230.9416478754998
 30
0.0
 11
638.0360467138323
 21
230.9416478754998
 31
0.0
  0
INSERT
  5
7F44
330
7F3E
100
AcDbEntity
  8
0
 62
     0
370
    -2
100
AcDbBlockReference
  2
_FILLED
 10
544.2643220288323
 20
230.9416478754998
 30
0.0
 41
3.0
 42
3.0
 43
3.0
 50
180.0
  0
INSERT
  5
7F45
330
7F3E
100
AcDbEntity
  8
0
 62
     0
370
    -2
100
AcDbBlockReference
  2
_FILLED
 10
641.0360467138323
 20
230.9416478754998
 30
0.0
 41
3.0
 42
3.0
 43
3.0
  0
MTEXT
  5
7F46
330
7F3E
100
AcDbEntity
  8
0
 62
     5
100
AcDbMText
 10
587.8501843713323
 20
234.0316478754998
 30
0.0
 40
3.0
 41
0.0
 46
0.0
 71
     2
 72
     1
  1
\A1;96.77
 73
     1
 44
1.0
  0
POINT
  5
7F47
330
7F3E
100
AcDbEntity
  8
DEFPOINTS
 62
     0
100
AcDbPoint
 10
544.2643220288323
 20
170.9027158018998
 30
0.0
  0
POINT
  5
7F48
330
7F3E
100
AcDbEntity
  8
DEFPOINTS
 62
     0
100
AcDbPoint
 10
641.0360467138323
 20
191.2563671359998
 30
0.0
  0
POINT
  5
7F49
330
7F3E
100
AcDbEntity
  8
DEFPOINTS
 62
     0
100
AcDbPoint
 10
641.0360467138323
 20
230.9416478754998
 30
0.0
  0
ENDBLK
  5
7F40
330
7F3E
100
AcDbEntity
  8
0
100
AcDbBlockEnd
  0
BLOCK
  5
7F4B
330
7F4A
100
AcDbEntity
  8
0
100
AcDbBlockBegin
  2
*D63
 70
     1
 10
0.0
 20
0.0
 30
0.0
  3
*D63
  1
*D63
  0
LINE
  5
7F4D
330
7F4A
100
AcDbEntity
  8
0
  6
Continuous
 62
     0
370
    -2
100
AcDbLine
 10
572.3460467138323
 20
97.62173481359983
 30
0.0
 11
528.0785104769324
 21
97.62173481359983
 31
0.0
  0
LINE
  5
7F4E
330
7F4A
100
AcDbEntity
  8
0
  6
Continuous
 62
     0
370
    -2
100
AcDbLine
 10
572.3460467138323
 20
90.02173481359983
 30
0.0
 11
528.0785104769324
 21
90.02173481359983
 31
0.0
  0
LINE
  5
7F4F
330
7F4A
100
AcDbEntity
  8
0
  6
Continuous
 62
     0
370
    -2
100
AcDbLine
 10
528.2585104769323
 20
97.62173481359983
 30
0.0
 11
528.2585104769323
 21
110.6799423068999
 31
0.0
  0
LINE
  5
7F50
330
7F4A
100
AcDbEntity
  8
0
  6
Continuous
 62
     0
370
    -2
100
AcDbLine
 10
528.2585104769323
 20
94.62173481359983
 30
0.0
 11
528.2585104769323
 21
93.02173481359983
 31
0.0
  0
INSERT
  5
7F51
330
7F4A
100
AcDbEntity
  8
0
 62
     0
370
    -2
100
AcDbBlockReference
  2
_FILLED
 10
528.2585104769323
 20
97.62173481359983
 30
0.0
 41
3.0
 42
3.0
 43
3.0
 50
90.0
  0
INSERT
  5
7F52
330
7F4A
100
AcDbEntity
  8
0
 62
     0
370
    -2
100
AcDbBlockReference
  2
_FILLED
 10
528.2585104769323
 20
90.02173481359983
 30
0.0
 41
3.0
 42
3.0
 43
3.0
 50
270.0
  0
MTEXT
  5
7F53
330
7F4A
100
AcDbEntity
  8
0
 62
     5
100
AcDbMText
 10
525.1685104769323
 20
104.5899423068998
 30
0.0
 40
3.0
 41
0.0
 46
0.0
 71
     1
 72
     1
  1
\A1;7.6
 11
0.0
 21
1.0
 31
0.0
 73
     1
 44
1.0
  0
POINT
  5
7F54
330
7F4A
100
AcDbEntity
  8
DEFPOINTS
 62
     0
100
AcDbPoint
 10
572.4085467138323
 20
97.62173481359983
 30
0.0
  0
POINT
  5
7F55
330
7F4A
100
AcDbEntity
  8
DEFPOINTS
 62
     0
100
AcDbPoint
 10
572.4085467138323
 20
90.02173481359983
 30
0.0
  0
POINT
  5
7F56
330
7F4A
100
AcDbEntity
  8
DEFPOINTS
 62
     0
100
AcDbPoint
 10
528.2585104769323
 20
90.02173481359983
 30
0.0
  0
ENDBLK
  5
7F4C
330
7F4A
100
AcDbEntity
  8
0
100
AcDbBlockEnd
  0
BLOCK
  5
7F58
330
7F57
100
AcDbEntity
  8
0
100
AcDbBlockBegin
  2
*D64
 70
     1
 10
0.0
 20
0.0
 30
0.0
  3
*D64
  1
*D64
  0
LINE
  5
7F5A
330
7F57
100
AcDbEntity
  8
0
  6
Continuous
 62
     0
370
    -2
100
AcDbLine
 10
541.7774284447323
 20
101.8174335262998
 30
0.0
 11
520.7476309162323
 21
101.8174335262998
 31
0.0
  0
LINE
  5
7F5B
330
7F57
100
AcDbEntity
  8
0
  6
Continuous
 62
     0
370
    -2
100
AcDbLine
 10
541.7774284447323
 20
85.82603610079983
 30
0.0
 11
520.7476309162323
 21
85.82603610079983
 31
0.0
  0
LINE
  5
7F5C
330
7F57
100
AcDbEntity
  8
0
  6
Continuous
 62
     0
370
    -2
100
AcDbLine
 10
520.9276309162323
 20
98.81743352629982
 30
0.0
 11
520.9276309162323
 21
88.82603610079983
 31
0.0
  0
INSERT
  5
7F5D
330
7F57
100
AcDbEntity
  8
0
 62
     0
370
    -2
100
AcDbBlockReference
  2
_FILLED
 10
520.9276309162323
 20
101.8174335262998
 30
0.0
 41
3.0
 42
3.0
 43
3.0
 50
90.0
  0
INSERT
  5
7F5E
330
7F57
100
AcDbEntity
  8
0
 62
     0
370
    -2
100
AcDbBlockReference
  2
_FILLED
 10
520.9276309162323
 20
85.82603610079983
 30
0.0
 41
3.0
 42
3.0
 43
3.0
 50
270.0
  0
MTEXT
  5
7F5F
330
7F57
100
AcDbEntity
  8
0
 62
     5
100
AcDbMText
 10
517.8376309162322
 20
91.67614282089983
 30
0.0
 40
3.0
 41
0.0
 46
0.0
 71
     2
 72
     1
  1
\A1;15.99
 11
0.0
 21
1.0
 31
0.0
 73
     1
 44
1.0
  0
POINT
  5
7F60
330
7F57
100
AcDbEntity
  8
DEFPOINTS
 62
     0
100
AcDbPoint
 10
541.8399284447323
 20
101.8174335262998
 30
0.0
  0
POINT
  5
7F61
330
7F57
100
AcDbEntity
  8
DEFPOINTS
 62
     0
100
AcDbPoint
 10
541.8399284447323
 20
85.82603610079983
 30
0.0
  0
POINT
  5
7F62
330
7F57
100
AcDbEntity
  8
DEFPOINTS
 62
     0
100
AcDbPoint
 10
520.9276309162323
 20
85.82603610079983
 30
0.0
  0
ENDBLK
  5
7F59
330
7F57
100
AcDbEntity
  8
0
100
AcDbBlockEnd
  0
BLOCK
  5
7F64
330
7F63
100
AcDbEntity
  8
0
100
AcDbBlockBegin
  2
*D65
 70
     1
 10
0.0
 20
0.0
 30
0.0
  3
*D65
  1
*D65
  0
LINE
  5
7F66
330
7F63
100
AcDbEntity
  8
0
  6
Continuous
 62
     0
370
    -2
100
AcDbLine
 10
593.7160467138323
 20
98.82490073429983
 30
0.0
 11
593.7160467138323
 21
134.2474335262998
 31
0.0
  0
LINE
  5
7F67
330
7F63
100
AcDbEntity
  8
0
  6
Continuous
 62
     0
370
    -2
100
AcDbLine
 10
573.3960467138322
 20
98.82490073429983
 30
0.0
 11
573.3960467138322
 21
134.2474335262998
 31
0.0
  0
LINE
  5
7F68
330
7F63
100
AcDbEntity
  8
0
  6
Continuous
 62
     0
370
    -2
100
AcDbLine
 10
590.7160467138323
 20
134.0674335262998
 30
0.0
 11
576.3960467138322
 21
134.0674335262998
 31
0.0
  0
INSERT
  5
7F69
330
7F63
100
AcDbEntity
  8
0
 62
     0
370
    -2
100
AcDbBlockReference
  2
_FILLED
 10
593.7160467138323
 20
134.0674335262998
 30
0.0
 41
3.0
 42
3.0
 43
3.0
  0
INSERT
  5
7F6A
330
7F63
100
AcDbEntity
  8
0
 62
     0
370
    -2
100
AcDbBlockReference
  2
_FILLED
 10
573.3960467138322
 20
134.0674335262998
 30
0.0
 41
3.0
 42
3.0
 43
3.0
 50
180.0
  0
MTEXT
  5
7F6B
330
7F63
100
AcDbEntity
  8
0
 62
     5
100
AcDbMText
 10
578.7560467138322
 20
137.1574335262998
 30
0.0
 40
3.0
 41
0.0
 46
0.0
 71
     2
 72
     1
  1
\A1;20.32
 73
     1
 44
1.0
  0
POINT
  5
7F6C
330
7F63
100
AcDbEntity
  8
DEFPOINTS
 62
     0
100
AcDbPoint
 10
593.7160467138323
 20
98.76240073429983
 30
0.0
  0
POINT
  5
7F6D
330
7F63
100
AcDbEntity
  8
DEFPOINTS
 62
     0
100
AcDbPoint
 10
573.3960467138322
 20
98.76240073429983
 30
0.0
  0
POINT
  5
7F6E
330
7F63
100
AcDbEntity
  8
DEFPOINTS
 62
     0
100
AcDbPoint
 10
573.3960467138322
 20
134.0674335262998
 30
0.0
  0
ENDBLK
  5
7F65
330
7F63
100
AcDbEntity
  8
0
100
AcDbBlockEnd
  0
BLOCK
  5
7F70
330
7F6F
100
AcDbEntity
  8
0
100
AcDbBlockBegin
  2
*D66
 70
     1
 10
0.0
 20
0.0
 30
0.0
  3
*D66
  1
*D66
  0
LINE
  5
7F72
330
7F6F
100
AcDbEntity
  8
0
  6
Continuous
 62
     0
370
    -2
100
AcDbLine
 10
588.6360467138322
 20
98.82490073429983
 30
0.0
 11
588.6360467138322
 21
116.2474335262998
 31
0.0
  0
LINE
  5
7F73
330
7F6F
100
AcDbEntity
  8
0
  6
Continuous
 62
     0
370
    -2
100
AcDbLine
 10
593.7160467138323
 20
98.82490073429983
 30
0.0
 11
593.7160467138323
 21
116.2474335262998
 31
0.0
  0
LINE
  5
7F74
330
7F6F
100
AcDbEntity
  8
0
  6
Continuous
 62
     0
370
    -2
100
AcDbLine
 10
588.6360467138322
 20
116.0674335262998
 30
0.0
 11
569.3789679748322
 21
116.0674335262998
 31
0.0
  0
LINE
  5
7F75
330
7F6F
100
AcDbEntity
  8
0
  6
Continuous
 62
     0
370
    -2
100
AcDbLine
 10
585.6360467138322
 20
116.0674335262998
 30
0.0
 11
582.6360467138322
 21
116.0674335262998
 31
0.0
  0
LINE
  5
7F76
330
7F6F
100
AcDbEntity
  8
0
  6
Continuous
 62
     0
370
    -2
100
AcDbLine
 10
596.7160467138323
 20
116.0674335262998
 30
0.0
 11
599.7160467138323
 21
116.0674335262998
 31
0.0
  0
INSERT
  5
7F77
330
7F6F
100
AcDbEntity
  8
0
 62
     0
370
    -2
100
AcDbBlockReference
  2
_FILLED
 10
588.6360467138322
 20
116.0674335262998
 30
0.0
 41
3.0
 42
3.0
 43
3.0
  0
INSERT
  5
7F78
330
7F6F
100
AcDbEntity
  8
0
 62
     0
370
    -2
100
AcDbBlockReference
  2
_FILLED
 10
593.7160467138323
 20
116.0674335262998
 30
0.0
 41
3.0
 42
3.0
 43
3.0
 50
180.0
  0
MTEXT
  5
7F79
330
7F6F
100
AcDbEntity
  8
0
 62
     5
100
AcDbMText
 10
577.9689679748323
 20
119.1574335262998
 30
0.0
 40
3.0
 41
0.0
 46
0.0
 71
     3
 72
     1
  1
\A1;5.08
 73
     1
 44
1.0
  0
POINT
  5
7F7A
330
7F6F
100
AcDbEntity
  8
DEFPOINTS
 62
     0
100
AcDbPoint
 10
588.6360467138322
 20
98.76240073429983
 30
0.0
  0
POINT
  5
7F7B
330
7F6F
100
AcDbEntity
  8
DEFPOINTS
 62
     0
100
AcDbPoint
 10
593.7160467138323
 20
98.76240073429983
 30
0.0
  0
POINT
  5
7F7C
330
7F6F
100
AcDbEntity
  8
DEFPOINTS
 62
     0
100
AcDbPoint
 10
593.7160467138323
 20
116.0674335262998
 30
0.0
  0
ENDBLK
  5
7F71
330
7F6F
100
AcDbEntity
  8
0
100
AcDbBlockEnd
  0
BLOCK
  5
7F7E
330
7F7D
100
AcDbEntity
  8
0
100
AcDbBlockBegin
  2
*D67
 70
     1
 10
0.0
 20
0.0
 30
0.0
  3
*D67
  1
*D67
  0
LINE
  5
7F80
330
7F7D
100
AcDbEntity
  8
0
  6
Continuous
 62
     0
370
    -2
100
AcDbLine
 10
593.7160467138323
 20
98.82490073429983
 30
0.0
 11
593.7160467138323
 21
125.2474335262998
 31
0.0
  0
LINE
  5
7F81
330
7F7D
100
AcDbEntity
  8
0
  6
Continuous
 62
     0
370
    -2
100
AcDbLine
 10
598.7960467138323
 20
98.82490073429983
 30
0.0
 11
598.7960467138323
 21
125.2474335262998
 31
0.0
  0
LINE
  5
7F82
330
7F7D
100
AcDbEntity
  8
0
  6
Continuous
 62
     0
370
    -2
100
AcDbLine
 10
598.7960467138323
 20
125.0674335262998
 30
0.0
 11
613.4760467138324
 21
125.0674335262998
 31
0.0
  0
LINE
  5
7F83
330
7F7D
100
AcDbEntity
  8
0
  6
Continuous
 62
     0
370
    -2
100
AcDbLine
 10
590.7160467138323
 20
125.0674335262998
 30
0.0
 11
587.7160467138323
 21
125.0674335262998
 31
0.0
  0
LINE
  5
7F84
330
7F7D
100
AcDbEntity
  8
0
  6
Continuous
 62
     0
370
    -2
100
AcDbLine
 10
601.7960467138323
 20
125.0674335262998
 30
0.0
 11
604.7960467138323
 21
125.0674335262998
 31
0.0
  0
INSERT
  5
7F85
330
7F7D
100
AcDbEntity
  8
0
 62
     0
370
    -2
100
AcDbBlockReference
  2
_FILLED
 10
593.7160467138323
 20
125.0674335262998
 30
0.0
 41
3.0
 42
3.0
 43
3.0
  0
INSERT
  5
7F86
330
7F7D
100
AcDbEntity
  8
0
 62
     0
370
    -2
100
AcDbBlockReference
  2
_FILLED
 10
598.7960467138323
 20
125.0674335262998
 30
0.0
 41
3.0
 42
3.0
 43
3.0
 50
180.0
  0
MTEXT
  5
7F87
330
7F7D
100
AcDbEntity
  8
0
 62
     5
100
AcDbMText
 10
604.8860467138323
 20
128.1574335262998
 30
0.0
 40
3.0
 41
0.0
 46
0.0
 71
     1
 72
     1
  1
\A1;5.08
 73
     1
 44
1.0
  0
POINT
  5
7F88
330
7F7D
100
AcDbEntity
  8
DEFPOINTS
 62
     0
100
AcDbPoint
 10
593.7160467138323
 20
98.76240073429983
 30
0.0
  0
POINT
  5
7F89
330
7F7D
100
AcDbEntity
  8
DEFPOINTS
 62
     0
100
AcDbPoint
 10
598.7960467138323
 20
98.76240073429983
 30
0.0
  0
POINT
  5
7F8A
330
7F7D
100
AcDbEntity
  8
DEFPOINTS
 62
     0
100
AcDbPoint
 10
598.7960467138323
 20
125.0674335262998
 30
0.0
  0
ENDBLK
  5
7F7F
330
7F7D
100
AcDbEntity
  8
0
100
AcDbBlockEnd
  0
BLOCK
  5
7F8C
330
7F8B
100
AcDbEntity
  8
0
100
AcDbBlockBegin
  2
*D68
 70
     1
 10
0.0
 20
0.0
 30
0.0
  3
*D68
  1
*D68
  0
LINE
  5
7F8E
330
7F8B
100
AcDbEntity
  8
0
  6
Continuous
 62
     0
370
    -2
100
AcDbLine
 10
593.2485467138323
 20
168.8416478754998
 30
0.0
 11
585.3885478490323
 21
168.8416478754998
 31
0.0
  0
LINE
  5
7F8F
330
7F8B
100
AcDbEntity
  8
0
  6
Continuous
 62
     0
370
    -2
100
AcDbLine
 10
576.2602736023323
 20
162.5082827554998
 30
0.0
 11
585.7485478490322
 21
162.5082827554998
 31
0.0
  0
LINE
  5
7F90
330
7F8B
100
AcDbEntity
  8
0
  6
Continuous
 62
     0
370
    -2
100
AcDbLine
 10
585.5685478490323
 20
162.5082827554998
 30
0.0
 11
585.5685478490323
 21
144.3434731864998
 31
0.0
  0
LINE
  5
7F91
330
7F8B
100
AcDbEntity
  8
0
  6
Continuous
 62
     0
370
    -2
100
AcDbLine
 10
585.5685478490323
 20
165.8416478754998
 30
0.0
 11
585.5685478490323
 21
165.5082827554998
 31
0.0
  0
INSERT
  5
7F92
330
7F8B
100
AcDbEntity
  8
0
 62
     0
370
    -2
100
AcDbBlockReference
  2
_FILLED
 10
585.5685478490323
 20
168.8416478754998
 30
0.0
 41
3.0
 42
3.0
 43
3.0
 50
90.0
  0
INSERT
  5
7F93
330
7F8B
100
AcDbEntity
  8
0
 62
     0
370
    -2
100
AcDbBlockReference
  2
_FILLED
 10
585.5685478490323
 20
162.5082827554998
 30
0.0
 41
3.0
 42
3.0
 43
3.0
 50
270.0
  0
MTEXT
  5
7F94
330
7F8B
100
AcDbEntity
  8
0
 62
     5
100
AcDbMText
 10
582.4785478490322
 20
153.4334731864998
 30
0.0
 40
3.0
 41
0.0
 46
0.0
 71
     3
 72
     1
  1
\A1;6.33
 11
0.0
 21
1.0
 31
0.0
 73
     1
 44
1.0
  0
POINT
  5
7F95
330
7F8B
100
AcDbEntity
  8
DEFPOINTS
 62
     0
100
AcDbPoint
 10
593.3110467138323
 20
168.8416478754998
 30
0.0
  0
POINT
  5
7F96
330
7F8B
100
AcDbEntity
  8
DEFPOINTS
 62
     0
100
AcDbPoint
 10
576.1977736023323
 20
162.5082827554998
 30
0.0
  0
POINT
  5
7F97
330
7F8B
100
AcDbEntity
  8
DEFPOINTS
 62
     0
100
AcDbPoint
 10
585.5685478490323
 20
162.5082827554998
 30
0.0
  0
ENDBLK
  5
7F8D
330
7F8B
100
AcDbEntity
  8
0
100
AcDbBlockEnd
  0
BLOCK
  5
7FD4
330
7FD3
100
AcDbEntity
  8
0
100
AcDbBlockBegin
  2
*D70
 70
     1
 10
0.0
 20
0.0
 30
0.0
  3
*D70
  1
*D70
  0
LINE
  5
7FD5
330
7FD3
100
AcDbEntity
  8
0
  6
Continuous
 62
     0
370
    -2
100
AcDbLine
 10
11.6875
 20
30.99999999970001
 30
0.0
 11
5.720753357399995
 21
30.99999999970001
 31
0.0
  0
LINE
  5
7FD6
330
7FD3
100
AcDbEntity
  8
0
  6
Continuous
 62
     0
370
    -2
100
AcDbLine
 10
11.6875
 20
0.0
 30
0.0
 11
5.720753357399991
 21
0.0
 31
0.0
  0
LINE
  5
7FD7
330
7FD3
100
AcDbEntity
  8
0
  6
Continuous
 62
     0
370
    -2
100
AcDbLine
 10
5.900753357399994
 20
27.99999999970001
 30
0.0
 11
5.900753357399991
 21
3.0
 31
0.0
  0
INSERT
  5
7FD8
330
7FD3
100
AcDbEntity
  8
0
 62
     0
370
    -2
100
AcDbBlockReference
  2
_FILLED
 10
5.900753357399995
 20
30.99999999970001
 30
0.0
 41
3.0
 42
3.0
 43
3.0
 50
90.0
  0
INSERT
  5
7FD9
330
7FD3
100
AcDbEntity
  8
0
 62
     0
370
    -2
100
AcDbBlockReference
  2
_FILLED
 10
5.90075335739999
 20
0.0
 30
0.0
 41
3.0
 42
3.0
 43
3.0
 50
270.0
  0
MTEXT
  5
7FDA
330
7FD3
100
AcDbEntity
  8
0
 62
     5
100
AcDbMText
 10
2.810753357399992
 20
12.81801000910001
 30
0.0
 40
3.0
 41
0.0
 46
0.0
 71
     2
 72
     1
  1
\A1;31
 11
1.575800422063859E-16
 21
1.0
 31
0.0
 73
     1
 44
1.0
  0
POINT
  5
7FDB
330
7FD3
100
AcDbEntity
  8
DEFPOINTS
 62
     0
100
AcDbPoint
 10
11.75
 20
30.99999999970001
 30
0.0
  0
POINT
  5
80C0
330
7FD3
100
AcDbEntity
  8
DEFPOINTS
 62
     0
100
AcDbPoint
 10
11.75
 20
0.0
 30
0.0
  0
POINT
  5
80C1
330
7FD3
100
AcDbEntity
  8
DEFPOINTS
 62
     0
100
AcDbPoint
 10
3.75
 20
0.0000000000000013
 30
0.0
  0
ENDBLK
  5
7FDC
330
7FD3
100
AcDbEntity
  8
0
  6
ByBlock
 62
     0
100
AcDbBlockEnd
  0
BLOCK
  5
7FDF
330
7FDE
100
AcDbEntity
  8
0
100
AcDbBlockBegin
  2
*D71
 70
     1
 10
0.0
 20
0.0
 30
0.0
  3
*D71
  1
*D71
  0
LINE
  5
7FE0
330
7FDE
100
AcDbEntity
  8
0
  6
Continuous
 62
     0
370
    -2
100
AcDbLine
 10
11.6875
 20
156.5520665194
 30
0.0
 11
5.183065018000009
 21
156.5520665194
 31
0.0
  0
LINE
  5
7FE1
330
7FDE
100
AcDbEntity
  8
0
  6
Continuous
 62
     0
370
    -2
100
AcDbLine
 10
17.5847603002
 20
60.55206910829999
 30
0.0
 11
5.183065017999994
 21
60.55206910829999
 31
0.0
  0
LINE
  5
7FE2
330
7FDE
100
AcDbEntity
  8
0
  6
Continuous
 62
     0
370
    -2
100
AcDbLine
 10
5.363065018000007
 20
153.5520665194
 30
0.0
 11
5.363065017999994
 21
63.55206910829999
 31
0.0
  0
INSERT
  5
7FE3
330
7FDE
100
AcDbEntity
  8
0
 62
     0
370
    -2
100
AcDbBlockReference
  2
_FILLED
 10
5.363065018000008
 20
156.5520665194
 30
0.0
 41
3.0
 42
3.0
 43
3.0
 50
90.0
  0
INSERT
  5
7FE4
330
7FDE
100
AcDbEntity
  8
0
 62
     0
370
    -2
100
AcDbBlockReference
  2
_FILLED
 10
5.363065017999993
 20
60.55206910829999
 30
0.0
 41
3.0
 42
3.0
 43
3.0
 50
270.0
  0
MTEXT
  5
7FE5
330
7FDE
100
AcDbEntity
  8
0
 62
     5
100
AcDbMText
 10
2.273065018
 20
106.9428738193
 30
0.0
 40
3.0
 41
0.0
 46
0.0
 71
     2
 72
     1
  1
\A1;96
 11
1.619075287907770E-16
 21
1.0
 31
0.0
 73
     1
 44
1.0
  0
POINT
  5
7FE6
330
7FDE
100
AcDbEntity
  8
DEFPOINTS
 62
     0
100
AcDbPoint
 10
11.75
 20
156.5520665194
 30
0.0
  0
POINT
  5
80C2
330
7FDE
100
AcDbEntity
  8
DEFPOINTS
 62
     0
100
AcDbPoint
 10
17.6472603002
 20
60.55206910829999
 30
0.0
  0
POINT
  5
80C3
330
7FDE
100
AcDbEntity
  8
DEFPOINTS
 62
     0
100
AcDbPoint
 10
3.75
 20
60.55206910829999
 30
0.0
  0
ENDBLK
  5
7FE7
330
7FDE
100
AcDbEntity
  8
0
  6
ByBlock
 62
     0
100
AcDbBlockEnd
  0
BLOCK
  5
7FEA
330
7FE9
100
AcDbEntity
  8
0
100
AcDbBlockBegin
  2
*D72
 70
     1
 10
0.0
 20
0.0
 30
0.0
  3
*D72
  1
*D72
  0
LINE
  5
7FEB
330
7FE9
100
AcDbEntity
  8
0
  6
Continuous
 62
     0
370
    -2
100
AcDbLine
 10
60.749996
 20
65.31456810830001
 30
0.0
 11
60.74999599999998
 21
166.732069108
 31
0.0
  0
LINE
  5
7FEC
330
7FE9
100
AcDbEntity
  8
0
  6
Continuous
 62
     0
370
    -2
100
AcDbLine
 10
13.75
 20
158.614569108
 30
0.0
 11
13.75
 21
166.732069108
 31
0.0
  0
LINE
  5
7FED
330
7FE9
100
AcDbEntity
  8
0
  6
Continuous
 62
     0
370
    -2
100
AcDbLine
 10
57.74999599999998
 20
166.552069108
 30
0.0
 11
16.75
 21
166.552069108
 31
0.0
  0
INSERT
  5
7FEE
330
7FE9
100
AcDbEntity
  8
0
 62
     0
370
    -2
100
AcDbBlockReference
  2
_FILLED
 10
60.74999599999998
 20
166.552069108
 30
0.0
 41
3.0
 42
3.0
 43
3.0
  0
INSERT
  5
7FEF
330
7FE9
100
AcDbEntity
  8
0
 62
     0
370
    -2
100
AcDbBlockReference
  2
_FILLED
 10
13.75
 20
166.552069108
 30
0.0
 41
3.0
 42
3.0
 43
3.0
 50
180.0
  0
MTEXT
  5
7FF0
330
7FE9
100
AcDbEntity
  8
0
 62
     5
100
AcDbMText
 10
34.24999800000001
 20
169.642069108
 30
0.0
 40
3.0
 41
0.0
 46
0.0
 71
     2
 72
     1
  1
\A1;47
 73
     1
 44
1.0
  0
POINT
  5
7FF1
330
7FE9
100
AcDbEntity
  8
DEFPOINTS
 62
     0
100
AcDbPoint
 10
60.749996
 20
65.25206810830001
 30
0.0
  0
POINT
  5
80C4
330
7FE9
100
AcDbEntity
  8
DEFPOINTS
 62
     0
100
AcDbPoint
 10
13.75
 20
158.552069108
 30
0.0
  0
POINT
  5
80C5
330
7FE9
100
AcDbEntity
  8
DEFPOINTS
 62
     0
100
AcDbPoint
 10
13.75
 20
166.552069108
 30
0.0
  0
ENDBLK
  5
7FF2
330
7FE9
100
AcDbEntity
  8
0
  6
ByBlock
 62
     0
100
AcDbBlockEnd
  0
BLOCK
  5
7FF5
330
7FF4
100
AcDbEntity
  8
0
100
AcDbBlockBegin
  2
*D73
 70
     1
 10
0.0
 20
0.0
 30
0.0
  3
*D73
  1
*D73
  0
LINE
  5
7FF6
330
7FF4
100
AcDbEntity
  8
0
  6
Continuous
 62
     0
370
    -2
100
AcDbLine
 10
17.6064505973
 20
68.4469989103
 30
0.0
 11
36.25396118565349
 21
41.33968446964724
 31
0.0
  0
MTEXT
  5
7FF7
330
7FF4
100
AcDbEntity
  8
0
 62
     5
100
AcDbMText
 10
33.64790423686147
 20
50.58006688487514
 30
0.0
 40
3.0
 41
0.0
 46
0.0
 71
     1
 72
     1
  1
\A1;%%c4.6
 11
0.566760609870809
 21
-0.8238825226322434
 31
0.0
 73
     1
 44
1.0
  0
INSERT
  5
7FF8
330
7FF4
100
AcDbEntity
  8
0
 62
     0
370
    -2
100
AcDbBlockReference
  2
_FILLED
 10
17.6064505973
 20
68.4469989103
 30
0.0
 41
3.0
 42
3.0
 43
3.0
 50
124.5246407360913
  0
POINT
  5
7FF9
330
7FF4
100
AcDbEntity
  8
DEFPOINTS
 62
     0
100
AcDbPoint
 10
17.6064505973
 20
68.4469989103
 30
0.0
  0
POINT
  5
7FFA
330
7FF4
100
AcDbEntity
  8
DEFPOINTS
 62
     0
100
AcDbPoint
 10
20.2135494027
 20
64.6571393062
 30
0.0
  0
ENDBLK
  5
7FFD
330
7FF4
100
AcDbEntity
  8
0
  6
ByBlock
 62
     0
100
AcDbBlockEnd
  0
BLOCK
  5
8000
330
7FFF
100
AcDbEntity
  8
0
100
AcDbBlockBegin
  2
*D74
 70
     1
 10
0.0
 20
0.0
 30
0.0
  3
*D74
  1
*D74
  0
LINE
  5
8001
330
7FFF
100
AcDbEntity
  8
0
  6
Continuous
 62
     0
370
    -2
100
AcDbLine
 10
62.01249599999998
 20
28.49999999970001
 30
0.0
 11
80.4351400574
 21
28.49999999970001
 31
0.0
  0
LINE
  5
8002
330
7FFF
100
AcDbEntity
  8
0
  6
Continuous
 62
     0
370
    -2
100
AcDbLine
 10
62.01249599999998
 20
2.499999999700009
 30
0.0
 11
80.4351400574
 21
2.499999999700005
 31
0.0
  0
LINE
  5
8003
330
7FFF
100
AcDbEntity
  8
0
  6
Continuous
 62
     0
370
    -2
100
AcDbLine
 10
80.2551400574
 20
25.49999999970001
 30
0.0
 11
80.2551400574
 21
5.499999999700005
 31
0.0
  0
INSERT
  5
8004
330
7FFF
100
AcDbEntity
  8
0
 62
     0
370
    -2
100
AcDbBlockReference
  2
_FILLED
 10
80.2551400574
 20
28.49999999970001
 30
0.0
 41
3.0
 42
3.0
 43
3.0
 50
90.0
  0
INSERT
  5
8005
330
7FFF
100
AcDbEntity
  8
0
 62
     0
370
    -2
100
AcDbBlockReference
  2
_FILLED
 10
80.2551400574
 20
2.499999999700005
 30
0.0
 41
3.0
 42
3.0
 43
3.0
 50
270.0
  0
MTEXT
  5
8006
330
7FFF
100
AcDbEntity
  8
0
 62
     5
100
AcDbMText
 10
77.1651400574
 20
13.89080600530001
 30
0.0
 40
3.0
 41
0.0
 46
0.0
 71
     2
 72
     1
  1
\A1;26
 11
0.0
 21
1.0
 31
0.0
 73
     1
 44
1.0
  0
POINT
  5
8007
330
7FFF
100
AcDbEntity
  8
DEFPOINTS
 62
     0
100
AcDbPoint
 10
61.94999599999998
 20
28.49999999970001
 30
0.0
  0
POINT
  5
80C6
330
7FFF
100
AcDbEntity
  8
DEFPOINTS
 62
     0
100
AcDbPoint
 10
61.94999599999998
 20
2.499999999700009
 30
0.0
  0
POINT
  5
80C7
330
7FFF
100
AcDbEntity
  8
DEFPOINTS
 62
     0
100
AcDbPoint
 10
78.64207503940001
 20
2.499999999700006
 30
0.0
  0
ENDBLK
  5
8008
330
7FFF
100
AcDbEntity
  8
0
  6
ByBlock
 62
     0
100
AcDbBlockEnd
  0
BLOCK
  5
8184
330
8183
100
AcDbEntity
  8
0
100
AcDbBlockBegin
  2
*D75
 70
     1
 10
0.0
 20
0.0
 30
0.0
  3
*D75
  1
*D75
  0
LINE
  5
8186
330
8183
100
AcDbEntity
  8
0
  6
Continuous
 62
     0
370
    -2
100
AcDbLine
 10
569.340824751554
 20
104.1524699618689
 30
0.0
 11
563.374078108954
 21
104.1524699618689
 31
0.0
  0
LINE
  5
8187
330
8183
100
AcDbEntity
  8
0
  6
Continuous
 62
     0
370
    -2
100
AcDbLine
 10
569.340824751554
 20
73.15246996216888
 30
0.0
 11
563.374078108954
 21
73.15246996216888
 31
0.0
  0
LINE
  5
8188
330
8183
100
AcDbEntity
  8
0
  6
Continuous
 62
     0
370
    -2
100
AcDbLine
 10
563.554078108954
 20
101.1524699618689
 30
0.0
 11
563.554078108954
 21
76.15246996216888
 31
0.0
  0
INSERT
  5
8189
330
8183
100
AcDbEntity
  8
0
 62
     0
370
    -2
100
AcDbBlockReference
  2
_FILLED
 10
563.554078108954
 20
104.1524699618689
 30
0.0
 41
3.0
 42
3.0
 43
3.0
 50
90.0
  0
INSERT
  5
818A
330
8183
100
AcDbEntity
  8
0
 62
     0
370
    -2
100
AcDbBlockReference
  2
_FILLED
 10
563.554078108954
 20
73.15246996216888
 30
0.0
 41
3.0
 42
3.0
 43
3.0
 50
270.0
  0
MTEXT
  5
818B
330
8183
100
AcDbEntity
  8
0
 62
     5
100
AcDbMText
 10
560.4640781089539
 20
85.97047997126889
 30
0.0
 40
3.0
 41
0.0
 46
0.0
 71
     2
 72
     1
  1
\A1;31
 11
0.0
 21
1.0
 31
0.0
 73
     1
 44
1.0
  0
POINT
  5
818C
330
8183
100
AcDbEntity
  8
DEFPOINTS
 62
     0
100
AcDbPoint
 10
569.403324751554
 20
104.1524699618689
 30
0.0
  0
POINT
  5
818D
330
8183
100
AcDbEntity
  8
DEFPOINTS
 62
     0
100
AcDbPoint
 10
569.403324751554
 20
73.15246996216888
 30
0.0
  0
POINT
  5
818E
330
8183
100
AcDbEntity
  8
DEFPOINTS
 62
     0
100
AcDbPoint
 10
563.554078108954
 20
73.15246996216888
 30
0.0
  0
ENDBLK
  5
8185
330
8183
100
AcDbEntity
  8
0
100
AcDbBlockEnd
  0
BLOCK
  5
8190
330
818F
100
AcDbEntity
  8
0
100
AcDbBlockBegin
  2
*D76
 70
     1
 10
0.0
 20
0.0
 30
0.0
  3
*D76
  1
*D76
  0
LINE
  5
8192
330
818F
100
AcDbEntity
  8
0
  6
Continuous
 62
     0
370
    -2
100
AcDbLine
 10
569.340824751554
 20
229.7045364815689
 30
0.0
 11
562.8363897695541
 21
229.7045364815689
 31
0.0
  0
LINE
  5
8193
330
818F
100
AcDbEntity
  8
0
  6
Continuous
 62
     0
370
    -2
100
AcDbLine
 10
575.2380850517541
 20
133.7045390704689
 30
0.0
 11
562.8363897695541
 21
133.7045390704689
 31
0.0
  0
LINE
  5
8194
330
818F
100
AcDbEntity
  8
0
  6
Continuous
 62
     0
370
    -2
100
AcDbLine
 10
563.016389769554
 20
226.7045364815689
 30
0.0
 11
563.016389769554
 21
136.7045390704689
 31
0.0
  0
INSERT
  5
8195
330
818F
100
AcDbEntity
  8
0
 62
     0
370
    -2
100
AcDbBlockReference
  2
_FILLED
 10
563.016389769554
 20
229.7045364815689
 30
0.0
 41
3.0
 42
3.0
 43
3.0
 50
90.0
  0
INSERT
  5
8196
330
818F
100
AcDbEntity
  8
0
 62
     0
370
    -2
100
AcDbBlockReference
  2
_FILLED
 10
563.016389769554
 20
133.7045390704689
 30
0.0
 41
3.0
 42
3.0
 43
3.0
 50
270.0
  0
MTEXT
  5
8197
330
818F
100
AcDbEntity
  8
0
 62
     5
100
AcDbMText
 10
559.926389769554
 20
180.0953437814689
 30
0.0
 40
3.0
 41
0.0
 46
0.0
 71
     2
 72
     1
  1
\A1;96
 11
0.0
 21
1.0
 31
0.0
 73
     1
 44
1.0
  0
POINT
  5
8198
330
818F
100
AcDbEntity
  8
DEFPOINTS
 62
     0
100
AcDbPoint
 10
569.403324751554
 20
229.7045364815689
 30
0.0
  0
POINT
  5
8199
330
818F
100
AcDbEntity
  8
DEFPOINTS
 62
     0
100
AcDbPoint
 10
575.3005850517541
 20
133.7045390704689
 30
0.0
  0
POINT
  5
819A
330
818F
100
AcDbEntity
  8
DEFPOINTS
 62
     0
100
AcDbPoint
 10
563.016389769554
 20
133.7045390704689
 30
0.0
  0
ENDBLK
  5
8191
330
818F
100
AcDbEntity
  8
0
100
AcDbBlockEnd
  0
BLOCK
  5
819C
330
819B
100
AcDbEntity
  8
0
100
AcDbBlockBegin
  2
*D77
 70
     1
 10
0.0
 20
0.0
 30
0.0
  3
*D77
  1
*D77
  0
LINE
  5
819E
330
819B
100
AcDbEntity
  8
0
  6
Continuous
 62
     0
370
    -2
100
AcDbLine
 10
618.403320751554
 20
138.4670380704689
 30
0.0
 11
618.403320751554
 21
239.8845390701689
 31
0.0
  0
LINE
  5
819F
330
819B
100
AcDbEntity
  8
0
  6
Continuous
 62
     0
370
    -2
100
AcDbLine
 10
571.403324751554
 20
231.7670390701689
 30
0.0
 11
571.403324751554
 21
239.8845390701689
 31
0.0
  0
LINE
  5
81A0
330
819B
100
AcDbEntity
  8
0
  6
Continuous
 62
     0
370
    -2
100
AcDbLine
 10
615.403320751554
 20
239.7045390701689
 30
0.0
 11
574.403324751554
 21
239.7045390701689
 31
0.0
  0
INSERT
  5
81A1
330
819B
100
AcDbEntity
  8
0
 62
     0
370
    -2
100
AcDbBlockReference
  2
_FILLED
 10
618.403320751554
 20
239.7045390701689
 30
0.0
 41
3.0
 42
3.0
 43
3.0
  0
INSERT
  5
81A2
330
819B
100
AcDbEntity
  8
0
 62
     0
370
    -2
100
AcDbBlockReference
  2
_FILLED
 10
571.403324751554
 20
239.7045390701689
 30
0.0
 41
3.0
 42
3.0
 43
3.0
 50
180.0
  0
MTEXT
  5
81A3
330
819B
100
AcDbEntity
  8
0
 62
     5
100
AcDbMText
 10
591.903322751554
 20
242.7945390701689
 30
0.0
 40
3.0
 41
0.0
 46
0.0
 71
     2
 72
     1
  1
\A1;47
 73
     1
 44
1.0
  0
POINT
  5
81A4
330
819B
100
AcDbEntity
  8
DEFPOINTS
 62
     0
100
AcDbPoint
 10
618.403320751554
 20
138.4045380704689
 30
0.0
  0
POINT
  5
81A5
330
819B
100
AcDbEntity
  8
DEFPOINTS
 62
     0
100
AcDbPoint
 10
571.403324751554
 20
231.7045390701689
 30
0.0
  0
POINT
  5
81A6
330
819B
100
AcDbEntity
  8
DEFPOINTS
 62
     0
100
AcDbPoint
 10
571.403324751554
 20
239.7045390701689
 30
0.0
  0
ENDBLK
  5
819D
330
819B
100
AcDbEntity
  8
0
100
AcDbBlockEnd
  0
BLOCK
  5
81A8
330
81A7
100
AcDbEntity
  8
0
100
AcDbBlockBegin
  2
*D78
 70
     1
 10
0.0
 20
0.0
 30
0.0
  3
*D78
  1
*D78
  0
LINE
  5
81AA
330
81A7
100
AcDbEntity
  8
0
  6
Continuous
 62
     0
370
    -2
100
AcDbLine
 10
575.259775348854
 20
141.5994688724689
 30
0.0
 11
593.9072859372077
 21
114.4921544318162
 31
0.0
  0
MTEXT
  5
81AB
330
81A7
100
AcDbEntity
  8
0
 62
     5
100
AcDbMText
 10
591.3012289884156
 20
123.7325368470441
 30
0.0
 40
3.0
 41
0.0
 46
0.0
 71
     1
 72
     1
  1
\A1;%%c4.6
 11
0.5667606098708131
 21
-0.8238825226322403
 31
0.0
 73
     1
 44
1.0
  0
INSERT
  5
81AC
330
81A7
100
AcDbEntity
  8
0
 62
     0
370
    -2
100
AcDbBlockReference
  2
_FILLED
 10
575.259775348854
 20
141.5994688724689
 30
0.0
 41
3.0
 42
3.0
 43
3.0
 50
124.5246407360916
  0
POINT
  5
81AD
330
81A7
100
AcDbEntity
  8
DEFPOINTS
 62
     0
100
AcDbPoint
 10
575.259775348854
 20
141.5994688724689
 30
0.0
  0
POINT
  5
81AE
330
81A7
100
AcDbEntity
  8
DEFPOINTS
 62
     0
100
AcDbPoint
 10
577.866874154254
 20
137.8096092683689
 30
0.0
  0
ENDBLK
  5
81A9
330
81A7
100
AcDbEntity
  8
0
100
AcDbBlockEnd
  0
BLOCK
  5
81B0
330
81AF
100
AcDbEntity
  8
0
100
AcDbBlockBegin
  2
*D79
 70
     1
 10
0.0
 20
0.0
 30
0.0
  3
*D79
  1
*D79
  0
LINE
  5
81B2
330
81AF
100
AcDbEntity
  8
0
  6
Continuous
 62
     0
370
    -2
100
AcDbLine
 10
619.665820751554
 20
101.6524699618689
 30
0.0
 11
638.088464808954
 21
101.6524699618689
 31
0.0
  0
LINE
  5
81B3
330
81AF
100
AcDbEntity
  8
0
  6
Continuous
 62
     0
370
    -2
100
AcDbLine
 10
619.665820751554
 20
75.65246996186889
 30
0.0
 11
638.088464808954
 21
75.65246996186889
 31
0.0
  0
LINE
  5
81B4
330
81AF
100
AcDbEntity
  8
0
  6
Continuous
 62
     0
370
    -2
100
AcDbLine
 10
637.908464808954
 20
98.65246996186889
 30
0.0
 11
637.908464808954
 21
78.65246996186889
 31
0.0
  0
INSERT
  5
81B5
330
81AF
100
AcDbEntity
  8
0
 62
     0
370
    -2
100
AcDbBlockReference
  2
_FILLED
 10
637.908464808954
 20
101.6524699618689
 30
0.0
 41
3.0
 42
3.0
 43
3.0
 50
90.0
  0
INSERT
  5
81B6
330
81AF
100
AcDbEntity
  8
0
 62
     0
370
    -2
100
AcDbBlockReference
  2
_FILLED
 10
637.908464808954
 20
75.65246996186889
 30
0.0
 41
3.0
 42
3.0
 43
3.0
 50
270.0
  0
MTEXT
  5
81B7
330
81AF
100
AcDbEntity
  8
0
 62
     5
100
AcDbMText
 10
634.818464808954
 20
87.04327596746889
 30
0.0
 40
3.0
 41
0.0
 46
0.0
 71
     2
 72
     1
  1
\A1;26
 11
0.0
 21
1.0
 31
0.0
 73
     1
 44
1.0
  0
POINT
  5
81B8
330
81AF
100
AcDbEntity
  8
DEFPOINTS
 62
     0
100
AcDbPoint
 10
619.603320751554
 20
101.6524699618689
 30
0.0
  0
POINT
  5
81B9
330
81AF
100
AcDbEntity
  8
DEFPOINTS
 62
     0
100
AcDbPoint
 10
619.603320751554
 20
75.65246996186889
 30
0.0
  0
POINT
  5
81BA
330
81AF
100
AcDbEntity
  8
DEFPOINTS
 62
     0
100
AcDbPoint
 10
637.908464808954
 20
75.65246996186889
 30
0.0
  0
ENDBLK
  5
81B1
330
81AF
100
AcDbEntity
  8
0
100
AcDbBlockEnd
  0
ENDSEC
  0
SECTION
  2
ENTITIES
  0
LINE
  5
2D2D
330
631F
100
AcDbEntity
  8
WYMIARY
 62
     6
100
AcDbLine
 10
486.041244
 20
0.0
 30
0.0
 11
486.041244
 21
297.0
 31
0.0
  0
LINE
  5
2D2E
330
631F
100
AcDbEntity
  8
WYMIARY
 62
     6
100
AcDbLine
 10
497.671651
 20
292.0
 30
0.0
 11
497.671651
 21
5.0
 31
0.0
  0
LINE
  5
2D35
330
631F
100
AcDbEntity
  8
2
100
AcDbLine
 10
682.671651
 20
5.0
 30
0.0
 11
682.671651
 21
292.0
 31
0.0
  0
LINE
  5
2D36
330
631F
100
AcDbEntity
  8
WY
  6
Continuous
 62
     3
100
AcDbLine
 10
682.671651
 20
19.689837
 30
0.0
 11
497.671651
 21
19.689837
 31
0.0
  0
LINE
  5
2D38
330
631F
100
AcDbEntity
  8
2
100
AcDbLine
 10
497.671651
 20
5.0
 30
0.0
 11
682.671651
 21
5.0
 31
0.0
  0
LINE
  5
2D39
330
631F
100
AcDbEntity
  8
2
 62
     6
100
AcDbLine
 10
497.671651
 20
0.0
 30
0.0
 11
687.671651
 21
0.0
 31
0.0
  0
LINE
  5
2D3A
330
631F
100
AcDbEntity
  8
0
100
AcDbLine
 10
529.697667
 20
11.742481
 30
0.0
 11
528.795256
 21
11.742481
 31
0.0
  0
ELLIPSE
  5
2D3B
330
631F
100
AcDbEntity
  8
0
100
AcDbEllipse
 10
529.697667
 20
11.742481
 30
0.0
 11
-1.203215696869279
 21
1.971756091734278E-13
 31
0.0
210
0.0
220
0.0
230
1.0
 40
0.958812
 41
-1.570796326794739
 42
4.712388980384848
  0
TEXT
  5
2D3D
330
631F
100
AcDbEntity
  8
1
100
AcDbText
 10
515.607578
 20
8.797457
 30
0.0
 40
5.0
  1
A4
  7
ITALIC
100
AcDbText
  0
LINE
  5
2D40
330
631F
100
AcDbEntity
  8
WYMIARY
 62
     6
100
AcDbLine
 10
497.671651
 20
0.0
 30
0.0
 11
486.041244
 21
0.0
 31
0.0
  0
TEXT
  5
2D42
330
631F
100
AcDbEntity
  8
WY
100
AcDbText
 10
502.936765
 20
16.373844
 30
0.0
 40
2.0
  1
Skala
  7
ITALIC
100
AcDbText
  0
TEXT
  5
2D43
330
631F
100
AcDbEntity
  8
WY
100
AcDbText
 10
515.042219
 20
16.329369
 30
0.0
 40
2.0
  1
Format
  7
ITALIC
100
AcDbText
  0
LINE
  5
2D44
330
631F
100
AcDbEntity
  8
0
100
AcDbLine
 10
528.494452
 20
11.742481
 30
0.0
 11
528.795256
 21
11.742481
 31
0.0
  0
LINE
  5
2D45
330
631F
100
AcDbEntity
  8
0
100
AcDbLine
 10
559.88722
 20
17.211264
 30
0.0
 11
559.88722
 21
9.015264
 31
0.0
  0
LINE
  5
2D46
330
631F
100
AcDbEntity
  8
0
100
AcDbLine
 10
550.89322
 20
9.438264
 30
0.0
 11
550.89322
 21
7.416264
 31
0.0
  0
ARC
  5
2D47
330
631F
100
AcDbEntity
  8
0
100
AcDbCircle
 10
551.5428
 20
9.724764
 30
0.0
 40
0.709955
100
AcDbArc
 50
203.80008
 51
272.051918
  0
LINE
  5
2D48
330
631F
100
AcDbEntity
  8
0
100
AcDbLine
 10
549.34822
 20
7.416264
 30
0.0
 11
549.34822
 21
15.612264
 31
0.0
  0
ARC
  5
2D49
330
631F
100
AcDbEntity
  8
0
100
AcDbCircle
 10
551.982126
 20
10.136416
 30
0.0
 40
1.128907
100
AcDbArc
 50
276.719576
 51
2.175194
  0
ARC
  5
2D4A
330
631F
100
AcDbEntity
  8
0
100
AcDbCircle
 10
555.243059
 20
10.503572
 30
0.0
 40
1.488419
100
AcDbArc
 50
191.634268
 51
270.699113
  0
ARC
  5
2D4B
330
631F
100
AcDbEntity
  8
0
100
AcDbCircle
 10
556.209381
 20
10.503572
 30
0.0
 40
1.488419
100
AcDbArc
 50
269.300887
 51
348.365732
  0
LINE
  5
2D4C
330
631F
100
AcDbEntity
  8
0
100
AcDbLine
 10
558.34222
 20
9.015264
 30
0.0
 11
558.34222
 21
17.211264
 31
0.0
  0
ARC
  5
2D4D
330
631F
100
AcDbEntity
  8
0
100
AcDbCircle
 10
545.056591
 20
10.472364
 30
0.0
 40
1.425319
100
AcDbArc
 50
269.703671
 51
350.465171
  0
ARC
  5
2D4E
330
631F
100
AcDbEntity
  8
0
100
AcDbCircle
 10
544.201848
 20
10.472364
 30
0.0
 40
1.425319
100
AcDbArc
 50
189.534829
 51
270.2963290000001
  0
LINE
  5
2D4F
330
631F
100
AcDbEntity
  8
0
100
AcDbLine
 10
547.14922
 20
9.015264
 30
0.0
 11
547.14922
 21
17.211264
 31
0.0
  0
LINE
  5
2D50
330
631F
100
AcDbEntity
  8
0
100
AcDbLine
 10
548.69422
 20
17.211264
 30
0.0
 11
548.69422
 21
9.015264
 31
0.0
  0
LINE
  5
2D51
330
631F
100
AcDbEntity
  8
0
100
AcDbLine
 10
539.892236
 20
14.361264
 30
0.0
 11
539.903809
 21
9.015264
 31
0.0
  0
LINE
  5
2D52
330
631F
100
AcDbEntity
  8
0
100
AcDbLine
 10
538.361694
 20
9.015264
 30
0.0
 11
538.361694
 21
15.60367
 31
0.0
  0
LINE
  5
2D53
330
631F
100
AcDbEntity
  8
0
100
AcDbLine
 10
529.697667
 20
9.895061
 30
0.0
 11
529.697667
 21
8.185369
 31
0.0
  0
LINE
  5
2D54
330
631F
100
AcDbEntity
  8
0
100
AcDbLine
 10
535.613478
 20
8.185369
 30
0.0
 11
535.613478
 21
11.742481
 31
0.0
  0
LINE
  5
2D55
330
631F
100
AcDbEntity
  8
1
100
AcDbLine
 10
563.469863
 20
5.0
 30
0.0
 11
563.469863
 21
19.689837
 31
0.0
  0
LINE
  5
2D56
330
631F
100
AcDbEntity
  8
0
100
AcDbLine
 10
530.499811
 20
7.416263
 30
0.0
 11
534.811334
 21
7.416263
 31
0.0
  0
ELLIPSE
  5
2D57
330
631F
100
AcDbEntity
  8
0
100
AcDbEllipse
 10
530.499811
 20
8.185369
 30
0.0
 11
-0.8021437979128905
 21
1.598721155460225E-14
 31
0.0
210
0.0
220
0.0
230
1.0
 40
0.958812
 41
0.0
 42
1.570796326794914
  0
ELLIPSE
  5
2D58
330
631F
100
AcDbEntity
  8
0
100
AcDbEllipse
 10
534.811334
 20
8.185369
 30
0.0
 11
0.8021437979128905
 21
0.0
 31
0.0
210
0.0
220
0.0
230
1.0
 40
0.958812
 41
-1.57079632679509
 42
4.712388980384496
  0
LINE
  5
2D59
330
631F
100
AcDbEntity
  8
0
100
AcDbLine
 10
539.892236
 20
9.015264
 30
0.0
 11
539.903809
 21
9.022759
 31
0.0
  0
LINE
  5
2D5A
330
631F
100
AcDbEntity
  8
0
100
AcDbLine
 10
538.361694
 20
9.015264
 30
0.0
 11
539.903809
 21
9.015264
 31
0.0
  0
LINE
  5
2D5B
330
631F
100
AcDbEntity
  8
0
100
AcDbLine
 10
544.194477
 20
9.047064
 30
0.0
 11
545.04922
 21
9.047064
 31
0.0
  0
LINE
  5
2D5C
330
631F
100
AcDbEntity
  8
0
100
AcDbLine
 10
550.89322
 20
7.416264
 30
0.0
 11
549.34822
 21
7.416264
 31
0.0
  0
LINE
  5
2D5D
330
631F
100
AcDbEntity
  8
0
100
AcDbLine
 10
548.69422
 20
9.015264
 30
0.0
 11
547.14922
 21
9.015264
 31
0.0
  0
LINE
  5
2D5E
330
631F
100
AcDbEntity
  8
0
100
AcDbLine
 10
551.576266
 20
9.015264
 30
0.0
 11
552.11422
 21
9.015264
 31
0.0
  0
LINE
  5
2D5F
330
631F
100
AcDbEntity
  8
0
100
AcDbLine
 10
555.26122
 20
9.015264
 30
0.0
 11
556.19122
 21
9.015264
 31
0.0
  0
LINE
  5
2D60
330
631F
100
AcDbEntity
  8
0
100
AcDbLine
 10
559.88722
 20
9.015264
 30
0.0
 11
558.34222
 21
9.015264
 31
0.0
  0
ARC
  5
2D61
330
631F
100
AcDbEntity
  8
0
100
AcDbCircle
 10
545.056591
 20
14.17837
 30
0.0
 40
1.425319
100
AcDbArc
 50
9.534829000000002
 51
90.296329
  0
LINE
  5
2D62
330
631F
100
AcDbEntity
  8
0
100
AcDbLine
 10
546.46222
 20
11.81167
 30
0.0
 11
544.33822
 21
11.81167
 31
0.0
  0
LINE
  5
2D63
330
631F
100
AcDbEntity
  8
0
100
AcDbLine
 10
545.01322
 20
11.13667
 30
0.0
 11
546.46222
 21
11.13667
 31
0.0
  0
LINE
  5
2D64
330
631F
100
AcDbEntity
  8
0
100
AcDbLine
 10
529.697667
 20
13.461283
 30
0.0
 11
529.697667
 21
16.260974
 31
0.0
  0
ELLIPSE
  5
2D65
330
631F
100
AcDbEntity
  8
0
100
AcDbEllipse
 10
532.630506
 20
15.17942
 30
0.0
 11
2.983077570132082
 21
0.0
 31
0.0
210
0.0
220
0.0
230
1.0
 40
0.9588119999999999
 41
-1.562393163247347
 42
0.0084031635475013
  0
ELLIPSE
  5
2D66
330
631F
100
AcDbEntity
  8
0
100
AcDbEllipse
 10
532.58733
 20
15.509539
 30
0.0
 11
-4.072692107280886
 21
9.237055564881302E-14
 31
0.0
210
0.0
220
0.0
230
1.0
 40
0.958812
 41
1.587553347046634
 42
2.408388587343224
  0
LINE
  5
2D67
330
631F
100
AcDbEntity
  8
0
100
AcDbLine
 10
529.697667
 20
11.742481
 30
0.0
 11
529.697667
 21
11.034514
 31
0.0
  0
LINE
  5
2D68
330
631F
100
AcDbEntity
  8
0
100
AcDbLine
 10
529.697667
 20
13.461283
 30
0.0
 11
529.697667
 21
12.896138
 31
0.0
  0
ELLIPSE
  5
2D69
330
631F
100
AcDbEntity
  8
0
100
AcDbEllipse
 10
532.249598
 20
9.872487
 30
0.0
 11
2.960559210508905
 21
0.3570763225581004
 31
0.0
210
0.0
220
0.0
230
1.0
 40
0.820999
 41
1.335209029023201
 42
2.503032872947538
  0
ELLIPSE
  5
2D6A
330
631F
100
AcDbEntity
  8
0
100
AcDbEllipse
 10
532.480104
 20
8.937306
 30
0.0
 11
3.015746449176163
 21
0.7746519372140011
 31
0.0
210
0.0
220
0.0
230
1.0
 40
0.8467749999999998
 41
1.29973646820557
 42
2.479974117225238
  0
LINE
  5
2D6B
330
631F
100
AcDbEntity
  8
0
100
AcDbLine
 10
536.816694
 20
12.896138
 30
0.0
 11
536.51589
 21
12.896138
 31
0.0
  0
LINE
  5
2D6C
330
631F
100
AcDbEntity
  8
0
100
AcDbLine
 10
535.613478
 20
12.896138
 30
0.0
 11
536.51589
 21
12.896138
 31
0.0
  0
ELLIPSE
  5
2D6D
330
631F
100
AcDbEntity
  8
0
100
AcDbEllipse
 10
535.613478
 20
12.896138
 30
0.0
 11
1.203215696869393
 21
0.0
 31
0.0
210
0.0
220
0.0
230
1.0
 40
0.9588119999999999
 41
-1.570796326794976
 42
4.71238898038461
  0
LINE
  5
2D6E
330
631F
100
AcDbEntity
  8
0
100
AcDbLine
 10
530.499811
 20
17.030079
 30
0.0
 11
534.811334
 21
17.030079
 31
0.0
  0
ELLIPSE
  5
2D6F
330
631F
100
AcDbEntity
  8
0
100
AcDbEllipse
 10
530.499811
 20
16.260974
 30
0.0
 11
0.8021437979128905
 21
0.0
 31
0.0
210
0.0
220
0.0
230
1.0
 40
0.958812
 41
1.570796326794851
 42
3.141592653589743
  0
LINE
  5
2D70
330
631F
100
AcDbEntity
  8
0
100
AcDbLine
 10
535.613478
 20
15.155385
 30
0.0
 11
535.613478
 21
16.260974
 31
0.0
  0
ELLIPSE
  5
2D71
330
631F
100
AcDbEntity
  8
0
100
AcDbEllipse
 10
534.811334
 20
16.260974
 30
0.0
 11
-0.8021437979128905
 21
3.907985046680551E-14
 31
0.0
210
0.0
220
0.0
230
1.0
 40
0.958812
 41
-3.141592653589745
 42
-1.570796326794853
  0
ARC
  5
2D72
330
631F
100
AcDbEntity
  8
0
100
AcDbCircle
 10
540.798894
 20
14.34127
 30
0.0
 40
1.377457
100
AcDbArc
 50
16.265061
 51
130.527299
  0
ARC
  5
2D73
330
631F
100
AcDbEntity
  8
0
100
AcDbCircle
 10
544.201848
 20
14.17837
 30
0.0
 40
1.425319
100
AcDbArc
 50
89.703671
 51
170.465171
  0
LINE
  5
2D74
330
631F
100
AcDbEntity
  8
0
100
AcDbLine
 10
540.911147
 20
12.93607
 30
0.0
 11
542.12122
 21
12.93607
 31
0.0
  0
LINE
  5
2D75
330
631F
100
AcDbEntity
  8
0
100
AcDbLine
 10
540.578809
 20
12.93607
 30
0.0
 11
542.12122
 21
12.93607
 31
0.0
  0
ARC
  5
2D76
330
631F
100
AcDbEntity
  8
0
100
AcDbCircle
 10
540.229736
 20
14.361264
 30
0.0
 40
0.3375
100
AcDbArc
 50
360.0
 51
180.0
  0
LINE
  5
2D77
330
631F
100
AcDbEntity
  8
0
100
AcDbLine
 10
540.567236
 20
14.361264
 30
0.0
 11
540.578809
 21
12.93607
 31
0.0
  0
ARC
  5
2D78
330
631F
100
AcDbEntity
  8
0
100
AcDbCircle
 10
544.67572
 20
14.361264
 30
0.0
 40
0.3375
100
AcDbArc
 50
360.0
 51
180.0
  0
LINE
  5
2D79
330
631F
100
AcDbEntity
  8
0
100
AcDbLine
 10
544.33822
 20
11.81167
 30
0.0
 11
544.33822
 21
10.236264
 31
0.0
  0
LINE
  5
2D7A
330
631F
100
AcDbEntity
  8
0
100
AcDbLine
 10
544.33822
 20
12.71167
 30
0.0
 11
545.01322
 21
12.71167
 31
0.0
  0
LINE
  5
2D7B
330
631F
100
AcDbEntity
  8
0
100
AcDbLine
 10
545.01322
 20
11.13667
 30
0.0
 11
545.01322
 21
10.252764
 31
0.0
  0
LINE
  5
2D7C
330
631F
100
AcDbEntity
  8
0
100
AcDbLine
 10
544.33822
 20
11.81167
 30
0.0
 11
544.33822
 21
10.252764
 31
0.0
  0
ARC
  5
2D7D
330
631F
100
AcDbEntity
  8
0
100
AcDbCircle
 10
544.67572
 20
10.252764
 30
0.0
 40
0.3375
100
AcDbArc
 50
180.0
 51
0.0
  0
LINE
  5
2D7E
330
631F
100
AcDbEntity
  8
0
100
AcDbLine
 10
545.01322
 20
14.361264
 30
0.0
 11
545.01322
 21
12.71167
 31
0.0
  0
LINE
  5
2D7F
330
631F
100
AcDbEntity
  8
0
100
AcDbLine
 10
544.33822
 20
14.361264
 30
0.0
 11
544.33822
 21
12.71167
 31
0.0
  0
LINE
  5
2D80
330
631F
100
AcDbEntity
  8
0
100
AcDbLine
 10
542.12122
 20
12.93607
 30
0.0
 11
542.12122
 21
14.72707
 31
0.0
  0
LINE
  5
2D81
330
631F
100
AcDbEntity
  8
0
100
AcDbLine
 10
542.79622
 20
10.236264
 30
0.0
 11
542.79622
 21
14.41447
 31
0.0
  0
LINE
  5
2D82
330
631F
100
AcDbEntity
  8
0
100
AcDbLine
 10
539.903809
 20
15.60367
 30
0.0
 11
539.903809
 21
15.38827
 31
0.0
  0
LINE
  5
2D83
330
631F
100
AcDbEntity
  8
0
100
AcDbLine
 10
538.361694
 20
15.60367
 30
0.0
 11
539.903809
 21
15.60367
 31
0.0
  0
LINE
  5
2D84
330
631F
100
AcDbEntity
  8
0
100
AcDbLine
 10
544.194477
 20
15.60367
 30
0.0
 11
545.04922
 21
15.60367
 31
0.0
  0
ARC
  5
2D85
330
631F
100
AcDbEntity
  8
0
100
AcDbCircle
 10
555.243059
 20
14.124104
 30
0.0
 40
1.488419
100
AcDbArc
 50
89.300887
 51
168.365732
  0
ARC
  5
2D86
330
631F
100
AcDbEntity
  8
0
100
AcDbCircle
 10
551.752247
 20
14.207365
 30
0.0
 40
1.409039
100
AcDbArc
 50
15.47255
 51
127.56454
  0
LINE
  5
2D87
330
631F
100
AcDbEntity
  8
0
100
AcDbLine
 10
546.46222
 20
11.13667
 30
0.0
 11
546.46222
 21
10.236264
 31
0.0
  0
LINE
  5
2D88
330
631F
100
AcDbEntity
  8
0
100
AcDbLine
 10
546.46222
 20
11.81167
 30
0.0
 11
546.46222
 21
14.41447
 31
0.0
  0
LINE
  5
2D89
330
631F
100
AcDbEntity
  8
0
100
AcDbLine
 10
553.11022
 20
14.583264
 30
0.0
 11
553.11022
 21
10.179264
 31
0.0
  0
LINE
  5
2D8A
330
631F
100
AcDbEntity
  8
0
100
AcDbLine
 10
551.56822
 20
14.361264
 30
0.0
 11
551.56822
 21
10.252764
 31
0.0
  0
LINE
  5
2D8B
330
631F
100
AcDbEntity
  8
0
100
AcDbLine
 10
550.89322
 20
14.361264
 30
0.0
 11
550.89322
 21
10.252764
 31
0.0
  0
ARC
  5
2D8C
330
631F
100
AcDbEntity
  8
0
100
AcDbCircle
 10
551.23072
 20
10.252764
 30
0.0
 40
0.3375
100
AcDbArc
 50
180.0
 51
0.0
  0
ARC
  5
2D8D
330
631F
100
AcDbEntity
  8
0
100
AcDbCircle
 10
551.23072
 20
14.361264
 30
0.0
 40
0.3375
100
AcDbArc
 50
360.0
 51
180.0
  0
LINE
  5
2D8E
330
631F
100
AcDbEntity
  8
0
100
AcDbLine
 10
549.34822
 20
15.612264
 30
0.0
 11
550.89322
 21
15.612264
 31
0.0
  0
LINE
  5
2D8F
330
631F
100
AcDbEntity
  8
0
100
AcDbLine
 10
547.14922
 20
17.211264
 30
0.0
 11
548.69422
 21
17.211264
 31
0.0
  0
LINE
  5
2D90
330
631F
100
AcDbEntity
  8
0
100
AcDbLine
 10
550.89322
 20
15.612264
 30
0.0
 11
550.89322
 21
15.324264
 31
0.0
  0
ARC
  5
2D91
330
631F
100
AcDbEntity
  8
0
100
AcDbCircle
 10
556.209381
 20
14.124104
 30
0.0
 40
1.488419
100
AcDbArc
 50
11.634268
 51
90.699113
  0
LINE
  5
2D92
330
631F
100
AcDbEntity
  8
0
100
AcDbLine
 10
557.66722
 20
14.424264
 30
0.0
 11
557.66722
 21
10.203412
 31
0.0
  0
ARC
  5
2D93
330
631F
100
AcDbEntity
  8
0
100
AcDbCircle
 10
555.72622
 20
14.361264
 30
0.0
 40
0.3375
100
AcDbArc
 50
360.0
 51
180.0
  0
ARC
  5
2D94
330
631F
100
AcDbEntity
  8
0
100
AcDbCircle
 10
555.72622
 20
10.252764
 30
0.0
 40
0.3375
100
AcDbArc
 50
180.0
 51
0.0
  0
LINE
  5
2D95
330
631F
100
AcDbEntity
  8
0
100
AcDbLine
 10
555.38872
 20
14.361264
 30
0.0
 11
555.38872
 21
10.252764
 31
0.0
  0
LINE
  5
2D96
330
631F
100
AcDbEntity
  8
0
100
AcDbLine
 10
556.06372
 20
14.361264
 30
0.0
 11
556.06372
 21
10.252764
 31
0.0
  0
LINE
  5
2D97
330
631F
100
AcDbEntity
  8
0
100
AcDbLine
 10
553.78522
 20
10.203412
 30
0.0
 11
553.78522
 21
14.424264
 31
0.0
  0
LINE
  5
2D98
330
631F
100
AcDbEntity
  8
0
100
AcDbLine
 10
555.26122
 20
15.612412
 30
0.0
 11
556.19122
 21
15.612412
 31
0.0
  0
LINE
  5
2D99
330
631F
100
AcDbEntity
  8
0
100
AcDbLine
 10
558.34222
 20
17.211264
 30
0.0
 11
559.88722
 21
17.211264
 31
0.0
  0
TEXT
  5
2D9A
330
631F
100
AcDbEntity
  8
WY
100
AcDbText
 10
564.417407
 20
11.60401
 30
0.0
 40
2.0
  1
13-07-2016
  7
ITALIC
100
AcDbText
  0
TEXT
  5
2D9B
330
631F
100
AcDbEntity
  8
WY
100
AcDbText
 10
568.848776
 20
16.149239
 30
0.0
 40
2.0
  1
Data
  7
ITALIC
100
AcDbText
  0
TEXT
  5
2D9D
330
631F
100
AcDbEntity
  8
1
100
AcDbText
 10
630.6407041243724
 20
8.514342593865308
 30
0.0
 40
3.0
  1
GZMB80-0025(MS25)
 41
0.8000000000000002
  7
ITALIC
100
AcDbText
  0
LINE
  5
2D9E
330
631F
100
AcDbEntity
  8
1
100
AcDbLine
 10
629.051038692158
 20
4.888239889111409
 30
0.0
 11
629.051038692158
 21
19.57807688911141
 31
0.0
  0
TEXT
  5
2D9F
330
631F
100
AcDbEntity
  8
WY
100
AcDbText
 10
629.585432
 20
16.599248
 30
0.0
 40
2.0
  1
Product type
  7
ITALIC
100
AcDbText
  0
LINE
  5
2DF2
330
631F
100
AcDbEntity
  8
2
100
AcDbLine
 10
682.671651
 20
292.0
 30
0.0
 11
497.671651
 21
292.0
 31
0.0
  0
LINE
  5
2DF3
330
631F
100
AcDbEntity
  8
2
100
AcDbLine
 10
687.671651
 20
297.0
 30
0.0
 11
497.671651
 21
297.0
 31
0.0
  0
LINE
  5
2E74
330
631F
100
AcDbEntity
  8
WYMIARY
 62
     6
100
AcDbLine
 10
497.671651
 20
297.0
 30
0.0
 11
486.041244
 21
297.0
 31
0.0
  0
TEXT
  5
478E
330
631F
100
AcDbEntity
  8
1
100
AcDbText
 10
500.301985
 20
8.797457
 30
0.0
 40
5.0
  1
2:1
  7
ITALIC
100
AcDbText
  0
LINE
  5
4AD7
330
631F
100
AcDbEntity
  8
WYMIARY
 62
     3
100
AcDbLine
 10
512.671651
 20
19.689837
 30
0.0
 11
512.671651
 21
5.0
 31
0.0
  0
LINE
  5
4AD9
330
631F
100
AcDbEntity
  8
WYMIARY
 62
     3
100
AcDbLine
 10
527.671651
 20
19.689837
 30
0.0
 11
527.671651
 21
5.0
 31
0.0
  0
LINE
  5
4ADA
330
631F
100
AcDbEntity
  8
WYMIARY
 62
     3
100
AcDbLine
 10
586.373187
 20
19.689837
 30
0.0
 11
586.373187
 21
5.0
 31
0.0
  0
TEXT
  5
4ADB
330
631F
100
AcDbEntity
  8
WY
100
AcDbText
 10
587.562196
 20
16.599248
 30
0.0
 40
2.0
  1
Draw. No.
  7
ITALIC
100
AcDbText
  0
TEXT
  5
4ADF
330
631F
100
AcDbEntity
  8
1
100
AcDbText
 10
587.640114
 20
9.064009
 30
0.0
 40
3.0
  1
GZMB80-0025(MS25)-dxf
 41
0.6999999999999998
  7
ITALIC
100
AcDbText
  0
TEXT
  5
5FA0
330
631F
100
AcDbEntity
  8
1
100
AcDbText
 10
559.377476
 20
274.65155
 30
0.0
 40
5.0
  1
GZMB80-0025(MS25)
 41
0.8
  7
ITALIC
100
AcDbText
  0
LINE
  5
63C1
330
631F
100
AcDbEntity
  8
WYMIARY
 62
     6
100
AcDbLine
 10
687.671651
 20
0.0
 30
0.0
 11
687.671651
 21
297.0
 31
0.0
  0
LINE
  5
63C2
330
631F
100
AcDbEntity
  8
WYMIARY
 62
     3
100
AcDbLine
 10
687.671651
 20
297.0
 30
0.0
 11
687.671651
 21
297.0
 31
0.0
  0
LINE
  5
63C3
330
631F
100
AcDbEntity
  8
WYMIARY
 62
     3
100
AcDbLine
 10
687.671651
 20
297.0
 30
0.0
 11
687.671651
 21
297.0
 31
0.0
  0
TEXT
  5
63F4
330
631F
100
AcDbEntity
  8
1
100
AcDbText
 10
559.2562283652222
 20
267.4670984620961
 30
0.0
 40
5.0
  1

 41
0.8
  7
ITALIC
100
AcDbText
  0
MTEXT
  5
6565
330
631F
100
AcDbEntity
  8
1
 62
     6
100
AcDbMText
 10
589.7839448972971
 20
147.7294180491016
 30
0.0
 40
5.0
 41
0.0
 46
0.0
 71
     2
 72
     1
  1
 
  7
CONVERTER_11
 73
     1
 44
1.32052821128451
  0
MTEXT
  5
658A
330
631F
100
AcDbEntity
  8
1
 62
     6
100
AcDbMText
 10
536.6895469114914
 20
152.075638580393
 30
0.0
 40
5.0
 41
0.0
 46
0.0
 71
     2
 72
     1
  1
 
  7
CONVERTER_11
 73
     1
 44
1.32052821128451
  0
MTEXT
  5
65A7
330
631F
100
AcDbEntity
  8
1
 62
     6
100
AcDbMText
 10
649.2895463524867
 20
152.075638580393
 30
0.0
 40
5.0
 41
0.0
 46
0.0
 71
     2
 72
     1
  1
 
  7
CONVERTER_11
 73
     1
 44
1.32052821128451
  0
MTEXT
  5
65A9
330
631F
100
AcDbEntity
  8
1
 62
     6
100
AcDbMText
 10
592.9895466318892
 20
152.075638580393
 30
0.0
 40
5.0
 41
0.0
 46
0.0
 71
     2
 72
     1
  1
 
  7
CONVERTER_11
 73
     1
 44
1.32052821128451
  0
DIMENSION
  5
80C9
330
631F
100
AcDbEntity
  8
0
  6
Continuous
 62
     2
100
AcDbDimension
280
     0
  2
*D75
 10
563.554078108954
 20
73.15246996216888
 30
0.0
 11
563.554078108954
 21
85.97047997126889
 31
0.0
 70
   160
 71
     2
 42
30.99999999970001
 73
     0
 74
     0
 75
     0
  3
DIMSTYLE_1
100
AcDbAlignedDimension
 13
569.403324751554
 23
104.1524699618689
 33
0.0
 14
569.403324751554
 24
73.15246996216888
 34
0.0
 50
-90.00000000000001
100
AcDbRotatedDimension
  0
DIMENSION
  5
80CA
330
631F
100
AcDbEntity
  8
0
  6
Continuous
 62
     2
100
AcDbDimension
280
     0
  2
*D76
 10
563.016389769554
 20
133.7045390704689
 30
0.0
 11
563.016389769554
 21
180.0953437814689
 31
0.0
 70
   160
 71
     2
 42
95.99999741110003
 73
     0
 74
     0
 75
     0
  3
DIMSTYLE_2
100
AcDbAlignedDimension
 13
569.403324751554
 23
229.7045364815689
 33
0.0
 14
575.3005850517541
 24
133.7045390704689
 34
0.0
 50
-90.00000000000001
100
AcDbRotatedDimension
  0
DIMENSION
  5
80CB
330
631F
100
AcDbEntity
  8
0
  6
Continuous
 62
     2
100
AcDbDimension
280
     0
  2
*D77
 10
571.403324751554
 20
239.7045390701689
 30
0.0
 11
591.903322751554
 21
239.7045390701689
 31
0.0
 70
   160
 71
     2
 42
46.99999600000002
 73
     0
 74
     0
 75
     0
 52
-270.0
  3
DIMSTYLE_1
100
AcDbAlignedDimension
 13
618.403320751554
 23
138.4045380704689
 33
0.0
 14
571.403324751554
 24
231.7045390701689
 34
0.0
 50
180.0
100
AcDbRotatedDimension
  0
DIMENSION
  5
80CC
330
631F
100
AcDbEntity
  8
0
  6
Continuous
 62
     2
100
AcDbDimension
280
     0
  2
*D78
 10
577.866874154254
 20
137.8096092683689
 30
0.0
 11
591.3058547379006
 21
118.2737752106982
 31
0.0
 70
   163
  1
<>
 71
     1
 42
4.599999999989921
 73
     0
 74
     0
 75
     0
  3
DIMSTYLE_3
100
AcDbDiametricDimension
 15
575.259775348854
 25
141.5994688724689
 35
0.0
 40
0.0
  0
DIMENSION
  5
80CD
330
631F
100
AcDbEntity
  8
0
  6
Continuous
 62
     2
100
AcDbDimension
280
     0
  2
*D79
 10
637.908464808954
 20
75.65246996186889
 30
0.0
 11
637.908464808954
 21
87.04327596746889
 31
0.0
 70
   160
 71
     2
 42
26.0
 73
     0
 74
     0
 75
     0
  3
DIMSTYLE_1
100
AcDbAlignedDimension
 13
619.603320751554
 23
101.6524699618689
 33
0.0
 14
619.603320751554
 24
75.65246996186889
 34
0.0
 50
-90.00000000000001
100
AcDbRotatedDimension
  0
LINE
  5
80CE
330
631F
100
AcDbEntity
  8
0
  6
Continuous
 62
     7
100
AcDbLine
 10
577.3005850517541
 20
133.7045390704689
 30
0.0
 11
616.803319301654
 21
133.7045390704689
 31
0.0
  0
LINE
  5
80CF
330
631F
100
AcDbEntity
  8
DEFAULT_2
  6
HIDDEN
 62
     8
100
AcDbLine
 10
616.803320948954
 20
134.5045390704689
 30
0.0
 11
575.260977246254
 21
134.5045390704689
 31
0.0
  0
LINE
  5
80D0
330
631F
100
AcDbEntity
  8
DEFAULT_2
  6
HIDDEN
 62
     8
100
AcDbLine
 10
618.403320751554
 20
135.3045390704689
 30
0.0
 11
617.603320751554
 21
135.3045390704689
 31
0.0
  0
LINE
  5
80D1
330
631F
100
AcDbEntity
  8
0
  6
Continuous
 62
     7
100
AcDbLine
 10
575.179265842954
 20
134.5832175920689
 30
0.0
 11
573.310659016154
 21
136.4518461362689
 31
0.0
  0
LINE
  5
80D2
330
631F
100
AcDbEntity
  8
DEFAULT_2
  6
HIDDEN
 62
     8
100
AcDbLine
 10
617.603320751554
 20
136.2045390704689
 30
0.0
 11
611.315480051554
 21
136.2045390704689
 31
0.0
  0
LINE
  5
80D3
330
631F
100
AcDbEntity
  8
0
  6
Continuous
 62
     7
100
AcDbLine
 10
606.544346692654
 20
137.0045390704689
 30
0.0
 11
617.803320751554
 21
137.0045390704689
 31
0.0
  0
LINE
  5
80D4
330
631F
100
AcDbEntity
  8
0
  6
Continuous
 62
     9
100
AcDbLine
 10
606.421064181854
 20
137.3045383525689
 30
0.0
 11
610.097585986054
 21
137.3045381132689
 31
0.0
  0
LWPOLYLINE
  5
80D5
330
631F
100
AcDbEntity
  8
DEFAULT_2
  6
HIDDEN
 62
     8
100
AcDbPolyline
 90
        3
 70
     0
 43
0.0
 10
617.8486981634541
 20
137.0028090576689
 10
617.810248453854
 20
137.0044988310689
 10
617.803320760554
 20
137.0045391064689
  0
LINE
  5
80D6
330
631F
100
AcDbEntity
  8
DEFAULT_1
  6
CENTER
 62
     7
100
AcDbLine
 10
580.963324751554
 20
139.7045390704689
 30
0.0
 11
578.563524751554
 21
139.7045390704689
 31
0.0
  0
LINE
  5
80D7
330
631F
100
AcDbEntity
  8
0
  6
Continuous
 62
     7
100
AcDbLine
 10
577.443324751554
 20
139.7045390704689
 30
0.0
 11
575.683324751554
 21
139.7045390704689
 31
0.0
  0
LINE
  5
80D8
330
631F
100
AcDbEntity
  8
DEFAULT_1
  6
CENTER
 62
     7
100
AcDbLine
 10
572.163324751554
 20
139.7045390704689
 30
0.0
 11
574.563124751554
 21
139.7045390704689
 31
0.0
  0
LINE
  5
80D9
330
631F
100
AcDbEntity
  8
DEFAULT_2
  6
HIDDEN
 62
     8
100
AcDbLine
 10
617.888190047754
 20
136.9984805364689
 30
0.0
 11
617.848698147054
 21
137.0028090588689
 31
0.0
  0
LINE
  5
80DA
330
631F
100
AcDbEntity
  8
DEFAULT_1
  6
CENTER
 62
     7
100
AcDbLine
 10
601.803324751554
 20
144.7045390704689
 30
0.0
 11
599.403524751554
 21
144.7045390704689
 31
0.0
  0
LINE
  5
80DB
330
631F
100
AcDbEntity
  8
0
  6
Continuous
 62
     7
100
AcDbLine
 10
598.283324751554
 20
144.7045390704689
 30
0.0
 11
596.523324751554
 21
144.7045390704689
 31
0.0
  0
LINE
  5
80DC
330
631F
100
AcDbEntity
  8
DEFAULT_1
  6
CENTER
 62
     7
100
AcDbLine
 10
593.003324751554
 20
144.7045390704689
 30
0.0
 11
595.4031247515541
 21
144.7045390704689
 31
0.0
  0
LWPOLYLINE
  5
80DD
330
631F
100
AcDbEntity
  8
DEFAULT_2
  6
HIDDEN
 62
     8
100
AcDbPolyline
 90
        3
 70
     0
 43
0.0
 10
617.9690143487541
 20
136.9811891790689
 10
617.928418525454
 20
136.9913238234689
 10
617.8881900664541
 20
136.9984805337689
  0
LINE
  5
80DE
330
631F
100
AcDbEntity
  8
DEFAULT_2
  6
HIDDEN
 62
     8
100
AcDbLine
 10
618.009557514854
 20
136.9679787878689
 30
0.0
 11
617.9690143244541
 21
136.9811891860689
 31
0.0
  0
LINE
  5
80DF
330
631F
100
AcDbEntity
  8
DEFAULT_2
  6
HIDDEN
 62
     8
100
AcDbLine
 10
618.049618805254
 20
136.9516460841689
 30
0.0
 11
618.009557514854
 21
136.9679787878689
 31
0.0
  0
LINE
  5
80E0
330
631F
100
AcDbEntity
  8
DEFAULT_2
  6
HIDDEN
 62
     8
100
AcDbLine
 10
618.088782845554
 20
136.9322314697689
 30
0.0
 11
618.049618834254
 21
136.9516460711689
 31
0.0
  0
LINE
  5
80E1
330
631F
100
AcDbEntity
  8
0
  6
Continuous
 62
     7
100
AcDbLine
 10
571.403324753054
 20
183.3777691939689
 30
0.0
 11
571.403324751554
 21
229.7045390701689
 31
0.0
  0
LINE
  5
80E2
330
631F
100
AcDbEntity
  8
DEFAULT_2
  6
HIDDEN
 62
     8
100
AcDbLine
 10
576.244231279354
 20
198.7045390698689
 30
0.0
 11
580.513167598454
 21
207.8593025499689
 31
0.0
  0
LINE
  5
80E3
330
631F
100
AcDbEntity
  8
DEFAULT_2
  6
HIDDEN
 62
     8
100
AcDbLine
 10
577.300231585054
 20
195.2902552400689
 30
0.0
 11
583.7222481160541
 21
209.0623141290689
 31
0.0
  0
LWPOLYLINE
  5
80E4
330
631F
100
AcDbEntity
  8
DEFAULT_2
  6
HIDDEN
 62
     8
100
AcDbPolyline
 90
        3
 70
     0
 43
0.0
 10
618.162884287754
 20
136.8847610460689
 10
618.126661219154
 20
136.9098727325689
 10
618.088782815254
 20
136.9322314861689
  0
LINE
  5
80E5
330
631F
100
AcDbEntity
  8
DEFAULT_1
  6
CENTER
 62
     7
100
AcDbLine
 10
576.563324751554
 20
144.1045390704689
 30
0.0
 11
576.563324751554
 21
141.7047390704689
 31
0.0
  0
LINE
  5
80E6
330
631F
100
AcDbEntity
  8
0
  6
Continuous
 62
     7
100
AcDbLine
 10
576.563324751554
 20
140.5845390704689
 30
0.0
 11
576.563324751554
 21
138.8245390704689
 31
0.0
  0
LINE
  5
80E7
330
631F
100
AcDbEntity
  8
DEFAULT_1
  6
CENTER
 62
     7
100
AcDbLine
 10
576.563324751554
 20
135.3045390704689
 30
0.0
 11
576.563324751554
 21
137.7043390704689
 31
0.0
  0
LINE
  5
80E8
330
631F
100
AcDbEntity
  8
0
  6
Continuous
 62
     7
100
AcDbLine
 10
580.056912629854
 20
179.7045390729689
 30
0.0
 11
572.056794914054
 21
140.6271380212689
 31
0.0
  0
LINE
  5
80E9
330
631F
100
AcDbEntity
  8
0
  6
Continuous
 62
     7
100
AcDbLine
 10
574.202053025054
 20
227.7406749173689
 30
0.0
 11
573.947092099054
 21
228.9156172916689
 31
0.0
  0
LINE
  5
80EA
330
631F
100
AcDbEntity
  8
0
  6
Continuous
 62
     7
100
AcDbLine
 10
580.056912630454
 20
179.7045390727689
 30
0.0
 11
571.403324753054
 21
183.3777691939689
 31
0.0
  0
LWPOLYLINE
  5
80EB
330
631F
100
AcDbEntity
  8
DEFAULT_2
  6
HIDDEN
 62
     8
100
AcDbPolyline
 90
        6
 70
     0
 43
0.0
 10
618.309126128054
 20
136.7271419377689
 10
618.285125265354
 20
136.7619791942689
 10
618.258398295254
 20
136.7954522483689
 10
618.229022215554
 20
136.8272673791689
 10
618.197107934354
 20
136.8571335463689
 10
618.162884287754
 20
136.8847610460689
  0
LINE
  5
80EC
330
631F
100
AcDbEntity
  8
DEFAULT_1
  6
CENTER
 62
     7
100
AcDbLine
 10
597.403324751554
 20
149.1045390704689
 30
0.0
 11
597.403324751554
 21
146.7047390704689
 31
0.0
  0
LINE
  5
80ED
330
631F
100
AcDbEntity
  8
0
  6
Continuous
 62
     7
100
AcDbLine
 10
597.403324751554
 20
145.5845390704689
 30
0.0
 11
597.403324751554
 21
143.8245390704689
 31
0.0
  0
LINE
  5
80EE
330
631F
100
AcDbEntity
  8
DEFAULT_1
  6
CENTER
 62
     7
100
AcDbLine
 10
597.403324751554
 20
140.3045390704689
 30
0.0
 11
597.403324751554
 21
142.7043390704689
 31
0.0
  0
LINE
  5
80EF
330
631F
100
AcDbEntity
  8
0
  6
Continuous
 62
     7
100
AcDbLine
 10
609.232717437354
 20
138.4391864653689
 30
0.0
 11
588.023517840954
 21
210.4091032496689
 31
0.0
  0
LWPOLYLINE
  5
80F0
330
631F
100
AcDbEntity
  8
DEFAULT_2
  6
HIDDEN
 62
     8
100
AcDbPolyline
 90
        4
 70
     0
 43
0.0
 10
618.364328637854
 20
136.6173053206689
 10
618.348749268554
 20
136.6545260665689
 10
618.330345264954
 20
136.6912299121689
 10
618.309126128054
 20
136.7271419377689
  0
LINE
  5
80F1
330
631F
100
AcDbEntity
  8
DEFAULT_2
  6
HIDDEN
 62
     8
100
AcDbLine
 10
618.377126354054
 20
136.5798435287689
 30
0.0
 11
618.364328640454
 21
136.6173053137689
 31
0.0
  0
LINE
  5
80F2
330
631F
100
AcDbEntity
  8
0
  6
Continuous
 62
     7
100
AcDbLine
 10
606.421064173254
 20
133.7045390704689
 30
0.0
 11
606.421064181854
 21
137.3045383525689
 31
0.0
  0
LINE
  5
80F3
330
631F
100
AcDbEntity
  8
0
  6
Continuous
 62
     9
100
AcDbLine
 10
606.466831881254
 20
133.7045405249689
 30
0.0
 11
606.466831871554
 21
137.0299311373689
 31
0.0
  0
LINE
  5
80F4
330
631F
100
AcDbEntity
  8
0
  6
Continuous
 62
     9
100
AcDbLine
 10
606.735252587154
 20
133.7045419178689
 30
0.0
 11
606.735252894754
 21
137.0045390704689
 31
0.0
  0
LINE
  5
80F5
330
631F
100
AcDbEntity
  8
DEFAULT_2
  6
HIDDEN
 62
     8
100
AcDbLine
 10
611.315480051554
 20
136.2045390704689
 30
0.0
 11
611.315480051554
 21
137.0045390704689
 31
0.0
  0
LINE
  5
80F6
330
631F
100
AcDbEntity
  8
DEFAULT_2
  6
HIDDEN
 62
     8
100
AcDbLine
 10
576.244231279354
 20
198.7045390704689
 30
0.0
 11
575.125092899654
 21
198.7045390704689
 31
0.0
  0
LINE
  5
80F7
330
631F
100
AcDbEntity
  8
DEFAULT_2
  6
HIDDEN
 62
     8
100
AcDbLine
 10
579.284977261254
 20
199.5465560705689
 30
0.0
 11
576.636870255754
 21
199.5465560705689
 31
0.0
  0
LINE
  5
80F8
330
631F
100
AcDbEntity
  8
DEFAULT_2
  6
HIDDEN
 62
     8
100
AcDbLine
 10
579.429804425754
 20
199.8571389302689
 30
0.0
 11
576.781697419854
 21
199.8571389301689
 31
0.0
  0
LWPOLYLINE
  5
80F9
330
631F
100
AcDbEntity
  8
DEFAULT_2
  6
HIDDEN
 62
     8
100
AcDbPolyline
 90
        6
 70
     0
 43
0.0
 10
618.403320786954
 20
136.4045225829689
 10
618.402689320454
 20
136.4319516865689
 10
618.399907606554
 20
136.4682690017689
 10
618.394799026654
 20
136.5051333206689
 10
618.387244515154
 20
136.5423853036689
 10
618.377126354054
 20
136.5798435287689
  0
LINE
  5
80FA
330
631F
100
AcDbEntity
  8
DEFAULT_2
  6
HIDDEN
 62
     8
100
AcDbLine
 10
616.803320751554
 20
134.5045390704689
 30
0.0
 11
616.803320751554
 21
133.7045390704689
 31
0.0
  0
LINE
  5
80FB
330
631F
100
AcDbEntity
  8
DEFAULT_2
  6
HIDDEN
 62
     8
100
AcDbLine
 10
617.603320751554
 20
136.2045390704689
 30
0.0
 11
617.603320751554
 21
135.3045390704689
 31
0.0
  0
LINE
  5
80FC
330
631F
100
AcDbEntity
  8
0
  6
Continuous
 62
     7
100
AcDbLine
 10
618.403320751554
 20
135.3045390704689
 30
0.0
 11
618.403320751554
 21
136.4045380704689
 31
0.0
  0
LINE
  5
80FD
330
631F
100
AcDbEntity
  8
DEFAULT_2
  6
HIDDEN
 62
     8
100
AcDbLine
 10
571.403324752254
 20
209.6045390704689
 30
0.0
 11
583.914245799754
 21
209.6045390698689
 31
0.0
  0
LINE
  5
80FE
330
631F
100
AcDbEntity
  8
DEFAULT_2
  6
HIDDEN
 62
     8
100
AcDbLine
 10
580.311908779054
 20
209.8892398123689
 30
0.0
 11
583.970743220654
 21
209.8892398123689
 31
0.0
  0
LINE
  5
80FF
330
631F
100
AcDbEntity
  8
DEFAULT_2
  6
HIDDEN
 62
     8
100
AcDbLine
 10
583.979874262154
 20
210.7045390704689
 30
0.0
 11
571.403324751554
 21
210.7045390704689
 31
0.0
  0
LINE
  5
8100
330
631F
100
AcDbEntity
  8
0
  6
Continuous
 62
     7
100
AcDbLine
 10
584.954028689554
 20
212.7045390704689
 30
0.0
 11
584.860001471554
 21
212.7045390704689
 31
0.0
  0
LINE
  5
8101
330
631F
100
AcDbEntity
  8
0
  6
Continuous
 62
     9
100
AcDbLine
 10
573.992897792054
 20
228.7045390705689
 30
0.0
 11
571.403324752254
 21
228.7045390704689
 31
0.0
  0
LINE
  5
8102
330
631F
100
AcDbEntity
  8
0
  6
Continuous
 62
     7
100
AcDbLine
 10
572.969836795654
 20
229.7045390704689
 30
0.0
 11
571.403324751554
 21
229.7045390704689
 31
0.0
  0
LINE
  5
8103
330
631F
100
AcDbEntity
  8
0
  6
Continuous
 62
     7
100
AcDbLine
 10
571.403324751554
 20
73.15246996216888
 30
0.0
 11
571.403324751554
 21
104.1524699618689
 31
0.0
  0
LINE
  5
8104
330
631F
100
AcDbEntity
  8
0
  6
Continuous
 62
     9
100
AcDbLine
 10
572.969836795654
 20
74.16390032636887
 30
0.0
 11
572.9698367954541
 21
103.1410395971689
 31
0.0
  0
LINE
  5
8105
330
631F
100
AcDbEntity
  8
0
  6
Continuous
 62
     9
100
AcDbLine
 10
573.947092099054
 20
104.1077391557689
 30
0.0
 11
573.947092099054
 21
73.19720076756889
 31
0.0
  0
LINE
  5
8106
330
631F
100
AcDbEntity
  8
0
  6
Continuous
 62
     7
100
AcDbLine
 10
574.202056739354
 20
104.1290345094689
 30
0.0
 11
574.202056739354
 21
73.17658990706889
 31
0.0
  0
LINE
  5
8107
330
631F
100
AcDbEntity
  8
0
  6
Continuous
 62
     7
100
AcDbLine
 10
574.223906749054
 20
73.17685357856888
 30
0.0
 11
574.223906749054
 21
104.1281134675689
 31
0.0
  0
LINE
  5
8108
330
631F
100
AcDbEntity
  8
0
  6
Continuous
 62
     7
100
AcDbLine
 10
574.639724744554
 20
73.18060508336889
 30
0.0
 11
574.639724744554
 21
104.1243348352689
 31
0.0
  0
LINE
  5
8109
330
631F
100
AcDbEntity
  8
0
  6
Continuous
 62
     7
100
AcDbLine
 10
575.055556744554
 20
73.18423399526888
 30
0.0
 11
575.055556744554
 21
104.1207059312689
 31
0.0
  0
LINE
  5
810A
330
631F
100
AcDbEntity
  8
0
  6
Continuous
 62
     7
100
AcDbLine
 10
575.471374744754
 20
73.18786278266889
 30
0.0
 11
575.471374744754
 21
104.1170771356689
 31
0.0
  0
LINE
  5
810B
330
631F
100
AcDbEntity
  8
0
  6
Continuous
 62
     7
100
AcDbLine
 10
575.887206749354
 20
73.19154788996889
 30
0.0
 11
575.887206749354
 21
104.1133920415689
 31
0.0
  0
LINE
  5
810C
330
631F
100
AcDbEntity
  8
0
  6
Continuous
 62
     7
100
AcDbLine
 10
576.510708752954
 20
73.19695009226888
 30
0.0
 11
576.510708752954
 21
104.1079898327689
 31
0.0
  0
LINE
  5
810D
330
631F
100
AcDbEntity
  8
0
  6
Continuous
 62
     7
100
AcDbLine
 10
576.5644974704541
 20
104.1074290897689
 30
0.0
 11
576.5644974704541
 21
73.19751083396888
 31
0.0
  0
LINE
  5
810E
330
631F
100
AcDbEntity
  8
0
  6
Continuous
 62
     7
100
AcDbLine
 10
577.4985927582541
 20
73.20563726196889
 30
0.0
 11
577.4985927582541
 21
104.0993026550689
 31
0.0
  0
LINE
  5
810F
330
631F
100
AcDbEntity
  8
0
  6
Continuous
 62
     7
100
AcDbLine
 10
577.678450638154
 20
104.0977077677689
 30
0.0
 11
577.678450638154
 21
73.20723215596888
 31
0.0
  0
LINE
  5
8110
330
631F
100
AcDbEntity
  8
0
  6
Continuous
 62
     7
100
AcDbLine
 10
578.810772752154
 20
73.21703972836889
 30
0.0
 11
578.810772752154
 21
104.0879001732689
 31
0.0
  0
LINE
  5
8111
330
631F
100
AcDbEntity
  8
0
  6
Continuous
 62
     9
100
AcDbLine
 10
579.0702831355541
 20
104.0855614297689
 30
0.0
 11
579.0702831355541
 21
73.21937849406888
 31
0.0
  0
LINE
  5
8112
330
631F
100
AcDbEntity
  8
0
  6
Continuous
 62
     9
100
AcDbLine
 10
579.922454897354
 20
104.0781246395689
 30
0.0
 11
579.922454897354
 21
73.22681528416888
 31
0.0
  0
LINE
  5
8113
330
631F
100
AcDbEntity
  8
0
  6
Continuous
 62
     7
100
AcDbLine
 10
618.403320744054
 20
74.45246996066888
 30
0.0
 11
611.151148151554
 21
74.07239970146888
 31
0.0
  0
LINE
  5
8114
330
631F
100
AcDbEntity
  8
0
  6
Continuous
 62
     7
100
AcDbLine
 10
573.947288715054
 20
73.17467079936888
 30
0.0
 11
571.403324752254
 21
73.15246996226888
 31
0.0
  0
LINE
  5
8115
330
631F
100
AcDbEntity
  8
0
  6
Continuous
 62
     7
100
AcDbLine
 10
610.097585986054
 20
73.49014966426888
 30
0.0
 11
573.992897792054
 21
73.17506882376888
 31
0.0
  0
LINE
  5
8116
330
631F
100
AcDbEntity
  8
0
  6
Continuous
 62
     9
100
AcDbLine
 10
581.951687898754
 20
101.6524699618689
 30
0.0
 11
581.951687881054
 21
75.65246996186889
 31
0.0
  0
LINE
  5
8117
330
631F
100
AcDbEntity
  8
0
  6
Continuous
 62
     9
100
AcDbLine
 10
572.969836795654
 20
74.16390032636887
 30
0.0
 11
571.403324751554
 21
74.15478649746888
 31
0.0
  0
LINE
  5
8118
330
631F
100
AcDbEntity
  8
0
  6
Continuous
 62
     9
100
AcDbLine
 10
618.403320751554
 20
74.85246996186888
 30
0.0
 11
611.315480051554
 21
74.85246996186888
 31
0.0
  0
LINE
  5
8119
330
631F
100
AcDbEntity
  8
0
  6
Continuous
 62
     7
100
AcDbLine
 10
581.951687897354
 20
75.65246996186889
 30
0.0
 11
617.603320751554
 21
75.65246996186889
 31
0.0
  0
LINE
  5
811A
330
631F
100
AcDbEntity
  8
0
  6
Continuous
 62
     9
100
AcDbLine
 10
595.603324751554
 20
76.25246996186888
 30
0.0
 11
599.203324751554
 21
76.25246996186888
 31
0.0
  0
LINE
  5
811B
330
631F
100
AcDbEntity
  8
0
  6
Continuous
 62
     7
100
AcDbLine
 10
583.979874262154
 20
76.75246996186888
 30
0.0
 11
583.979874262154
 21
76.86096915786888
 31
0.0
  0
LINE
  5
811C
330
631F
100
AcDbEntity
  8
0
  6
Continuous
 62
     7
100
AcDbLine
 10
583.979874262154
 20
88.44397076526889
 30
0.0
 11
583.979874262354
 21
88.86096915846888
 31
0.0
  0
LINE
  5
811D
330
631F
100
AcDbEntity
  8
0
  6
Continuous
 62
     7
100
AcDbLine
 10
583.979874262154
 20
100.4439707658689
 30
0.0
 11
583.979874262154
 21
100.5524699618689
 31
0.0
  0
LINE
  5
811E
330
631F
100
AcDbEntity
  8
0
  6
Continuous
 62
     7
100
AcDbLine
 10
584.003324753954
 20
75.65246996186889
 30
0.0
 11
584.003324753954
 21
75.94224737846888
 31
0.0
  0
LINE
  5
811F
330
631F
100
AcDbEntity
  8
0
  6
Continuous
 62
     7
100
AcDbLine
 10
584.003324753954
 20
77.66806541946889
 30
0.0
 11
584.003324753954
 21
87.63672256676888
 31
0.0
  0
LINE
  5
8120
330
631F
100
AcDbEntity
  8
0
  6
Continuous
 62
     7
100
AcDbLine
 10
584.003324753954
 20
89.66806541706889
 30
0.0
 11
584.003324753954
 21
99.63686172046889
 31
0.0
  0
LINE
  5
8121
330
631F
100
AcDbEntity
  8
0
  6
Continuous
 62
     7
100
AcDbLine
 10
584.003324753954
 20
101.3624763476689
 30
0.0
 11
584.003324753954
 21
101.6524699618689
 31
0.0
  0
LINE
  5
8122
330
631F
100
AcDbEntity
  8
0
  6
Continuous
 62
     9
100
AcDbLine
 10
584.860001471554
 20
73.27004136086889
 30
0.0
 11
584.860001471554
 21
75.65246996186889
 31
0.0
  0
LINE
  5
8123
330
631F
100
AcDbEntity
  8
0
  6
Continuous
 62
     9
100
AcDbLine
 10
584.860001469254
 20
101.6524699618689
 30
0.0
 11
584.8600014703541
 21
104.0348985628689
 31
0.0
  0
LINE
  5
8124
330
631F
100
AcDbEntity
  8
0
  6
Continuous
 62
     9
100
AcDbLine
 10
584.954028689554
 20
104.0343515205689
 30
0.0
 11
584.954028689554
 21
101.6524699618689
 31
0.0
  0
LINE
  5
8125
330
631F
100
AcDbEntity
  8
0
  6
Continuous
 62
     9
100
AcDbLine
 10
584.954028689554
 20
75.65246996186889
 30
0.0
 11
584.954028689554
 21
73.27058840326889
 31
0.0
  0
LINE
  5
8126
330
631F
100
AcDbEntity
  8
0
  6
Continuous
 62
     7
100
AcDbLine
 10
617.800542560954
 20
75.62777864746889
 30
0.0
 11
617.606939582354
 21
75.65246177686888
 31
0.0
  0
LWPOLYLINE
  5
8127
330
631F
100
AcDbEntity
  8
0
  6
Continuous
 62
     7
100
AcDbPolyline
 90
        5
 70
     0
 43
0.0
 10
617.800591622554
 20
75.62776350066888
 10
617.744083844454
 20
75.64000500026889
 10
617.689597632354
 20
75.64794323826888
 10
617.641358649954
 20
75.65188625226888
 10
617.606243486654
 20
75.65254798026888
  0
LINE
  5
8128
330
631F
100
AcDbEntity
  8
0
  6
Continuous
 62
     9
100
AcDbLine
 10
588.023517851254
 20
104.0074277338689
 30
0.0
 11
588.023517861654
 21
101.6524699618689
 31
0.0
  0
LINE
  5
8129
330
631F
100
AcDbEntity
  8
0
  6
Continuous
 62
     9
100
AcDbLine
 10
588.023517851654
 20
75.65246996186889
 30
0.0
 11
588.023517840954
 21
73.29751218996888
 31
0.0
  0
LINE
  5
812A
330
631F
100
AcDbEntity
  8
DEFAULT_1
  6
CENTER
 62
     7
100
AcDbLine
 10
569.394578333354
 20
88.65246996186889
 30
0.0
 11
620.5369438408541
 21
88.65246996186889
 31
0.0
  0
LINE
  5
812B
330
631F
100
AcDbEntity
  8
0
  6
Continuous
 62
     7
100
AcDbLine
 10
595.603324751554
 20
101.0524699618689
 30
0.0
 11
595.603324751554
 21
76.25246996186888
 31
0.0
  0
LINE
  5
812C
330
631F
100
AcDbEntity
  8
DEFAULT_1
  6
CENTER
 62
     7
100
AcDbLine
 10
597.403324751554
 20
74.25246996186888
 30
0.0
 11
597.403324751554
 21
103.0524699618689
 31
0.0
  0
LINE
  5
812D
330
631F
100
AcDbEntity
  8
0
  6
Continuous
 62
     7
100
AcDbLine
 10
599.203324751554
 20
101.0524699618689
 30
0.0
 11
599.203324751554
 21
76.25246996186888
 31
0.0
  0
LINE
  5
812E
330
631F
100
AcDbEntity
  8
0
  6
Continuous
 62
     7
100
AcDbLine
 10
617.606939595354
 20
101.6524781469689
 30
0.0
 11
617.800546339054
 21
101.6771622374689
 31
0.0
  0
LWPOLYLINE
  5
812F
330
631F
100
AcDbEntity
  8
0
  6
Continuous
 62
     7
100
AcDbPolyline
 90
        6
 70
     0
 43
0.0
 10
617.606243486654
 20
101.6523919435689
 10
617.638058404254
 20
101.6528978169689
 10
617.676607010554
 20
101.6556446256689
 10
617.717547721854
 20
101.6606085625689
 10
617.760228135354
 20
101.6680044926689
 10
617.8005953901541
 20
101.6771773813689
  0
LINE
  5
8130
330
631F
100
AcDbEntity
  8
0
  6
Continuous
 62
     9
100
AcDbLine
 10
595.603324751554
 20
101.0524699618689
 30
0.0
 11
599.203324751554
 21
101.0524699618689
 31
0.0
  0
LINE
  5
8131
330
631F
100
AcDbEntity
  8
0
  6
Continuous
 62
     7
100
AcDbLine
 10
581.951687900554
 20
101.6524699618689
 30
0.0
 11
617.606939595354
 21
101.6524781469689
 31
0.0
  0
LINE
  5
8132
330
631F
100
AcDbEntity
  8
0
  6
Continuous
 62
     9
100
AcDbLine
 10
609.232717437554
 20
103.8223378536689
 30
0.0
 11
609.232717437554
 21
101.6524699618689
 31
0.0
  0
LINE
  5
8133
330
631F
100
AcDbEntity
  8
0
  6
Continuous
 62
     9
100
AcDbLine
 10
609.232717437854
 20
75.65246996186889
 30
0.0
 11
609.232717437354
 21
73.48260207016888
 31
0.0
  0
LINE
  5
8134
330
631F
100
AcDbEntity
  8
0
  6
Continuous
 62
     9
100
AcDbLine
 10
618.403320751554
 20
102.4524699618689
 30
0.0
 11
611.315480051554
 21
102.4524699618689
 31
0.0
  0
LINE
  5
8135
330
631F
100
AcDbEntity
  8
0
  6
Continuous
 62
     9
100
AcDbLine
 10
572.9698367954541
 20
103.1410395971689
 30
0.0
 11
571.403324751554
 21
103.1501534265689
 31
0.0
  0
LINE
  5
8136
330
631F
100
AcDbEntity
  8
0
  6
Continuous
 62
     7
100
AcDbLine
 10
611.151094645454
 20
103.5056275452689
 30
0.0
 11
611.151148151554
 21
103.2325402223689
 31
0.0
  0
LINE
  5
8137
330
631F
100
AcDbEntity
  8
0
  6
Continuous
 62
     9
100
AcDbLine
 10
611.151148151554
 20
103.2325402223689
 30
0.0
 11
611.151148151554
 21
101.6524699618689
 31
0.0
  0
LINE
  5
8138
330
631F
100
AcDbEntity
  8
0
  6
Continuous
 62
     9
100
AcDbLine
 10
611.151148151554
 20
74.07239970146888
 30
0.0
 11
611.151148151554
 21
75.65246996186889
 31
0.0
  0
LINE
  5
8139
330
631F
100
AcDbEntity
  8
0
  6
Continuous
 62
     7
100
AcDbLine
 10
611.315480051554
 20
102.4524699618689
 30
0.0
 11
611.315480051554
 21
101.6524699618689
 31
0.0
  0
LINE
  5
813A
330
631F
100
AcDbEntity
  8
0
  6
Continuous
 62
     7
100
AcDbLine
 10
611.315480051554
 20
74.85246996186888
 30
0.0
 11
611.315480051554
 21
75.65246996186889
 31
0.0
  0
LINE
  5
813B
330
631F
100
AcDbEntity
  8
0
  6
Continuous
 62
     7
100
AcDbLine
 10
611.151094645454
 20
74.07239970146888
 30
0.0
 11
611.151041139354
 21
73.79931237796889
 31
0.0
  0
LINE
  5
813C
330
631F
100
AcDbEntity
  8
0
  6
Continuous
 62
     7
100
AcDbLine
 10
573.947288715054
 20
104.1302691243689
 30
0.0
 11
571.403324751554
 21
104.1524699615689
 31
0.0
  0
LINE
  5
813D
330
631F
100
AcDbEntity
  8
0
  6
Continuous
 62
     7
100
AcDbLine
 10
573.992897792054
 20
104.1298710999689
 30
0.0
 11
610.097585985754
 21
103.8147902595689
 31
0.0
  0
LINE
  5
813E
330
631F
100
AcDbEntity
  8
0
  6
Continuous
 62
     7
100
AcDbLine
 10
611.151148151554
 20
103.2325402223689
 30
0.0
 11
618.403320750354
 21
102.8524699627689
 31
0.0
  0
LINE
  5
813F
330
631F
100
AcDbEntity
  8
0
  6
Continuous
 62
     9
100
AcDbLine
 10
617.803320751554
 20
74.42102529376888
 30
0.0
 11
617.803320751554
 21
74.85246996186888
 31
0.0
  0
LINE
  5
8140
330
631F
100
AcDbEntity
  8
0
  6
Continuous
 62
     9
100
AcDbLine
 10
617.803320751554
 20
102.4524699618689
 30
0.0
 11
617.803320751554
 21
102.8839146300689
 31
0.0
  0
LINE
  5
8141
330
631F
100
AcDbEntity
  8
0
  6
Continuous
 62
     7
100
AcDbLine
 10
618.403320751554
 20
74.45246996296888
 30
0.0
 11
618.403320751554
 21
74.85246996186888
 31
0.0
  0
LINE
  5
8142
330
631F
100
AcDbEntity
  8
0
  6
Continuous
 62
     7
100
AcDbLine
 10
618.403320751554
 20
102.4524699618689
 30
0.0
 11
618.403320751554
 21
102.8524699635689
 31
0.0
  0
ARC
  5
8143
330
631F
100
AcDbEntity
  8
0
  6
Continuous
 62
     7
100
AcDbCircle
 10
576.563324751554
 20
139.7045390704689
 30
0.0
 40
4.5999999994
100
AcDbArc
 50
168.4299999938995
 51
225.0000306675001
  0
ARC
  5
8144
330
631F
100
AcDbEntity
  8
0
  6
Continuous
 62
     7
100
AcDbCircle
 10
577.3005850517541
 20
136.7045390704689
 30
0.0
 40
3.0
100
AcDbArc
 50
225.0000309378988
 51
270.0
  0
CIRCLE
  5
8145
330
631F
100
AcDbEntity
  8
0
  6
Continuous
 62
     7
100
AcDbCircle
 10
576.563324751554
 20
139.7045390704689
 30
0.0
 40
2.3
  0
ARC
  5
8146
330
631F
100
AcDbEntity
  8
DEFAULT_2
  6
HIDDEN
 62
     8
100
AcDbCircle
 10
575.125092899754
 20
196.3045390704689
 30
0.0
 40
2.3999999965
100
AcDbArc
 50
90.00000000569956
 51
334.9999999173008
  0
ARC
  5
8147
330
631F
100
AcDbEntity
  8
DEFAULT_2
  6
HIDDEN
 62
     8
100
AcDbCircle
 10
578.700552023554
 20
208.7045390704689
 30
0.0
 40
2.0
100
AcDbArc
 50
335.000000088401
 51
90.0
  0
ARC
  5
8148
330
631F
100
AcDbEntity
  8
0
  6
Continuous
 62
     7
100
AcDbCircle
 10
576.492140751554
 20
216.0536330704689
 30
0.0
 40
1.0064520067
100
AcDbArc
 50
344.2742180073013
 51
85.87724502739935
  0
ARC
  5
8149
330
631F
100
AcDbEntity
  8
0
  6
Continuous
 62
     7
100
AcDbCircle
 10
575.5042567515541
 20
217.8053110704689
 30
0.0
 40
1.0064520014
100
AcDbArc
 50
332.9661465550017
 51
74.2795148026016
  0
ARC
  5
814A
330
631F
100
AcDbEntity
  8
0
  6
Continuous
 62
     7
100
AcDbCircle
 10
577.804320751554
 20
214.5296470704689
 30
0.0
 40
1.0064520007
100
AcDbArc
 50
355.5549286945999
 51
97.18435170399604
  0
ARC
  5
814B
330
631F
100
AcDbEntity
  8
0
  6
Continuous
 62
     7
100
AcDbCircle
 10
572.969836795554
 20
228.7035510704689
 30
0.0
 40
1.0
100
AcDbArc
 50
12.24346556539921
 51
90.0
  0
ARC
  5
814C
330
631F
100
AcDbEntity
  8
0
  6
Continuous
 62
     7
100
AcDbCircle
 10
573.2239067515541
 20
227.5327590704689
 30
0.0
 40
0.9999999975
100
AcDbArc
 50
315.5575515888001
 51
12.00022109610145
  0
ARC
  5
814D
330
631F
100
AcDbEntity
  8
0
  6
Continuous
 62
     7
100
AcDbCircle
 10
574.887206751554
 20
219.7075790704689
 30
0.0
 40
0.9999999978
100
AcDbArc
 50
321.8694950860009
 51
68.44243295469975
  0
ARC
  5
814E
330
631F
100
AcDbEntity
  8
0
  6
Continuous
 62
     7
100
AcDbCircle
 10
573.639724751554
 20
225.5764610704689
 30
0.0
 40
0.999999993
100
AcDbArc
 50
315.5573890427988
 51
68.44275180149849
  0
ARC
  5
814F
330
631F
100
AcDbEntity
  8
0
  6
Continuous
 62
     7
100
AcDbCircle
 10
574.055556751554
 20
223.6201610704689
 30
0.0
 40
0.999999993
100
AcDbArc
 50
315.5573890739997
 51
68.44275487990086
  0
ARC
  5
8150
330
631F
100
AcDbEntity
  8
0
  6
Continuous
 62
     7
100
AcDbCircle
 10
574.471374751554
 20
221.6638630704689
 30
0.0
 40
0.9999999933
100
AcDbArc
 50
315.5573890746996
 51
68.44275177659782
  0
ARC
  5
8151
330
631F
100
AcDbEntity
  8
0
  6
Continuous
 62
     7
100
AcDbCircle
 10
575.831130751554
 20
218.9666270704689
 30
0.0
 40
0.2000000096
100
AcDbArc
 50
141.8674286999935
 51
254.2809777822736
  0
ARC
  5
8152
330
631F
100
AcDbEntity
  8
0
  6
Continuous
 62
     7
100
AcDbCircle
 10
574.080642751554
 20
226.6925190704689
 30
0.0
 40
0.2000000073
100
AcDbArc
 50
135.5539089122072
 51
248.4421217033933
  0
ARC
  5
8153
330
631F
100
AcDbEntity
  8
0
  6
Continuous
 62
     7
100
AcDbCircle
 10
574.496474751554
 20
224.7362210704689
 30
0.0
 40
0.2000000073
100
AcDbArc
 50
135.5575299178151
 51
248.4421217033933
  0
ARC
  5
8154
330
631F
100
AcDbEntity
  8
0
  6
Continuous
 62
     7
100
AcDbCircle
 10
574.912292751554
 20
222.7799210704689
 30
0.0
 40
0.2000000072
100
AcDbArc
 50
135.5547214868917
 51
248.4421218100133
  0
ARC
  5
8155
330
631F
100
AcDbEntity
  8
0
  6
Continuous
 62
     7
100
AcDbCircle
 10
575.328124751554
 20
220.8236230704689
 30
0.0
 40
0.2000000072
100
AcDbArc
 50
135.5575297642025
 51
248.4421218100133
  0
ARC
  5
8156
330
631F
100
AcDbEntity
  8
0
  6
Continuous
 62
     7
100
AcDbCircle
 10
577.653442751554
 20
215.7266370704689
 30
0.0
 40
0.2000000054
100
AcDbArc
 50
164.2728925092993
 51
277.1830327971995
  0
ARC
  5
8157
330
631F
100
AcDbEntity
  8
0
  6
Continuous
 62
     7
100
AcDbCircle
 10
576.578886751554
 20
217.2569570704689
 30
0.0
 40
0.2000000001
100
AcDbArc
 50
152.965474776508
 51
265.8742100023917
  0
ARC
  5
8158
330
631F
100
AcDbEntity
  8
0
  6
Continuous
 62
     7
100
AcDbCircle
 10
584.954028689554
 20
209.5045390704689
 30
0.0
 40
3.2
100
AcDbArc
 50
16.41999947330023
 51
90.0
  0
ARC
  5
8159
330
631F
100
AcDbEntity
  8
DEFAULT_2
  6
HIDDEN
 62
     8
100
AcDbCircle
 10
581.003324751554
 20
210.3301689104689
 30
0.0
 40
3.0000000024
100
AcDbArc
 50
335.0000000952995
 51
71.57149624090049
  0
ARC
  5
815A
330
631F
100
AcDbEntity
  8
0
  6
Continuous
 62
     7
100
AcDbCircle
 10
584.860001471554
 20
221.9045390704689
 30
0.0
 40
9.2
100
AcDbArc
 50
237.5414147384001
 51
270.0
  0
ARC
  5
815B
330
631F
100
AcDbEntity
  8
0
  6
Continuous
 62
     7
100
AcDbCircle
 10
579.385765057554
 20
213.2979871704689
 30
0.0
 40
0.9999999933
100
AcDbArc
 50
57.54141483279658
 51
108.3899095563951
  0
ARC
  5
815C
330
631F
100
AcDbEntity
  8
0
  6
Continuous
 62
     7
100
AcDbCircle
 10
579.007186751554
 20
214.4367050704689
 30
0.0
 40
0.2000000023
100
AcDbArc
 50
175.7164112387951
 51
288.389909086116
  0
CIRCLE
  5
815D
330
631F
100
AcDbEntity
  8
DEFAULT_2
  6
HIDDEN
 62
     8
100
AcDbCircle
 10
597.403324751554
 20
144.7045390704689
 30
0.0
 40
2.4
  0
CIRCLE
  5
815E
330
631F
100
AcDbEntity
  8
DEFAULT_2
  6
HIDDEN
 62
     8
100
AcDbCircle
 10
597.403324751554
 20
144.7045390704689
 30
0.0
 40
1.8
  0
ARC
  5
815F
330
631F
100
AcDbEntity
  8
0
  6
Continuous
 62
     7
100
AcDbCircle
 10
611.151148151554
 20
139.0045390704689
 30
0.0
 40
2.0
100
AcDbArc
 50
196.4200000064001
 51
269.9969343268984
  0
ARC
  5
8160
330
631F
100
AcDbEntity
  8
0
  6
Continuous
 62
     7
100
AcDbCircle
 10
616.803320751554
 20
135.3045390704689
 30
0.0
 40
1.6
100
AcDbArc
 50
269.9999740400012
 51
359.9999971437011
  0
ARC
  5
8161
330
631F
100
AcDbEntity
  8
DEFAULT_2
  6
HIDDEN
 62
     8
100
AcDbCircle
 10
616.803320751554
 20
135.3045390704689
 30
0.0
 40
0.8
100
AcDbArc
 50
270.0000424127018
 51
0.0
  0
ARC
  5
8162
330
631F
100
AcDbEntity
  8
0
  6
Continuous
 62
     7
100
AcDbCircle
 10
617.803320751554
 20
136.4045390704689
 30
0.0
 40
0.6
100
AcDbArc
 50
359.9999045069964
 51
90.0
  0
ARC
  5
8163
330
631F
100
AcDbEntity
  8
0
  6
Continuous
 62
     7
100
AcDbCircle
 10
617.603320751554
 20
74.85246996186888
 30
0.0
 40
0.8
100
AcDbArc
 50
0.0
 51
75.72789187079903
  0
ARC
  5
8164
330
631F
100
AcDbEntity
  8
0
  6
Continuous
 62
     7
100
AcDbCircle
 10
617.603320751554
 20
102.4524699618689
 30
0.0
 40
0.8
100
AcDbArc
 50
284.2723873305035
 51
0.0
  0
ARC
  5
8165
330
631F
100
AcDbEntity
  8
0
  6
Continuous
 62
     7
100
AcDbCircle
 10
595.003324751554
 20
76.25246996186888
 30
0.0
 40
0.6
100
AcDbArc
 50
270.0
 51
0.0
  0
ARC
  5
8166
330
631F
100
AcDbEntity
  8
0
  6
Continuous
 62
     7
100
AcDbCircle
 10
595.003324751554
 20
101.0524699618689
 30
0.0
 40
0.6
100
AcDbArc
 50
0.0
 51
90.0
  0
ARC
  5
8167
330
631F
100
AcDbEntity
  8
0
  6
Continuous
 62
     7
100
AcDbCircle
 10
599.803324751554
 20
101.0524699618689
 30
0.0
 40
0.6
100
AcDbArc
 50
90.0
 51
180.0
  0
ARC
  5
8168
330
631F
100
AcDbEntity
  8
0
  6
Continuous
 62
     7
100
AcDbCircle
 10
599.803324751554
 20
76.25246996186888
 30
0.0
 40
0.6
100
AcDbArc
 50
180.0
 51
270.0
  0
LINE
  5
8169
330
631F
100
AcDbEntity
  8
DEFAULT_2
  6
HIDDEN
 62
     8
100
AcDbLine
 10
618.403320751554
 20
136.4045390513689
 30
0.0
 11
617.603320751554
 21
136.2045390704689
 31
0.0
  0
SPLINE
  5
816A
330
631F
100
AcDbEntity
  8
DEFAULT_2
  6
HIDDEN
 62
     8
100
AcDbSpline
210
0.0
220
0.0
230
1.0
 70
     8
 71
     3
 72
     9
 73
     5
 74
     0
 42
0.000000001
 43
0.0000001
 40
0.0
 40
0.0
 40
0.0
 40
0.0
 40
0.562999764
 40
1.0
 40
1.0
 40
1.0
 40
1.0
 10
606.544346692654
 20
137.0045390707689
 30
0.0
 10
606.528631143754
 20
137.0045494417689
 30
0.0
 10
606.500400547254
 20
137.0054711627689
 30
0.0
 10
606.474291870854
 20
137.0202797385689
 30
0.0
 10
606.466831871554
 20
137.0299311392689
 30
0.0
  0
LINE
  5
816B
330
631F
100
AcDbEntity
  8
DEFAULT_2
  6
HIDDEN
 62
     8
100
AcDbLine
 10
617.803320760554
 20
137.0045391064689
 30
0.0
 11
617.603320751554
 21
136.2045390704689
 31
0.0
  0
LINE
  5
816C
330
631F
100
AcDbEntity
  8
DEFAULT_2
  6
HIDDEN
 62
     8
100
AcDbLine
 10
617.603320751554
 20
136.2045390704689
 30
0.0
 11
618.403320787554
 21
136.4045390794689
 31
0.0
  0
SPLINE
  5
816D
330
631F
100
AcDbEntity
  8
0
  6
Continuous
 62
     7
100
AcDbSpline
210
0.0
220
0.0
230
1.0
 70
     8
 71
     3
 72
     9
 73
     5
 74
     0
 42
0.000000001
 43
0.0000001
 40
0.0
 40
0.0
 40
0.0
 40
0.0
 40
0.2123001549
 40
1.0
 40
1.0
 40
1.0
 40
1.0
 10
606.466832185854
 20
137.0299285154689
 30
0.0
 10
606.463760167154
 20
137.0339029532689
 30
0.0
 10
606.450967087654
 20
137.0539218423689
 30
0.0
 10
606.443723937154
 20
137.0769156926689
 30
0.0
 10
606.439288592754
 20
137.0950182331689
 30
0.0
  0
SPLINE
  5
816E
330
631F
100
AcDbEntity
  8
0
  6
Continuous
 62
     7
100
AcDbSpline
210
0.0
220
0.0
230
1.0
 70
     8
 71
     3
 72
     9
 73
     5
 74
     0
 42
0.000000001
 43
0.0000001
 40
0.0
 40
0.0
 40
0.0
 40
0.0
 40
0.4607569883
 40
1.0
 40
1.0
 40
1.0
 40
1.0
 10
606.439288592754
 20
137.0950182331689
 30
0.0
 10
606.431590452854
 20
137.1264376401689
 30
0.0
 10
606.423234583654
 20
137.1965219342689
 30
0.0
 10
606.421064192454
 20
137.2666795286689
 30
0.0
 10
606.421064181954
 20
137.3045385918689
 30
0.0
  0
SPLINE
  5
816F
330
631F
100
AcDbEntity
  8
0
  6
Continuous
 62
     7
100
AcDbSpline
210
0.0
220
0.0
230
1.0
 70
     8
 71
     3
 72
     9
 73
     5
 74
     0
 42
0.000000001
 43
0.0000001
 40
0.0
 40
0.0
 40
0.0
 40
0.0
 40
0.5612590599
 40
1.0
 40
1.0
 40
1.0
 40
1.0
 10
606.5443080915541
 20
137.0045390969689
 30
0.0
 10
606.528652130654
 20
137.0045452951689
 30
0.0
 10
606.5004708170541
 20
137.0055425333689
 30
0.0
 10
606.474316642554
 20
137.0202454743689
 30
0.0
 10
606.466832185854
 20
137.0299285154689
 30
0.0
  0
SPLINE
  5
8170
330
631F
100
AcDbEntity
  8
0
  6
Continuous
 62
     7
100
AcDbSpline
210
0.0
220
0.0
230
1.0
 70
     8
 71
     3
 72
    10
 73
     6
 74
     0
 42
0.000000001
 43
0.0000001
 40
0.0
 40
0.0
 40
0.0
 40
0.0
 40
0.5475259499
 40
0.7911383554
 40
1.0
 40
1.0
 40
1.0
 40
1.0
 10
583.979874263554
 20
100.4439707658689
 30
0.0
 10
583.979874263554
 20
100.2945306201689
 30
0.0
 10
583.986092357354
 20
100.0785976675689
 30
0.0
 10
583.998869232854
 20
99.80598789246888
 30
0.0
 10
584.003109222754
 20
99.68252744006888
 30
0.0
 10
584.003314274854
 20
99.62552171696888
 30
0.0
  0
SPLINE
  5
8171
330
631F
100
AcDbEntity
  8
0
  6
Continuous
 62
     7
100
AcDbSpline
210
0.0
220
0.0
230
1.0
 70
     8
 71
     3
 72
    10
 73
     6
 74
     0
 42
0.000000001
 43
0.0000001
 40
0.0
 40
0.0
 40
0.0
 40
0.0
 40
0.5476105295
 40
0.7911720466
 40
1.0
 40
1.0
 40
1.0
 40
1.0
 10
583.979874262154
 20
100.5524699618689
 30
0.0
 10
583.979874262154
 20
100.7020603486689
 30
0.0
 10
583.986301976254
 20
100.9181800336689
 30
0.0
 10
583.998897721654
 20
101.1910295697689
 30
0.0
 10
584.003112751854
 20
101.3145729264689
 30
0.0
 10
584.003297687054
 20
101.3716180132689
 30
0.0
  0
SPLINE
  5
8172
330
631F
100
AcDbEntity
  8
0
  6
Continuous
 62
     7
100
AcDbSpline
210
0.0
220
0.0
230
1.0
 70
     8
 71
     3
 72
    11
 73
     7
 74
     0
 42
0.000000001
 43
0.0000001
 40
0.0
 40
0.0
 40
0.0
 40
0.0
 40
0.26187279
 40
0.5194126169
 40
0.7675655295
 40
1.0
 40
1.0
 40
1.0
 40
1.0
 10
611.151041139354
 20
73.79931237796889
 30
0.0
 10
611.061560650954
 20
73.76387453016888
 30
0.0
 10
610.884105120954
 20
73.69357738896888
 30
0.0
 10
610.619040358354
 20
73.59655826606888
 30
0.0
 10
610.358973680354
 20
73.51946076226888
 30
0.0
 10
610.183005618054
 20
73.49089523776888
 30
0.0
 10
610.097585523954
 20
73.49014966126889
 30
0.0
  0
SPLINE
  5
8173
330
631F
100
AcDbEntity
  8
0
  6
Continuous
 62
     7
100
AcDbSpline
210
0.0
220
0.0
230
1.0
 70
     8
 71
     3
 72
    10
 73
     6
 74
     0
 42
0.000000001
 43
0.0000001
 40
0.0
 40
0.0
 40
0.0
 40
0.0
 40
0.2088660998
 40
0.4524467018
 40
1.0
 40
1.0
 40
1.0
 40
1.0
 10
584.002703785854
 20
87.62562969156888
 30
0.0
 10
584.002678969654
 20
87.68262767896888
 30
0.0
 10
583.999060862254
 20
87.80607780296889
 30
0.0
 10
583.987478927354
 20
88.07869400326888
 30
0.0
 10
583.979874262154
 20
88.29454757536888
 30
0.0
 10
583.979874262154
 20
88.44397076526889
 30
0.0
  0
SPLINE
  5
8174
330
631F
100
AcDbEntity
  8
0
  6
Continuous
 62
     7
100
AcDbSpline
210
0.0
220
0.0
230
1.0
 70
     8
 71
     3
 72
    10
 73
     6
 74
     0
 42
0.000000001
 43
0.0000001
 40
0.0
 40
0.0
 40
0.0
 40
0.0
 40
0.20878494
 40
0.4523249145
 40
1.0
 40
1.0
 40
1.0
 40
1.0
 10
584.003286510754
 20
75.93320484326888
 30
0.0
 10
584.003273700054
 20
75.99024617846888
 30
0.0
 10
583.999517658154
 20
76.11380340466889
 30
0.0
 10
583.987652083054
 20
76.38671911616888
 30
0.0
 10
583.979874262154
 20
76.60284174196889
 30
0.0
 10
583.979874262154
 20
76.75246996186888
 30
0.0
  0
SPLINE
  5
8175
330
631F
100
AcDbEntity
  8
0
  6
Continuous
 62
     7
100
AcDbSpline
210
0.0
220
0.0
230
1.0
 70
     8
 71
     3
 72
    11
 73
     7
 74
     0
 42
0.000000001
 43
0.0000001
 40
0.0
 40
0.0
 40
0.0
 40
0.0
 40
0.2324341898
 40
0.4805876611
 40
0.7381276361
 40
1.0
 40
1.0
 40
1.0
 40
1.0
 10
610.0975855236541
 20
103.8147902566689
 30
0.0
 10
610.183013225454
 20
103.8140445714689
 30
0.0
 10
610.358996415054
 20
103.7854724725689
 30
0.0
 10
610.619089085554
 20
103.7083739734689
 30
0.0
 10
610.884165138954
 20
103.6113125946689
 30
0.0
 10
611.061659730554
 20
103.5410685335689
 30
0.0
 10
611.151148151554
 20
103.5056275452689
 30
0.0
  0
SPLINE
  5
8176
330
631F
100
AcDbEntity
  8
0
  6
Continuous
 62
     7
100
AcDbSpline
210
0.0
220
0.0
230
1.0
 70
     8
 71
     3
 72
    10
 73
     6
 74
     0
 42
0.000000001
 43
0.0000001
 40
0.0
 40
0.0
 40
0.0
 40
0.0
 40
0.5475215419
 40
0.7911132775
 40
1.0
 40
1.0
 40
1.0
 40
1.0
 10
583.979874262154
 20
88.86096915846888
 30
0.0
 10
583.979874262154
 20
89.01037352516889
 30
0.0
 10
583.987476886154
 20
89.22620682066888
 30
0.0
 10
583.999056934054
 20
89.49880453366889
 30
0.0
 10
584.002677545254
 20
89.62225483546888
 30
0.0
 10
584.002703619354
 20
89.67925457486888
 30
0.0
  0
SPLINE
  5
8177
330
631F
100
AcDbEntity
  8
0
  6
Continuous
 62
     7
100
AcDbSpline
210
0.0
220
0.0
230
1.0
 70
     8
 71
     3
 72
    10
 73
     6
 74
     0
 42
0.000000001
 43
0.0000001
 40
0.0
 40
0.0
 40
0.0
 40
0.0
 40
0.5475215391
 40
0.7911132749
 40
1.0
 40
1.0
 40
1.0
 40
1.0
 10
583.979874262154
 20
76.86096915786888
 30
0.0
 10
583.979874262154
 20
77.01037352026889
 30
0.0
 10
583.987476885154
 20
77.22620680996889
 30
0.0
 10
583.999056935254
 20
77.49880451646888
 30
0.0
 10
584.002677542354
 20
77.62225481616888
 30
0.0
 10
584.002703616254
 20
77.67925455496888
 30
0.0
  0
SPLINE
  5
8178
330
631F
100
AcDbEntity
  8
0
  6
Continuous
 62
     9
100
AcDbSpline
210
0.0
220
0.0
230
1.0
 70
     8
 71
     3
 72
    10
 73
     6
 74
     0
 42
0.000000001
 43
0.0000001
 40
0.0
 40
0.0
 40
0.0
 40
0.0
 40
0.5577052709
 40
0.799174014
 40
1.0
 40
1.0
 40
1.0
 40
1.0
 10
617.803320751554
 20
102.4524699618689
 30
0.0
 10
617.803329894754
 20
102.3314406678689
 30
0.0
 10
617.794160449954
 20
102.1576038753689
 30
0.0
 10
617.759779737754
 20
101.9432062200689
 30
0.0
 10
617.736023793854
 20
101.8499290579689
 30
0.0
 10
617.722036627754
 20
101.8086527109689
 30
0.0
  0
SPLINE
  5
8179
330
631F
100
AcDbEntity
  8
0
  6
Continuous
 62
     9
100
AcDbSpline
210
0.0
220
0.0
230
1.0
 70
     8
 71
     3
 72
     9
 73
     5
 74
     0
 42
0.000000001
 43
0.0000001
 40
0.0
 40
0.0
 40
0.0
 40
0.0
 40
0.5588478043
 40
1.0
 40
1.0
 40
1.0
 40
1.0
 10
617.722036627754
 20
101.8086527109689
 30
0.0
 10
617.714329630754
 20
101.7859092418689
 30
0.0
 10
617.698761244254
 20
101.7457935852689
 30
0.0
 10
617.677551090854
 20
101.7080395258689
 30
0.0
 10
617.666116036954
 20
101.6929205018689
 30
0.0
  0
SPLINE
  5
817A
330
631F
100
AcDbEntity
  8
0
  6
Continuous
 62
     9
100
AcDbSpline
210
0.0
220
0.0
230
1.0
 70
     8
 71
     3
 72
     9
 73
     5
 74
     0
 42
0.000000001
 43
0.0000001
 40
0.0
 40
0.0
 40
0.0
 40
0.0
 40
0.5649502996
 40
1.0
 40
1.0
 40
1.0
 40
1.0
 10
617.666116036954
 20
101.6929205018689
 30
0.0
 10
617.657401840554
 20
101.6813988994689
 30
0.0
 10
617.639931616854
 20
101.6620200871689
 30
0.0
 10
617.614445045454
 20
101.6524973394689
 30
0.0
 10
617.603320751554
 20
101.6524699618689
 30
0.0
  0
SPLINE
  5
817B
330
631F
100
AcDbEntity
  8
0
  6
Continuous
 62
     7
100
AcDbSpline
210
0.0
220
0.0
230
1.0
 70
     8
 71
     3
 72
    11
 73
     7
 74
     0
 42
0.000000001
 43
0.0000001
 40
0.0
 40
0.0
 40
0.0
 40
0.0
 40
0.2219805142
 40
0.454699639
 40
0.713013689
 40
1.0
 40
1.0
 40
1.0
 40
1.0
 10
573.992896467154
 20
73.17590541416888
 30
0.0
 10
573.9890462033541
 20
73.17587181336889
 30
0.0
 10
573.981085068754
 20
73.17603397336889
 30
0.0
 10
573.969221020454
 20
73.18016143736888
 30
0.0
 10
573.957843401654
 20
73.18753238116888
 30
0.0
 10
573.950636019954
 20
73.19370492246888
 30
0.0
 10
573.947092099054
 20
73.19720076756889
 30
0.0
  0
SPLINE
  5
817C
330
631F
100
AcDbEntity
  8
0
  6
Continuous
 62
     9
100
AcDbSpline
210
0.0
220
0.0
230
1.0
 70
     8
 71
     3
 72
    10
 73
     6
 74
     0
 42
0.000000001
 43
0.0000001
 40
0.0
 40
0.0
 40
0.0
 40
0.0
 40
0.1906495842
 40
0.5355535687
 40
1.0
 40
1.0
 40
1.0
 40
1.0
 10
617.603320751554
 20
75.65246996186889
 30
0.0
 10
617.610587492454
 20
75.65245207796889
 30
0.0
 10
617.631123777354
 20
75.64763690136888
 30
0.0
 10
617.661026774154
 20
75.62202431926889
 30
0.0
 10
617.677766994354
 20
75.59593679036888
 30
0.0
 10
617.686278307354
 20
75.58041438906888
 30
0.0
  0
SPLINE
  5
817D
330
631F
100
AcDbEntity
  8
0
  6
Continuous
 62
     9
100
AcDbSpline
210
0.0
220
0.0
230
1.0
 70
     8
 71
     3
 72
     9
 73
     5
 74
     0
 42
0.000000001
 43
0.0000001
 40
0.0
 40
0.0
 40
0.0
 40
0.0
 40
0.2232945466
 40
1.0
 40
1.0
 40
1.0
 40
1.0
 10
617.686278307354
 20
75.58041438906888
 30
0.0
 10
617.689550910954
 20
75.57444601886888
 30
0.0
 10
617.703398430754
 20
75.54727374536888
 30
0.0
 10
617.714427495654
 20
75.51873908976889
 30
0.0
 10
617.722027054354
 20
75.49631546226888
 30
0.0
  0
SPLINE
  5
817E
330
631F
100
AcDbEntity
  8
0
  6
Continuous
 62
     9
100
AcDbSpline
210
0.0
220
0.0
230
1.0
 70
     8
 71
     3
 72
    10
 73
     6
 74
     0
 42
0.000000001
 43
0.0000001
 40
0.0
 40
0.0
 40
0.0
 40
0.0
 40
0.2008195708
 40
0.4422870063
 40
1.0
 40
1.0
 40
1.0
 40
1.0
 10
617.722027054354
 20
75.49631546226888
 30
0.0
 10
617.736015973454
 20
75.45503907706888
 30
0.0
 10
617.7597746971541
 20
75.36175972836888
 30
0.0
 10
617.794159519354
 20
75.14735267326888
 30
0.0
 10
617.803329895354
 20
74.97350646126888
 30
0.0
 10
617.803320751554
 20
74.85246996186888
 30
0.0
  0
LINE
  5
817F
330
631F
100
AcDbEntity
  8
0
  6
Continuous
 62
     7
100
AcDbLine
 10
573.947092093954
 20
73.19720076756889
 30
0.0
 11
573.908196467054
 21
73.23575633136888
 31
0.0
  0
SPLINE
  5
8180
330
631F
100
AcDbEntity
  8
0
  6
Continuous
 62
     7
100
AcDbSpline
210
0.0
220
0.0
230
1.0
 70
     8
 71
     3
 72
    12
 73
     8
 74
     0
 42
0.000000001
 43
0.0000001
 40
0.0
 40
0.0
 40
0.0
 40
0.0
 40
0.1836185005
 40
0.431377694
 40
0.7094782899
 40
0.8540510308
 40
1.0
 40
1.0
 40
1.0
 40
1.0
 10
573.908196467054
 20
73.23575633136888
 30
0.0
 10
573.850778581454
 20
73.29258050376887
 30
0.0
 10
573.715346478254
 20
73.42553253836888
 30
0.0
 10
573.494460292654
 20
73.64607450806888
 30
0.0
 10
573.283336392554
 20
73.85205341896888
 30
0.0
 10
573.105632828054
 20
74.02813309626889
 30
0.0
 10
573.015437702854
 20
74.11869569416888
 30
0.0
 10
572.969836795554
 20
74.16390032636887
 30
0.0
  0
SPLINE
  5
8181
330
631F
100
AcDbEntity
  8
0
  6
Continuous
 62
     7
100
AcDbSpline
210
0.0
220
0.0
230
1.0
 70
     8
 71
     3
 72
    13
 73
     9
 74
     0
 42
0.000000001
 43
0.0000001
 40
0.0
 40
0.0
 40
0.0
 40
0.0
 40
0.1532101153
 40
0.3046588417
 40
0.452218058
 40
0.5934210364
 40
0.8415342526
 40
1.0
 40
1.0
 40
1.0
 40
1.0
 10
572.969836795554
 20
103.1410395971689
 30
0.0
 10
573.019692750054
 20
103.1904622993689
 30
0.0
 10
573.1181428493541
 20
103.2894315762689
 30
0.0
 10
573.265526298654
 20
103.4350813911689
 30
0.0
 10
573.4097468644541
 20
103.5760983439689
 30
0.0
 10
573.584748268254
 20
103.7489849502689
 30
0.0
 10
573.762747764054
 20
103.9259450564689
 30
0.0
 10
573.895400056254
 20
104.0567483551689
 30
0.0
 10
573.947092093954
 20
104.1077391557689
 30
0.0
  0
SPLINE
  5
8182
330
631F
100
AcDbEntity
  8
0
  6
Continuous
 62
     7
100
AcDbSpline
210
0.0
220
0.0
230
1.0
 70
     8
 71
     3
 72
    11
 73
     7
 74
     0
 42
0.000000001
 43
0.0000001
 40
0.0
 40
0.0
 40
0.0
 40
0.0
 40
0.2869858399
 40
0.5452998742
 40
0.7780199748
 40
1.0
 40
1.0
 40
1.0
 40
1.0
 10
573.947092099054
 20
104.1077391557689
 30
0.0
 10
573.950636017554
 20
104.1112349985689
 30
0.0
 10
573.957843406654
 20
104.1174075571689
 30
0.0
 10
573.969221063254
 20
104.1247783919689
 30
0.0
 10
573.981085016254
 20
104.1289063270689
 30
0.0
 10
573.989046208054
 20
104.1290681101689
 30
0.0
 10
573.992896467154
 20
104.1290345094689
 30
0.0
  0
VIEWPORT
  5
6368
330
631B
100
AcDbEntity
 67
     1
  8
0
 60
     1
100
AcDbViewport
 10
0.0
 20
0.0
 30
0.0
 40
10.0
 41
10.0
 69
     1
 12
0.0
 22
0.0
 13
0.0
 23
0.0
 14
1.0
 24
1.0
 15
0.0
 25
0.0
 16
0.0
 26
0.0
 36
1.0
 17
0.0
 27
0.0
 37
0.0
 42
0.0
 43
0.0
 44
0.0
 45
10.0
 50
0.0
 51
0.0000000000007958
 72
   100
 90
   163872
  1

281
     0
 71
     0
 74
     0
110
0.0
120
0.0
130
0.0
111
1.0
121
0.0
131
0.0
112
0.0
122
1.0
132
0.0
 79
     0
146
0.0
170
     0
 61
     5
348
6393
292
     1
282
     1
141
0.0
142
0.0
 63
   256
1001
VD_INVISIBLE_NOT_FOR_READ
1000
VD_INVISIBLE_NOT_FOR_READ
  0
VIEWPORT
  5
6369
330
631B
100
AcDbEntity
 67
     1
  8
0
 60
     1
100
AcDbViewport
 10
0.0
 20
0.0
 30
0.0
 40
10.0
 41
10.0
 69
     2
 12
0.0
 22
0.0
 13
0.0
 23
0.0
 14
1.0
 24
1.0
 15
0.0
 25
0.0
 16
0.0
 26
0.0
 36
1.0
 17
0.0
 27
0.0
 37
0.0
 42
0.0
 43
0.0
 44
0.0
 45
10.0
 50
0.0
 51
0.0000000000007958
 72
   100
 90
   163872
  1

281
     0
 71
     0
 74
     0
110
0.0
120
0.0
130
0.0
111
1.0
121
0.0
131
0.0
112
0.0
122
1.0
132
0.0
 79
     0
146
0.0
170
     0
 61
     5
348
6393
292
     1
282
     1
141
0.0
142
0.0
 63
   256
1001
VD_INVISIBLE_NOT_FOR_READ
1000
VD_INVISIBLE_NOT_FOR_READ
  0
ENDSEC
  0
SECTION
  2
OBJECTS
  0
DICTIONARY
  5
630C
330
0
100
AcDbDictionary
281
     1
  3
ACAD_DETAILVIEWSTYLE
350
63BF
  3
ACAD_GROUP
350
630D
  3
ACAD_IMAGE_VARS
350
63B1
  3
ACAD_LAYOUT
350
631A
  3
ACAD_MATERIAL
350
63A7
  3
ACAD_MLEADERSTYLE
350
63AD
  3
ACAD_MLINESTYLE
350
6317
  3
ACAD_PLOTSETTINGS
350
6319
  3
ACAD_PLOTSTYLENAME
350
630E
  3
ACAD_SCALELIST
350
636C
  3
ACAD_SECTIONVIEWSTYLE
350
63C0
  3
ACAD_TABLESTYLE
350
63AB
  3
ACAD_VISUALSTYLE
350
638E
  3
ACDB_RECOMPOSE_DATA
350
81BD
  3
AcDbVariableDictionary
350
63B7
  3
APPDATA
350
63AF
  3
VECTORDRAW_OBJECTS
350
632F
  0
SUN
  5
63B0
330
6329
100
AcDbSun
 90
        1
290
     0
 63
     7
421
 16777215
 40
1.0
291
     1
 91
  2455826
 92
 54000000
292
     0
 70
     2
 71
   256
280
     1
  0
DICTIONARY
  5
63BF
102
{ACAD_REACTORS
330
630C
102
}
330
630C
100
AcDbDictionary
281
     1
  0
DICTIONARY
  5
630D
102
{ACAD_REACTORS
330
630C
102
}
330
630C
100
AcDbDictionary
281
     1
  3
*A2
350
65BF
  0
RASTERVARIABLES
  5
63B1
102
{ACAD_REACTORS
330
630C
102
}
330
630C
100
AcDbRasterVariables
 90
        0
 70
     1
 71
     1
 72
     5
  0
DICTIONARY
  5
631A
102
{ACAD_REACTORS
330
630C
102
}
330
630C
100
AcDbDictionary
281
     1
  3
Layout1
350
631E
  3
Layout2
350
6326
  3
Model
350
6322
  0
DICTIONARY
  5
63A7
102
{ACAD_REACTORS
330
630C
102
}
330
630C
100
AcDbDictionary
281
     1
  3
ByBlock
350
63A9
  3
ByLayer
350
63A8
  3
Global
350
63AA
  0
DICTIONARY
  5
63AD
102
{ACAD_REACTORS
330
630C
102
}
330
630C
100
AcDbDictionary
281
     1
  3
Standard
350
63AE
  0
DICTIONARY
  5
6317
102
{ACAD_REACTORS
330
630C
102
}
330
630C
100
AcDbDictionary
281
     1
  3
Standard
350
6318
  0
DICTIONARY
  5
6319
102
{ACAD_REACTORS
330
630C
102
}
330
630C
100
AcDbDictionary
281
     1
  0
ACDBDICTIONARYWDFLT
  5
630E
102
{ACAD_REACTORS
330
630C
102
}
330
630C
100
AcDbDictionary
281
     1
  3
Normal
350
630F
100
AcDbDictionaryWithDefault
340
630F
  0
DICTIONARY
  5
636C
102
{ACAD_REACTORS
330
630C
102
}
330
630C
100
AcDbDictionary
281
     1
  3
*A1
350
63D7
  3
A0
350
636D
  3
A1
350
636E
  3
A2
350
636F
  3
A3
350
6370
  3
A4
350
6371
  3
A5
350
6372
  3
A6
350
6373
  3
A7
350
6374
  3
A8
350
6375
  3
A9
350
6376
  3
B0
350
6377
  3
B1
350
6378
  3
B2
350
6379
  3
B3
350
637A
  3
B4
350
637B
  3
B5
350
637C
  3
B6
350
637D
  3
B7
350
637E
  3
B8
350
637F
  3
B9
350
6380
  3
C0
350
6381
  3
C1
350
6382
  3
C2
350
6383
  3
C3
350
6384
  3
C4
350
6385
  3
C5
350
6386
  3
C6
350
6387
  3
C7
350
6388
  3
C8
350
6389
  3
C9
350
638A
  3
D0
350
638B
  3
D1
350
638C
  3
D2
350
638D
  0
DICTIONARY
  5
63C0
102
{ACAD_REACTORS
330
630C
102
}
330
630C
100
AcDbDictionary
281
     1
  0
DICTIONARY
  5
63AB
102
{ACAD_REACTORS
330
630C
102
}
330
630C
100
AcDbDictionary
281
     1
  3
Standard
350
63AC
  0
DICTIONARY
  5
638E
102
{ACAD_REACTORS
330
630C
102
}
330
630C
100
AcDbDictionary
281
     1
  3
2dWireframe
350
6393
  3
Basic
350
6396
  3
Brighten
350
639A
  3
ColorChange
350
639E
  3
Conceptual
350
6398
  3
Dim
350
6399
  3
EdgeColorOff
350
63A1
  3
Facepattern
350
639D
  3
Flat
350
638F
  3
FlatWithEdges
350
6390
  3
Gouraud
350
6391
  3
GouraudWithEdges
350
6392
  3
Hidden
350
6395
  3
JitterOff
350
639F
  3
Linepattern
350
639C
  3
OverhangOff
350
63A0
  3
Realistic
350
6397
  3
Shaded
350
63A6
  3
Shaded with edges
350
63A5
  3
Shades of Gray
350
63A2
  3
Sketchy
350
63A3
  3
Thicken
350
639B
  3
Wireframe
350
6394
  3
X-Ray
350
63A4
  0
XRECORD
  5
81BD
102
{ACAD_REACTORS
330
630C
102
}
330
630C
100
AcDbXrecord
280
     1
 90
        1
330
63AC
  0
DICTIONARY
  5
63B7
102
{ACAD_REACTORS
330
630C
102
}
330
630C
100
AcDbDictionary
281
     1
  3
CANNOSCALE
350
63B8
  3
CMLEADERSTYLE
350
63BD
  3
CTABLESTYLE
350
63BC
  3
MSLTSCALE
350
63BE
  0
DICTIONARY
  5
63AF
102
{ACAD_REACTORS
330
630C
102
}
330
630C
100
AcDbDictionary
281
     1
  0
DICTIONARY
  5
632F
102
{ACAD_REACTORS
330
630C
102
}
330
630C
100
AcDbDictionary
281
     1
  3
SERIALNO
350
6330
  0
GROUP
  5
65BF
102
{ACAD_REACTORS
330
630D
102
}
330
630D
100
AcDbGroup
300

 70
     1
 71
     1
  0
LAYOUT
  5
631E
102
{ACAD_REACTORS
330
631A
102
}
330
631A
100
AcDbPlotSettings
  1
VectorDraw Printer Drawing
  2

  4

  6

 40
0.0
 41
0.0
 42
0.0
 43
0.0
 44
0.0
 45
0.0
 46
0.0
 47
0.0
 48
0.0
 49
0.0
140
0.0
141
0.0
142
1.0
143
1.0
 70
   688
 72
     0
 73
     0
 74
     5
  7

 75
    16
 76
     0
 77
     2
 78
   300
147
1.0
148
0.0
149
0.0
100
AcDbLayout
  1
Layout1
 70
     1
 71
     1
 10
0.0
 20
0.0
 11
12.0
 21
9.0
 12
0.0
 22
0.0
 32
0.0
 14
1.000000000000000E+20
 24
1.000000000000000E+20
 34
1.000000000000000E+20
 15
-1.000000000000000E+20
 25
-1.000000000000000E+20
 35
-1.000000000000000E+20
146
0.0
 13
0.0
 23
0.0
 33
0.0
 16
1.0
 26
0.0
 36
0.0
 17
0.0
 27
1.0
 37
0.0
 76
     0
330
631B
331
6368
  0
LAYOUT
  5
6326
102
{ACAD_REACTORS
330
631A
102
}
330
631A
100
AcDbPlotSettings
  1
VectorDraw Printer Drawing
  2

  4

  6

 40
0.0
 41
0.0
 42
0.0
 43
0.0
 44
0.0
 45
0.0
 46
0.0
 47
0.0
 48
0.0
 49
0.0
140
0.0
141
0.0
142
1.0
143
1.0
 70
   688
 72
     0
 73
     0
 74
     5
  7

 75
    16
 76
     0
 77
     2
 78
   300
147
1.0
148
0.0
149
0.0
100
AcDbLayout
  1
Layout2
 70
     1
 71
     2
 10
0.0
 20
0.0
 11
12.0
 21
9.0
 12
0.0
 22
0.0
 32
0.0
 14
0.0
 24
0.0
 34
0.0
 15
0.0
 25
0.0
 35
0.0
146
0.0
 13
0.0
 23
0.0
 33
0.0
 16
1.0
 26
0.0
 36
0.0
 17
0.0
 27
1.0
 37
0.0
 76
     0
330
6323
331
636A
  0
LAYOUT
  5
6322
102
{ACAD_REACTORS
330
631A
102
}
330
631A
100
AcDbPlotSettings
  1
VectorDraw Printer Drawing
  2

  4

  6

 40
0.0
 41
0.0
 42
0.0
 43
0.0
 44
0.0
 45
0.0
 46
0.0
 47
0.0
 48
0.0
 49
0.0
140
0.0
141
0.0
142
1.0
143
1.0
 70
  1712
 72
     0
 73
     0
 74
     0
  7

 75
     0
 76
     0
 77
     2
 78
   300
147
1.0
148
0.0
149
0.0
100
AcDbLayout
  1
Model
 70
     1
 71
     0
 10
0.0
 20
0.0
 11
0.0
 21
0.0
 12
0.0
 22
0.0
 32
0.0
 14
486.041244
 24
0.0
 34
0.0
 15
687.671651
 25
297.0
 35
0.0
146
0.0
 13
0.0
 23
0.0
 33
0.0
 16
1.0
 26
0.0
 36
0.0
 17
0.0
 27
1.0
 37
0.0
 76
     0
330
631F
331
6329
  0
MATERIAL
  5
63A9
102
{ACAD_REACTORS
330
63A7
102
}
330
63A7
100
AcDbMaterial
  1
ByBlock
 72
     1
 94
      127
  0
MATERIAL
  5
63A8
102
{ACAD_REACTORS
330
63A7
102
}
330
63A7
100
AcDbMaterial
  1
ByLayer
 72
     1
 94
      127
  0
MATERIAL
  5
63AA
102
{ACAD_REACTORS
330
63A7
102
}
330
63A7
100
AcDbMaterial
  1
Global
 72
     1
 94
      127
  0
MLEADERSTYLE
  5
63AE
102
{ACAD_REACTORS
330
63AD
102
}
330
63AD
100
AcDbMLeaderStyle
179
     2
170
     2
171
     1
172
     0
 90
        2
 40
0.0
 41
0.0
173
     1
 91
-1056964608
340
6314
 92
       -2
290
     1
 42
0.09
291
     1
 43
0.36
  3
Standard
341
0
 44
0.18
300

342
6311
174
     1
178
     6
175
     1
176
     0
 93
-1056964608
 45
0.18
292
     0
297
     0
 46
0.18
343
0
 94
-1056964608
 47
1.0
 49
1.0
140
1.0
293
     1
141
0.0
294
     1
177
     0
142
1.0
295
     0
296
     0
143
0.125
271
     0
272
     9
273
     9
298
     0
  0
MLINESTYLE
  5
6318
102
{ACAD_REACTORS
330
6317
102
}
330
6317
100
AcDbMlineStyle
  2
Standard
 70
     0
  3

 62
   256
 51
90.0
 52
90.0
 71
     2
 49
0.5
 62
   256
  6
BYLAYER
 49
-0.5
 62
   256
  6
BYLAYER
  0
ACDBPLACEHOLDER
  5
630F
102
{ACAD_REACTORS
330
630E
102
}
330
630E
  0
SCALE
  5
63D7
102
{ACAD_REACTORS
330
636C
102
}
330
636C
100
AcDbScale
 70
     0
300
1:1_XREF_XREF
140
1.0
141
1.0
290
     1
  0
SCALE
  5
636D
102
{ACAD_REACTORS
330
636C
102
}
330
636C
100
AcDbScale
 70
     0
300
1:1
140
1.0
141
1.0
290
     0
  0
SCALE
  5
636E
102
{ACAD_REACTORS
330
636C
102
}
330
636C
100
AcDbScale
 70
     0
300
1:2
140
1.0
141
2.0
290
     0
  0
SCALE
  5
636F
102
{ACAD_REACTORS
330
636C
102
}
330
636C
100
AcDbScale
 70
     0
300
1:4
140
1.0
141
4.0
290
     0
  0
SCALE
  5
6370
102
{ACAD_REACTORS
330
636C
102
}
330
636C
100
AcDbScale
 70
     0
300
1:5
140
1.0
141
5.0
290
     0
  0
SCALE
  5
6371
102
{ACAD_REACTORS
330
636C
102
}
330
636C
100
AcDbScale
 70
     0
300
1:8
140
1.0
141
8.0
290
     0
  0
SCALE
  5
6372
102
{ACAD_REACTORS
330
636C
102
}
330
636C
100
AcDbScale
 70
     0
300
1:10
140
1.0
141
10.0
290
     0
  0
SCALE
  5
6373
102
{ACAD_REACTORS
330
636C
102
}
330
636C
100
AcDbScale
 70
     0
300
1:16
140
1.0
141
16.0
290
     0
  0
SCALE
  5
6374
102
{ACAD_REACTORS
330
636C
102
}
330
636C
100
AcDbScale
 70
     0
300
1:20
140
1.0
141
20.0
290
     0
  0
SCALE
  5
6375
102
{ACAD_REACTORS
330
636C
102
}
330
636C
100
AcDbScale
 70
     0
300
1:30
140
1.0
141
30.0
290
     0
  0
SCALE
  5
6376
102
{ACAD_REACTORS
330
636C
102
}
330
636C
100
AcDbScale
 70
     0
300
1:40
140
1.0
141
40.0
290
     0
  0
SCALE
  5
6377
102
{ACAD_REACTORS
330
636C
102
}
330
636C
100
AcDbScale
 70
     0
300
1:50
140
1.0
141
50.0
290
     0
  0
SCALE
  5
6378
102
{ACAD_REACTORS
330
636C
102
}
330
636C
100
AcDbScale
 70
     0
300
1:100
140
1.0
141
100.0
290
     0
  0
SCALE
  5
6379
102
{ACAD_REACTORS
330
636C
102
}
330
636C
100
AcDbScale
 70
     0
300
2:1
140
2.0
141
1.0
290
     0
  0
SCALE
  5
637A
102
{ACAD_REACTORS
330
636C
102
}
330
636C
100
AcDbScale
 70
     0
300
4:1
140
4.0
141
1.0
290
     0
  0
SCALE
  5
637B
102
{ACAD_REACTORS
330
636C
102
}
330
636C
100
AcDbScale
 70
     0
300
8:1
140
8.0
141
1.0
290
     0
  0
SCALE
  5
637C
102
{ACAD_REACTORS
330
636C
102
}
330
636C
100
AcDbScale
 70
     0
300
10:1
140
10.0
141
1.0
290
     0
  0
SCALE
  5
637D
102
{ACAD_REACTORS
330
636C
102
}
330
636C
100
AcDbScale
 70
     0
300
100:1
140
100.0
141
1.0
290
     0
  0
SCALE
  5
637E
102
{ACAD_REACTORS
330
636C
102
}
330
636C
100
AcDbScale
 70
     0
300
1/128" = 1'-0"
140
0.0078125
141
12.0
290
     0
  0
SCALE
  5
637F
102
{ACAD_REACTORS
330
636C
102
}
330
636C
100
AcDbScale
 70
     0
300
1/64" = 1'-0"
140
0.015625
141
12.0
290
     0
  0
SCALE
  5
6380
102
{ACAD_REACTORS
330
636C
102
}
330
636C
100
AcDbScale
 70
     0
300
1/32" = 1'-0"
140
0.03125
141
12.0
290
     0
  0
SCALE
  5
6381
102
{ACAD_REACTORS
330
636C
102
}
330
636C
100
AcDbScale
 70
     0
300
1/16" = 1'-0"
140
0.0625
141
12.0
290
     0
  0
SCALE
  5
6382
102
{ACAD_REACTORS
330
636C
102
}
330
636C
100
AcDbScale
 70
     0
300
3/32" = 1'-0"
140
0.09375
141
12.0
290
     0
  0
SCALE
  5
6383
102
{ACAD_REACTORS
330
636C
102
}
330
636C
100
AcDbScale
 70
     0
300
1/8" = 1'-0"
140
0.125
141
12.0
290
     0
  0
SCALE
  5
6384
102
{ACAD_REACTORS
330
636C
102
}
330
636C
100
AcDbScale
 70
     0
300
3/16" = 1'-0"
140
0.1875
141
12.0
290
     0
  0
SCALE
  5
6385
102
{ACAD_REACTORS
330
636C
102
}
330
636C
100
AcDbScale
 70
     0
300
1/4" = 1'-0"
140
0.25
141
12.0
290
     0
  0
SCALE
  5
6386
102
{ACAD_REACTORS
330
636C
102
}
330
636C
100
AcDbScale
 70
     0
300
3/8" = 1'-0"
140
0.375
141
12.0
290
     0
  0
SCALE
  5
6387
102
{ACAD_REACTORS
330
636C
102
}
330
636C
100
AcDbScale
 70
     0
300
1/2" = 1'-0"
140
0.5
141
12.0
290
     0
  0
SCALE
  5
6388
102
{ACAD_REACTORS
330
636C
102
}
330
636C
100
AcDbScale
 70
     0
300
3/4" = 1'-0"
140
0.75
141
12.0
290
     0
  0
SCALE
  5
6389
102
{ACAD_REACTORS
330
636C
102
}
330
636C
100
AcDbScale
 70
     0
300
1" = 1'-0"
140
1.0
141
12.0
290
     0
  0
SCALE
  5
638A
102
{ACAD_REACTORS
330
636C
102
}
330
636C
100
AcDbScale
 70
     0
300
1-1/2" = 1'-0"
140
1.5
141
12.0
290
     0
  0
SCALE
  5
638B
102
{ACAD_REACTORS
330
636C
102
}
330
636C
100
AcDbScale
 70
     0
300
3" = 1'-0"
140
3.0
141
12.0
290
     0
  0
SCALE
  5
638C
102
{ACAD_REACTORS
330
636C
102
}
330
636C
100
AcDbScale
 70
     0
300
6" = 1'-0"
140
6.0
141
12.0
290
     0
  0
SCALE
  5
638D
102
{ACAD_REACTORS
330
636C
102
}
330
636C
100
AcDbScale
 70
     0
300
1'-0" = 1'-0"
140
12.0
141
12.0
290
     0
  0
TABLESTYLE
  5
63AC
102
{ACAD_REACTORS
330
63AB
102
}
102
{ACAD_XDICTIONARY
360
81BB
102
}
330
63AB
100
AcDbTableStyle
  3
Standard
 70
     0
 71
     0
 40
0.06
 41
0.06
280
     0
281
     0
  7
STANDARD
140
0.18
170
     2
 62
     0
 63
   257
283
     0
 90
        4
 91
        0
  1

274
    -2
284
     1
 64
     0
275
    -2
285
     1
 65
     0
276
    -2
286
     1
 66
     0
277
    -2
287
     1
 67
     0
278
    -2
288
     1
 68
     0
279
    -2
289
     1
 69
     0
  7
STANDARD
140
0.25
170
     5
 62
     0
 63
   257
283
     0
 90
        4
 91
        0
  1

274
    -2
284
     1
 64
     0
275
    -2
285
     1
 65
     0
276
    -2
286
     1
 66
     0
277
    -2
287
     1
 67
     0
278
    -2
288
     1
 68
     0
279
    -2
289
     1
 69
     0
  7
STANDARD
140
0.18
170
     5
 62
     0
 63
   257
283
     0
 90
        4
 91
        0
  1

274
    -2
284
     1
 64
     0
275
    -2
285
     1
 65
     0
276
    -2
286
     1
 66
     0
277
    -2
287
     1
 67
     0
278
    -2
288
     1
 68
     0
279
    -2
289
     1
 69
     0
  0
VISUALSTYLE
  5
6393
102
{ACAD_REACTORS
330
638E
102
}
330
638E
100
AcDbVisualStyle
  2
2dWireframe
 70
     4
177
     3
291
     0
 70
    58
 90
        0
176
     1
 90
        2
176
     1
 90
        0
176
     1
 90
        0
176
     1
 40
0.6
176
     1
 40
30.0
176
     1
 62
     7
420
 16777215
176
     1
 90
        1
176
     1
 90
        4
176
     1
 62
     7
176
     1
 62
   257
176
     1
 90
        1
176
     1
 90
        1
176
     1
 40
1.0
176
     1
 90
        0
176
     1
 62
   257
176
     1
 40
1.0
176
     1
 90
        1
176
     1
 90
        6
176
     1
 90
        2
176
     1
 62
     7
176
     1
 90
        5
176
     1
 90
        0
176
     1
 90
        0
176
     1
290
     0
176
     1
 90
        1
176
     1
 40
0.0
176
     1
 90
        0
176
     1
290
     1
176
     1
290
     1
176
     1
290
     0
176
     1
290
     0
176
     1
290
     0
176
     1
290
     0
176
     1
290
     0
176
     1
290
     0
176
     1
290
     0
176
     1
 90
       50
176
     1
 40
0.0
176
     1
 40
1.0
176
     1
 90
        0
176
     1
 62
    18
420
        0
176
     1
 90
       50
176
     1
 90
        3
176
     1
 62
     5
420
      255
176
     1
290
     0
176
     1
 90
       50
176
     1
 90
       50
176
     1
 90
       50
176
     1
290
     0
176
     1
 90
       50
176
     1
 62
   256
176
     0
 40
1.0
176
     0
 90
        2
176
     1
  1
strokes_ogs.tif
176
     1
290
     0
176
     1
 40
1.0
176
     1
 40
1.0
176
     1
  0
VISUALSTYLE
  5
6396
102
{ACAD_REACTORS
330
638E
102
}
330
638E
100
AcDbVisualStyle
  2
Basic
 70
     7
177
     3
291
     1
 70
    58
 90
        1
176
     1
 90
        0
176
     1
 90
        1
176
     1
 90
        0
176
     1
 40
0.6
176
     1
 40
30.0
176
     1
 62
     7
420
 16777215
176
     1
 90
        0
176
     1
 90
        4
176
     1
 62
     7
176
     1
 62
   257
176
     1
 90
        1
176
     1
 90
        1
176
     1
 40
1.0
176
     1
 90
        8
176
     1
 62
     7
176
     1
 40
1.0
176
     1
 90
        1
176
     1
 90
        6
176
     1
 90
        2
176
     1
 62
     7
176
     1
 90
        5
176
     1
 90
        0
176
     1
 90
        0
176
     1
290
     0
176
     1
 90
        1
176
     1
 40
0.0
176
     1
 90
        0
176
     1
290
     0
176
     1
290
     1
176
     1
290
     1
176
     1
290
     0
176
     1
290
     0
176
     1
290
     0
176
     1
290
     0
176
     1
290
     0
176
     1
290
     0
176
     1
 90
       50
176
     1
 40
0.0
176
     1
 40
1.0
176
     1
 90
        0
176
     1
 62
    18
420
        0
176
     1
 90
       50
176
     1
 90
        3
176
     1
 62
     5
420
      255
176
     1
290
     0
176
     1
 90
       50
176
     1
 90
       50
176
     1
 90
       50
176
     1
290
     0
176
     1
 90
       50
176
     1
 62
   256
176
     0
 40
1.0
176
     0
 90
        2
176
     1
  1
strokes_ogs.tif
176
     1
290
     0
176
     1
 40
1.0
176
     1
 40
1.0
176
     1
  0
VISUALSTYLE
  5
639A
102
{ACAD_REACTORS
330
638E
102
}
330
638E
100
AcDbVisualStyle
  2
Brighten
 70
    12
177
     3
291
     1
 70
    58
 90
        2
176
     1
 90
        2
176
     1
 90
        0
176
     1
 90
        0
176
     1
 40
0.6
176
     1
 40
30.0
176
     1
 62
     7
420
 16777215
176
     1
 90
        1
176
     1
 90
        4
176
     1
 62
     7
176
     1
 62
   257
176
     1
 90
        1
176
     1
 90
        1
176
     1
 40
1.0
176
     1
 90
        8
176
     1
 62
     7
176
     1
 40
1.0
176
     1
 90
        1
176
     1
 90
        6
176
     1
 90
        2
176
     1
 62
     7
176
     1
 90
        5
176
     1
 90
        0
176
     1
 90
        0
176
     1
290
     0
176
     1
 90
        1
176
     1
 40
50.0
176
     1
 90
        0
176
     1
290
     0
176
     1
290
     1
176
     1
290
     1
176
     1
290
     0
176
     1
290
     0
176
     1
290
     0
176
     1
290
     0
176
     1
290
     0
176
     1
290
     0
176
     1
 90
       50
176
     1
 40
0.0
176
     1
 40
1.0
176
     1
 90
        0
176
     1
 62
    18
420
        0
176
     1
 90
       50
176
     1
 90
        3
176
     1
 62
     5
420
      255
176
     1
290
     0
176
     1
 90
       50
176
     1
 90
       50
176
     1
 90
       50
176
     1
290
     0
176
     1
 90
       50
176
     1
 62
   256
176
     0
 40
1.0
176
     0
 90
        2
176
     1
  1
strokes_ogs.tif
176
     1
290
     0
176
     1
 40
1.0
176
     1
 40
1.0
176
     1
  0
VISUALSTYLE
  5
639E
102
{ACAD_REACTORS
330
638E
102
}
330
638E
100
AcDbVisualStyle
  2
ColorChange
 70
    16
177
     3
291
     1
 70
    58
 90
        2
176
     1
 90
        2
176
     1
 90
        3
176
     1
 90
        0
176
     1
 40
0.6
176
     1
 40
30.0
176
     1
 62
     8
420
  8421504
176
     1
 90
        1
176
     1
 90
        4
176
     1
 62
     7
176
     1
 62
   257
176
     1
 90
        1
176
     1
 90
        1
176
     1
 40
1.0
176
     1
 90
        8
176
     1
 62
     8
420
  8421504
176
     1
 40
1.0
176
     1
 90
        1
176
     1
 90
        6
176
     1
 90
        2
176
     1
 62
     7
176
     1
 90
        5
176
     1
 90
        0
176
     1
 90
        0
176
     1
290
     0
176
     1
 90
        1
176
     1
 40
0.0
176
     1
 90
        0
176
     1
290
     0
176
     1
290
     1
176
     1
290
     1
176
     1
290
     0
176
     1
290
     0
176
     1
290
     0
176
     1
290
     0
176
     1
290
     0
176
     1
290
     0
176
     1
 90
       50
176
     1
 40
0.0
176
     1
 40
1.0
176
     1
 90
        0
176
     1
 62
    18
420
        0
176
     1
 90
       50
176
     1
 90
        3
176
     1
 62
     5
420
      255
176
     1
290
     0
176
     1
 90
       50
176
     1
 90
       50
176
     1
 90
       50
176
     1
290
     0
176
     1
 90
       50
176
     1
 62
   256
176
     0
 40
1.0
176
     0
 90
        2
176
     1
  1
strokes_ogs.tif
176
     1
290
     0
176
     1
 40
1.0
176
     1
 40
1.0
176
     1
  0
VISUALSTYLE
  5
6398
102
{ACAD_REACTORS
330
638E
102
}
330
638E
100
AcDbVisualStyle
  2
Conceptual
 70
     9
177
     3
291
     0
 70
    58
 90
        3
176
     1
 90
        2
176
     1
 90
        0
176
     1
 90
        0
176
     1
 40
0.6
176
     1
 40
30.0
176
     1
 62
     7
420
 16777215
176
     1
 90
        2
176
     1
 90
        2
176
     1
 62
     7
176
     1
 62
   257
176
     1
 90
        1
176
     1
 90
        1
176
     1
 40
179.0
176
     1
 90
        8
176
     1
 62
     7
176
     1
 40
1.0
176
     1
 90
        1
176
     1
 90
        6
176
     1
 90
        2
176
     1
 62
     7
176
     1
 90
        3
176
     1
 90
        0
176
     1
 90
        0
176
     1
290
     0
176
     1
 90
        1
176
     1
 40
0.0
176
     1
 90
        0
176
     1
290
     0
176
     1
290
     1
176
     1
290
     1
176
     1
290
     0
176
     1
290
     0
176
     1
290
     0
176
     1
290
     0
176
     1
290
     0
176
     1
290
     0
176
     1
 90
       50
176
     1
 40
0.0
176
     1
 40
1.0
176
     1
 90
        0
176
     1
 62
    18
420
        0
176
     1
 90
       50
176
     1
 90
        3
176
     1
 62
     5
420
      255
176
     1
290
     0
176
     1
 90
       50
176
     1
 90
       50
176
     1
 90
       50
176
     1
290
     0
176
     1
 90
       50
176
     1
 62
   256
176
     0
 40
1.0
176
     0
 90
        2
176
     1
  1
strokes_ogs.tif
176
     1
290
     0
176
     1
 40
1.0
176
     1
 40
1.0
176
     1
  0
VISUALSTYLE
  5
6399
102
{ACAD_REACTORS
330
638E
102
}
330
638E
100
AcDbVisualStyle
  2
Dim
 70
    11
177
     3
291
     1
 70
    58
 90
        2
176
     1
 90
        2
176
     1
 90
        0
176
     1
 90
        0
176
     1
 40
0.6
176
     1
 40
30.0
176
     1
 62
     7
420
 16777215
176
     1
 90
        1
176
     1
 90
        4
176
     1
 62
     7
176
     1
 62
   257
176
     1
 90
        1
176
     1
 90
        1
176
     1
 40
1.0
176
     1
 90
        8
176
     1
 62
     7
176
     1
 40
1.0
176
     1
 90
        1
176
     1
 90
        6
176
     1
 90
        2
176
     1
 62
     7
176
     1
 90
        5
176
     1
 90
        0
176
     1
 90
        0
176
     1
290
     0
176
     1
 90
        1
176
     1
 40
-50.0
176
     1
 90
        0
176
     1
290
     0
176
     1
290
     1
176
     1
290
     1
176
     1
290
     0
176
     1
290
     0
176
     1
290
     0
176
     1
290
     0
176
     1
290
     0
176
     1
290
     0
176
     1
 90
       50
176
     1
 40
0.0
176
     1
 40
1.0
176
     1
 90
        0
176
     1
 62
    18
420
        0
176
     1
 90
       50
176
     1
 90
        3
176
     1
 62
     5
420
      255
176
     1
290
     0
176
     1
 90
       50
176
     1
 90
       50
176
     1
 90
       50
176
     1
290
     0
176
     1
 90
       50
176
     1
 62
   256
176
     0
 40
1.0
176
     0
 90
        2
176
     1
  1
strokes_ogs.tif
176
     1
290
     0
176
     1
 40
1.0
176
     1
 40
1.0
176
     1
  0
VISUALSTYLE
  5
63A1
102
{ACAD_REACTORS
330
638E
102
}
330
638E
100
AcDbVisualStyle
  2
EdgeColorOff
 70
    22
177
     3
291
     1
 70
    58
 90
        2
176
     0
 90
        2
176
     0
 90
        0
176
     0
 90
        0
176
     0
 40
0.6
176
     0
 40
30.0
176
     0
 62
     7
420
 16777215
176
     0
 90
        1
176
     0
 90
        4
176
     0
 62
     7
176
     0
 62
   257
176
     0
 90
        1
176
     0
 90
        1
176
     0
 40
1.0
176
     0
 90
        8
176
     2
 62
     7
176
     0
 40
1.0
176
     0
 90
        1
176
     0
 90
        6
176
     0
 90
        2
176
     0
 62
     7
176
     0
 90
        5
176
     0
 90
        0
176
     0
 90
        0
176
     0
290
     0
176
     0
 90
        1
176
     0
 40
0.0
176
     0
 90
        0
176
     0
290
     0
176
     0
290
     1
176
     0
290
     1
176
     0
290
     0
176
     0
290
     0
176
     0
290
     0
176
     0
290
     0
176
     0
290
     0
176
     0
290
     0
176
     0
 90
       50
176
     0
 40
0.0
176
     0
 40
1.0
176
     0
 90
        0
176
     0
 62
    18
420
        0
176
     0
 90
       50
176
     0
 90
        3
176
     0
 62
     5
420
      255
176
     0
290
     0
176
     0
 90
       50
176
     0
 90
       50
176
     0
 90
       50
176
     0
290
     0
176
     0
 90
       50
176
     0
 62
   256
176
     0
 40
1.0
176
     0
 90
        2
176
     0
  1
strokes_ogs.tif
176
     0
290
     0
176
     0
 40
1.0
176
     0
 40
1.0
176
     0
  0
VISUALSTYLE
  5
639D
102
{ACAD_REACTORS
330
638E
102
}
330
638E
100
AcDbVisualStyle
  2
Facepattern
 70
    15
177
     3
291
     1
 70
    58
 90
        2
176
     1
 90
        2
176
     1
 90
        0
176
     1
 90
        0
176
     1
 40
0.6
176
     1
 40
30.0
176
     1
 62
     7
420
 16777215
176
     1
 90
        1
176
     1
 90
        4
176
     1
 62
     7
176
     1
 62
   257
176
     1
 90
        1
176
     1
 90
        1
176
     1
 40
1.0
176
     1
 90
        8
176
     1
 62
     7
176
     1
 40
1.0
176
     1
 90
        1
176
     1
 90
        6
176
     1
 90
        2
176
     1
 62
     7
176
     1
 90
        5
176
     1
 90
        0
176
     1
 90
        0
176
     1
290
     0
176
     1
 90
        1
176
     1
 40
0.0
176
     1
 90
        0
176
     1
290
     0
176
     1
290
     1
176
     1
290
     1
176
     1
290
     0
176
     1
290
     0
176
     1
290
     0
176
     1
290
     0
176
     1
290
     0
176
     1
290
     0
176
     1
 90
       50
176
     1
 40
0.0
176
     1
 40
1.0
176
     1
 90
        0
176
     1
 62
    18
420
        0
176
     1
 90
       50
176
     1
 90
        3
176
     1
 62
     5
420
      255
176
     1
290
     0
176
     1
 90
       50
176
     1
 90
       50
176
     1
 90
       50
176
     1
290
     0
176
     1
 90
       50
176
     1
 62
   256
176
     0
 40
1.0
176
     0
 90
        2
176
     1
  1
strokes_ogs.tif
176
     1
290
     0
176
     1
 40
1.0
176
     1
 40
1.0
176
     1
  0
VISUALSTYLE
  5
638F
102
{ACAD_REACTORS
330
638E
102
}
330
638E
100
AcDbVisualStyle
  2
Flat
 70
     0
177
     3
291
     1
 70
    58
 90
        2
176
     1
 90
        1
176
     1
 90
        1
176
     1
 90
        2
176
     1
 40
0.6
176
     1
 40
30.0
176
     1
 62
     7
420
 16777215
176
     1
 90
        0
176
     1
 90
        0
176
     1
 62
     7
176
     1
 62
   257
176
     1
 90
        1
176
     1
 90
        1
176
     1
 40
1.0
176
     1
 90
        8
176
     1
 62
     7
176
     1
 40
1.0
176
     1
 90
        1
176
     1
 90
        6
176
     1
 90
        2
176
     1
 62
     7
176
     1
 90
        5
176
     1
 90
        0
176
     1
 90
        0
176
     1
290
     0
176
     1
 90
       13
176
     1
 40
0.0
176
     1
 90
        0
176
     1
290
     0
176
     1
290
     1
176
     1
290
     1
176
     1
290
     0
176
     1
290
     0
176
     1
290
     0
176
     1
290
     0
176
     1
290
     0
176
     1
290
     0
176
     1
 90
       50
176
     1
 40
0.0
176
     1
 40
1.0
176
     1
 90
        0
176
     1
 62
    18
420
        0
176
     1
 90
       50
176
     1
 90
        3
176
     1
 62
     5
420
      255
176
     1
290
     0
176
     1
 90
       50
176
     1
 90
       50
176
     1
 90
       50
176
     1
290
     0
176
     1
 90
       50
176
     1
 62
   256
176
     0
 40
1.0
176
     0
 90
        2
176
     1
  1
strokes_ogs.tif
176
     1
290
     0
176
     1
 40
1.0
176
     1
 40
1.0
176
     1
  0
VISUALSTYLE
  5
6390
102
{ACAD_REACTORS
330
638E
102
}
330
638E
100
AcDbVisualStyle
  2
FlatWithEdges
 70
     1
177
     3
291
     1
 70
    58
 90
        2
176
     1
 90
        1
176
     1
 90
        1
176
     1
 90
        2
176
     1
 40
0.6
176
     1
 40
30.0
176
     1
 62
     7
420
 16777215
176
     1
 90
        1
176
     1
 90
        0
176
     1
 62
     7
176
     1
 62
   257
176
     1
 90
        1
176
     1
 90
        1
176
     1
 40
1.0
176
     1
 90
        0
176
     1
 62
   257
176
     1
 40
1.0
176
     1
 90
        1
176
     1
 90
        6
176
     1
 90
        2
176
     1
 62
     7
176
     1
 90
        5
176
     1
 90
        0
176
     1
 90
        0
176
     1
290
     0
176
     1
 90
       13
176
     1
 40
0.0
176
     1
 90
        0
176
     1
290
     0
176
     1
290
     1
176
     1
290
     1
176
     1
290
     0
176
     1
290
     0
176
     1
290
     0
176
     1
290
     0
176
     1
290
     0
176
     1
290
     0
176
     1
 90
       50
176
     1
 40
0.0
176
     1
 40
1.0
176
     1
 90
        0
176
     1
 62
    18
420
        0
176
     1
 90
       50
176
     1
 90
        3
176
     1
 62
     5
420
      255
176
     1
290
     0
176
     1
 90
       50
176
     1
 90
       50
176
     1
 90
       50
176
     1
290
     0
176
     1
 90
       50
176
     1
 62
   256
176
     0
 40
1.0
176
     0
 90
        2
176
     1
  1
strokes_ogs.tif
176
     1
290
     0
176
     1
 40
1.0
176
     1
 40
1.0
176
     1
  0
VISUALSTYLE
  5
6391
102
{ACAD_REACTORS
330
638E
102
}
330
638E
100
AcDbVisualStyle
  2
Gouraud
 70
     2
177
     3
291
     1
 70
    58
 90
        2
176
     1
 90
        2
176
     1
 90
        1
176
     1
 90
        2
176
     1
 40
0.6
176
     1
 40
30.0
176
     1
 62
     7
420
 16777215
176
     1
 90
        0
176
     1
 90
        0
176
     1
 62
     7
176
     1
 62
   257
176
     1
 90
        1
176
     1
 90
        1
176
     1
 40
1.0
176
     1
 90
        0
176
     1
 62
     7
176
     1
 40
1.0
176
     1
 90
        1
176
     1
 90
        6
176
     1
 90
        2
176
     1
 62
     7
176
     1
 90
        5
176
     1
 90
        0
176
     1
 90
        0
176
     1
290
     0
176
     1
 90
       13
176
     1
 40
0.0
176
     1
 90
        0
176
     1
290
     0
176
     1
290
     1
176
     1
290
     1
176
     1
290
     0
176
     1
290
     0
176
     1
290
     0
176
     1
290
     0
176
     1
290
     0
176
     1
290
     0
176
     1
 90
       50
176
     1
 40
0.0
176
     1
 40
1.0
176
     1
 90
        0
176
     1
 62
    18
420
        0
176
     1
 90
       50
176
     1
 90
        3
176
     1
 62
     5
420
      255
176
     1
290
     0
176
     1
 90
       50
176
     1
 90
       50
176
     1
 90
       50
176
     1
290
     0
176
     1
 90
       50
176
     1
 62
   256
176
     0
 40
1.0
176
     0
 90
        2
176
     1
  1
strokes_ogs.tif
176
     1
290
     0
176
     1
 40
1.0
176
     1
 40
1.0
176
     1
  0
VISUALSTYLE
  5
6392
102
{ACAD_REACTORS
330
638E
102
}
330
638E
100
AcDbVisualStyle
  2
GouraudWithEdges
 70
     3
177
     3
291
     1
 70
    58
 90
        2
176
     1
 90
        2
176
     1
 90
        1
176
     1
 90
        2
176
     1
 40
0.6
176
     1
 40
30.0
176
     1
 62
     7
420
 16777215
176
     1
 90
        1
176
     1
 90
        0
176
     1
 62
     7
176
     1
 62
   257
176
     1
 90
        1
176
     1
 90
        1
176
     1
 40
1.0
176
     1
 90
        0
176
     1
 62
   257
176
     1
 40
1.0
176
     1
 90
        1
176
     1
 90
        6
176
     1
 90
        2
176
     1
 62
     7
176
     1
 90
        5
176
     1
 90
        0
176
     1
 90
        0
176
     1
290
     0
176
     1
 90
       13
176
     1
 40
0.0
176
     1
 90
        0
176
     1
290
     0
176
     1
290
     1
176
     1
290
     1
176
     1
290
     0
176
     1
290
     0
176
     1
290
     0
176
     1
290
     0
176
     1
290
     0
176
     1
290
     0
176
     1
 90
       50
176
     1
 40
0.0
176
     1
 40
1.0
176
     1
 90
        0
176
     1
 62
    18
420
        0
176
     1
 90
       50
176
     1
 90
        3
176
     1
 62
     5
420
      255
176
     1
290
     0
176
     1
 90
       50
176
     1
 90
       50
176
     1
 90
       50
176
     1
290
     0
176
     1
 90
       50
176
     1
 62
   256
176
     0
 40
1.0
176
     0
 90
        2
176
     1
  1
strokes_ogs.tif
176
     1
290
     0
176
     1
 40
1.0
176
     1
 40
1.0
176
     1
  0
VISUALSTYLE
  5
6395
102
{ACAD_REACTORS
330
638E
102
}
330
638E
100
AcDbVisualStyle
  2
Hidden
 70
     6
177
     3
291
     0
 70
    58
 90
        1
176
     1
 90
        2
176
     1
 90
        2
176
     1
 90
        0
176
     1
 40
0.6
176
     1
 40
30.0
176
     1
 62
     7
420
 16777215
176
     1
 90
        2
176
     1
 90
        2
176
     1
 62
     7
176
     1
 62
   257
176
     1
 90
        2
176
     1
 90
        1
176
     1
 40
40.0
176
     1
 90
        0
176
     1
 62
   257
176
     1
 40
1.0
176
     1
 90
        1
176
     1
 90
        6
176
     1
 90
        2
176
     1
 62
     7
176
     1
 90
        3
176
     1
 90
        0
176
     1
 90
        0
176
     1
290
     0
176
     1
 90
        1
176
     1
 40
0.0
176
     1
 90
        0
176
     1
290
     0
176
     1
290
     1
176
     1
290
     1
176
     1
290
     0
176
     1
290
     0
176
     1
290
     0
176
     1
290
     0
176
     1
290
     0
176
     1
290
     0
176
     1
 90
       50
176
     1
 40
0.0
176
     1
 40
1.0
176
     1
 90
        0
176
     1
 62
    18
420
        0
176
     1
 90
       50
176
     1
 90
        3
176
     1
 62
     5
420
      255
176
     1
290
     0
176
     1
 90
       50
176
     1
 90
       50
176
     1
 90
       50
176
     1
290
     0
176
     1
 90
       50
176
     1
 62
   256
176
     0
 40
1.0
176
     0
 90
        2
176
     1
  1
strokes_ogs.tif
176
     1
290
     0
176
     1
 40
1.0
176
     1
 40
1.0
176
     1
  0
VISUALSTYLE
  5
639F
102
{ACAD_REACTORS
330
638E
102
}
330
638E
100
AcDbVisualStyle
  2
JitterOff
 70
    20
177
     3
291
     1
 70
    58
 90
        2
176
     0
 90
        2
176
     0
 90
        0
176
     0
 90
        0
176
     0
 40
0.6
176
     0
 40
30.0
176
     0
 62
     7
420
 16777215
176
     0
 90
        1
176
     0
 90
        4
176
     0
 62
     7
176
     0
 62
   257
176
     0
 90
        1
176
     0
 90
        1
176
     0
 40
1.0
176
     0
 90
       10
176
     2
 62
     7
176
     0
 40
1.0
176
     0
 90
        1
176
     0
 90
        6
176
     0
 90
        2
176
     0
 62
     7
176
     0
 90
        5
176
     0
 90
        0
176
     0
 90
        0
176
     0
290
     0
176
     0
 90
        1
176
     0
 40
0.0
176
     0
 90
        0
176
     0
290
     0
176
     0
290
     1
176
     0
290
     1
176
     0
290
     0
176
     0
290
     0
176
     0
290
     0
176
     0
290
     0
176
     0
290
     0
176
     0
290
     0
176
     0
 90
       50
176
     0
 40
0.0
176
     0
 40
1.0
176
     0
 90
        0
176
     0
 62
    18
420
        0
176
     0
 90
       50
176
     0
 90
        3
176
     0
 62
     5
420
      255
176
     0
290
     0
176
     0
 90
       50
176
     0
 90
       50
176
     0
 90
       50
176
     0
290
     0
176
     0
 90
       50
176
     0
 62
   256
176
     0
 40
1.0
176
     0
 90
        2
176
     0
  1
strokes_ogs.tif
176
     0
290
     0
176
     0
 40
1.0
176
     0
 40
1.0
176
     0
  0
VISUALSTYLE
  5
639C
102
{ACAD_REACTORS
330
638E
102
}
330
638E
100
AcDbVisualStyle
  2
Linepattern
 70
    14
177
     3
291
     1
 70
    58
 90
        2
176
     1
 90
        2
176
     1
 90
        0
176
     1
 90
        0
176
     1
 40
0.6
176
     1
 40
30.0
176
     1
 62
     7
420
 16777215
176
     1
 90
        1
176
     1
 90
        4
176
     1
 62
     7
176
     1
 62
   257
176
     1
 90
        7
176
     1
 90
        7
176
     1
 40
1.0
176
     1
 90
        8
176
     1
 62
     7
176
     1
 40
1.0
176
     1
 90
        1
176
     1
 90
        6
176
     1
 90
        2
176
     1
 62
     7
176
     1
 90
        5
176
     1
 90
        0
176
     1
 90
        0
176
     1
290
     0
176
     1
 90
        1
176
     1
 40
0.0
176
     1
 90
        0
176
     1
290
     0
176
     1
290
     1
176
     1
290
     1
176
     1
290
     0
176
     1
290
     0
176
     1
290
     0
176
     1
290
     0
176
     1
290
     0
176
     1
290
     0
176
     1
 90
       50
176
     1
 40
0.0
176
     1
 40
1.0
176
     1
 90
        0
176
     1
 62
    18
420
        0
176
     1
 90
       50
176
     1
 90
        3
176
     1
 62
     5
420
      255
176
     1
290
     0
176
     1
 90
       50
176
     1
 90
       50
176
     1
 90
       50
176
     1
290
     0
176
     1
 90
       50
176
     1
 62
   256
176
     0
 40
1.0
176
     0
 90
        2
176
     1
  1
strokes_ogs.tif
176
     1
290
     0
176
     1
 40
1.0
176
     1
 40
1.0
176
     1
  0
VISUALSTYLE
  5
63A0
102
{ACAD_REACTORS
330
638E
102
}
330
638E
100
AcDbVisualStyle
  2
OverhangOff
 70
    21
177
     3
291
     1
 70
    58
 90
        2
176
     0
 90
        2
176
     0
 90
        0
176
     0
 90
        0
176
     0
 40
0.6
176
     0
 40
30.0
176
     0
 62
     7
420
 16777215
176
     0
 90
        1
176
     0
 90
        4
176
     0
 62
     7
176
     0
 62
   257
176
     0
 90
        1
176
     0
 90
        1
176
     0
 40
1.0
176
     0
 90
        9
176
     2
 62
     7
176
     0
 40
1.0
176
     0
 90
        1
176
     0
 90
        6
176
     0
 90
        2
176
     0
 62
     7
176
     0
 90
        5
176
     0
 90
        0
176
     0
 90
        0
176
     0
290
     0
176
     0
 90
        1
176
     0
 40
0.0
176
     0
 90
        0
176
     0
290
     0
176
     0
290
     1
176
     0
290
     1
176
     0
290
     0
176
     0
290
     0
176
     0
290
     0
176
     0
290
     0
176
     0
290
     0
176
     0
290
     0
176
     0
 90
       50
176
     0
 40
0.0
176
     0
 40
1.0
176
     0
 90
        0
176
     0
 62
    18
420
        0
176
     0
 90
       50
176
     0
 90
        3
176
     0
 62
     5
420
      255
176
     0
290
     0
176
     0
 90
       50
176
     0
 90
       50
176
     0
 90
       50
176
     0
290
     0
176
     0
 90
       50
176
     0
 62
   256
176
     0
 40
1.0
176
     0
 90
        2
176
     0
  1
strokes_ogs.tif
176
     0
290
     0
176
     0
 40
1.0
176
     0
 40
1.0
176
     0
  0
VISUALSTYLE
  5
6397
102
{ACAD_REACTORS
330
638E
102
}
330
638E
100
AcDbVisualStyle
  2
Realistic
 70
     8
177
     3
291
     0
 70
    58
 90
        2
176
     1
 90
        3
176
     1
 90
        0
176
     1
 90
        2
176
     1
 40
0.6
176
     1
 40
30.0
176
     1
 62
     7
420
 16777215
176
     1
 90
        0
176
     1
 90
        0
176
     1
 62
     7
176
     1
 62
   257
176
     1
 90
        1
176
     1
 90
        1
176
     1
 40
1.0
176
     1
 90
        8
176
     1
 62
   257
176
     1
 40
1.0
176
     1
 90
        1
176
     1
 90
        6
176
     1
 90
        2
176
     1
 62
     7
176
     1
 90
        3
176
     1
 90
        0
176
     1
 90
        0
176
     1
290
     0
176
     1
 90
       13
176
     1
 40
0.0
176
     1
 90
        0
176
     1
290
     0
176
     1
290
     1
176
     1
290
     1
176
     1
290
     0
176
     1
290
     0
176
     1
290
     0
176
     1
290
     0
176
     1
290
     0
176
     1
290
     0
176
     1
 90
       50
176
     1
 40
0.0
176
     1
 40
1.0
176
     1
 90
        0
176
     1
 62
    18
420
        0
176
     1
 90
       50
176
     1
 90
        3
176
     1
 62
     5
420
      255
176
     1
290
     0
176
     1
 90
       50
176
     1
 90
       50
176
     1
 90
       50
176
     1
290
     0
176
     1
 90
       50
176
     1
 62
   256
176
     0
 40
1.0
176
     0
 90
        2
176
     1
  1
strokes_ogs.tif
176
     1
290
     0
176
     1
 40
1.0
176
     1
 40
1.0
176
     1
  0
VISUALSTYLE
  5
63A6
102
{ACAD_REACTORS
330
638E
102
}
330
638E
100
AcDbVisualStyle
  2
Shaded
 70
    27
177
     3
291
     0
 70
    58
 90
        2
176
     1
 90
        2
176
     1
 90
        1
176
     1
 90
        2
176
     1
 40
0.6
176
     1
 40
30.0
176
     1
 62
     7
420
 16777215
176
     1
 90
        0
176
     1
 90
        4
176
     1
 62
     7
176
     1
 62
   257
176
     1
 90
        1
176
     1
 90
        1
176
     1
 40
1.0
176
     1
 90
        8
176
     1
 62
   257
176
     1
 40
1.0
176
     1
 90
        1
176
     1
 90
        6
176
     1
 90
        2
176
     1
 62
     8
420
  7895160
176
     1
 90
        3
176
     1
 90
        0
176
     1
 90
        0
176
     1
290
     0
176
     1
 90
        5
176
     1
 40
0.0
176
     1
 90
        0
176
     1
290
     0
176
     1
290
     1
176
     1
290
     1
176
     1
290
     0
176
     1
290
     0
176
     1
290
     0
176
     1
290
     0
176
     1
290
     0
176
     1
290
     0
176
     1
 90
       50
176
     1
 40
0.0
176
     1
 40
1.0
176
     1
 90
        0
176
     1
 62
    18
420
        0
176
     1
 90
       50
176
     1
 90
        3
176
     1
 62
     5
420
      255
176
     1
290
     0
176
     1
 90
       50
176
     1
 90
       50
176
     1
 90
       50
176
     1
290
     0
176
     1
 90
       50
176
     1
 62
   256
176
     0
 40
1.0
176
     0
 90
        2
176
     1
  1
strokes_ogs.tif
176
     1
290
     0
176
     1
 40
1.0
176
     1
 40
1.0
176
     1
  0
VISUALSTYLE
  5
63A5
102
{ACAD_REACTORS
330
638E
102
}
330
638E
100
AcDbVisualStyle
  2
Shaded with edges
 70
    26
177
     3
291
     0
 70
    58
 90
        2
176
     1
 90
        2
176
     1
 90
        1
176
     1
 90
        2
176
     1
 40
0.6
176
     1
 40
30.0
176
     1
 62
     7
420
 16777215
176
     1
 90
        1
176
     1
 90
       10
176
     1
 62
     7
176
     1
 62
   257
176
     1
 90
        2
176
     1
 90
        1
176
     1
 40
1.0
176
     1
 90
        8
176
     1
 62
   257
176
     1
 40
1.0
176
     1
 90
        1
176
     1
 90
        6
176
     1
 90
        2
176
     1
 62
     7
176
     1
 90
        3
176
     1
 90
        0
176
     1
 90
        0
176
     1
290
     0
176
     1
 90
        5
176
     1
 40
0.0
176
     1
 90
        0
176
     1
290
     0
176
     1
290
     1
176
     1
290
     1
176
     1
290
     0
176
     1
290
     0
176
     1
290
     0
176
     1
290
     0
176
     1
290
     0
176
     1
290
     0
176
     1
 90
       50
176
     1
 40
0.0
176
     1
 40
1.0
176
     1
 90
        0
176
     1
 62
    18
420
        0
176
     1
 90
       50
176
     1
 90
        3
176
     1
 62
     5
420
      255
176
     1
290
     0
176
     1
 90
       50
176
     1
 90
       50
176
     1
 90
       50
176
     1
290
     0
176
     1
 90
       50
176
     1
 62
   256
176
     0
 40
1.0
176
     0
 90
        2
176
     1
  1
strokes_ogs.tif
176
     1
290
     0
176
     1
 40
1.0
176
     1
 40
1.0
176
     1
  0
VISUALSTYLE
  5
63A2
102
{ACAD_REACTORS
330
638E
102
}
330
638E
100
AcDbVisualStyle
  2
Shades of Gray
 70
    23
177
     3
291
     0
 70
    58
 90
        2
176
     1
 90
        2
176
     1
 90
        3
176
     1
 90
        0
176
     1
 40
0.6
176
     1
 40
30.0
176
     1
 62
     7
420
 16777215
176
     1
 90
        2
176
     1
 90
        2
176
     1
 62
     7
176
     1
 62
     7
176
     1
 90
        1
176
     1
 90
        1
176
     1
 40
40.0
176
     1
 90
        8
176
     1
 62
     7
176
     1
 40
1.0
176
     1
 90
        1
176
     1
 90
        6
176
     1
 90
        2
176
     1
 62
     7
176
     1
 90
        3
176
     1
 90
        0
176
     1
 90
        0
176
     1
290
     0
176
     1
 90
        1
176
     1
 40
0.0
176
     1
 90
        0
176
     1
290
     0
176
     1
290
     1
176
     1
290
     1
176
     1
290
     0
176
     1
290
     0
176
     1
290
     0
176
     1
290
     0
176
     1
290
     0
176
     1
290
     0
176
     1
 90
       50
176
     1
 40
0.0
176
     1
 40
1.0
176
     1
 90
        0
176
     1
 62
    18
420
        0
176
     1
 90
       50
176
     1
 90
        3
176
     1
 62
     5
420
      255
176
     1
290
     0
176
     1
 90
       50
176
     1
 90
       50
176
     1
 90
       50
176
     1
290
     0
176
     1
 90
       50
176
     1
 62
   256
176
     0
 40
1.0
176
     0
 90
        2
176
     1
  1
strokes_ogs.tif
176
     1
290
     0
176
     1
 40
1.0
176
     1
 40
1.0
176
     1
  0
VISUALSTYLE
  5
63A3
102
{ACAD_REACTORS
330
638E
102
}
330
638E
100
AcDbVisualStyle
  2
Sketchy
 70
    24
177
     3
291
     0
 70
    58
 90
        1
176
     1
 90
        2
176
     1
 90
        2
176
     1
 90
        0
176
     1
 40
0.6
176
     1
 40
30.0
176
     1
 62
     7
420
 16777215
176
     1
 90
        2
176
     1
 90
        2
176
     1
 62
     7
176
     1
 62
     7
176
     1
 90
        1
176
     1
 90
        1
176
     1
 40
40.0
176
     1
 90
       11
176
     1
 62
     7
176
     1
 40
1.0
176
     1
 90
        1
176
     1
 90
        6
176
     1
 90
        2
176
     1
 62
     7
176
     1
 90
        6
176
     1
 90
        0
176
     1
 90
        0
176
     1
290
     0
176
     1
 90
        1
176
     1
 40
0.0
176
     1
 90
        0
176
     1
290
     0
176
     1
290
     1
176
     1
290
     1
176
     1
290
     0
176
     1
290
     0
176
     1
290
     0
176
     1
290
     0
176
     1
290
     0
176
     1
290
     0
176
     1
 90
       50
176
     1
 40
0.0
176
     1
 40
1.0
176
     1
 90
        0
176
     1
 62
    18
420
        0
176
     1
 90
       50
176
     1
 90
        3
176
     1
 62
     5
420
      255
176
     1
290
     0
176
     1
 90
       50
176
     1
 90
       50
176
     1
 90
       50
176
     1
290
     0
176
     1
 90
       50
176
     1
 62
   256
176
     0
 40
1.0
176
     0
 90
        2
176
     1
  1
strokes_ogs.tif
176
     1
290
     0
176
     1
 40
1.0
176
     1
 40
1.0
176
     1
  0
VISUALSTYLE
  5
639B
102
{ACAD_REACTORS
330
638E
102
}
330
638E
100
AcDbVisualStyle
  2
Thicken
 70
    13
177
     3
291
     1
 70
    58
 90
        2
176
     1
 90
        2
176
     1
 90
        0
176
     1
 90
        0
176
     1
 40
0.6
176
     1
 40
30.0
176
     1
 62
     7
420
 16777215
176
     1
 90
        1
176
     1
 90
        4
176
     1
 62
     7
176
     1
 62
   257
176
     1
 90
        1
176
     1
 90
        1
176
     1
 40
1.0
176
     1
 90
       12
176
     1
 62
     7
176
     1
 40
1.0
176
     1
 90
        1
176
     1
 90
        6
176
     1
 90
        2
176
     1
 62
     7
176
     1
 90
        5
176
     1
 90
        0
176
     1
 90
        0
176
     1
290
     0
176
     1
 90
        1
176
     1
 40
0.0
176
     1
 90
        0
176
     1
290
     0
176
     1
290
     1
176
     1
290
     1
176
     1
290
     0
176
     1
290
     0
176
     1
290
     0
176
     1
290
     0
176
     1
290
     0
176
     1
290
     0
176
     1
 90
       50
176
     1
 40
0.0
176
     1
 40
1.0
176
     1
 90
        0
176
     1
 62
    18
420
        0
176
     1
 90
       50
176
     1
 90
        3
176
     1
 62
     5
420
      255
176
     1
290
     0
176
     1
 90
       50
176
     1
 90
       50
176
     1
 90
       50
176
     1
290
     0
176
     1
 90
       50
176
     1
 62
   256
176
     0
 40
1.0
176
     0
 90
        2
176
     1
  1
strokes_ogs.tif
176
     1
290
     0
176
     1
 40
1.0
176
     1
 40
1.0
176
     1
  0
VISUALSTYLE
  5
6394
102
{ACAD_REACTORS
330
638E
102
}
330
638E
100
AcDbVisualStyle
  2
Wireframe
 70
     5
177
     3
291
     0
 70
    58
 90
        0
176
     1
 90
        2
176
     1
 90
        0
176
     1
 90
        0
176
     1
 40
0.6
176
     1
 40
30.0
176
     1
 62
     7
420
 16777215
176
     1
 90
        1
176
     1
 90
        4
176
     1
 62
     7
176
     1
 62
   257
176
     1
 90
        1
176
     1
 90
        1
176
     1
 40
1.0
176
     1
 90
        0
176
     1
 62
   257
176
     1
 40
1.0
176
     1
 90
        1
176
     1
 90
        6
176
     1
 90
        2
176
     1
 62
     7
176
     1
 90
        3
176
     1
 90
        0
176
     1
 90
        0
176
     1
290
     0
176
     1
 90
        1
176
     1
 40
0.0
176
     1
 90
        0
176
     1
290
     0
176
     1
290
     1
176
     1
290
     1
176
     1
290
     0
176
     1
290
     0
176
     1
290
     0
176
     1
290
     0
176
     1
290
     0
176
     1
290
     0
176
     1
 90
       50
176
     1
 40
0.0
176
     1
 40
1.0
176
     1
 90
        0
176
     1
 62
    18
420
        0
176
     1
 90
       50
176
     1
 90
        3
176
     1
 62
     5
420
      255
176
     1
290
     0
176
     1
 90
       50
176
     1
 90
       50
176
     1
 90
       50
176
     1
290
     0
176
     1
 90
       50
176
     1
 62
   256
176
     0
 40
1.0
176
     0
 90
        2
176
     1
  1
strokes_ogs.tif
176
     1
290
     0
176
     1
 40
1.0
176
     1
 40
1.0
176
     1
  0
VISUALSTYLE
  5
63A4
102
{ACAD_REACTORS
330
638E
102
}
330
638E
100
AcDbVisualStyle
  2
X-Ray
 70
    25
177
     3
291
     0
 70
    58
 90
        2
176
     1
 90
        2
176
     1
 90
        1
176
     1
 90
        1
176
     1
 40
0.5
176
     1
 40
30.0
176
     1
 62
     7
420
 16777215
176
     1
 90
        1
176
     1
 90
        0
176
     1
 62
     7
176
     1
 62
   257
176
     1
 90
        1
176
     1
 90
        1
176
     1
 40
1.0
176
     1
 90
        8
176
     1
 62
     7
176
     1
 40
1.0
176
     1
 90
        1
176
     1
 90
        6
176
     1
 90
        2
176
     1
 62
     7
176
     1
 90
        3
176
     1
 90
        0
176
     1
 90
        0
176
     1
290
     0
176
     1
 90
       13
176
     1
 40
0.0
176
     1
 90
        0
176
     1
290
     0
176
     1
290
     1
176
     1
290
     1
176
     1
290
     0
176
     1
290
     0
176
     1
290
     0
176
     1
290
     0
176
     1
290
     0
176
     1
290
     0
176
     1
 90
       50
176
     1
 40
0.0
176
     1
 40
1.0
176
     1
 90
        0
176
     1
 62
    18
420
        0
176
     1
 90
       50
176
     1
 90
        3
176
     1
 62
     5
420
      255
176
     1
290
     0
176
     1
 90
       50
176
     1
 90
       50
176
     1
 90
       50
176
     1
290
     0
176
     1
 90
       50
176
     1
 62
   256
176
     0
 40
1.0
176
     0
 90
        2
176
     1
  1
strokes_ogs.tif
176
     1
290
     0
176
     1
 40
1.0
176
     1
 40
1.0
176
     1
  0
DICTIONARYVAR
  5
63B8
102
{ACAD_REACTORS
330
63B7
102
}
330
63B7
100
DictionaryVariables
280
     0
  1
1:1_XREF_XREF
  0
DICTIONARYVAR
  5
63BD
102
{ACAD_REACTORS
330
63B7
102
}
330
63B7
100
DictionaryVariables
280
     0
  1
Standard
  0
DICTIONARYVAR
  5
63BC
102
{ACAD_REACTORS
330
63B7
102
}
330
63B7
100
DictionaryVariables
280
     0
  1
Standard
  0
DICTIONARYVAR
  5
63BE
102
{ACAD_REACTORS
330
63B7
102
}
330
63B7
100
DictionaryVariables
280
     0
  1
0
  0
XRECORD
  5
6330
102
{ACAD_REACTORS
330
632F
102
}
330
632F
100
AcDbXrecord
280
     1
1000
rInJVR9YY4Q8hfPWdUq5j5319
1070
     4
1070
     6
  0
DICTIONARY
  5
81BB
330
63AC
100
AcDbDictionary
280
     1
281
     1
  3
ACAD_ROUNDTRIP_2008_TABLESTYLE_CELLSTYLEMAP
360
81BC
  0
CELLSTYLEMAP
  5
81BC
102
{ACAD_REACTORS
330
81BB
102
}
330
81BB
100
AcDbCellStyleMap
 90
        3
300
CELLSTYLE
  1
TABLEFORMAT_BEGIN
 90
        5
170
     1
 91
        0
 92
    32768
 62
   257
 93
        1
300
CONTENTFORMAT
  1
CONTENTFORMAT_BEGIN
 90
        0
 91
        0
 92
        4
 93
        0
300

 40
0.0
140
1.0
 94
        5
 62
     0
340
6311
144
0.25
309
CONTENTFORMAT_END
171
     1
301
MARGIN
  1
CELLMARGIN_BEGIN
 40
0.06
 40
0.06
 40
0.06
 40
0.06
 40
0.06
 40
0.06
309
CELLMARGIN_END
 94
        6
 95
        1
302
GRIDFORMAT
  1
GRIDFORMAT_BEGIN
 90
        0
 91
        1
 62
     0
 92
       -2
340
6314
 93
        0
 40
0.045
309
GRIDFORMAT_END
 95
        2
302
GRIDFORMAT
  1
GRIDFORMAT_BEGIN
 90
        0
 91
        1
 62
     0
 92
       -2
340
6314
 93
        0
 40
0.045
309
GRIDFORMAT_END
 95
        4
302
GRIDFORMAT
  1
GRIDFORMAT_BEGIN
 90
        0
 91
        1
 62
     0
 92
       -2
340
6314
 93
        0
 40
0.045
309
GRIDFORMAT_END
 95
        8
302
GRIDFORMAT
  1
GRIDFORMAT_BEGIN
 90
        0
 91
        1
 62
     0
 92
       -2
340
6314
 93
        0
 40
0.045
309
GRIDFORMAT_END
 95
       16
302
GRIDFORMAT
  1
GRIDFORMAT_BEGIN
 90
        0
 91
        1
 62
     0
 92
       -2
340
6314
 93
        0
 40
0.045
309
GRIDFORMAT_END
 95
       32
302
GRIDFORMAT
  1
GRIDFORMAT_BEGIN
 90
        0
 91
        1
 62
     0
 92
       -2
340
6314
 93
        0
 40
0.045
309
GRIDFORMAT_END
309
TABLEFORMAT_END
  1
CELLSTYLE_BEGIN
 90
        1
 91
        1
300
_TITLE
309
CELLSTYLE_END
300
CELLSTYLE
  1
TABLEFORMAT_BEGIN
 90
        5
170
     1
 91
        0
 92
        0
 62
   257
 93
        1
300
CONTENTFORMAT
  1
CONTENTFORMAT_BEGIN
 90
        0
 91
        0
 92
        4
 93
        0
300

 40
0.0
140
1.0
 94
        5
 62
     0
340
6311
144
0.18
309
CONTENTFORMAT_END
171
     1
301
MARGIN
  1
CELLMARGIN_BEGIN
 40
0.06
 40
0.06
 40
0.06
 40
0.06
 40
0.06
 40
0.06
309
CELLMARGIN_END
 94
        6
 95
        1
302
GRIDFORMAT
  1
GRIDFORMAT_BEGIN
 90
        0
 91
        1
 62
     0
 92
       -2
340
6314
 93
        0
 40
0.045
309
GRIDFORMAT_END
 95
        2
302
GRIDFORMAT
  1
GRIDFORMAT_BEGIN
 90
        0
 91
        1
 62
     0
 92
       -2
340
6314
 93
        0
 40
0.045
309
GRIDFORMAT_END
 95
        4
302
GRIDFORMAT
  1
GRIDFORMAT_BEGIN
 90
        0
 91
        1
 62
     0
 92
       -2
340
6314
 93
        0
 40
0.045
309
GRIDFORMAT_END
 95
        8
302
GRIDFORMAT
  1
GRIDFORMAT_BEGIN
 90
        0
 91
        1
 62
     0
 92
       -2
340
6314
 93
        0
 40
0.045
309
GRIDFORMAT_END
 95
       16
302
GRIDFORMAT
  1
GRIDFORMAT_BEGIN
 90
        0
 91
        1
 62
     0
 92
       -2
340
6314
 93
        0
 40
0.045
309
GRIDFORMAT_END
 95
       32
302
GRIDFORMAT
  1
GRIDFORMAT_BEGIN
 90
        0
 91
        1
 62
     0
 92
       -2
340
6314
 93
        0
 40
0.045
309
GRIDFORMAT_END
309
TABLEFORMAT_END
  1
CELLSTYLE_BEGIN
 90
        2
 91
        1
300
_HEADER
309
CELLSTYLE_END
300
CELLSTYLE
  1
TABLEFORMAT_BEGIN
 90
        5
170
     1
 91
        0
 92
        0
 62
   257
 93
        1
300
CONTENTFORMAT
  1
CONTENTFORMAT_BEGIN
 90
        0
 91
        0
 92
        4
 93
        0
300

 40
0.0
140
1.0
 94
        2
 62
     0
340
6311
144
0.18
309
CONTENTFORMAT_END
171
     1
301
MARGIN
  1
CELLMARGIN_BEGIN
 40
0.06
 40
0.06
 40
0.06
 40
0.06
 40
0.06
 40
0.06
309
CELLMARGIN_END
 94
        6
 95
        1
302
GRIDFORMAT
  1
GRIDFORMAT_BEGIN
 90
        0
 91
        1
 62
     0
 92
       -2
340
6314
 93
        0
 40
0.045
309
GRIDFORMAT_END
 95
        2
302
GRIDFORMAT
  1
GRIDFORMAT_BEGIN
 90
        0
 91
        1
 62
     0
 92
       -2
340
6314
 93
        0
 40
0.045
309
GRIDFORMAT_END
 95
        4
302
GRIDFORMAT
  1
GRIDFORMAT_BEGIN
 90
        0
 91
        1
 62
     0
 92
       -2
340
6314
 93
        0
 40
0.045
309
GRIDFORMAT_END
 95
        8
302
GRIDFORMAT
  1
GRIDFORMAT_BEGIN
 90
        0
 91
        1
 62
     0
 92
       -2
340
6314
 93
        0
 40
0.045
309
GRIDFORMAT_END
 95
       16
302
GRIDFORMAT
  1
GRIDFORMAT_BEGIN
 90
        0
 91
        1
 62
     0
 92
       -2
340
6314
 93
        0
 40
0.045
309
GRIDFORMAT_END
 95
       32
302
GRIDFORMAT
  1
GRIDFORMAT_BEGIN
 90
        0
 91
        1
 62
     0
 92
       -2
340
6314
 93
        0
 40
0.045
309
GRIDFORMAT_END
309
TABLEFORMAT_END
  1
CELLSTYLE_BEGIN
 90
        3
 91
        2
300
_DATA
309
CELLSTYLE_END
  0
ENDSEC
  0
EOF
