  0
SECTION
  2
HEADER
  9
$ACADVER
  1
AC1014
  9
$ACADMAINTVER
 70
     9
  9
$DWGCODEPAGE
  3
ANSI_1250
  9
$INSBASE
 10
0.0
 20
0.0
 30
0.0
  9
$EXTMIN
 10
486.041244
 20
0.0
 30
0.0
  9
$EXTMAX
 10
687.671651
 20
297.0
 30
0.0
  9
$LIMMIN
 10
0.0
 20
0.0
  9
$LIMMAX
 10
420.0
 20
297.0
  9
$ORTHOMODE
 70
     0
  9
$REGENMODE
 70
     1
  9
$FILLMODE
 70
     1
  9
$QTEXTMODE
 70
     0
  9
$MIRRTEXT
 70
     1
  9
$DRAGMODE
 70
     2
  9
$LTSCALE
 40
6.0
  9
$OSMODE
 70
 13247
  9
$ATTMODE
 70
     1
  9
$TEXTSIZE
 40
0.2
  9
$TRACEWID
 40
0.05
  9
$TEXTSTYLE
  7
ITALIC
  9
$CLAYER
  8
WY
  9
$CELTYPE
  6
BYLAYER
  9
$CECOLOR
 62
   256
  9
$CELTSCALE
 40
1.0
  9
$DELOBJ
 70
     1
  9
$DISPSILH
 70
     0
  9
$DIMSCALE
 40
1.0
  9
$DIMASZ
 40
2.5
  9
$DIMEXO
 40
1.5
  9
$DIMDLI
 40
7.0
  9
$DIMRND
 40
0.0
  9
$DIMDLE
 40
0.0
  9
$DIMEXE
 40
1.5
  9
$DIMTP
 40
0.1
  9
$DIMTM
 40
0.0
  9
$DIMTXT
 40
1.5
  9
$DIMCEN
 40
-1.0
  9
$DIMTSZ
 40
0.0
  9
$DIMTOL
 70
     0
  9
$DIMLIM
 70
     0
  9
$DIMTIH
 70
     0
  9
$DIMTOH
 70
     1
  9
$DIMSE1
 70
     0
  9
$DIMSE2
 70
     0
  9
$DIMTAD
 70
     1
  9
$DIMZIN
 70
     8
  9
$DIMBLK
  1

  9
$DIMASO
 70
     1
  9
$DIMSHO
 70
     0
  9
$DIMPOST
  1

  9
$DIMAPOST
  1

  9
$DIMALT
 70
     0
  9
$DIMALTD
 70
     2
  9
$DIMALTF
 40
25.4
  9
$DIMLFAC
 40
1.0
  9
$DIMTOFL
 70
     1
  9
$DIMTVP
 40
0.0
  9
$DIMTIX
 70
     1
  9
$DIMSOXD
 70
     0
  9
$DIMSAH
 70
     0
  9
$DIMBLK1
  1

  9
$DIMBLK2
  1

  9
$DIMSTYLE
  2
STANDARD
  9
$DIMCLRD
 70
     0
  9
$DIMCLRE
 70
     0
  9
$DIMCLRT
 70
     0
  9
$DIMTFAC
 40
1.0
  9
$DIMGAP
 40
0.75
  9
$DIMJUST
 70
     0
  9
$DIMSD1
 70
     0
  9
$DIMSD2
 70
     0
  9
$DIMTOLJ
 70
     1
  9
$DIMTZIN
 70
     8
  9
$DIMALTZ
 70
     0
  9
$DIMALTTZ
 70
     0
  9
$DIMFIT
 70
     4
  9
$DIMUPT
 70
     0
  9
$DIMUNIT
 70
     2
  9
$DIMDEC
 70
     2
  9
$DIMTDEC
 70
     4
  9
$DIMALTU
 70
     2
  9
$DIMALTTD
 70
     2
  9
$DIMTXSTY
  7
STANDARD
  9
$DIMAUNIT
 70
     0
  9
$LUNITS
 70
     2
  9
$LUPREC
 70
     2
  9
$SKETCHINC
 40
0.1
  9
$FILLETRAD
 40
2.5
  9
$AUNITS
 70
     0
  9
$AUPREC
 70
     2
  9
$MENU
  1
ACAD
  9
$ELEVATION
 40
0.0
  9
$PELEVATION
 40
0.0
  9
$THICKNESS
 40
0.0
  9
$LIMCHECK
 70
     0
  9
$CHAMFERA
 40
0.0
  9
$CHAMFERB
 40
0.0
  9
$CHAMFERC
 40
0.0
  9
$CHAMFERD
 40
0.0
  9
$SKPOLY
 70
     0
  9
$TDCREATE
 40
2448721.39913669
  9
$TDUPDATE
 40
2457556.412018808
  9
$TDINDWG
 40
1.5913850926
  9
$TDUSRTIMER
 40
2457556.323974907
  9
$USRTIMER
 70
     1
  9
$ANGBASE
 50
0.0
  9
$ANGDIR
 70
     0
  9
$PDMODE
 70
     0
  9
$PDSIZE
 40
0.0
  9
$PLINEWID
 40
0.5
  9
$COORDS
 70
     1
  9
$SPLFRAME
 70
     0
  9
$SPLINETYPE
 70
     6
  9
$SPLINESEGS
 70
     8
  9
$ATTDIA
 70
     0
  9
$ATTREQ
 70
     1
  9
$HANDLING
 70
     1
  9
$HANDSEED
  5
1806C
  9
$SURFTAB1
 70
     6
  9
$SURFTAB2
 70
     6
  9
$SURFTYPE
 70
     6
  9
$SURFU
 70
     6
  9
$SURFV
 70
     6
  9
$UCSNAME
  2

  9
$UCSORG
 10
0.0
 20
0.0
 30
0.0
  9
$UCSXDIR
 10
1.0
 20
0.0
 30
0.0
  9
$UCSYDIR
 10
0.0
 20
1.0
 30
0.0
  9
$PUCSNAME
  2

  9
$PUCSORG
 10
0.0
 20
0.0
 30
0.0
  9
$PUCSXDIR
 10
1.0
 20
0.0
 30
0.0
  9
$PUCSYDIR
 10
0.0
 20
1.0
 30
0.0
  9
$USERI1
 70
     0
  9
$USERI2
 70
     0
  9
$USERI3
 70
     0
  9
$USERI4
 70
     0
  9
$USERI5
 70
     0
  9
$USERR1
 40
0.0
  9
$USERR2
 40
0.0
  9
$USERR3
 40
0.0
  9
$USERR4
 40
0.0
  9
$USERR5
 40
0.0
  9
$WORLDVIEW
 70
     1
  9
$SHADEDGE
 70
     3
  9
$SHADEDIF
 70
    70
  9
$TILEMODE
 70
     1
  9
$MAXACTVP
 70
    16
  9
$PINSBASE
 10
0.0
 20
0.0
 30
0.0
  9
$PLIMCHECK
 70
     0
  9
$PEXTMIN
 10
1.000000000000000E+20
 20
1.000000000000000E+20
 30
1.000000000000000E+20
  9
$PEXTMAX
 10
-1.000000000000000E+20
 20
-1.000000000000000E+20
 30
-1.000000000000000E+20
  9
$PLIMMIN
 10
0.0
 20
0.0
  9
$PLIMMAX
 10
0.0
 20
0.0
  9
$UNITMODE
 70
     0
  9
$VISRETAIN
 70
     0
  9
$PLINEGEN
 70
     0
  9
$PSLTSCALE
 70
     0
  9
$TREEDEPTH
 70
  3020
  9
$PICKSTYLE
 70
     1
  9
$CMLSTYLE
  2
STANDARD
  9
$CMLJUST
 70
     0
  9
$CMLSCALE
 40
1.0
  9
$PROXYGRAPHICS
 70
     1
  9
$MEASUREMENT
 70
     0
  0
ENDSEC
  0
SECTION
  2
CLASSES
  0
CLASS
  1
HATCH
  2
AcDbHatch
  3
ObjectDBX Classes
 90
        0
280
     0
281
     1
  0
CLASS
  1
LWPOLYLINE
  2
AcDbPolyline
  3
ObjectDBX Classes
 90
        0
280
     0
281
     1
  0
CLASS
  1
DICTIONARYVAR
  2
AcDbDictionaryVar
  3
ObjectDBX Classes
 90
        0
280
     0
281
     0
  0
CLASS
  1
XRECORD
  2
AcDbXrecord
  3
ObjectDBX Classes
 90
        0
280
     0
281
     0
  0
CLASS
  1
SCALE
  2
AcDbScale
  3
ObjectDBX Classes
 90
     1153
280
     0
281
     0
  0
CLASS
  1
VISUALSTYLE
  2
AcDbVisualStyle
  3
ObjectDBX Classes
 90
     4095
280
     0
281
     0
  0
CLASS
  1
MATERIAL
  2
AcDbMaterial
  3
ObjectDBX Classes
 90
     1153
280
     0
281
     0
  0
CLASS
  1
TABLESTYLE
  2
AcDbTableStyle
  3
ObjectDBX Classes
 90
     4095
280
     0
281
     0
  0
CLASS
  1
MLEADERSTYLE
  2
AcDbMLeaderStyle
  3
ACDB_MLEADERSTYLE_CLASS
 90
     4095
280
     0
281
     0
  0
CLASS
  1
SUN
  2
AcDbSun
  3
SCENEOE
 90
     1153
280
     0
281
     0
  0
CLASS
  1
RASTERVARIABLES
  2
AcDbRasterVariables
  3
ISM
 90
        0
280
     0
281
     0
  0
CLASS
  1
DIMASSOC
  2
AcDbDimAssoc
  3
"AcDbDimAssoc|Product Desc:     AcDim ARX App For Dimension|Company:          Autodesk, Inc.|WEB Address:      www.autodesk.com"
 90
        0
280
     0
281
     0
  0
CLASS
  1
ACDBDICTIONARYWDFLT
  2
AcDbDictionaryWithDefault
  3
ObjectDBX Classes
 90
        0
280
     0
281
     0
  0
ENDSEC
  0
SECTION
  2
TABLES
  0
TABLE
  2
VPORT
  5
8
330
0
100
AcDbSymbolTable
 70
     1
  0
VPORT
  5
F0F7
330
8
100
AcDbSymbolTableRecord
100
AcDbViewportTableRecord
  2
*ACTIVE
 70
     0
 10
0.0
 20
0.0
 11
1.0
 21
1.0
 12
586.8564475000001
 22
148.5
 13
0.0
 23
0.0
 14
1.0
 24
1.0
 15
5.0
 25
5.0
 16
0.0
 26
0.0
 36
1.0
 17
0.0
 27
0.0
 37
0.0
 40
302.94
 41
2.811127379209371
 42
50.0
 43
0.0
 44
0.0
 50
0.0
 51
0.0
 71
    16
 72
   200
 73
     1
 74
     0
 75
     0
 76
     0
 77
     0
 78
     0
  0
ENDTAB
  0
TABLE
  2
LTYPE
  5
5
330
0
100
AcDbSymbolTable
 70
     5
  0
LTYPE
  5
12
330
5
100
AcDbSymbolTableRecord
100
AcDbLinetypeTableRecord
  2
BYBLOCK
 70
     0
  3

 72
    65
 73
     0
 40
0.0
  0
LTYPE
  5
13
330
5
100
AcDbSymbolTableRecord
100
AcDbLinetypeTableRecord
  2
BYLAYER
 70
     0
  3

 72
    65
 73
     0
 40
0.0
  0
LTYPE
  5
14
330
5
100
AcDbSymbolTableRecord
100
AcDbLinetypeTableRecord
  2
CONTINUOUS
 70
     0
  3
Solid line
 72
    65
 73
     0
 40
0.0
  0
LTYPE
  5
1D
330
5
100
AcDbSymbolTableRecord
100
AcDbLinetypeTableRecord
  2
CENTER
 70
     0
  3
____ _ ____ _ ____ _ ____ _ ____ _ ____ _ ____
 72
    65
 73
     4
 40
2.0
 49
1.25
 74
     0
 49
-0.25
 74
     0
 49
0.25
 74
     0
 49
-0.25
 74
     0
  0
LTYPE
  5
1E
330
5
100
AcDbSymbolTableRecord
100
AcDbLinetypeTableRecord
  2
HIDDEN
 70
     0
  3
_ _ _ _ _ _ _ _ _ _ _ _ _ _ _ _ _ _ _ _ _ _ _
 72
    65
 73
     2
 40
0.375
 49
0.25
 74
     0
 49
-0.125
 74
     0
  0
LTYPE
  5
8093
330
5
100
AcDbSymbolTableRecord
100
AcDbLinetypeTableRecord
  2
PHANTOM
 70
     0
  3
Phantom ______  __  __  ______  __  __  ______
 72
    65
 73
     6
 40
12.7
 49
6.35
 74
     0
 49
-1.27
 74
     0
 49
1.27
 74
     0
 49
-1.27
 74
     0
 49
1.27
 74
     0
 49
-1.27
 74
     0
  0
LTYPE
  5
1187C
330
5
100
AcDbSymbolTableRecord
100
AcDbLinetypeTableRecord
  2
CENTERX2
 70
     0
  3
Center (2x) ________  __  ________  __  _____
 72
    65
 73
     4
 40
20.32
 49
12.7
 74
     0
 49
-2.54
 74
     0
 49
2.54
 74
     0
 49
-2.54
 74
     0
  0
ENDTAB
  0
TABLE
  2
LAYER
  5
2
102
{ACAD_XDICTIONARY
360
13241
102
}
330
0
100
AcDbSymbolTable
 70
     8
  0
LAYER
  5
F
330
2
100
AcDbSymbolTableRecord
100
AcDbLayerTableRecord
  2
0
 70
     0
 62
     7
  6
CONTINUOUS
  0
LAYER
  5
21
330
2
100
AcDbSymbolTableRecord
100
AcDbLayerTableRecord
  2
1
 70
     0
 62
     3
  6
CONTINUOUS
  0
LAYER
  5
22
330
2
100
AcDbSymbolTableRecord
100
AcDbLayerTableRecord
  2
2
 70
     0
 62
     6
  6
CONTINUOUS
  0
LAYER
  5
23
330
2
100
AcDbSymbolTableRecord
100
AcDbLayerTableRecord
  2
3
 70
     0
 62
     4
  6
HIDDEN
  0
LAYER
  5
24
330
2
100
AcDbSymbolTableRecord
100
AcDbLayerTableRecord
  2
OSIE
 70
     0
 62
     2
  6
CENTER
  0
LAYER
  5
25
330
2
100
AcDbSymbolTableRecord
100
AcDbLayerTableRecord
  2
WY
 70
     0
 62
     1
  6
CONTINUOUS
  0
LAYER
  5
26
330
2
100
AcDbSymbolTableRecord
100
AcDbLayerTableRecord
  2
DEFPOINTS
 70
     0
 62
     7
  6
CONTINUOUS
  0
LAYER
  5
464
330
2
100
AcDbSymbolTableRecord
100
AcDbLayerTableRecord
  2
WYMIARY
 70
     0
 62
     1
  6
CONTINUOUS
  0
ENDTAB
  0
TABLE
  2
STYLE
  5
3
330
0
100
AcDbSymbolTable
 70
     4
  0
STYLE
  5
10
330
3
100
AcDbSymbolTableRecord
100
AcDbTextStyleTableRecord
  2
STANDARD
 70
     0
 40
0.0
 41
1.0
 50
0.0
 71
     0
 42
6.0
  3
txt
  4

  0
STYLE
  5
1C
330
3
100
AcDbSymbolTableRecord
100
AcDbTextStyleTableRecord
  2
ITALIC
 70
     0
 40
0.0
 41
1.0
 50
15.0
 71
     0
 42
0.2
  3
simplex
  4

  0
STYLE
  5
C512
330
3
100
AcDbSymbolTableRecord
100
AcDbTextStyleTableRecord
  2
SLDTEXTSTYLE2
 70
     0
 40
0.0
 41
0.7
 50
0.0
 71
     0
 42
0.2
  3
TXT
  4

  0
STYLE
  5
C513
330
3
100
AcDbSymbolTableRecord
100
AcDbTextStyleTableRecord
  2
SLDTEXTSTYLE6
 70
     0
 40
0.0
 41
0.605
 50
0.0
 71
     0
 42
0.2
  3
TXT
  4

  0
ENDTAB
  0
TABLE
  2
VIEW
  5
6
330
0
100
AcDbSymbolTable
 70
     0
  0
ENDTAB
  0
TABLE
  2
UCS
  5
7
330
0
100
AcDbSymbolTable
 70
     0
  0
ENDTAB
  0
TABLE
  2
APPID
  5
9
330
0
100
AcDbSymbolTable
 70
     5
  0
APPID
  5
11
330
9
100
AcDbSymbolTableRecord
100
AcDbRegAppTableRecord
  2
ACAD
 70
     0
  0
APPID
  5
15DA9
330
9
100
AcDbSymbolTableRecord
100
AcDbRegAppTableRecord
  2
ACAD_DSTYLE_DIMRADIAL_EXTE
 70
     0
  0
APPID
  5
16CFB
330
9
100
AcDbSymbolTableRecord
100
AcDbRegAppTableRecord
  2
ACAD_DSTYLE_DIMRADIAL_EXT0
 70
     0
  0
APPID
  5
176C1
330
9
100
AcDbSymbolTableRecord
100
AcDbRegAppTableRecord
  2
ACAD_DSTYLE_DIMRADIAL_EXT1
 70
     0
  0
APPID
  5
17F66
330
9
100
AcDbSymbolTableRecord
100
AcDbRegAppTableRecord
  2
ACAD_DSTYLE_DIMRADIAL_EXT2
 70
     0
  0
ENDTAB
  0
TABLE
  2
DIMSTYLE
  5
A
330
0
100
AcDbSymbolTable
 70
     2
  0
DIMSTYLE
105
3B
102
{ACAD_REACTORS
330
17ED1
330
17EFE
330
17FC8
330
17FD9
330
1805B
102
}
330
A
100
AcDbSymbolTableRecord
100
AcDbDimStyleTableRecord
  2
STANDARD
 70
     0
  3

  4

  5

  6

  7

 40
1.0
 41
3.5
 42
1.5
 43
7.0
 44
1.5
 45
0.0
 46
0.0
 47
0.1
 48
0.0
140
3.6
141
-1.0
142
0.0
143
25.4
144
1.0
145
0.0
146
1.0
147
1.5
 71
     0
 72
     0
 73
     0
 74
     0
 75
     0
 76
     0
 77
     1
 78
     0
170
     0
171
     2
172
     0
173
     0
174
     0
175
     0
176
     0
177
     0
178
     0
270
     2
271
     2
272
     4
273
     2
274
     2
340
10
275
     0
280
     0
281
     0
282
     0
283
     1
284
     0
285
     0
286
     0
287
     3
288
     0
  0
DIMSTYLE
105
1187D
330
A
100
AcDbSymbolTableRecord
100
AcDbDimStyleTableRecord
  2
ISO-25
 70
     0
  3

  4

  5

  6

  7

 40
1.0
 41
2.5
 42
0.625
 43
3.75
 44
1.25
 45
0.0
 46
0.0
 47
0.0
 48
0.0
140
2.5
141
2.5
142
0.0
143
0.03937007874016
144
1.0
145
0.0
146
1.0
147
0.625
 71
     0
 72
     0
 73
     0
 74
     0
 75
     0
 76
     0
 77
     1
 78
     8
170
     0
171
     3
172
     1
173
     0
174
     0
175
     0
176
     0
177
     0
178
     0
270
     2
271
     2
272
     2
273
     2
274
     3
340
10
275
     0
280
     0
281
     0
282
     0
283
     0
284
     8
285
     0
286
     0
287
     3
288
     0
  0
ENDTAB
  0
TABLE
  2
BLOCK_RECORD
  5
1
330
0
100
AcDbSymbolTable
 70
   183
  0
BLOCK_RECORD
  5
18
330
1
100
AcDbSymbolTableRecord
100
AcDbBlockTableRecord
  2
*MODEL_SPACE
  0
BLOCK_RECORD
  5
15
330
1
100
AcDbSymbolTableRecord
100
AcDbBlockTableRecord
  2
*PAPER_SPACE
  0
BLOCK_RECORD
  5
7EA0
330
1
100
AcDbSymbolTableRecord
100
AcDbBlockTableRecord
  2
A$C312173AA
  0
BLOCK_RECORD
  5
C4F7
330
1
100
AcDbSymbolTableRecord
100
AcDbBlockTableRecord
  2
_DOT
  0
BLOCK_RECORD
  5
13341
330
1
100
AcDbSymbolTableRecord
100
AcDbBlockTableRecord
  2
_NONE
  0
BLOCK_RECORD
  5
13346
330
1
100
AcDbSymbolTableRecord
100
AcDbBlockTableRecord
  2
_OBLIQUE
  0
BLOCK_RECORD
  5
17DB1
330
1
100
AcDbSymbolTableRecord
100
AcDbBlockTableRecord
  2
SW_CENTERMARKSYMBOL_0
  0
BLOCK_RECORD
  5
17ED4
330
1
100
AcDbSymbolTableRecord
100
AcDbBlockTableRecord
  2
*D172
  0
BLOCK_RECORD
  5
17F01
330
1
100
AcDbSymbolTableRecord
100
AcDbBlockTableRecord
  2
*D175
  0
BLOCK_RECORD
  5
17F81
330
1
100
AcDbSymbolTableRecord
100
AcDbBlockTableRecord
  2
*D177
  0
BLOCK_RECORD
  5
17FCB
330
1
100
AcDbSymbolTableRecord
100
AcDbBlockTableRecord
  2
*D179
  0
BLOCK_RECORD
  5
17FDC
330
1
100
AcDbSymbolTableRecord
100
AcDbBlockTableRecord
  2
*D180
  0
BLOCK_RECORD
  5
18036
330
1
100
AcDbSymbolTableRecord
100
AcDbBlockTableRecord
  2
*D181
  0
BLOCK_RECORD
  5
1805E
330
1
100
AcDbSymbolTableRecord
100
AcDbBlockTableRecord
  2
*D182
  0
ENDTAB
  0
ENDSEC
  0
SECTION
  2
BLOCKS
  0
BLOCK
  5
29
330
18
100
AcDbEntity
  8
0
100
AcDbBlockBegin
  2
*MODEL_SPACE
 70
     0
 10
0.0
 20
0.0
 30
0.0
  3
*MODEL_SPACE
  1

  0
ENDBLK
  5
2A
330
18
100
AcDbEntity
  8
0
100
AcDbBlockEnd
  0
BLOCK
  5
27
330
15
100
AcDbEntity
 67
     1
  8
0
100
AcDbBlockBegin
  2
*PAPER_SPACE
 70
     0
 10
0.0
 20
0.0
 30
0.0
  3
*PAPER_SPACE
  1

  0
ENDBLK
  5
28
330
15
100
AcDbEntity
 67
     1
  8
0
100
AcDbBlockEnd
  0
BLOCK
  5
7EAF
330
7EA0
100
AcDbEntity
  8
0
100
AcDbBlockBegin
  2
A$C312173AA
 70
     0
 10
0.0
 20
0.0
 30
0.0
  3
A$C312173AA
  1
A$C312173AA
  0
HATCH
  5
7EA1
330
7EA0
100
AcDbEntity
  8
1
100
AcDbHatch
 10
0.0
 20
0.0
 30
0.0
210
0.0
220
0.0
230
1.0
  2
SOLID
 70
     1
 71
     1
 91
        1
 92
        7
 72
     0
 73
     1
 93
        4
 10
2.724690422176706
 20
5.013136352600668
 10
5.058157912552363
 20
1.095673373491763
 10
5.076413282682712
 20
1.095673373491763
 10
7.382430158279476
 20
5.013136352600668
 97
        4
330
7EA6
330
7EAA
330
7EA5
330
7EA8
 75
     0
 76
     1
 47
0.057765
 98
        1
 10
5.461965
 20
4.283681
  0
HATCH
  5
7EA2
330
7EA0
100
AcDbEntity
  8
1
100
AcDbHatch
 10
0.0
 20
0.0
 30
0.0
210
0.0
220
0.0
230
1.0
  2
SOLID
 70
     1
 71
     1
 91
        1
 92
        7
 72
     0
 73
     1
 93
        4
 10
2.724690422176706
 20
5.013136352600668
 10
5.058157912552363
 20
1.095673373491763
 10
5.076413282682712
 20
1.095673373491763
 10
7.382430158279476
 20
5.013136352600668
 97
        4
330
7EA4
330
7EA9
330
7EA3
330
7EA7
 75
     0
 76
     1
 47
0.057765
 98
        1
 10
5.461965
 20
4.283681
  0
LINE
  5
7EA3
102
{ACAD_REACTORS
330
7EA2
102
}
330
7EA0
100
AcDbEntity
  8
1
100
AcDbLine
 10
7.376974
 20
1.095673
 30
0.0
 11
2.719445
 21
1.095673
 31
0.0
  0
LINE
  5
7EA4
102
{ACAD_REACTORS
330
7EA2
102
}
330
7EA0
100
AcDbEntity
  8
1
100
AcDbLine
 10
2.716507
 20
5.013136
 30
0.0
 11
7.38243
 21
5.013136
 31
0.0
  0
LINE
  5
7EA5
102
{ACAD_REACTORS
330
7EA1
102
}
330
7EA0
100
AcDbEntity
  8
1
100
AcDbLine
 10
7.376974
 20
1.095673
 30
0.0
 11
2.719445
 21
1.095673
 31
0.0
  0
LINE
  5
7EA6
102
{ACAD_REACTORS
330
7EA1
102
}
330
7EA0
100
AcDbEntity
  8
1
100
AcDbLine
 10
2.716507
 20
5.013136
 30
0.0
 11
7.38243
 21
5.013136
 31
0.0
  0
LINE
  5
7EA7
102
{ACAD_REACTORS
330
7EA2
102
}
330
7EA0
100
AcDbEntity
  8
1
100
AcDbLine
 10
7.38243
 20
5.013136
 30
0.0
 11
5.049469
 21
1.0499
 31
0.0
  0
LINE
  5
7EA8
102
{ACAD_REACTORS
330
7EA1
102
}
330
7EA0
100
AcDbEntity
  8
1
100
AcDbLine
 10
7.38243
 20
5.013136
 30
0.0
 11
5.049469
 21
1.0499
 31
0.0
  0
LINE
  5
7EA9
102
{ACAD_REACTORS
330
7EA2
102
}
330
7EA0
100
AcDbEntity
  8
1
100
AcDbLine
 10
5.048209
 20
1.112376
 30
0.0
 11
2.719445
 21
5.021942
 31
0.0
  0
LINE
  5
7EAA
102
{ACAD_REACTORS
330
7EA1
102
}
330
7EA0
100
AcDbEntity
  8
1
100
AcDbLine
 10
5.048209
 20
1.112376
 30
0.0
 11
2.719445
 21
5.021942
 31
0.0
  0
LINE
  5
7EAB
330
7EA0
100
AcDbEntity
  8
1
100
AcDbLine
 10
3.176777
 20
2.240563
 30
0.0
 11
1.859991
 21
0.714974
 31
0.0
  0
LINE
  5
7EAC
330
7EA0
100
AcDbEntity
  8
1
100
AcDbLine
 10
1.935572
 20
2.29404
 30
0.0
 11
0.618786
 21
0.768452
 31
0.0
  0
HATCH
  5
7EAD
330
7EA0
100
AcDbEntity
  8
1
100
AcDbHatch
 10
0.0
 20
0.0
 30
0.0
210
0.0
220
0.0
230
1.0
  2
SOLID
 70
     1
 71
     0
 91
        1
 92
        7
 72
     0
 73
     1
 93
        3
 10
2.13435432304297
 20
0.5079866047149438
 10
1.594971700028992
 20
0.9149117569309055
 10
1.241204476589189
 20
0.0000001052034975
 97
        0
 75
     0
 76
     1
 47
0.009825
 98
        1
 10
1.617082
 20
0.370646
  0
HATCH
  5
7EAE
330
7EA0
100
AcDbEntity
  8
1
100
AcDbHatch
 10
0.0
 20
0.0
 30
0.0
210
0.0
220
0.0
230
1.0
  2
SOLID
 70
     1
 71
     0
 91
        1
 92
        7
 72
     0
 73
     1
 93
        3
 10
0.8931496793437361
 20
0.5614642425206
 10
0.3537670563297865
 20
0.9683893947365334
 10
-0.0000001671100733
 20
0.0534777430091538
 97
        0
 75
     0
 76
     1
 47
0.009825
 98
        1
 10
0.375878
 20
0.424123
  0
ENDBLK
  5
7EB0
330
7EA0
100
AcDbEntity
  8
0
100
AcDbBlockEnd
  0
BLOCK
  5
C4FC
330
C4F7
100
AcDbEntity
  8
0
100
AcDbBlockBegin
  2
_DOT
 70
     0
 10
0.0
 20
0.0
 30
0.0
  3
_DOT
  1
_DOT
  0
LWPOLYLINE
  5
C4F8
330
C4F7
100
AcDbEntity
  8
0
  6
BYBLOCK
 62
     0
100
AcDbPolyline
 90
        2
 70
     1
 43
0.5
 10
-0.25
 20
0.0
 42
1.0
 10
0.25
 20
0.0
 42
1.0
  0
LINE
  5
C4F9
330
C4F7
100
AcDbEntity
  8
0
  6
BYBLOCK
 62
     0
100
AcDbLine
 10
-0.5
 20
0.0
 30
0.0
 11
-1.0
 21
0.0
 31
0.0
  0
ENDBLK
  5
C4FD
330
C4F7
100
AcDbEntity
  8
0
100
AcDbBlockEnd
  0
BLOCK
  5
13342
330
13341
100
AcDbEntity
  8
0
100
AcDbBlockBegin
  2
_NONE
 70
     0
 10
0.0
 20
0.0
 30
0.0
  3
_NONE
  1
_NONE
  0
ENDBLK
  5
13343
330
13341
100
AcDbEntity
  8
0
100
AcDbBlockEnd
  0
BLOCK
  5
13347
330
13346
100
AcDbEntity
  8
0
100
AcDbBlockBegin
  2
_OBLIQUE
 70
     0
 10
0.0
 20
0.0
 30
0.0
  3
_OBLIQUE
  1
_OBLIQUE
  0
LINE
  5
13349
330
13346
100
AcDbEntity
  8
0
  6
BYBLOCK
 62
     0
100
AcDbLine
 10
-0.5
 20
-0.5
 30
0.0
 11
0.5
 21
0.5
 31
0.0
  0
ENDBLK
  5
13348
330
13346
100
AcDbEntity
  8
0
100
AcDbBlockEnd
  0
BLOCK
  5
17DB2
330
17DB1
100
AcDbEntity
  8
0
100
AcDbBlockBegin
  2
SW_CENTERMARKSYMBOL_0
 70
     0
 10
0.0
 20
0.0
 30
0.0
  3
SW_CENTERMARKSYMBOL_0
  1
SW_CENTERMARKSYMBOL_0
  0
LINE
  5
17DB3
330
17DB1
100
AcDbEntity
  8
0
  6
CONTINUOUS
 62
     0
100
AcDbLine
 10
0.0
 20
0.0
 30
0.0
 11
0.0
 21
2.500000000000002
 31
0.0
  0
LINE
  5
17DB4
330
17DB1
100
AcDbEntity
  8
0
  6
CONTINUOUS
 62
     0
100
AcDbLine
 10
0.0
 20
0.0
 30
0.0
 11
-2.500000000000002
 21
0.0
 31
0.0
  0
LINE
  5
17DB5
330
17DB1
100
AcDbEntity
  8
0
  6
CONTINUOUS
 62
     0
100
AcDbLine
 10
0.0
 20
0.0
 30
0.0
 11
0.0
 21
-2.500000000000002
 31
0.0
  0
LINE
  5
17DB6
330
17DB1
100
AcDbEntity
  8
0
  6
CONTINUOUS
 62
     0
100
AcDbLine
 10
0.0
 20
0.0
 30
0.0
 11
2.500000000000002
 21
0.0
 31
0.0
  0
LINE
  5
17DB7
330
17DB1
100
AcDbEntity
  8
0
  6
CONTINUOUS
 62
     0
100
AcDbLine
 10
0.0
 20
2.500000000000002
 30
0.0
 11
0.0
 21
2.900000000000014
 31
0.0
  0
LINE
  5
17DB8
330
17DB1
100
AcDbEntity
  8
0
  6
CONTINUOUS
 62
     0
100
AcDbLine
 10
-2.500000000000002
 20
0.0
 30
0.0
 11
-2.9
 21
0.0
 31
0.0
  0
LINE
  5
17DB9
330
17DB1
100
AcDbEntity
  8
0
  6
CONTINUOUS
 62
     0
100
AcDbLine
 10
0.0
 20
-2.500000000000002
 30
0.0
 11
0.0
 21
-2.899999999999986
 31
0.0
  0
LINE
  5
17DBA
330
17DB1
100
AcDbEntity
  8
0
  6
CONTINUOUS
 62
     0
100
AcDbLine
 10
2.500000000000002
 20
0.0
 30
0.0
 11
2.9
 21
0.0
 31
0.0
  0
ENDBLK
  5
17DBB
330
17DB1
100
AcDbEntity
  8
0
100
AcDbBlockEnd
  0
BLOCK
  5
17ED5
330
17ED4
100
AcDbEntity
  8
0
100
AcDbBlockBegin
  2
*D172
 70
     1
 10
0.0
 20
0.0
 30
0.0
  3
*D172
  1
*D172
  0
LINE
  5
17ED7
330
17ED4
100
AcDbEntity
  8
WY
 62
     0
100
AcDbLine
 10
545.0035971227246
 20
189.6323903562784
 30
0.0
 11
545.0035971227246
 21
197.1429405039314
 31
0.0
  0
LINE
  5
17ED8
330
17ED4
100
AcDbEntity
  8
WY
 62
     0
100
AcDbLine
 10
558.5024122264617
 20
163.9986958362331
 30
0.0
 11
558.5024122264617
 21
197.1429405039314
 31
0.0
  0
LINE
  5
17ED9
330
17ED4
100
AcDbEntity
  8
WY
 62
     0
100
AcDbLine
 10
547.5035971227246
 20
195.6429405039314
 30
0.0
 11
556.0024122264617
 21
195.6429405039314
 31
0.0
  0
SOLID
  5
17EDA
330
17ED4
100
AcDbEntity
  8
WY
 62
     0
100
AcDbTrace
 10
547.5035971227246
 20
196.059607170598
 30
0.0
 11
547.5035971227246
 21
195.2262738372647
 31
0.0
 12
545.0035971227246
 22
195.6429405039314
 32
0.0
 13
545.0035971227246
 23
195.6429405039314
 33
0.0
  0
SOLID
  5
17EDB
330
17ED4
100
AcDbEntity
  8
WY
 62
     0
100
AcDbTrace
 10
556.0024122264617
 20
195.2262738372647
 30
0.0
 11
556.0024122264617
 21
196.059607170598
 31
0.0
 12
558.5024122264617
 22
195.6429405039314
 32
0.0
 13
558.5024122264617
 23
195.6429405039314
 33
0.0
  0
MTEXT
  5
17EDC
330
17ED4
100
AcDbEntity
  8
WY
 62
     0
100
AcDbMText
 10
551.7530046745932
 20
197.2679405039314
 30
0.0
 40
1.5
 41
0.0
 71
     5
 72
     1
  1
\A1;13.5+0,5
  0
POINT
  5
17EDD
330
17ED4
100
AcDbEntity
  8
DEFPOINTS
 62
     0
100
AcDbPoint
 10
545.0035971227246
 20
188.1323903562784
 30
0.0
  0
POINT
  5
17EDE
330
17ED4
100
AcDbEntity
  8
DEFPOINTS
 62
     0
100
AcDbPoint
 10
558.5024122264617
 20
162.4986958362331
 30
0.0
  0
POINT
  5
17EDF
330
17ED4
100
AcDbEntity
  8
DEFPOINTS
 62
     0
100
AcDbPoint
 10
558.5024122264617
 20
195.6429405039314
 30
0.0
  0
ENDBLK
  5
17ED6
330
17ED4
100
AcDbEntity
  8
0
100
AcDbBlockEnd
  0
BLOCK
  5
17F02
330
17F01
100
AcDbEntity
  8
0
100
AcDbBlockBegin
  2
*D175
 70
     1
 10
0.0
 20
0.0
 30
0.0
  3
*D175
  1
*D175
  0
LINE
  5
17F04
330
17F01
100
AcDbEntity
  8
WY
 62
     0
100
AcDbLine
 10
606.9288607094963
 20
188.9410395860327
 30
0.0
 11
606.9288607094963
 21
199.1325739102319
 31
0.0
  0
LINE
  5
17F05
330
17F01
100
AcDbEntity
  8
WY
 62
     0
100
AcDbLine
 10
643.9306649475874
 20
188.974940258021
 30
0.0
 11
643.9306649475874
 21
199.1325739102319
 31
0.0
  0
LINE
  5
17F06
330
17F01
100
AcDbEntity
  8
WY
 62
     0
100
AcDbLine
 10
609.4288607094963
 20
197.6325739102319
 30
0.0
 11
641.4306649475874
 21
197.6325739102319
 31
0.0
  0
SOLID
  5
17F07
330
17F01
100
AcDbEntity
  8
WY
 62
     0
100
AcDbTrace
 10
609.4288607094963
 20
198.0492405768985
 30
0.0
 11
609.4288607094963
 21
197.2159072435652
 31
0.0
 12
606.9288607094963
 22
197.6325739102319
 32
0.0
 13
606.9288607094963
 23
197.6325739102319
 33
0.0
  0
SOLID
  5
17F08
330
17F01
100
AcDbEntity
  8
WY
 62
     0
100
AcDbTrace
 10
641.4306649475874
 20
197.2159072435652
 30
0.0
 11
641.4306649475874
 21
198.0492405768985
 31
0.0
 12
643.9306649475874
 22
197.6325739102319
 32
0.0
 13
643.9306649475874
 23
197.6325739102319
 33
0.0
  0
MTEXT
  5
17F09
330
17F01
100
AcDbEntity
  8
WY
 62
     0
100
AcDbMText
 10
625.4297628285419
 20
199.1325739102319
 30
0.0
 40
1.5
 41
0.0
 71
     5
 72
     1
  1
\A1;37+1
  0
POINT
  5
17F0A
330
17F01
100
AcDbEntity
  8
DEFPOINTS
 62
     0
100
AcDbPoint
 10
606.9288607094963
 20
187.4410395860327
 30
0.0
  0
POINT
  5
17F0B
330
17F01
100
AcDbEntity
  8
DEFPOINTS
 62
     0
100
AcDbPoint
 10
643.9306649475874
 20
187.474940258021
 30
0.0
  0
POINT
  5
17F0C
330
17F01
100
AcDbEntity
  8
DEFPOINTS
 62
     0
100
AcDbPoint
 10
643.9306649475874
 20
197.6325739102319
 30
0.0
  0
ENDBLK
  5
17F03
330
17F01
100
AcDbEntity
  8
0
100
AcDbBlockEnd
  0
BLOCK
  5
17F82
330
17F81
100
AcDbEntity
  8
0
100
AcDbBlockBegin
  2
*D177
 70
     1
 10
0.0
 20
0.0
 30
0.0
  3
*D177
  1
*D177
  0
LINE
  5
17F84
330
17F81
100
AcDbEntity
  8
WY
 62
     0
100
AcDbLine
 10
543.9035971227246
 20
188.5323903562784
 30
0.0
 11
533.7618426239621
 21
188.5323903562784
 31
0.0
  0
LINE
  5
17F85
330
17F81
100
AcDbEntity
  8
WY
 62
     0
100
AcDbLine
 10
543.9035971227246
 20
122.9323903562784
 30
0.0
 11
533.7618426239621
 21
122.9323903562784
 31
0.0
  0
LINE
  5
17F86
330
17F81
100
AcDbEntity
  8
WY
 62
     0
100
AcDbLine
 10
535.2618426239621
 20
186.0323903562784
 30
0.0
 11
535.2618426239621
 21
125.4323903562784
 31
0.0
  0
SOLID
  5
17F87
330
17F81
100
AcDbEntity
  8
WY
 62
     0
100
AcDbTrace
 10
535.6785092906288
 20
186.0323903562784
 30
0.0
 11
534.8451759572955
 21
186.0323903562784
 31
0.0
 12
535.2618426239621
 22
188.5323903562784
 32
0.0
 13
535.2618426239621
 23
188.5323903562784
 33
0.0
  0
SOLID
  5
17F88
330
17F81
100
AcDbEntity
  8
WY
 62
     0
100
AcDbTrace
 10
534.8451759572955
 20
125.4323903562784
 30
0.0
 11
535.6785092906288
 21
125.4323903562784
 31
0.0
 12
535.2618426239621
 22
122.9323903562784
 32
0.0
 13
535.2618426239621
 23
122.9323903562784
 33
0.0
  0
MTEXT
  5
17F89
330
17F81
100
AcDbEntity
  8
WY
 62
     0
100
AcDbMText
 10
533.7618426239621
 20
155.7323903562784
 30
0.0
 40
1.5
 41
0.0
 71
     5
 72
     1
  1
\A1;65.6
 11
0.0
 21
1.0
 31
0.0
  0
POINT
  5
17F8A
330
17F81
100
AcDbEntity
  8
DEFPOINTS
 62
     0
100
AcDbPoint
 10
545.4035971227246
 20
188.5323903562784
 30
0.0
  0
POINT
  5
17F8B
330
17F81
100
AcDbEntity
  8
DEFPOINTS
 62
     0
100
AcDbPoint
 10
545.4035971227246
 20
122.9323903562784
 30
0.0
  0
POINT
  5
17F8C
330
17F81
100
AcDbEntity
  8
DEFPOINTS
 62
     0
100
AcDbPoint
 10
535.2618426239621
 20
122.9323903562784
 30
0.0
  0
ENDBLK
  5
17F83
330
17F81
100
AcDbEntity
  8
0
100
AcDbBlockEnd
  0
BLOCK
  5
17FCC
330
17FCB
100
AcDbEntity
  8
0
100
AcDbBlockBegin
  2
*D179
 70
     1
 10
0.0
 20
0.0
 30
0.0
  3
*D179
  1
*D179
  0
ARC
  5
17FCE
330
17FCB
100
AcDbEntity
  8
WY
 62
     0
100
AcDbCircle
 10
607.6879149647452
 20
187.7323903562784
 30
0.0
 40
10.63292431204506
100
AcDbArc
 50
291.0025367112876
 51
346.4974632887126
  0
SOLID
  5
17FCF
330
17FCB
100
AcDbEntity
  8
WY
 62
     0
100
AcDbTrace
 10
611.3962809262995
 20
178.209712999589
 30
0.0
 11
611.6014265503128
 21
177.4020251159405
 31
0.0
 12
609.0757900873606
 22
177.1904321857247
 32
0.0
 13
609.0757900873606
 23
177.1904321857247
 33
0.0
  0
SOLID
  5
17FD0
330
17FCB
100
AcDbEntity
  8
WY
 62
     0
100
AcDbTrace
 10
618.4407182638662
 20
185.2007426439043
 30
0.0
 11
617.613163384876
 21
185.2987087947107
 31
0.0
 12
618.3208392767903
 22
187.7323903562784
 32
0.0
 13
618.3208392767903
 23
187.7323903562784
 33
0.0
  0
MTEXT
  5
17FD1
330
17FCB
100
AcDbEntity
  8
WY
 62
     0
100
AcDbMText
 10
614.665486882131
 20
181.8397002552079
 30
0.0
 40
1.5
 41
0.0
 71
     5
 72
     1
  1
80+5%%d
 11
0.6452139424060315
 21
0.7640019427494058
 31
0.0
  0
POINT
  5
17FD2
330
17FCB
100
AcDbEntity
  8
DEFPOINTS
 62
     0
100
AcDbPoint
 10
613.7867097996383
 20
179.0224086692965
 30
0.0
  0
POINT
  5
17FD3
330
17FCB
100
AcDbEntity
  8
DEFPOINTS
 62
     0
100
AcDbPoint
 10
610.5507930030373
 20
165.9866727226923
 30
0.0
  0
POINT
  5
17FD4
330
17FCB
100
AcDbEntity
  8
DEFPOINTS
 62
     0
100
AcDbPoint
 10
607.9897028518303
 20
187.7323903562784
 30
0.0
  0
POINT
  5
17FD5
330
17FCB
100
AcDbEntity
  8
DEFPOINTS
 62
     0
100
AcDbPoint
 10
622.1401289498999
 20
187.7323903562784
 30
0.0
  0
POINT
  5
17FD6
330
17FCB
100
AcDbEntity
  8
DEFPOINTS
 62
     0
100
AcDbPoint
 10
607.731427251084
 20
187.4018817283667
 30
0.0
  0
ENDBLK
  5
17FCD
330
17FCB
100
AcDbEntity
  8
0
100
AcDbBlockEnd
  0
BLOCK
  5
17FDD
330
17FDC
100
AcDbEntity
  8
0
100
AcDbBlockBegin
  2
*D180
 70
     1
 10
0.0
 20
0.0
 30
0.0
  3
*D180
  1
*D180
  0
LINE
  5
17FDF
330
17FDC
100
AcDbEntity
  8
WY
 62
     0
100
AcDbLine
 10
609.5618478256081
 20
167.369419060977
 30
0.0
 11
609.1222990149189
 21
170.7081237475133
 31
0.0
  0
LINE
  5
17FE0
330
17FDC
100
AcDbEntity
  8
WY
 62
     0
100
AcDbLine
 10
610.3550037147063
 20
167.4738400147529
 30
0.0
 11
609.9154549040171
 21
170.8125447012892
 31
0.0
  0
LINE
  5
17FE1
330
17FDC
100
AcDbEntity
  8
WY
 62
     0
100
AcDbLine
 10
610.1112441923472
 20
169.3253774092285
 30
0.0
 11
620.7692764521156
 21
170.728533975594
 31
0.0
  0
LINE
  5
17FE2
330
17FDC
100
AcDbEntity
  8
WY
 62
     0
100
AcDbLine
 10
609.3180883032489
 20
169.2209564554526
 30
0.0
 11
610.1112441923472
 21
169.3253774092285
 31
0.0
  0
LINE
  5
17FE3
330
17FDC
100
AcDbEntity
  8
WY
 62
     0
100
AcDbLine
 10
606.8394761498145
 20
168.8946409749025
 30
0.0
 11
604.36086399638
 21
168.5683254943524
 31
0.0
  0
LINE
  5
17FE4
330
17FDC
100
AcDbEntity
  8
WY
 62
     0
100
AcDbLine
 10
612.5898563457816
 20
169.6516928897786
 30
0.0
 11
615.0684684992161
 21
169.9780083703287
 31
0.0
  0
SOLID
  5
17FE5
330
17FDC
100
AcDbEntity
  8
WY
 62
     0
100
AcDbTrace
 10
606.8938620632395
 20
168.4815389493301
 30
0.0
 11
606.7850902363895
 21
169.3077430004749
 31
0.0
 12
609.3180883032489
 22
169.2209564554526
 32
0.0
 13
609.3180883032489
 23
169.2209564554526
 33
0.0
  0
SOLID
  5
17FE6
330
17FDC
100
AcDbEntity
  8
WY
 62
     0
100
AcDbTrace
 10
612.5354704323566
 20
170.064794915351
 30
0.0
 11
612.6442422592066
 21
169.2385908642062
 31
0.0
 12
610.1112441923472
 22
169.3253774092285
 32
0.0
 13
610.1112441923472
 23
169.3253774092285
 33
0.0
  0
MTEXT
  5
17FE7
330
17FDC
100
AcDbEntity
  8
WY
 62
     0
100
AcDbMText
 10
617.7230831873359
 20
171.8404384650221
 30
0.0
 40
1.5
 41
0.0
 71
     5
 72
     1
  1
\A1;%%c0.8
 11
0.9914448613738109
 21
0.1305261922200479
 31
0.0
  0
POINT
  5
17FE8
330
17FDC
100
AcDbEntity
  8
DEFPOINTS
 62
     0
100
AcDbPoint
 10
609.7576371139381
 20
165.8822517689163
 30
0.0
  0
POINT
  5
17FE9
330
17FDC
100
AcDbEntity
  8
DEFPOINTS
 62
     0
100
AcDbPoint
 10
610.5507930030363
 20
165.9866727226922
 30
0.0
  0
POINT
  5
17FEA
330
17FDC
100
AcDbEntity
  8
DEFPOINTS
 62
     0
100
AcDbPoint
 10
610.1112441923472
 20
169.3253774092285
 30
0.0
  0
ENDBLK
  5
17FDE
330
17FDC
100
AcDbEntity
  8
0
100
AcDbBlockEnd
  0
BLOCK
  5
18037
330
18036
100
AcDbEntity
  8
0
100
AcDbBlockBegin
  2
*D181
 70
     1
 10
0.0
 20
0.0
 30
0.0
  3
*D181
  1
*D181
  0
LINE
  5
18039
330
18036
100
AcDbEntity
  8
WY
 62
     0
100
AcDbLine
 10
615.2009628433474
 20
123.5865679178943
 30
0.0
 11
604.1122648272441
 21
122.078290547607
 31
0.0
  0
LINE
  5
1803A
330
18036
100
AcDbEntity
  8
WY
 62
     0
100
AcDbLine
 10
606.5033891766153
 20
187.5302229531965
 30
0.0
 11
595.414691160512
 21
186.0219455829092
 31
0.0
  0
LINE
  5
1803B
330
18036
100
AcDbEntity
  8
WY
 62
     0
100
AcDbLine
 10
605.2616328306559
 20
124.7576474093806
 30
0.0
 11
597.2379505075302
 21
183.7469235272994
 31
0.0
  0
SOLID
  5
1803C
330
18036
100
AcDbEntity
  8
WY
 62
     0
100
AcDbTrace
 10
604.848767920874
 20
124.7014897974134
 30
0.0
 11
605.6744977404378
 21
124.8138050213478
 31
0.0
 12
605.5985785024591
 22
122.280457950689
 32
0.0
 13
605.5985785024591
 23
122.280457950689
 33
0.0
  0
SOLID
  5
1803D
330
18036
100
AcDbEntity
  8
WY
 62
     0
100
AcDbTrace
 10
597.6508154173121
 20
183.8030811392666
 30
0.0
 11
596.8250855977483
 21
183.6907659153322
 31
0.0
 12
596.901004835727
 22
186.2241129859911
 32
0.0
 13
596.901004835727
 23
186.2241129859911
 33
0.0
  0
MTEXT
  5
1803E
330
18036
100
AcDbEntity
  8
WY
 62
     0
100
AcDbMText
 10
602.736105344308
 20
154.4544528714219
 30
0.0
 40
1.5
 41
0.0
 71
     5
 72
     1
  1
\A1;64.53
 11
0.1347782687212856
 21
-0.9908757834766641
 31
0.0
  0
POINT
  5
1803F
330
18036
100
AcDbEntity
  8
DEFPOINTS
 62
     0
100
AcDbPoint
 10
616.6872765185624
 20
123.7887353209763
 30
0.0
  0
POINT
  5
18040
330
18036
100
AcDbEntity
  8
DEFPOINTS
 62
     0
100
AcDbPoint
 10
607.9897028518303
 20
187.7323903562784
 30
0.0
  0
POINT
  5
18041
330
18036
100
AcDbEntity
  8
DEFPOINTS
 62
     0
100
AcDbPoint
 10
596.901004835727
 20
186.2241129859911
 30
0.0
  0
ENDBLK
  5
18038
330
18036
100
AcDbEntity
  8
0
100
AcDbBlockEnd
  0
BLOCK
  5
1805F
330
1805E
100
AcDbEntity
  8
0
100
AcDbBlockBegin
  2
*D182
 70
     1
 10
0.0
 20
0.0
 30
0.0
  3
*D182
  1
*D182
  0
LINE
  5
18061
330
1805E
100
AcDbEntity
  8
WY
 62
     0
100
AcDbLine
 10
606.5033960457257
 20
187.5301724586356
 30
0.0
 11
597.1800587688903
 21
186.2616956842623
 31
0.0
  0
LINE
  5
18062
330
1805E
100
AcDbEntity
  8
WY
 62
     0
100
AcDbLine
 10
615.1347966766324
 20
124.0891533724251
 30
0.0
 11
605.811459399797
 21
122.8206765980517
 31
0.0
  0
LINE
  5
18063
330
1805E
100
AcDbEntity
  8
WY
 62
     0
100
AcDbLine
 10
599.0033954043996
 20
183.9867355717307
 30
0.0
 11
606.9607363764968
 21
125.5000725058689
 31
0.0
  0
SOLID
  5
18064
330
1805E
100
AcDbEntity
  8
WY
 62
     0
100
AcDbTrace
 10
599.4162584060954
 20
184.0429072099649
 30
0.0
 11
598.5905324027038
 21
183.9305639334966
 31
0.0
 12
598.6663655749949
 22
186.4639135819051
 32
0.0
 13
598.6663655749949
 23
186.4639135819051
 33
0.0
  0
SOLID
  5
18065
330
1805E
100
AcDbEntity
  8
WY
 62
     0
100
AcDbTrace
 10
606.547873374801
 20
125.4439008676348
 30
0.0
 11
607.3735993781926
 21
125.5562441441031
 31
0.0
 12
607.2977662059016
 22
123.0228944956946
 32
0.0
 13
607.2977662059016
 23
123.0228944956946
 33
0.0
  0
MTEXT
  5
18066
330
1805E
100
AcDbEntity
  8
WY
 62
     0
100
AcDbMText
 10
604.4683726965528
 20
154.9456219364427
 30
0.0
 40
1.5
 41
0.0
 71
     5
 72
     1
  1
\A1;64%%p0.5
 11
0.1348119317618884
 21
-0.9908712040697459
 31
0.0
  0
POINT
  5
18067
330
1805E
100
AcDbEntity
  8
DEFPOINTS
 62
     0
100
AcDbPoint
 10
607.9897028518303
 20
187.7323903562784
 30
0.0
  0
POINT
  5
18068
330
1805E
100
AcDbEntity
  8
DEFPOINTS
 62
     0
100
AcDbPoint
 10
616.621103482737
 20
124.2913712700679
 30
0.0
  0
POINT
  5
18069
330
1805E
100
AcDbEntity
  8
DEFPOINTS
 62
     0
100
AcDbPoint
 10
607.2977662059016
 20
123.0228944956946
 30
0.0
  0
ENDBLK
  5
18060
330
1805E
100
AcDbEntity
  8
0
100
AcDbBlockEnd
  0
ENDSEC
  0
SECTION
  2
ENTITIES
  0
LINE
  5
2D2D
330
18
100
AcDbEntity
  8
WYMIARY
 62
     6
100
AcDbLine
 10
486.041244
 20
0.0
 30
0.0
 11
486.041244
 21
297.0
 31
0.0
  0
LINE
  5
2D2E
330
18
100
AcDbEntity
  8
WYMIARY
 62
     6
100
AcDbLine
 10
497.671651
 20
292.0
 30
0.0
 11
497.671651
 21
5.0
 31
0.0
  0
LINE
  5
2D34
330
18
100
AcDbEntity
  8
2
100
AcDbLine
 10
682.671651
 20
5.0
 30
0.0
 11
682.671651
 21
292.0
 31
0.0
  0
LINE
  5
2D35
330
18
100
AcDbEntity
  8
2
100
AcDbLine
 10
687.671651
 20
0.0
 30
0.0
 11
687.671651
 21
297.0
 31
0.0
  0
LINE
  5
2D36
330
18
100
AcDbEntity
  8
WY
  6
CONTINUOUS
 62
     3
100
AcDbLine
 10
682.671651
 20
19.689837
 30
0.0
 11
497.671651
 21
19.689837
 31
0.0
  0
LINE
  5
2D38
330
18
100
AcDbEntity
  8
2
100
AcDbLine
 10
497.671651
 20
5.0
 30
0.0
 11
682.671651
 21
5.0
 31
0.0
  0
LINE
  5
2D39
330
18
100
AcDbEntity
  8
2
 62
     6
100
AcDbLine
 10
497.671651
 20
0.0
 30
0.0
 11
687.671651
 21
0.0
 31
0.0
  0
LINE
  5
2D3A
330
18
100
AcDbEntity
  8
0
100
AcDbLine
 10
529.697667
 20
11.742481
 30
0.0
 11
528.795256
 21
11.742481
 31
0.0
  0
ELLIPSE
  5
2D3B
330
18
100
AcDbEntity
  8
0
100
AcDbEllipse
 10
529.697667
 20
11.742481
 30
0.0
 11
-1.203215696869327
 21
1.967000000000000E-13
 31
0.0
210
0.0
220
0.0
230
1.0
 40
0.958812
 41
-1.570796326794739
 42
0.0000000000001705
  0
TEXT
  5
2D3D
330
18
100
AcDbEntity
  8
1
100
AcDbText
 10
515.607578
 20
8.797457
 30
0.0
 40
5.0
  1
A4
 51
15.0
  7
ITALIC
100
AcDbText
  0
LINE
  5
2D40
330
18
100
AcDbEntity
  8
WYMIARY
 62
     6
100
AcDbLine
 10
497.671651
 20
0.0
 30
0.0
 11
486.041244
 21
0.0
 31
0.0
  0
TEXT
  5
2D42
330
18
100
AcDbEntity
  8
WY
100
AcDbText
 10
502.936765
 20
16.373844
 30
0.0
 40
2.0
  1
Skala
 51
15.0
  7
ITALIC
100
AcDbText
  0
TEXT
  5
2D43
330
18
100
AcDbEntity
  8
WY
100
AcDbText
 10
515.042219
 20
16.329369
 30
0.0
 40
2.0
  1
Format
 51
15.0
  7
ITALIC
100
AcDbText
  0
LINE
  5
2D44
330
18
100
AcDbEntity
  8
0
100
AcDbLine
 10
528.494452
 20
11.742481
 30
0.0
 11
528.795256
 21
11.742481
 31
0.0
  0
LINE
  5
2D45
330
18
100
AcDbEntity
  8
0
100
AcDbLine
 10
559.88722
 20
17.211264
 30
0.0
 11
559.88722
 21
9.015264
 31
0.0
  0
LINE
  5
2D46
330
18
100
AcDbEntity
  8
0
100
AcDbLine
 10
550.89322
 20
9.438264
 30
0.0
 11
550.89322
 21
7.416264
 31
0.0
  0
ARC
  5
2D47
330
18
100
AcDbEntity
  8
0
100
AcDbCircle
 10
551.5428
 20
9.724764
 30
0.0
 40
0.709955
100
AcDbArc
 50
203.80008
 51
272.051918
  0
LINE
  5
2D48
330
18
100
AcDbEntity
  8
0
100
AcDbLine
 10
549.34822
 20
7.416264
 30
0.0
 11
549.34822
 21
15.612264
 31
0.0
  0
ARC
  5
2D49
330
18
100
AcDbEntity
  8
0
100
AcDbCircle
 10
551.982126
 20
10.136416
 30
0.0
 40
1.128907
100
AcDbArc
 50
276.719576
 51
2.175194
  0
ARC
  5
2D4A
330
18
100
AcDbEntity
  8
0
100
AcDbCircle
 10
555.243059
 20
10.503572
 30
0.0
 40
1.488419
100
AcDbArc
 50
191.634268
 51
270.699113
  0
ARC
  5
2D4B
330
18
100
AcDbEntity
  8
0
100
AcDbCircle
 10
556.209381
 20
10.503572
 30
0.0
 40
1.488419
100
AcDbArc
 50
269.300887
 51
348.365732
  0
LINE
  5
2D4C
330
18
100
AcDbEntity
  8
0
100
AcDbLine
 10
558.34222
 20
9.015264
 30
0.0
 11
558.34222
 21
17.211264
 31
0.0
  0
ARC
  5
2D4D
330
18
100
AcDbEntity
  8
0
100
AcDbCircle
 10
545.056591
 20
10.472364
 30
0.0
 40
1.425319
100
AcDbArc
 50
269.703671
 51
350.465171
  0
ARC
  5
2D4E
330
18
100
AcDbEntity
  8
0
100
AcDbCircle
 10
544.201848
 20
10.472364
 30
0.0
 40
1.425319
100
AcDbArc
 50
189.534829
 51
270.2963290000001
  0
LINE
  5
2D4F
330
18
100
AcDbEntity
  8
0
100
AcDbLine
 10
547.14922
 20
9.015264
 30
0.0
 11
547.14922
 21
17.211264
 31
0.0
  0
LINE
  5
2D50
330
18
100
AcDbEntity
  8
0
100
AcDbLine
 10
548.69422
 20
17.211264
 30
0.0
 11
548.69422
 21
9.015264
 31
0.0
  0
LINE
  5
2D51
330
18
100
AcDbEntity
  8
0
100
AcDbLine
 10
539.892236
 20
14.361264
 30
0.0
 11
539.903809
 21
9.015264
 31
0.0
  0
LINE
  5
2D52
330
18
100
AcDbEntity
  8
0
100
AcDbLine
 10
538.361694
 20
9.015264
 30
0.0
 11
538.361694
 21
15.60367
 31
0.0
  0
LINE
  5
2D53
330
18
100
AcDbEntity
  8
0
100
AcDbLine
 10
529.697667
 20
9.895061
 30
0.0
 11
529.697667
 21
8.185369
 31
0.0
  0
LINE
  5
2D54
330
18
100
AcDbEntity
  8
0
100
AcDbLine
 10
535.613478
 20
8.185369
 30
0.0
 11
535.613478
 21
11.742481
 31
0.0
  0
LINE
  5
2D55
330
18
100
AcDbEntity
  8
1
100
AcDbLine
 10
563.469863
 20
5.0
 30
0.0
 11
563.469863
 21
19.689837
 31
0.0
  0
LINE
  5
2D56
330
18
100
AcDbEntity
  8
0
100
AcDbLine
 10
530.499811
 20
7.416263
 30
0.0
 11
534.811334
 21
7.416263
 31
0.0
  0
ELLIPSE
  5
2D57
330
18
100
AcDbEntity
  8
0
100
AcDbEllipse
 10
530.499811
 20
8.185369
 30
0.0
 11
-0.8021437979128705
 21
1.540000000000000E-14
 31
0.0
210
0.0
220
0.0
230
1.0
 40
0.958812
 41
0.00000000000002
 42
1.570796326794914
  0
ELLIPSE
  5
2D58
330
18
100
AcDbEntity
  8
0
100
AcDbEllipse
 10
534.811334
 20
8.185369
 30
0.0
 11
0.8021437979128704
 21
1.602000000000000E-13
 31
0.0
210
0.0
220
0.0
230
1.0
 40
0.958812
 41
4.712388980384497
 42
6.283185307179378
  0
LINE
  5
2D59
330
18
100
AcDbEntity
  8
0
100
AcDbLine
 10
539.892236
 20
9.015264
 30
0.0
 11
539.903809
 21
9.022759
 31
0.0
  0
LINE
  5
2D5A
330
18
100
AcDbEntity
  8
0
100
AcDbLine
 10
538.361694
 20
9.015264
 30
0.0
 11
539.903809
 21
9.015264
 31
0.0
  0
LINE
  5
2D5B
330
18
100
AcDbEntity
  8
0
100
AcDbLine
 10
544.194477
 20
9.047064
 30
0.0
 11
545.04922
 21
9.047064
 31
0.0
  0
LINE
  5
2D5C
330
18
100
AcDbEntity
  8
0
100
AcDbLine
 10
550.89322
 20
7.416264
 30
0.0
 11
549.34822
 21
7.416264
 31
0.0
  0
LINE
  5
2D5D
330
18
100
AcDbEntity
  8
0
100
AcDbLine
 10
548.69422
 20
9.015264
 30
0.0
 11
547.14922
 21
9.015264
 31
0.0
  0
LINE
  5
2D5E
330
18
100
AcDbEntity
  8
0
100
AcDbLine
 10
551.576266
 20
9.015264
 30
0.0
 11
552.11422
 21
9.015264
 31
0.0
  0
LINE
  5
2D5F
330
18
100
AcDbEntity
  8
0
100
AcDbLine
 10
555.26122
 20
9.015264
 30
0.0
 11
556.19122
 21
9.015264
 31
0.0
  0
LINE
  5
2D60
330
18
100
AcDbEntity
  8
0
100
AcDbLine
 10
559.88722
 20
9.015264
 30
0.0
 11
558.34222
 21
9.015264
 31
0.0
  0
ARC
  5
2D61
330
18
100
AcDbEntity
  8
0
100
AcDbCircle
 10
545.056591
 20
14.17837
 30
0.0
 40
1.425319
100
AcDbArc
 50
9.534829000000002
 51
90.296329
  0
LINE
  5
2D62
330
18
100
AcDbEntity
  8
0
100
AcDbLine
 10
546.46222
 20
11.81167
 30
0.0
 11
544.33822
 21
11.81167
 31
0.0
  0
LINE
  5
2D63
330
18
100
AcDbEntity
  8
0
100
AcDbLine
 10
545.01322
 20
11.13667
 30
0.0
 11
546.46222
 21
11.13667
 31
0.0
  0
LINE
  5
2D64
330
18
100
AcDbEntity
  8
0
100
AcDbLine
 10
529.697667
 20
13.461283
 30
0.0
 11
529.697667
 21
16.260974
 31
0.0
  0
ELLIPSE
  5
2D65
330
18
100
AcDbEntity
  8
0
100
AcDbEllipse
 10
532.630506
 20
15.17942
 30
0.0
 11
2.983077570132104
 21
2.996000000000000E-13
 31
0.0
210
0.0
220
0.0
230
1.0
 40
0.9588119999999999
 41
-1.562393163247347
 42
0.0084031635475457
  0
ELLIPSE
  5
2D66
330
18
100
AcDbEntity
  8
0
100
AcDbEllipse
 10
532.58733
 20
15.509539
 30
0.0
 11
-4.072692107280919
 21
9.250000000000000E-14
 31
0.0
210
0.0
220
0.0
230
1.0
 40
0.958812
 41
1.587553347046634
 42
2.408388587343224
  0
LINE
  5
2D67
330
18
100
AcDbEntity
  8
0
100
AcDbLine
 10
529.697667
 20
11.742481
 30
0.0
 11
529.697667
 21
11.034514
 31
0.0
  0
LINE
  5
2D68
330
18
100
AcDbEntity
  8
0
100
AcDbLine
 10
529.697667
 20
13.461283
 30
0.0
 11
529.697667
 21
12.896138
 31
0.0
  0
ELLIPSE
  5
2D69
330
18
100
AcDbEntity
  8
0
100
AcDbEllipse
 10
532.249598
 20
9.872487
 30
0.0
 11
2.960559210508897
 21
0.3570763225581005
 31
0.0
210
0.0
220
0.0
230
1.0
 40
0.820999
 41
1.335209029023201
 42
2.503032872947537
  0
ELLIPSE
  5
2D6A
330
18
100
AcDbEntity
  8
0
100
AcDbEllipse
 10
532.480104
 20
8.937306
 30
0.0
 11
3.015746449176215
 21
0.7746519372140024
 31
0.0
210
0.0
220
0.0
230
1.0
 40
0.8467750000000003
 41
1.29973646820557
 42
2.479974117225238
  0
LINE
  5
2D6B
330
18
100
AcDbEntity
  8
0
100
AcDbLine
 10
536.816694
 20
12.896138
 30
0.0
 11
536.51589
 21
12.896138
 31
0.0
  0
LINE
  5
2D6C
330
18
100
AcDbEntity
  8
0
100
AcDbLine
 10
535.613478
 20
12.896138
 30
0.0
 11
536.51589
 21
12.896138
 31
0.0
  0
ELLIPSE
  5
2D6D
330
18
100
AcDbEntity
  8
0
100
AcDbEllipse
 10
535.613478
 20
12.896138
 30
0.0
 11
1.203215696869352
 21
8.930000000000000E-14
 31
0.0
210
0.0
220
0.0
230
1.0
 40
0.9588119999999999
 41
4.712388980384611
 42
6.283185307179508
  0
LINE
  5
2D6E
330
18
100
AcDbEntity
  8
0
100
AcDbLine
 10
530.499811
 20
17.030079
 30
0.0
 11
534.811334
 21
17.030079
 31
0.0
  0
ELLIPSE
  5
2D6F
330
18
100
AcDbEntity
  8
0
100
AcDbEllipse
 10
530.499811
 20
16.260974
 30
0.0
 11
0.8021437979128704
 21
3.800000000000000E-14
 31
0.0
210
0.0
220
0.0
230
1.0
 40
0.958812
 41
1.570796326794851
 42
3.141592653589743
  0
LINE
  5
2D70
330
18
100
AcDbEntity
  8
0
100
AcDbLine
 10
535.613478
 20
15.155385
 30
0.0
 11
535.613478
 21
16.260974
 31
0.0
  0
ELLIPSE
  5
2D71
330
18
100
AcDbEntity
  8
0
100
AcDbEllipse
 10
534.811334
 20
16.260974
 30
0.0
 11
-0.8021437979128705
 21
3.800000000000000E-14
 31
0.0
210
0.0
220
0.0
230
1.0
 40
0.958812
 41
3.141592653589842
 42
4.712388980384734
  0
ARC
  5
2D72
330
18
100
AcDbEntity
  8
0
100
AcDbCircle
 10
540.798894
 20
14.34127
 30
0.0
 40
1.377457
100
AcDbArc
 50
16.265061
 51
130.527299
  0
ARC
  5
2D73
330
18
100
AcDbEntity
  8
0
100
AcDbCircle
 10
544.201848
 20
14.17837
 30
0.0
 40
1.425319
100
AcDbArc
 50
89.703671
 51
170.465171
  0
LINE
  5
2D74
330
18
100
AcDbEntity
  8
0
100
AcDbLine
 10
540.911147
 20
12.93607
 30
0.0
 11
542.12122
 21
12.93607
 31
0.0
  0
LINE
  5
2D75
330
18
100
AcDbEntity
  8
0
100
AcDbLine
 10
540.578809
 20
12.93607
 30
0.0
 11
542.12122
 21
12.93607
 31
0.0
  0
ARC
  5
2D76
330
18
100
AcDbEntity
  8
0
100
AcDbCircle
 10
540.229736
 20
14.361264
 30
0.0
 40
0.3375
100
AcDbArc
 50
360.0
 51
180.0
  0
LINE
  5
2D77
330
18
100
AcDbEntity
  8
0
100
AcDbLine
 10
540.567236
 20
14.361264
 30
0.0
 11
540.578809
 21
12.93607
 31
0.0
  0
ARC
  5
2D78
330
18
100
AcDbEntity
  8
0
100
AcDbCircle
 10
544.67572
 20
14.361264
 30
0.0
 40
0.3375
100
AcDbArc
 50
360.0
 51
180.0
  0
LINE
  5
2D79
330
18
100
AcDbEntity
  8
0
100
AcDbLine
 10
544.33822
 20
11.81167
 30
0.0
 11
544.33822
 21
10.236264
 31
0.0
  0
LINE
  5
2D7A
330
18
100
AcDbEntity
  8
0
100
AcDbLine
 10
544.33822
 20
12.71167
 30
0.0
 11
545.01322
 21
12.71167
 31
0.0
  0
LINE
  5
2D7B
330
18
100
AcDbEntity
  8
0
100
AcDbLine
 10
545.01322
 20
11.13667
 30
0.0
 11
545.01322
 21
10.252764
 31
0.0
  0
LINE
  5
2D7C
330
18
100
AcDbEntity
  8
0
100
AcDbLine
 10
544.33822
 20
11.81167
 30
0.0
 11
544.33822
 21
10.252764
 31
0.0
  0
ARC
  5
2D7D
330
18
100
AcDbEntity
  8
0
100
AcDbCircle
 10
544.67572
 20
10.252764
 30
0.0
 40
0.3375
100
AcDbArc
 50
180.0
 51
0.0
  0
LINE
  5
2D7E
330
18
100
AcDbEntity
  8
0
100
AcDbLine
 10
545.01322
 20
14.361264
 30
0.0
 11
545.01322
 21
12.71167
 31
0.0
  0
LINE
  5
2D7F
330
18
100
AcDbEntity
  8
0
100
AcDbLine
 10
544.33822
 20
14.361264
 30
0.0
 11
544.33822
 21
12.71167
 31
0.0
  0
LINE
  5
2D80
330
18
100
AcDbEntity
  8
0
100
AcDbLine
 10
542.12122
 20
12.93607
 30
0.0
 11
542.12122
 21
14.72707
 31
0.0
  0
LINE
  5
2D81
330
18
100
AcDbEntity
  8
0
100
AcDbLine
 10
542.79622
 20
10.236264
 30
0.0
 11
542.79622
 21
14.41447
 31
0.0
  0
LINE
  5
2D82
330
18
100
AcDbEntity
  8
0
100
AcDbLine
 10
539.903809
 20
15.60367
 30
0.0
 11
539.903809
 21
15.38827
 31
0.0
  0
LINE
  5
2D83
330
18
100
AcDbEntity
  8
0
100
AcDbLine
 10
538.361694
 20
15.60367
 30
0.0
 11
539.903809
 21
15.60367
 31
0.0
  0
LINE
  5
2D84
330
18
100
AcDbEntity
  8
0
100
AcDbLine
 10
544.194477
 20
15.60367
 30
0.0
 11
545.04922
 21
15.60367
 31
0.0
  0
ARC
  5
2D85
330
18
100
AcDbEntity
  8
0
100
AcDbCircle
 10
555.243059
 20
14.124104
 30
0.0
 40
1.488419
100
AcDbArc
 50
89.300887
 51
168.365732
  0
ARC
  5
2D86
330
18
100
AcDbEntity
  8
0
100
AcDbCircle
 10
551.752247
 20
14.207365
 30
0.0
 40
1.409039
100
AcDbArc
 50
15.47255
 51
127.56454
  0
LINE
  5
2D87
330
18
100
AcDbEntity
  8
0
100
AcDbLine
 10
546.46222
 20
11.13667
 30
0.0
 11
546.46222
 21
10.236264
 31
0.0
  0
LINE
  5
2D88
330
18
100
AcDbEntity
  8
0
100
AcDbLine
 10
546.46222
 20
11.81167
 30
0.0
 11
546.46222
 21
14.41447
 31
0.0
  0
LINE
  5
2D89
330
18
100
AcDbEntity
  8
0
100
AcDbLine
 10
553.11022
 20
14.583264
 30
0.0
 11
553.11022
 21
10.179264
 31
0.0
  0
LINE
  5
2D8A
330
18
100
AcDbEntity
  8
0
100
AcDbLine
 10
551.56822
 20
14.361264
 30
0.0
 11
551.56822
 21
10.252764
 31
0.0
  0
LINE
  5
2D8B
330
18
100
AcDbEntity
  8
0
100
AcDbLine
 10
550.89322
 20
14.361264
 30
0.0
 11
550.89322
 21
10.252764
 31
0.0
  0
ARC
  5
2D8C
330
18
100
AcDbEntity
  8
0
100
AcDbCircle
 10
551.23072
 20
10.252764
 30
0.0
 40
0.3375
100
AcDbArc
 50
180.0
 51
0.0
  0
ARC
  5
2D8D
330
18
100
AcDbEntity
  8
0
100
AcDbCircle
 10
551.23072
 20
14.361264
 30
0.0
 40
0.3375
100
AcDbArc
 50
360.0
 51
180.0
  0
LINE
  5
2D8E
330
18
100
AcDbEntity
  8
0
100
AcDbLine
 10
549.34822
 20
15.612264
 30
0.0
 11
550.89322
 21
15.612264
 31
0.0
  0
LINE
  5
2D8F
330
18
100
AcDbEntity
  8
0
100
AcDbLine
 10
547.14922
 20
17.211264
 30
0.0
 11
548.69422
 21
17.211264
 31
0.0
  0
LINE
  5
2D90
330
18
100
AcDbEntity
  8
0
100
AcDbLine
 10
550.89322
 20
15.612264
 30
0.0
 11
550.89322
 21
15.324264
 31
0.0
  0
ARC
  5
2D91
330
18
100
AcDbEntity
  8
0
100
AcDbCircle
 10
556.209381
 20
14.124104
 30
0.0
 40
1.488419
100
AcDbArc
 50
11.634268
 51
90.699113
  0
LINE
  5
2D92
330
18
100
AcDbEntity
  8
0
100
AcDbLine
 10
557.66722
 20
14.424264
 30
0.0
 11
557.66722
 21
10.203412
 31
0.0
  0
ARC
  5
2D93
330
18
100
AcDbEntity
  8
0
100
AcDbCircle
 10
555.72622
 20
14.361264
 30
0.0
 40
0.3375
100
AcDbArc
 50
360.0
 51
180.0
  0
ARC
  5
2D94
330
18
100
AcDbEntity
  8
0
100
AcDbCircle
 10
555.72622
 20
10.252764
 30
0.0
 40
0.3375
100
AcDbArc
 50
180.0
 51
0.0
  0
LINE
  5
2D95
330
18
100
AcDbEntity
  8
0
100
AcDbLine
 10
555.38872
 20
14.361264
 30
0.0
 11
555.38872
 21
10.252764
 31
0.0
  0
LINE
  5
2D96
330
18
100
AcDbEntity
  8
0
100
AcDbLine
 10
556.06372
 20
14.361264
 30
0.0
 11
556.06372
 21
10.252764
 31
0.0
  0
LINE
  5
2D97
330
18
100
AcDbEntity
  8
0
100
AcDbLine
 10
553.78522
 20
10.203412
 30
0.0
 11
553.78522
 21
14.424264
 31
0.0
  0
LINE
  5
2D98
330
18
100
AcDbEntity
  8
0
100
AcDbLine
 10
555.26122
 20
15.612412
 30
0.0
 11
556.19122
 21
15.612412
 31
0.0
  0
LINE
  5
2D99
330
18
100
AcDbEntity
  8
0
100
AcDbLine
 10
558.34222
 20
17.211264
 30
0.0
 11
559.88722
 21
17.211264
 31
0.0
  0
TEXT
  5
2D9A
330
18
100
AcDbEntity
  8
WY
100
AcDbText
 10
564.417407
 20
11.60401
 30
0.0
 40
1.999999999999998
  1
16-06-2016
 41
1.000000000000001
 51
15.0
  7
ITALIC
100
AcDbText
  0
TEXT
  5
2D9B
330
18
100
AcDbEntity
  8
WY
100
AcDbText
 10
568.848776
 20
16.149239
 30
0.0
 40
2.0
  1
Data
 51
15.0
  7
ITALIC
100
AcDbText
  0
TEXT
  5
2D9D
330
18
100
AcDbEntity
  8
1
100
AcDbText
 10
637.422754
 20
9.064009
 30
0.0
 40
5.0
  1
GZU-1052
 41
0.8
 51
15.0
  7
ITALIC
100
AcDbText
  0
LINE
  5
2D9E
330
18
100
AcDbEntity
  8
1
100
AcDbLine
 10
627.394234
 20
5.0
 30
0.0
 11
627.394234
 21
19.689837
 31
0.0
  0
TEXT
  5
2D9F
330
18
100
AcDbEntity
  8
WY
100
AcDbText
 10
629.585432
 20
16.599248
 30
0.0
 40
2.0
  1
Product type
 51
15.0
  7
ITALIC
100
AcDbText
  0
LINE
  5
2DF2
330
18
100
AcDbEntity
  8
2
100
AcDbLine
 10
682.671651
 20
292.0
 30
0.0
 11
497.671651
 21
292.0
 31
0.0
  0
LINE
  5
2DF3
330
18
100
AcDbEntity
  8
2
100
AcDbLine
 10
687.671651
 20
297.0
 30
0.0
 11
497.671651
 21
297.0
 31
0.0
  0
LINE
  5
2E74
330
18
100
AcDbEntity
  8
WYMIARY
 62
     6
100
AcDbLine
 10
497.671651
 20
297.0
 30
0.0
 11
486.041244
 21
297.0
 31
0.0
  0
MTEXT
  5
31F2
330
18
100
AcDbEntity
  8
WYMIARY
100
AcDbMText
 10
780.543201
 20
224.476865
 30
0.0
 40
3.5
 41
15.6
 71
     1
 72
     5
  1

  7
ITALIC
  0
TEXT
  5
478E
330
18
100
AcDbEntity
  8
1
100
AcDbText
 10
500.301985
 20
8.797457
 30
0.0
 40
5.0
  1
1:1
 51
15.0
  7
ITALIC
100
AcDbText
  0
LINE
  5
482F
330
18
100
AcDbEntity
  8
WYMIARY
 62
     6
100
AcDbLine
 10
687.671651
 20
0.0
 30
0.0
 11
687.671651
 21
297.0
 31
0.0
  0
LINE
  5
4AD7
330
18
100
AcDbEntity
  8
WYMIARY
 62
     3
100
AcDbLine
 10
512.671651
 20
19.689837
 30
0.0
 11
512.671651
 21
5.0
 31
0.0
  0
LINE
  5
4AD9
330
18
100
AcDbEntity
  8
WYMIARY
 62
     3
100
AcDbLine
 10
527.671651
 20
19.689837
 30
0.0
 11
527.671651
 21
5.0
 31
0.0
  0
LINE
  5
4ADA
330
18
100
AcDbEntity
  8
WYMIARY
 62
     3
100
AcDbLine
 10
586.373187
 20
19.689837
 30
0.0
 11
586.373187
 21
5.0
 31
0.0
  0
TEXT
  5
4ADB
330
18
100
AcDbEntity
  8
WY
100
AcDbText
 10
587.562196
 20
16.599248
 30
0.0
 40
2.0
  1
Draw. No.
 51
15.0
  7
ITALIC
100
AcDbText
  0
TEXT
  5
4ADF
330
18
100
AcDbEntity
  8
1
100
AcDbText
 10
590.7724191352855
 20
9.064009
 30
0.0
 40
3.999999999999995
  1
GZU-1052-01A
 41
0.7000000000000008
 51
15.0
  7
ITALIC
100
AcDbText
  0
LINE
  5
4AE9
330
18
100
AcDbEntity
  8
WYMIARY
 62
     6
100
AcDbLine
 10
687.671651
 20
0.0
 30
0.0
 11
687.671651
 21
297.0
 31
0.0
  0
LINE
  5
6488
330
18
100
AcDbEntity
  8
WYMIARY
 62
     6
100
AcDbLine
 10
687.671651
 20
0.0
 30
0.0
 11
687.671651
 21
297.0
 31
0.0
  0
LINE
  5
648E
330
18
100
AcDbEntity
  8
2
100
AcDbLine
 10
687.671651
 20
0.0
 30
0.0
 11
687.671651
 21
297.0
 31
0.0
  0
LINE
  5
6CB6
330
18
100
AcDbEntity
  8
WYMIARY
 62
     6
100
AcDbLine
 10
687.671651
 20
0.0
 30
0.0
 11
687.671651
 21
297.0
 31
0.0
  0
LINE
  5
6CB8
330
18
100
AcDbEntity
  8
2
100
AcDbLine
 10
687.671651
 20
0.0
 30
0.0
 11
687.671651
 21
297.0
 31
0.0
  0
TEXT
  5
B62D
330
18
100
AcDbEntity
  8
1
100
AcDbText
 10
579.317934
 20
274.3510462125303
 30
0.0
 40
5.0
  1
GZU-1052
 41
0.8
 51
15.0
  7
ITALIC
100
AcDbText
  0
TEXT
  5
17A04
330
18
100
AcDbEntity
  8
1
100
AcDbText
 10
537.3136001651202
 20
263.3148018483084
 30
0.0
 40
5.0
  1
Obejma sprężynowa/Spring wire clip
 41
0.8
 51
15.0
  7
ITALIC
100
AcDbText
  0
LINE
  5
17E24
330
18
100
AcDbEntity
  8
1
  6
CONTINUOUS
100
AcDbLine
 10
545.8035971227246
 20
165.8359820637551
 30
0.0
 11
545.8035971227246
 21
187.4323903562783
 31
0.0
  0
LINE
  5
17E25
330
18
100
AcDbEntity
  8
1
  6
CONTINUOUS
100
AcDbLine
 10
545.0035971227246
 20
187.4323903562783
 30
0.0
 11
545.0035971227246
 21
165.8359820637551
 31
0.0
  0
LINE
  5
17E28
330
18
100
AcDbEntity
  8
1
  6
CONTINUOUS
100
AcDbLine
 10
545.0035971227246
 20
188.1323903562784
 30
0.0
 11
545.0035971227246
 21
187.4323903562783
 31
0.0
  0
LINE
  5
17E29
330
18
100
AcDbEntity
  8
1
  6
CONTINUOUS
100
AcDbLine
 10
545.8035971227246
 20
187.4323903562783
 30
0.0
 11
545.8035971227246
 21
188.1323903562784
 31
0.0
  0
ARC
  5
17E34
330
18
100
AcDbEntity
  8
1
  6
CONTINUOUS
100
AcDbCircle
 10
545.4035971227246
 20
188.1323903562784
 30
0.0
 40
0.3999999999999915
100
AcDbArc
 50
0.0
 51
180.0
  0
LINE
  5
17E37
330
18
100
AcDbEntity
  8
1
  6
CONTINUOUS
100
AcDbLine
 10
545.0035971227246
 20
187.4323903562783
 30
0.0
 11
545.8035971227246
 21
187.4323903562783
 31
0.0
  0
ARC
  5
17E47
330
18
100
AcDbEntity
  8
1
  6
CONTINUOUS
100
AcDbCircle
 10
608.0183095853977
 20
187.4438667512142
 30
0.0
 40
0.2899382966851199
100
AcDbArc
 50
95.66229477464326
 51
188.3260887533423
  0
ARC
  5
17E48
330
18
100
AcDbEntity
  8
1
  6
CONTINUOUS
100
AcDbCircle
 10
608.0288607094964
 20
187.4410395860327
 30
0.0
 40
1.100000000000023
100
AcDbArc
 50
97.50000000000342
 51
187.5000000000032
  0
LINE
  5
17E49
330
18
100
AcDbEntity
  8
1
  6
CONTINUOUS
100
AcDbLine
 10
627.5213670363726
 20
187.2800691689728
 30
0.0
 11
627.5281803597823
 21
186.723590876943
 31
0.0
  0
LINE
  5
17E4A
330
18
100
AcDbEntity
  8
1
  6
CONTINUOUS
100
AcDbLine
 10
628.3274195795292
 20
186.7584716684801
 30
0.0
 11
628.3206062561196
 21
187.3149499605099
 31
0.0
  0
ARC
  5
17E4B
330
18
100
AcDbEntity
  8
1
  6
CONTINUOUS
100
AcDbCircle
 10
625.4301774079464
 20
186.6320287991583
 30
0.0
 40
2.099999999999994
100
AcDbArc
 50
180.0
 51
2.498944871629883
  0
ARC
  5
17E4C
330
18
100
AcDbEntity
  8
1
  6
CONTINUOUS
100
AcDbCircle
 10
625.4301774079464
 20
186.6320287991583
 30
0.0
 40
2.100000000000007
100
AcDbArc
 50
177.5010551283701
 51
180.0
  0
ARC
  5
17E4D
330
18
100
AcDbEntity
  8
1
  6
CONTINUOUS
100
AcDbCircle
 10
625.4301774079464
 20
186.6320287991584
 30
0.0
 40
2.899999999999996
100
AcDbArc
 50
177.5010551283712
 51
359.9999999999989
  0
ARC
  5
17E4E
330
18
100
AcDbEntity
  8
1
  6
CONTINUOUS
100
AcDbCircle
 10
625.4301774079464
 20
186.6320287991583
 30
0.0
 40
2.900000000000006
100
AcDbArc
 50
0.0
 51
2.498944871629925
  0
LINE
  5
17E4F
330
18
100
AcDbEntity
  8
1
  6
CONTINUOUS
100
AcDbLine
 10
610.5507930030373
 20
165.9866727226923
 30
0.0
 11
607.731427251084
 21
187.4018817283667
 31
0.0
  0
LINE
  5
17E50
330
18
100
AcDbEntity
  8
1
  6
CONTINUOUS
100
AcDbLine
 10
606.9382713619851
 20
187.2974607745905
 30
0.0
 11
609.7576371139381
 21
165.8822517689163
 31
0.0
  0
LINE
  5
17E51
330
18
100
AcDbEntity
  8
1
  6
CONTINUOUS
100
AcDbLine
 10
622.5397485597733
 20
187.3149499605099
 30
0.0
 11
622.5329352363636
 21
186.7584716684801
 31
0.0
  0
LINE
  5
17E52
330
18
100
AcDbEntity
  8
1
  6
CONTINUOUS
100
AcDbLine
 10
623.3321744561106
 20
186.723590876943
 30
0.0
 11
623.3389877795203
 21
187.2800691689728
 31
0.0
  0
ARC
  5
17E53
330
18
100
AcDbEntity
  8
1
  6
CONTINUOUS
100
AcDbCircle
 10
628.720225865993
 20
187.3323903562784
 30
0.0
 40
0.4000000000000057
100
AcDbArc
 50
180.0
 51
182.4989448716215
  0
ARC
  5
17E54
330
18
100
AcDbEntity
  8
1
  6
CONTINUOUS
100
AcDbCircle
 10
628.720225865993
 20
187.3323903562784
 30
0.0
 40
0.4000000000000341
100
AcDbArc
 50
90.0
 51
180.0
  0
ARC
  5
17E55
330
18
100
AcDbEntity
  8
1
  6
CONTINUOUS
100
AcDbCircle
 10
628.720225865993
 20
187.3323903562784
 30
0.0
 40
1.200000000000017
100
AcDbArc
 50
90.0
 51
182.4989448716299
  0
LINE
  5
17E56
330
18
100
AcDbEntity
  8
1
  6
CONTINUOUS
100
AcDbLine
 10
607.9897028518303
 20
187.7323903562784
 30
0.0
 11
622.1401289498999
 21
187.7323903562784
 31
0.0
  0
LINE
  5
17E57
330
18
100
AcDbEntity
  8
1
  6
CONTINUOUS
100
AcDbLine
 10
622.1401289498999
 20
188.5323903562784
 30
0.0
 11
607.8852818980542
 21
188.5316289335439
 31
0.0
  0
ARC
  5
17E58
330
18
100
AcDbEntity
  8
1
  6
CONTINUOUS
100
AcDbCircle
 10
622.1401289498999
 20
187.3323903562784
 30
0.0
 40
0.4000000000000341
100
AcDbArc
 50
357.5010551283785
 51
90.0
  0
ARC
  5
17E59
330
18
100
AcDbEntity
  8
1
  6
CONTINUOUS
100
AcDbCircle
 10
622.1401289498999
 20
187.3323903562784
 30
0.0
 40
1.199999999999989
100
AcDbArc
 50
357.5010551283728
 51
0.0
  0
ARC
  5
17E5A
330
18
100
AcDbEntity
  8
1
  6
CONTINUOUS
100
AcDbCircle
 10
622.1401289498999
 20
187.3323903562784
 30
0.0
 40
1.200000000000017
100
AcDbArc
 50
0.0
 51
90.0
  0
LINE
  5
17E5B
330
18
100
AcDbEntity
  8
1
  6
CONTINUOUS
100
AcDbLine
 10
642.9150729178388
 20
188.5316289335439
 30
0.0
 11
628.720225865993
 21
188.5323903562784
 31
0.0
  0
LINE
  5
17E5C
330
18
100
AcDbEntity
  8
1
  6
CONTINUOUS
100
AcDbLine
 10
628.720225865993
 20
187.7323903562784
 30
0.0
 11
642.8801774079465
 21
187.7323903562784
 31
0.0
  0
ARC
  5
17E5D
330
18
100
AcDbEntity
  8
1
  6
CONTINUOUS
100
AcDbCircle
 10
610.5802239508834
 20
162.6988104415587
 30
0.0
 40
0.4000000000000216
100
AcDbArc
 50
187.4998767525513
 51
7.500123247453134
  0
LWPOLYLINE
  5
17E5F
330
18
100
AcDbEntity
  8
1
  6
CONTINUOUS
100
AcDbPolyline
 90
       10
 70
   128
 43
0.0
 10
609.757637113939
 20
165.8822517689164
 10
609.823367550608
 20
165.3829802603256
 10
609.8871009891404
 20
164.8988788886199
 10
609.946900921257
 20
164.4446568290115
 10
610.0009503562808
 20
164.0341153889342
 10
610.0476070294787
 20
163.6797286623007
 10
610.0854533014453
 20
163.3922645104714
 10
610.1133392323578
 20
163.1804573862358
 10
610.1304175223167
 20
163.0507429418842
 10
610.1361692561225
 20
163.0070624851763
  0
LWPOLYLINE
  5
17E60
330
18
100
AcDbEntity
  8
1
  6
CONTINUOUS
100
AcDbPolyline
 90
       10
 70
   128
 43
0.0
 10
610.9293251452197
 20
163.1114834389521
 10
610.9235734114131
 20
163.1551638956666
 10
610.9064951214543
 20
163.2848783400178
 10
610.8786091905419
 20
163.496685464253
 10
610.8407629185754
 20
163.7841496160816
 10
610.7941062453774
 20
164.1385363427142
 10
610.7400568103537
 20
164.5490777827906
 10
610.6802568782373
 20
165.003299842398
 10
610.6165234397051
 20
165.4874012141025
 10
610.5507930030363
 20
165.9866727226922
  0
LWPOLYLINE
  5
17E61
330
18
100
AcDbEntity
  8
1
  6
CONTINUOUS
100
AcDbPolyline
 90
        9
 70
   128
 43
0.0
 10
610.9293251452197
 20
163.1114834389521
 10
610.9289651421574
 20
163.1142200183519
 10
610.9278852787077
 20
163.122424476284
 10
610.9260876104513
 20
163.1360811950962
 10
610.9235755593528
 20
163.1551641784482
 10
610.9203539072435
 20
163.1796371007966
 10
610.9164287867219
 20
163.2094533765426
 10
610.9118076694774
 20
163.2445562487109
 10
610.9064993520706
 20
163.2848788969827
  0
SPLINE
  5
17E69
330
18
100
AcDbEntity
  8
1
  6
CONTINUOUS
100
AcDbSpline
210
0.0
220
0.0
230
1.0
 70
     8
 71
     3
 72
    16
 73
    12
 74
     0
 42
0.000000001
 43
0.00000001
 40
0.0
 40
0.0
 40
0.0
 40
0.0
 40
0.0794260073741544
 40
0.2026236240601965
 40
0.3260114764603632
 40
0.4496931995843079
 40
0.5738054607812261
 40
0.6983788268438033
 40
0.8233485620349092
 40
0.9485512968942074
 40
1.0
 40
1.0
 40
1.0
 40
1.0
 10
615.2115580895678
 20
124.4556629446147
 30
0.0
 10
615.2226927854394
 20
124.3942558187349
 30
0.0
 10
615.251098499196
 20
124.2376001488826
 30
0.0
 10
615.359478670911
 20
124.0013964826345
 30
0.0
 10
615.5416237835802
 20
123.7700272169548
 30
0.0
 10
615.7773388065128
 20
123.5893709838737
 30
0.0
 10
616.0511983173769
 20
123.4703417000329
 30
0.0
 10
616.3474873168273
 20
123.4203026428794
 30
0.0
 10
616.6474389341204
 20
123.4437198683074
 30
0.0
 10
616.8784573239687
 20
123.5183983286915
 30
0.0
 10
617.0004090601283
 20
123.5872659960101
 30
0.0
 10
617.0359267934632
 20
123.6073233032715
 30
0.0
  0
SPLINE
  5
17E6A
102
{ACAD_REACTORS
330
18035
102
}
330
18
100
AcDbEntity
  8
1
  6
CONTINUOUS
100
AcDbSpline
210
0.0
220
0.0
230
1.0
 70
     8
 71
     3
 72
    14
 73
    10
 74
     0
 42
0.000000001
 43
0.00000001
 40
0.0
 40
0.0
 40
0.0
 40
0.0
 40
0.0788720408004313
 40
0.2544931710338443
 40
0.4293385343960251
 40
0.6029032911128719
 40
0.7803959900805496
 40
0.9732080142039152
 40
1.0
 40
1.0
 40
1.0
 40
1.0
 10
616.621103482737
 20
124.2913712700679
 30
0.0
 10
616.6026625165296
 20
124.2813354515602
 30
0.0
 10
616.5431598091127
 20
124.2489532886287
 30
0.0
 10
616.4247851045327
 20
124.2236852058952
 30
0.0
 10
616.2784317729077
 20
124.2413534954844
 30
0.0
 10
616.1487616854546
 20
124.3061887594701
 30
0.0
 10
616.0508698912562
 20
124.4097798059781
 30
0.0
 10
616.0134220938673
 20
124.5018794425017
 30
0.0
 10
616.0056609148259
 20
124.5537545905879
 30
0.0
 10
616.0047140405007
 20
124.5600834287143
 30
0.0
  0
LINE
  5
17E6D
330
18
100
AcDbEntity
  8
1
  6
CONTINUOUS
100
AcDbLine
 10
618.4760159145275
 20
125.41623524659
 30
0.0
 11
616.621103482737
 21
124.2913712700679
 31
0.0
  0
LINE
  5
17E6E
330
18
100
AcDbEntity
  8
1
  6
CONTINUOUS
100
AcDbLine
 10
617.0359267934632
 20
123.6073233032715
 30
0.0
 11
618.8908392252538
 21
124.7321872797937
 31
0.0
  0
LINE
  5
17E6F
330
18
100
AcDbEntity
  8
1
  6
CONTINUOUS
100
AcDbLine
 10
616.0047069219249
 20
124.5601370811397
 30
0.0
 11
611.0839259193876
 21
161.9373480102461
 31
0.0
  0
LINE
  5
17E70
330
18
100
AcDbEntity
  8
1
  6
CONTINUOUS
100
AcDbLine
 10
610.2907699684547
 20
161.8329275261464
 30
0.0
 11
615.2115580895678
 21
124.4556629446147
 31
0.0
  0
LINE
  5
17E74
330
18
100
AcDbEntity
  8
1
  6
CONTINUOUS
100
AcDbLine
 10
610.9064996606297
 20
163.2848765531957
 30
0.0
 11
610.6302504160868
 21
165.3832937214851
 31
0.0
  0
LWPOLYLINE
  5
17E75
330
18
100
AcDbEntity
  8
1
  6
CONTINUOUS
100
AcDbPolyline
 90
       11
 70
   128
 43
0.0
 10
611.0839258893827
 20
161.9373482381486
 10
611.0156551670389
 20
162.4559174050172
 10
610.9463896205006
 20
162.982041421962
 10
610.8784489657271
 20
163.4981002983898
 10
610.8141085478072
 20
163.9868111271241
 10
610.7555231392313
 20
164.4318068921616
 10
610.7046547761639
 20
164.818184603064
 10
610.663207049488
 20
165.1330043988625
 10
610.6325680512326
 20
165.3657229063947
 10
610.6137638871135
 20
165.5085463398199
 10
610.6074243120644
 20
165.5566915159422
  0
LWPOLYLINE
  5
17E76
330
18
100
AcDbEntity
  8
1
  6
CONTINUOUS
100
AcDbPolyline
 90
        9
 70
   128
 43
0.0
 10
610.6302501084406
 20
165.3832960583364
 10
610.6249417909819
 20
165.423618706608
 10
610.6203206735847
 20
165.4587215787562
 10
610.6163955528087
 20
165.4885378544688
 10
610.6131739003445
 20
165.5130107767704
 10
610.6106618487904
 20
165.5320937600626
 10
610.6088641799794
 20
165.5457504788018
 10
610.6077843158762
 20
165.5539549366478
 10
610.6074243120644
 20
165.5566915159422
  0
LWPOLYLINE
  5
17E77
330
18
100
AcDbEntity
  8
1
  6
CONTINUOUS
100
AcDbPolyline
 90
        4
 70
   128
 43
0.0
 10
610.1367503607206
 20
163.0028238515054
 10
610.1532337295773
 20
162.8776204820568
 10
610.2224992761153
 20
162.3514964651132
 10
610.2907699984594
 20
161.8329272982439
  0
ARC
  5
17E7D
330
18
100
AcDbEntity
  8
1
  6
CONTINUOUS
100
AcDbCircle
 10
617.8934709162012
 20
124.5951623509519
 30
0.0
 40
1.006736993969407
100
AcDbArc
 50
7.822693312354499
 51
54.6445879464593
  0
LINE
  5
17E85
330
18
100
AcDbEntity
  8
1
  6
CONTINUOUS
100
AcDbLine
 10
607.3348493065347
 20
187.3496712514786
 30
0.0
 11
606.9382713619851
 21
187.2974607745905
 31
0.0
  0
LINE
  5
17E86
330
18
100
AcDbEntity
  8
1
  6
CONTINUOUS
100
AcDbLine
 10
607.731427251084
 20
187.4018817283667
 30
0.0
 11
607.3348493065347
 21
187.3496712514786
 31
0.0
  0
LINE
  5
17E87
330
18
100
AcDbEntity
  8
1
  6
CONTINUOUS
100
AcDbLine
 10
607.9374923749423
 20
188.1350509889943
 30
0.0
 11
607.8852818980542
 21
188.5316289335439
 31
0.0
  0
LINE
  5
17E88
102
{ACAD_REACTORS
330
18035
102
}
330
18
100
AcDbEntity
  8
1
  6
CONTINUOUS
100
AcDbLine
 10
607.9897028518303
 20
187.7323903562784
 30
0.0
 11
607.9374923749423
 21
188.1350509889943
 31
0.0
  0
LINE
  5
17E89
330
18
100
AcDbEntity
  8
1
  6
CONTINUOUS
100
AcDbLine
 10
627.9209866462461
 20
187.2975095647413
 30
0.0
 11
627.5213670363726
 21
187.2800691689728
 31
0.0
  0
LINE
  5
17E8A
330
18
100
AcDbEntity
  8
1
  6
CONTINUOUS
100
AcDbLine
 10
628.3206062561196
 20
187.3149499605099
 30
0.0
 11
627.9209866462461
 21
187.2975095647413
 31
0.0
  0
LINE
  5
17E8B
330
18
100
AcDbEntity
  8
1
  6
CONTINUOUS
100
AcDbLine
 10
627.9277999696558
 20
186.7410312727116
 30
0.0
 11
627.5281803597823
 21
186.723590876943
 31
0.0
  0
LINE
  5
17E8C
330
18
100
AcDbEntity
  8
1
  6
CONTINUOUS
100
AcDbLine
 10
628.3274195795292
 20
186.7584716684801
 30
0.0
 11
627.9277999696558
 21
186.7410312727116
 31
0.0
  0
LINE
  5
17E8D
330
18
100
AcDbEntity
  8
1
  6
CONTINUOUS
100
AcDbLine
 10
622.9325548462372
 20
186.7410312727116
 30
0.0
 11
623.3321744561106
 21
186.723590876943
 31
0.0
  0
LINE
  5
17E8E
330
18
100
AcDbEntity
  8
1
  6
CONTINUOUS
100
AcDbLine
 10
622.5329352363636
 20
186.7584716684801
 30
0.0
 11
622.9325548462372
 21
186.7410312727116
 31
0.0
  0
LINE
  5
17E8F
330
18
100
AcDbEntity
  8
1
  6
CONTINUOUS
100
AcDbLine
 10
610.1542150584877
 20
165.9344622458043
 30
0.0
 11
609.7576371139381
 21
165.8822517689163
 31
0.0
  0
LINE
  5
17E90
330
18
100
AcDbEntity
  8
1
  6
CONTINUOUS
100
AcDbLine
 10
610.5507930030373
 20
165.9866727226923
 30
0.0
 11
610.1542150584877
 21
165.9344622458043
 31
0.0
  0
LINE
  5
17E91
330
18
100
AcDbEntity
  8
1
  6
CONTINUOUS
100
AcDbLine
 10
622.9393681696469
 20
187.2975095647413
 30
0.0
 11
623.3389877795203
 21
187.2800691689728
 31
0.0
  0
LINE
  5
17E92
330
18
100
AcDbEntity
  8
1
  6
CONTINUOUS
100
AcDbLine
 10
622.5397485597733
 20
187.3149499605099
 30
0.0
 11
622.9393681696469
 21
187.2975095647413
 31
0.0
  0
LINE
  5
17E93
330
18
100
AcDbEntity
  8
1
  6
CONTINUOUS
100
AcDbLine
 10
628.720225865993
 20
188.1323903562784
 30
0.0
 11
628.720225865993
 21
188.5323903562784
 31
0.0
  0
LINE
  5
17E94
330
18
100
AcDbEntity
  8
1
  6
CONTINUOUS
100
AcDbLine
 10
628.720225865993
 20
187.7323903562784
 30
0.0
 11
628.720225865993
 21
188.1323903562784
 31
0.0
  0
LINE
  5
17E95
330
18
100
AcDbEntity
  8
1
  6
CONTINUOUS
100
AcDbLine
 10
622.1401289498999
 20
188.1323903562784
 30
0.0
 11
622.1401289498999
 21
188.5323903562784
 31
0.0
  0
LINE
  5
17E96
330
18
100
AcDbEntity
  8
1
  6
CONTINUOUS
100
AcDbLine
 10
622.1401289498999
 20
187.7323903562784
 30
0.0
 11
622.1401289498999
 21
188.1323903562784
 31
0.0
  0
ARC
  5
17E9B
330
18
100
AcDbEntity
  8
1
  6
CONTINUOUS
100
AcDbCircle
 10
616.3127895994105
 20
123.5420783684154
 30
0.0
 40
0.7260896536709002
100
AcDbArc
 50
5.15612634188885
 51
43.28993203483323
  0
ARC
  5
17E9C
330
18
100
AcDbEntity
  8
1
  6
CONTINUOUS
100
AcDbCircle
 10
616.3683977329725
 20
123.8484543162323
 30
0.0
 40
0.5102084385937224
100
AcDbArc
 50
22.04474262061791
 51
60.27545667759582
  0
LWPOLYLINE
  5
17E9D
330
18
100
AcDbEntity
  8
1
  6
CONTINUOUS
100
AcDbPolyline
 90
        6
 70
   128
 43
0.0
 10
615.5946230399436
 20
124.6105151169371
 10
615.4438878371409
 20
124.5827219685979
 10
615.318157938121
 20
124.5435337717152
 10
615.2365745802654
 20
124.4989165740225
 10
615.2115580902527
 20
124.4556629394127
 10
615.2115631653181
 20
124.4556246041244
  0
ARC
  5
17E9E
330
18
100
AcDbEntity
  8
1
  6
CONTINUOUS
100
AcDbCircle
 10
615.7477007477997
 20
124.1623303607039
 30
0.0
 40
0.4736057013617624
100
AcDbArc
 50
57.13519939739215
 51
108.8576249845572
  0
ARC
  5
17E9F
330
18
100
AcDbEntity
  8
1
  6
CONTINUOUS
100
AcDbCircle
 10
610.7917396025985
 20
161.0787576422172
 30
0.0
 40
0.6720883959682469
100
AcDbArc
 50
60.97594161066312
 51
134.0239920357668
  0
LINE
  5
17ECA
330
18
100
AcDbEntity
  8
OSIE
100
AcDbLine
 10
545.4035971227246
 20
191.640704640095
 30
0.0
 11
545.4035971227246
 21
121.398664662409
 31
0.0
  0
LINE
  5
17ECE
330
18
100
AcDbEntity
  8
OSIE
100
AcDbLine
 10
625.4759693348813
 20
194.4924866385087
 30
0.0
 11
625.4759693348813
 21
120.32675323739
 31
0.0
  0
DIMENSION
  5
17ED1
330
18
100
AcDbEntity
  8
WY
100
AcDbDimension
  2
*D172
 10
558.5024122264617
 20
195.6429405039314
 30
0.0
 11
551.7530046745932
 21
197.2679405039314
 31
0.0
 70
    32
  3
STANDARD
100
AcDbAlignedDimension
 13
545.0035971227246
 23
188.1323903562784
 33
0.0
 14
558.5024122264617
 24
162.4986958362331
 34
0.0
100
AcDbRotatedDimension
1001
ACAD
1000
DSTYLE
1002
{
1070
   287
1070
     4
1070
     3
1000
+0,5
1070
    41
1040
2.5
1070
   147
1040
0.75
1070
   174
1070
     1
1070
   279
1070
     1
1070
   172
1070
     1
1070
    74
1070
     1
1070
   140
1040
1.5
1070
   284
1070
     8
1070
    78
1070
     8
1002
}
  0
DIMENSION
  5
17EFE
330
18
100
AcDbEntity
  8
WY
100
AcDbDimension
  2
*D175
 10
643.9306649475874
 20
197.6325739102319
 30
0.0
 11
625.4297628285419
 21
199.1325739102319
 31
0.0
 70
    32
  3
STANDARD
100
AcDbAlignedDimension
 13
606.9288607094963
 23
187.4410395860327
 33
0.0
 14
643.9306649475874
 24
187.474940258021
 34
0.0
100
AcDbRotatedDimension
1001
ACAD
1000
DSTYLE
1002
{
1070
   287
1070
     4
1070
     3
1000
+1
1070
   271
1070
     1
1070
    41
1040
2.5
1070
   147
1040
0.75
1070
   174
1070
     1
1070
   279
1070
     1
1070
   172
1070
     1
1070
    74
1070
     1
1070
   140
1040
1.5
1070
   284
1070
     8
1070
    78
1070
     8
1002
}
  0
LINE
  5
17F5D
330
18
100
AcDbEntity
  8
1
100
AcDbLine
 10
554.0576589984397
 20
164.8459292433567
 30
0.0
 11
549.1708344166807
 21
163.4912220598375
 31
0.0
  0
LINE
  5
17F5E
330
18
100
AcDbEntity
  8
1
100
AcDbLine
 10
554.3351749325057
 20
164.095606042103
 30
0.0
 11
549.4483503507466
 21
162.7408988585838
 31
0.0
  0
LINE
  5
17F5F
330
18
100
AcDbEntity
  8
1
100
AcDbLine
 10
557.5839405369821
 20
160.9903705907252
 30
0.0
 11
545.0233132698312
 21
123.9564233810281
 31
0.0
  0
LINE
  5
17F60
330
18
100
AcDbEntity
  8
1
100
AcDbLine
 10
558.3460295963487
 20
160.747018447538
 30
0.0
 11
545.7876015578634
 21
123.7204055635888
 31
0.0
  0
ARC
  5
17F65
330
18
100
AcDbEntity
  8
1
100
AcDbCircle
 10
545.4035971227246
 20
123.8323903562784
 30
0.0
 40
0.4
100
AcDbArc
 50
161.9357938785915
 51
343.7420643272868
  0
ARC
  5
17F67
330
18
100
AcDbEntity
  8
1
100
AcDbCircle
 10
555.2024122264618
 20
161.7508460381854
 30
0.0
 40
2.5
100
AcDbArc
 50
342.2905502229432
 51
110.2975115742142
  0
ARC
  5
17F68
330
18
100
AcDbEntity
  8
1
100
AcDbCircle
 10
548.3035971227246
 20
165.8359820637551
 30
0.0
 40
2.500000000000001
100
AcDbArc
 50
180.0
 51
290.2975115742142
  0
ARC
  5
17F6C
330
18
100
AcDbEntity
  8
1
100
AcDbCircle
 10
555.2024122264618
 20
161.7508460381854
 30
0.0
 40
3.3
100
AcDbArc
 50
342.2905502229424
 51
110.2975115742141
  0
ARC
  5
17F6D
330
18
100
AcDbEntity
  8
1
100
AcDbCircle
 10
548.3035971227246
 20
165.8359820637551
 30
0.0
 40
3.300000000000001
100
AcDbArc
 50
180.0
 51
290.2975115742139
  0
ARC
  5
17FA0
330
18
100
AcDbEntity
  8
1
  6
CONTINUOUS
100
AcDbCircle
 10
642.8412105437465
 20
187.4777879736598
 30
0.0
 40
0.2899382966851199
100
AcDbArc
 50
351.7855356210671
 51
84.4493295997667
  0
ARC
  5
17FA1
330
18
100
AcDbEntity
  8
1
  6
CONTINUOUS
100
AcDbCircle
 10
642.8306649475874
 20
187.474940258021
 30
0.0
 40
1.100000000000023
100
AcDbArc
 50
352.6116243744086
 51
82.61162437440508
  0
LINE
  5
17FA2
330
18
100
AcDbEntity
  8
1
  6
CONTINUOUS
100
AcDbLine
 10
640.3505350870472
 20
166.0157008522345
 30
0.0
 11
643.1281741293342
 21
187.4363619379892
 31
0.0
  0
LINE
  5
17FA3
330
18
100
AcDbEntity
  8
1
  6
CONTINUOUS
100
AcDbLine
 10
643.921531947325
 20
187.3334864179045
 30
0.0
 11
641.1438929050381
 21
165.9128253321499
 31
0.0
  0
ARC
  5
17FA4
330
18
100
AcDbEntity
  8
1
  6
CONTINUOUS
100
AcDbCircle
 10
640.3275096465767
 20
162.7277874729797
 30
0.0
 40
0.4000000000000216
100
AcDbArc
 50
172.6115011269584
 51
352.6117476218614
  0
LWPOLYLINE
  5
17FA5
330
18
100
AcDbEntity
  8
1
  6
CONTINUOUS
100
AcDbPolyline
 90
       10
 70
   128
 43
0.0
 10
641.1438929050372
 20
165.91282533215
 10
641.0791352796671
 20
165.4134267142587
 10
641.0163450940065
 20
164.9292020950382
 10
640.9574301960738
 20
164.4748643945141
 10
640.9041806852299
 20
164.0642184338107
 10
640.8582145209166
 20
163.7097414826471
 10
640.8209283617762
 20
163.4222041438104
 10
640.7934551288868
 20
163.2103430938404
 10
640.776629582527
 20
163.0805956235334
 10
640.7709629584103
 20
163.0369040441261
  0
LWPOLYLINE
  5
17FA6
330
18
100
AcDbEntity
  8
1
  6
CONTINUOUS
100
AcDbPolyline
 90
       10
 70
   128
 43
0.0
 10
639.9776051404212
 20
163.1397795642106
 10
639.9832717645388
 20
163.1834711436244
 10
640.0000973108984
 20
163.3132186139311
 10
640.0275705437878
 20
163.5250796639006
 10
640.0648567029281
 20
163.8126170027366
 10
640.1108228672415
 20
164.1670939538994
 10
640.1640723780852
 20
164.5777399146018
 10
640.2229872760179
 20
165.032077615125
 10
640.2857774616781
 20
165.5163022343443
 10
640.3505350870481
 20
166.0157008522344
  0
LWPOLYLINE
  5
17FA7
330
18
100
AcDbEntity
  8
1
  6
CONTINUOUS
100
AcDbPolyline
 90
        9
 70
   128
 43
0.0
 10
639.9776051404212
 20
163.1397795642106
 10
639.9779598113645
 20
163.1425168397791
 10
639.9790236887445
 20
163.1507233859436
 10
639.980794747411
 20
163.1643835810767
 10
639.9832696160523
 20
163.1834714222208
 10
639.9864435836158
 20
163.2079505745855
 10
639.9903106082733
 20
163.2377744407126
 10
639.9948633289243
 20
163.2728862491782
 10
640.000093079205
 20
163.3132191626528
  0
LINE
  5
17FAC
330
18
100
AcDbEntity
  8
1
  6
CONTINUOUS
100
AcDbLine
 10
634.9472317478376
 20
124.5601370811397
 30
0.0
 11
639.8252921239427
 21
161.9653451687132
 31
0.0
  0
LINE
  5
17FAD
330
18
100
AcDbEntity
  8
1
  6
CONTINUOUS
100
AcDbLine
 10
640.6186500028524
 20
161.8624701184245
 30
0.0
 11
635.7403755044444
 21
124.4556246041244
 31
0.0
  0
LINE
  5
17FAE
330
18
100
AcDbEntity
  8
1
  6
CONTINUOUS
100
AcDbLine
 10
640.0000927752127
 20
163.313216818269
 30
0.0
 11
640.2722533347745
 21
165.4121681962436
 31
0.0
  0
LWPOLYLINE
  5
17FAF
330
18
100
AcDbEntity
  8
1
  6
CONTINUOUS
100
AcDbPolyline
 90
       11
 70
   128
 43
0.0
 10
639.8252921535036
 20
161.9653453966737
 10
639.8925524638056
 20
162.4840465852344
 10
639.9607928779673
 20
163.010304547662
 10
640.0277280119022
 20
163.5264948075043
 10
640.0911161956004
 20
164.0153300575301
 10
640.1488345470718
 20
164.4604391148438
 10
640.1989500680543
 20
164.846915194828
 10
640.2397843804856
 20
165.1618151421152
 10
640.2699699356932
 20
165.3945928992547
 10
640.288495813853
 20
165.5374526961257
 10
640.2947415798792
 20
165.5856101317135
  0
LWPOLYLINE
  5
17FB0
330
18
100
AcDbEntity
  8
1
  6
CONTINUOUS
100
AcDbPolyline
 90
        9
 70
   128
 43
0.0
 10
640.2722536378675
 20
165.4121705336898
 10
640.2774833882
 20
165.4525034471642
 10
640.2820361090038
 20
165.48761525561
 10
640.2859031339158
 20
165.5174391217043
 10
640.2890771018343
 20
165.5419182740228
 10
640.2915519709312
 20
165.561006115108
 10
640.2933230301525
 20
165.5746663101692
 10
640.2943869081861
 20
165.5828728562489
 10
640.2947415798792
 20
165.5856101317135
  0
LWPOLYLINE
  5
17FB1
330
18
100
AcDbEntity
  8
1
  6
CONTINUOUS
100
AcDbPolyline
 90
        4
 70
   128
 43
0.0
 10
640.7703901126704
 20
163.0326642863844
 10
640.7541506977553
 20
162.9074290414516
 10
640.6859102835939
 20
162.3811710790253
 10
640.6186499732918
 20
161.862469890464
  0
LINE
  5
17FB4
330
18
100
AcDbEntity
  8
1
  6
CONTINUOUS
100
AcDbLine
 10
643.5248530383295
 20
187.3849241779469
 30
0.0
 11
643.921531947325
 21
187.3334864179045
 31
0.0
  0
LINE
  5
17FB5
330
18
100
AcDbEntity
  8
1
  6
CONTINUOUS
100
AcDbLine
 10
643.1281741293342
 20
187.4363619379892
 30
0.0
 11
643.5248530383295
 21
187.3849241779469
 31
0.0
  0
LINE
  5
17FB6
330
18
100
AcDbEntity
  8
1
  6
CONTINUOUS
100
AcDbLine
 10
642.9206810276615
 20
188.169128348763
 30
0.0
 11
642.972118787704
 21
188.5658072577585
 31
0.0
  0
LINE
  5
17FB7
330
18
100
AcDbEntity
  8
1
  6
CONTINUOUS
100
AcDbLine
 10
642.869255117983
 20
187.7663667631447
 30
0.0
 11
642.9206810276615
 21
188.169128348763
 31
0.0
  0
LINE
  5
17FB8
330
18
100
AcDbEntity
  8
1
  6
CONTINUOUS
100
AcDbLine
 10
640.7472139960427
 20
165.9642630921922
 30
0.0
 11
641.1438929050381
 21
165.9128253321499
 31
0.0
  0
LINE
  5
17FB9
330
18
100
AcDbEntity
  8
1
  6
CONTINUOUS
100
AcDbLine
 10
640.3505350870472
 20
166.0157008522345
 30
0.0
 11
640.7472139960427
 21
165.9642630921922
 31
0.0
  0
ARC
  5
17FBE
330
18
100
AcDbEntity
  8
1
  6
CONTINUOUS
100
AcDbCircle
 10
640.1191506019682
 20
161.1073256708675
 30
0.0
 40
0.6720883959682469
100
AcDbArc
 50
46.08763233864381
 51
119.1356827637527
  0
DIMENSION
  5
17FC8
330
18
100
AcDbEntity
  8
WY
100
AcDbDimension
  2
*D179
 10
607.731427251084
 20
187.4018817283667
 30
0.0
 11
615.811489796255
 21
180.8718793415989
 31
0.0
 70
   162
  1
80+5%%d
  3
STANDARD
100
AcDb2LineAngularDimension
 13
607.9897028518303
 23
187.7323903562784
 33
0.0
 14
622.1401289498999
 24
187.7323903562784
 34
0.0
 15
610.5507930030373
 25
165.9866727226923
 35
0.0
 16
613.7867097996383
 26
179.0224086692965
 36
0.0
1001
ACAD
1000
DSTYLE
1002
{
1070
   287
1070
     3
1070
    79
1070
     2
1070
   179
1070
     2
1070
    41
1040
2.5
1070
   147
1040
0.75
1070
   174
1070
     1
1070
   279
1070
     0
1070
   172
1070
     1
1070
    74
1070
     1
1070
   140
1040
1.5
1070
   284
1070
     8
1070
    78
1070
     8
1002
}
  0
DIMENSION
  5
17FD9
330
18
100
AcDbEntity
  8
WY
100
AcDbDimension
  2
*D180
 10
610.1112441923472
 20
169.3253774092285
 30
0.0
 11
617.9188724756659
 21
170.3532711729614
 31
0.0
 70
   161
  3
STANDARD
100
AcDbAlignedDimension
 13
609.7576371139381
 23
165.8822517689163
 33
0.0
 14
610.5507930030363
 24
165.9866727226922
 34
0.0
1001
ACAD
1000
DSTYLE
1002
{
1070
   287
1070
     3
1070
     3
1000
%%c<>
1070
    41
1040
2.5
1070
   147
1040
0.75
1070
   174
1070
     1
1070
   279
1070
     0
1070
   172
1070
     1
1070
    74
1070
     0
1070
   140
1040
1.5
1070
   284
1070
     8
1070
    78
1070
     8
1002
}
  0
SPLINE
  5
18052
330
18
100
AcDbEntity
  8
1
  6
CONTINUOUS
100
AcDbSpline
210
0.0
220
0.0
230
1.0
 70
     8
 71
     3
 72
    16
 73
    12
 74
     0
 42
0.000000001
 43
0.00000001
 40
0.0
 40
0.0
 40
0.0
 40
0.0
 40
0.0794260073741544
 40
0.2026236240601965
 40
0.3260114764603632
 40
0.4496931995843079
 40
0.5738054607812261
 40
0.6983788268438033
 40
0.8233485620349092
 40
0.9485512968942074
 40
1.0
 40
1.0
 40
1.0
 40
1.0
 10
635.7403805801947
 20
124.4556629446147
 30
0.0
 10
635.7292458843231
 20
124.3942558187349
 30
0.0
 10
635.7008401705665
 20
124.2376001488826
 30
0.0
 10
635.5924599988515
 20
124.0013964826345
 30
0.0
 10
635.4103148861823
 20
123.7700272169548
 30
0.0
 10
635.1745998632497
 20
123.5893709838737
 30
0.0
 10
634.9007403523856
 20
123.4703417000329
 30
0.0
 10
634.6044513529353
 20
123.4203026428794
 30
0.0
 10
634.3044997356421
 20
123.4437198683074
 30
0.0
 10
634.0734813457938
 20
123.5183983286915
 30
0.0
 10
633.9515296096342
 20
123.5872659960101
 30
0.0
 10
633.9160118762993
 20
123.6073233032715
 30
0.0
  0
SPLINE
  5
18053
102
{ACAD_REACTORS
330
18035
102
}
330
18
100
AcDbEntity
  8
1
  6
CONTINUOUS
100
AcDbSpline
210
0.0
220
0.0
230
1.0
 70
     8
 71
     3
 72
    14
 73
    10
 74
     0
 42
0.000000001
 43
0.00000001
 40
0.0
 40
0.0
 40
0.0
 40
0.0
 40
0.0788720408004313
 40
0.2544931710338443
 40
0.4293385343960251
 40
0.6029032911128719
 40
0.7803959900805496
 40
0.9732080142039152
 40
1.0
 40
1.0
 40
1.0
 40
1.0
 10
634.3308351870255
 20
124.2913712700679
 30
0.0
 10
634.349276153233
 20
124.2813354515602
 30
0.0
 10
634.4087788606498
 20
124.2489532886287
 30
0.0
 10
634.5271535652298
 20
124.2236852058952
 30
0.0
 10
634.6735068968549
 20
124.2413534954844
 30
0.0
 10
634.8031769843079
 20
124.3061887594701
 30
0.0
 10
634.9010687785063
 20
124.4097798059781
 30
0.0
 10
634.9385165758952
 20
124.5018794425017
 30
0.0
 10
634.9462777549367
 20
124.5537545905879
 30
0.0
 10
634.9472246292618
 20
124.5600834287143
 30
0.0
  0
LINE
  5
18054
330
18
100
AcDbEntity
  8
1
  6
CONTINUOUS
100
AcDbLine
 10
632.475922755235
 20
125.41623524659
 30
0.0
 11
634.3308351870255
 21
124.2913712700679
 31
0.0
  0
LINE
  5
18055
330
18
100
AcDbEntity
  8
1
  6
CONTINUOUS
100
AcDbLine
 10
633.9160118762993
 20
123.6073233032715
 30
0.0
 11
632.0610994445087
 21
124.7321872797937
 31
0.0
  0
ARC
  5
18056
330
18
100
AcDbEntity
  8
1
  6
CONTINUOUS
100
AcDbCircle
 10
633.0584677535613
 20
124.5951623509519
 30
0.0
 40
1.006736993969407
100
AcDbArc
 50
125.3554120535407
 51
172.1773066876455
  0
ARC
  5
18057
330
18
100
AcDbEntity
  8
1
  6
CONTINUOUS
100
AcDbCircle
 10
634.639149070352
 20
123.5420783684154
 30
0.0
 40
0.7260896536709002
100
AcDbArc
 50
136.7100679651668
 51
174.8438736581111
  0
ARC
  5
18058
330
18
100
AcDbEntity
  8
1
  6
CONTINUOUS
100
AcDbCircle
 10
634.58354093679
 20
123.8484543162323
 30
0.0
 40
0.5102084385937224
100
AcDbArc
 50
119.7245433224042
 51
157.9552573793821
  0
LWPOLYLINE
  5
18059
330
18
100
AcDbEntity
  8
1
  6
CONTINUOUS
100
AcDbPolyline
 90
        6
 70
   128
 43
0.0
 10
635.3573156298189
 20
124.6105151169371
 10
635.5080508326216
 20
124.5827219685979
 10
635.6337807316415
 20
124.5435337717152
 10
635.7153640894971
 20
124.4989165740225
 10
635.7403805795099
 20
124.4556629394127
 10
635.7403755044444
 20
124.4556246041244
  0
ARC
  5
1805A
330
18
100
AcDbEntity
  8
1
  6
CONTINUOUS
100
AcDbCircle
 10
635.2042379219628
 20
124.1623303607039
 30
0.0
 40
0.4736057013617624
100
AcDbArc
 50
71.14237501544278
 51
122.8648006026079
  0
DIMENSION
  5
1805B
102
{ACAD_REACTORS
102
}
102
{ACAD_XDICTIONARY
360
1805C
102
}
330
18
100
AcDbEntity
  8
WY
100
AcDbDimension
  2
*D182
 10
607.2977662059016
 20
123.0228944956946
 30
0.0
 11
604.4683726965528
 21
154.9456219364427
 31
0.0
 70
    33
  3
STANDARD
100
AcDbAlignedDimension
 13
607.9897028518303
 23
187.7323903562784
 33
0.0
 14
616.621103482737
 24
124.2913712700679
 34
0.0
1001
ACAD
1000
DSTYLE
1002
{
1070
   287
1070
     4
1070
     3
1000
%%p0.5
1070
   271
1070
     0
1070
    41
1040
2.5
1070
   147
1040
0.75
1070
   174
1070
     1
1070
   279
1070
     1
1070
   172
1070
     1
1070
    74
1070
     1
1070
   140
1040
1.5
1070
   284
1070
     8
1070
    78
1070
     8
1002
}
  0
ENDSEC
  0
SECTION
  2
OBJECTS
  0
DICTIONARY
  5
C
330
0
100
AcDbDictionary
  3
ACAD_DETAILVIEWSTYLE
350
F5C4
  3
ACAD_GROUP
350
D
  3
ACAD_IMAGE_VARS
350
F140
  3
ACAD_MLINESTYLE
350
E
  3
ACAD_SCALELIST
350
18005
  3
ACAD_SECTIONVIEWSTYLE
350
F5C5
  3
ACDBVARIABLEDICTIONARY
350
C1B
  3
APPDATA
350
F13E
  3
DIMOFFSETDICTIONARY
350
13296
  3
DWGPROPS
350
1806B
  0
DICTIONARY
  5
13241
330
2
100
AcDbDictionary
280
     1
  3
ACAD_LAYERSTATES
360
13242
  0
DICTIONARY
  5
1805C
330
1805B
100
AcDbDictionary
280
     1
  0
DICTIONARY
  5
F5C4
102
{ACAD_REACTORS
330
C
102
}
330
C
100
AcDbDictionary
  0
DICTIONARY
  5
D
102
{ACAD_REACTORS
330
C
102
}
330
C
100
AcDbDictionary
  0
RASTERVARIABLES
  5
F140
102
{ACAD_REACTORS
330
C
102
}
330
C
100
AcDbRasterVariables
 90
        0
 70
     1
 71
     1
 72
     0
  0
DICTIONARY
  5
E
102
{ACAD_REACTORS
330
C
102
}
330
C
100
AcDbDictionary
  3
STANDARD
350
1B
  0
DICTIONARY
  5
18005
102
{ACAD_REACTORS
330
C
102
}
330
C
100
AcDbDictionary
  0
DICTIONARY
  5
F5C5
102
{ACAD_REACTORS
330
C
102
}
330
C
100
AcDbDictionary
  0
DICTIONARY
  5
C1B
102
{ACAD_REACTORS
330
C
102
}
330
C
100
AcDbDictionary
  3
HPTRANSPARENCY
350
13295
  3
SORTENTS
350
C1C
  0
DICTIONARY
  5
F13E
102
{ACAD_REACTORS
330
C
102
}
330
C
100
AcDbDictionary
  0
DICTIONARY
  5
13296
102
{ACAD_REACTORS
330
C
102
}
330
C
100
AcDbDictionary
  3
DIMRAILANGLE
350
17EB8
  3
DIMRAILFIRSTOFFSET
350
17EB6
  3
DIMRAILOFFSET
350
17EB7
  3
DIMRAILSENABLED
350
17EB9
  0
XRECORD
  5
1806B
102
{ACAD_REACTORS
330
C
102
}
330
C
100
AcDbXrecord
  1
DWGPROPS COOKIE
  2

  3

  4

  6

  7

  8
pikusl
  9

300
=
301
=
302
=
303
=
304
=
305
=
306
=
307
=
308
=
309
=
 40
0.0
 41
2448721.315803356
 42
2457556.328685475
  1

 90
        0
  0
DICTIONARY
  5
13242
102
{ACAD_REACTORS
330
13241
102
}
330
13241
100
AcDbDictionary
  0
MLINESTYLE
  5
1B
102
{ACAD_REACTORS
330
E
102
}
330
E
100
AcDbMlineStyle
  2
STANDARD
 70
     0
  3

 62
     0
 51
90.0
 52
90.0
 71
     2
 49
0.5
 62
   256
  6
BYLAYER
 49
-0.5
 62
   256
  6
BYLAYER
  0
DICTIONARYVAR
  5
13295
102
{ACAD_REACTORS
330
C1B
102
}
330
C1B
100
DictionaryVariables
280
     0
  1
ByLayer
  0
DICTIONARYVAR
  5
C1C
102
{ACAD_REACTORS
330
C1B
102
}
330
C1B
100
DictionaryVariables
280
     0
  1
96
  0
DICTIONARYVAR
  5
17EB8
102
{ACAD_REACTORS
330
13296
102
}
330
13296
100
DictionaryVariables
280
     0
  1
0.261799
  0
DICTIONARYVAR
  5
17EB6
102
{ACAD_REACTORS
330
13296
102
}
330
13296
100
DictionaryVariables
280
     0
  1
0.400000
  0
DICTIONARYVAR
  5
17EB7
102
{ACAD_REACTORS
330
13296
102
}
330
13296
100
DictionaryVariables
280
     0
  1
0.250000
  0
DICTIONARYVAR
  5
17EB9
102
{ACAD_REACTORS
330
13296
102
}
330
13296
100
DictionaryVariables
280
     0
  1
1
  0
ENDSEC
  0
EOF
