  0
SECTION
  2
HEADER
  9
$ACADVER
  1
AC1014
  9
$ACADMAINTVER
 70
     9
  9
$DWGCODEPAGE
  3
ANSI_1250
  9
$INSBASE
 10
0.0
 20
0.0
 30
0.0
  9
$EXTMIN
 10
486.041244
 20
0.0
 30
0.0
  9
$EXTMAX
 10
687.671651
 20
297.0
 30
0.0
  9
$LIMMIN
 10
0.0
 20
0.0
  9
$LIMMAX
 10
420.0
 20
297.0
  9
$ORTHOMODE
 70
     1
  9
$REGENMODE
 70
     1
  9
$FILLMODE
 70
     1
  9
$QTEXTMODE
 70
     0
  9
$MIRRTEXT
 70
     1
  9
$DRAGMODE
 70
     2
  9
$LTSCALE
 40
6.0
  9
$OSMODE
 70
  9143
  9
$ATTMODE
 70
     1
  9
$TEXTSIZE
 40
3.5
  9
$TRACEWID
 40
0.05
  9
$TEXTSTYLE
  7
ITALIC
  9
$CLAYER
  8
WYMIARY
  9
$CELTYPE
  6
BYLAYER
  9
$CECOLOR
 62
     3
  9
$CELTSCALE
 40
1.0
  9
$DELOBJ
 70
     1
  9
$DISPSILH
 70
     0
  9
$DIMSCALE
 40
1.0
  9
$DIMASZ
 40
2.0
  9
$DIMEXO
 40
1.5
  9
$DIMDLI
 40
7.0
  9
$DIMRND
 40
0.0
  9
$DIMDLE
 40
0.0
  9
$DIMEXE
 40
1.5
  9
$DIMTP
 40
0.1
  9
$DIMTM
 40
0.0
  9
$DIMTXT
 40
1.0
  9
$DIMCEN
 40
-1.0
  9
$DIMTSZ
 40
0.0
  9
$DIMTOL
 70
     0
  9
$DIMLIM
 70
     0
  9
$DIMTIH
 70
     0
  9
$DIMTOH
 70
     0
  9
$DIMSE1
 70
     0
  9
$DIMSE2
 70
     0
  9
$DIMTAD
 70
     1
  9
$DIMZIN
 70
     0
  9
$DIMBLK
  1

  9
$DIMASO
 70
     1
  9
$DIMSHO
 70
     0
  9
$DIMPOST
  1

  9
$DIMAPOST
  1

  9
$DIMALT
 70
     0
  9
$DIMALTD
 70
     2
  9
$DIMALTF
 40
25.4
  9
$DIMLFAC
 40
1.0
  9
$DIMTOFL
 70
     0
  9
$DIMTVP
 40
0.0
  9
$DIMTIX
 70
     0
  9
$DIMSOXD
 70
     0
  9
$DIMSAH
 70
     0
  9
$DIMBLK1
  1

  9
$DIMBLK2
  1

  9
$DIMSTYLE
  2
STANDARD
  9
$DIMCLRD
 70
     0
  9
$DIMCLRE
 70
     0
  9
$DIMCLRT
 70
     0
  9
$DIMTFAC
 40
1.0
  9
$DIMGAP
 40
0.5
  9
$DIMJUST
 70
     0
  9
$DIMSD1
 70
     0
  9
$DIMSD2
 70
     0
  9
$DIMTOLJ
 70
     1
  9
$DIMTZIN
 70
     0
  9
$DIMALTZ
 70
     0
  9
$DIMALTTZ
 70
     0
  9
$DIMFIT
 70
     5
  9
$DIMUPT
 70
     0
  9
$DIMUNIT
 70
     2
  9
$DIMDEC
 70
     2
  9
$DIMTDEC
 70
     4
  9
$DIMALTU
 70
     2
  9
$DIMALTTD
 70
     2
  9
$DIMTXSTY
  7
STANDARD
  9
$DIMAUNIT
 70
     0
  9
$LUNITS
 70
     2
  9
$LUPREC
 70
     2
  9
$SKETCHINC
 40
0.1
  9
$FILLETRAD
 40
0.1
  9
$AUNITS
 70
     0
  9
$AUPREC
 70
     2
  9
$MENU
  1
ACAD
  9
$ELEVATION
 40
0.0
  9
$PELEVATION
 40
0.0
  9
$THICKNESS
 40
0.0
  9
$LIMCHECK
 70
     0
  9
$CHAMFERA
 40
0.0
  9
$CHAMFERB
 40
0.0
  9
$CHAMFERC
 40
0.0
  9
$CHAMFERD
 40
0.0
  9
$SKPOLY
 70
     0
  9
$TDCREATE
 40
2448721.39913669
  9
$TDUPDATE
 40
2457520.603286215
  9
$TDINDWG
 40
1.5063377083
  9
$TDUSRTIMER
 40
2457520.518965625
  9
$USRTIMER
 70
     1
  9
$ANGBASE
 50
0.0
  9
$ANGDIR
 70
     0
  9
$PDMODE
 70
     0
  9
$PDSIZE
 40
0.0
  9
$PLINEWID
 40
0.5
  9
$COORDS
 70
     1
  9
$SPLFRAME
 70
     0
  9
$SPLINETYPE
 70
     6
  9
$SPLINESEGS
 70
     8
  9
$ATTDIA
 70
     0
  9
$ATTREQ
 70
     1
  9
$HANDLING
 70
     1
  9
$HANDSEED
  5
91C5
  9
$SURFTAB1
 70
     6
  9
$SURFTAB2
 70
     6
  9
$SURFTYPE
 70
     6
  9
$SURFU
 70
     6
  9
$SURFV
 70
     6
  9
$UCSNAME
  2

  9
$UCSORG
 10
0.0
 20
0.0
 30
0.0
  9
$UCSXDIR
 10
1.0
 20
0.0
 30
0.0
  9
$UCSYDIR
 10
0.0
 20
1.0
 30
0.0
  9
$PUCSNAME
  2

  9
$PUCSORG
 10
0.0
 20
0.0
 30
0.0
  9
$PUCSXDIR
 10
1.0
 20
0.0
 30
0.0
  9
$PUCSYDIR
 10
0.0
 20
1.0
 30
0.0
  9
$USERI1
 70
     0
  9
$USERI2
 70
     0
  9
$USERI3
 70
     0
  9
$USERI4
 70
     0
  9
$USERI5
 70
     0
  9
$USERR1
 40
0.0
  9
$USERR2
 40
0.0
  9
$USERR3
 40
0.0
  9
$USERR4
 40
0.0
  9
$USERR5
 40
0.0
  9
$WORLDVIEW
 70
     1
  9
$SHADEDGE
 70
     3
  9
$SHADEDIF
 70
    70
  9
$TILEMODE
 70
     1
  9
$MAXACTVP
 70
    16
  9
$PINSBASE
 10
0.0
 20
0.0
 30
0.0
  9
$PLIMCHECK
 70
     0
  9
$PEXTMIN
 10
1.000000000000000E+20
 20
1.000000000000000E+20
 30
1.000000000000000E+20
  9
$PEXTMAX
 10
-1.000000000000000E+20
 20
-1.000000000000000E+20
 30
-1.000000000000000E+20
  9
$PLIMMIN
 10
0.0
 20
0.0
  9
$PLIMMAX
 10
0.0
 20
0.0
  9
$UNITMODE
 70
     0
  9
$VISRETAIN
 70
     0
  9
$PLINEGEN
 70
     0
  9
$PSLTSCALE
 70
     0
  9
$TREEDEPTH
 70
  3020
  9
$PICKSTYLE
 70
     1
  9
$CMLSTYLE
  2
STANDARD
  9
$CMLJUST
 70
     0
  9
$CMLSCALE
 40
1.0
  9
$PROXYGRAPHICS
 70
     1
  9
$MEASUREMENT
 70
     0
  0
ENDSEC
  0
SECTION
  2
CLASSES
  0
CLASS
  1
HATCH
  2
AcDbHatch
  3
ObjectDBX Classes
 90
        0
280
     0
281
     1
  0
CLASS
  1
LWPOLYLINE
  2
AcDbPolyline
  3
ObjectDBX Classes
 90
        0
280
     0
281
     1
  0
CLASS
  1
DICTIONARYVAR
  2
AcDbDictionaryVar
  3
ObjectDBX Classes
 90
        0
280
     0
281
     0
  0
CLASS
  1
XRECORD
  2
AcDbXrecord
  3
ObjectDBX Classes
 90
        0
280
     0
281
     0
  0
CLASS
  1
SCALE
  2
AcDbScale
  3
ObjectDBX Classes
 90
     1153
280
     0
281
     0
  0
CLASS
  1
VISUALSTYLE
  2
AcDbVisualStyle
  3
ObjectDBX Classes
 90
     4095
280
     0
281
     0
  0
CLASS
  1
MATERIAL
  2
AcDbMaterial
  3
ObjectDBX Classes
 90
     1153
280
     0
281
     0
  0
CLASS
  1
TABLESTYLE
  2
AcDbTableStyle
  3
ObjectDBX Classes
 90
     4095
280
     0
281
     0
  0
CLASS
  1
MLEADERSTYLE
  2
AcDbMLeaderStyle
  3
ACDB_MLEADERSTYLE_CLASS
 90
     4095
280
     0
281
     0
  0
CLASS
  1
SUN
  2
AcDbSun
  3
SCENEOE
 90
     1153
280
     0
281
     0
  0
CLASS
  1
RASTERVARIABLES
  2
AcDbRasterVariables
  3
ISM
 90
        0
280
     0
281
     0
  0
ENDSEC
  0
SECTION
  2
TABLES
  0
TABLE
  2
VPORT
  5
8
330
0
100
AcDbSymbolTable
 70
     1
  0
VPORT
  5
8D45
330
8
100
AcDbSymbolTableRecord
100
AcDbViewportTableRecord
  2
*ACTIVE
 70
     0
 10
0.0
 20
0.0
 11
1.0
 21
1.0
 12
586.8564475000001
 22
148.5
 13
0.0
 23
0.0
 14
1.0
 24
1.0
 15
5.0
 25
5.0
 16
0.0
 26
0.0
 36
1.0
 17
0.0
 27
0.0
 37
0.0
 40
302.94
 41
2.811127379209371
 42
50.0
 43
0.0
 44
0.0
 50
0.0
 51
0.0
 71
    16
 72
   100
 73
     1
 74
     0
 75
     0
 76
     0
 77
     0
 78
     0
  0
ENDTAB
  0
TABLE
  2
LTYPE
  5
5
330
0
100
AcDbSymbolTable
 70
     3
  0
LTYPE
  5
12
330
5
100
AcDbSymbolTableRecord
100
AcDbLinetypeTableRecord
  2
BYBLOCK
 70
     0
  3

 72
    65
 73
     0
 40
0.0
  0
LTYPE
  5
13
330
5
100
AcDbSymbolTableRecord
100
AcDbLinetypeTableRecord
  2
BYLAYER
 70
     0
  3

 72
    65
 73
     0
 40
0.0
  0
LTYPE
  5
14
330
5
100
AcDbSymbolTableRecord
100
AcDbLinetypeTableRecord
  2
CONTINUOUS
 70
     0
  3
Solid line
 72
    65
 73
     0
 40
0.0
  0
LTYPE
  5
1D
330
5
100
AcDbSymbolTableRecord
100
AcDbLinetypeTableRecord
  2
CENTER
 70
     0
  3
____ _ ____ _ ____ _ ____ _ ____ _ ____ _ ____
 72
    65
 73
     4
 40
2.0
 49
1.25
 74
     0
 49
-0.25
 74
     0
 49
0.25
 74
     0
 49
-0.25
 74
     0
  0
LTYPE
  5
1E
330
5
100
AcDbSymbolTableRecord
100
AcDbLinetypeTableRecord
  2
HIDDEN
 70
     0
  3
_ _ _ _ _ _ _ _ _ _ _ _ _ _ _ _ _ _ _ _ _ _ _
 72
    65
 73
     2
 40
0.375
 49
0.25
 74
     0
 49
-0.125
 74
     0
  0
ENDTAB
  0
TABLE
  2
LAYER
  5
2
102
{ACAD_XDICTIONARY
360
8FCF
102
}
330
0
100
AcDbSymbolTable
 70
    12
  0
LAYER
  5
F
330
2
100
AcDbSymbolTableRecord
100
AcDbLayerTableRecord
  2
0
 70
     0
 62
     7
  6
CONTINUOUS
  0
LAYER
  5
21
330
2
100
AcDbSymbolTableRecord
100
AcDbLayerTableRecord
  2
1
 70
     0
 62
     3
  6
CONTINUOUS
  0
LAYER
  5
22
330
2
100
AcDbSymbolTableRecord
100
AcDbLayerTableRecord
  2
2
 70
     0
 62
     6
  6
CONTINUOUS
  0
LAYER
  5
23
330
2
100
AcDbSymbolTableRecord
100
AcDbLayerTableRecord
  2
3
 70
     0
 62
     4
  6
HIDDEN
  0
LAYER
  5
24
330
2
100
AcDbSymbolTableRecord
100
AcDbLayerTableRecord
  2
OSIE
 70
     0
 62
     2
  6
CENTER
  0
LAYER
  5
25
330
2
100
AcDbSymbolTableRecord
100
AcDbLayerTableRecord
  2
WY
 70
     0
 62
     1
  6
CONTINUOUS
  0
LAYER
  5
26
330
2
100
AcDbSymbolTableRecord
100
AcDbLayerTableRecord
  2
DEFPOINTS
 70
     0
 62
     7
  6
CONTINUOUS
  0
LAYER
  5
464
330
2
100
AcDbSymbolTableRecord
100
AcDbLayerTableRecord
  2
WYMIARY
 70
     0
 62
     1
  6
CONTINUOUS
  0
LAYER
  5
703F
330
2
100
AcDbSymbolTableRecord
100
AcDbLayerTableRecord
  2
C
 70
     0
 62
     7
  6
CONTINUOUS
  0
LAYER
  5
7040
330
2
100
AcDbSymbolTableRecord
100
AcDbLayerTableRecord
  2
WYMSKALA1
 70
     0
 62
     1
  6
CONTINUOUS
  0
LAYER
  5
8499
330
2
100
AcDbSymbolTableRecord
100
AcDbLayerTableRecord
  2
WARSTWA_1
 70
     0
 62
     7
  6
CONTINUOUS
  0
LAYER
  5
8D99
330
2
100
AcDbSymbolTableRecord
100
AcDbLayerTableRecord
  2
WARSTWA3
 70
     0
 62
     3
  6
CONTINUOUS
  0
ENDTAB
  0
TABLE
  2
STYLE
  5
3
330
0
100
AcDbSymbolTable
 70
     3
  0
STYLE
  5
10
330
3
100
AcDbSymbolTableRecord
100
AcDbTextStyleTableRecord
  2
STANDARD
 70
     0
 40
0.0
 41
1.0
 50
0.0
 71
     0
 42
6.0
  3
txt
  4

  0
STYLE
  5
1C
330
3
100
AcDbSymbolTableRecord
100
AcDbTextStyleTableRecord
  2
ITALIC
 70
     0
 40
0.0
 41
1.0
 50
15.0
 71
     0
 42
3.5
  3
simplex
  4

  0
STYLE
  5
849A
330
3
100
AcDbSymbolTableRecord
100
AcDbTextStyleTableRecord
  2
GOST
 70
     0
 40
0.0
 41
1.0
 50
15.0
 71
     0
 42
3.0
  3
ISO
  4

  0
ENDTAB
  0
TABLE
  2
VIEW
  5
6
330
0
100
AcDbSymbolTable
 70
     0
  0
ENDTAB
  0
TABLE
  2
UCS
  5
7
330
0
100
AcDbSymbolTable
 70
     0
  0
ENDTAB
  0
TABLE
  2
APPID
  5
9
330
0
100
AcDbSymbolTable
 70
     1
  0
APPID
  5
11
330
9
100
AcDbSymbolTableRecord
100
AcDbRegAppTableRecord
  2
ACAD
 70
     0
  0
ENDTAB
  0
TABLE
  2
DIMSTYLE
  5
A
330
0
100
AcDbSymbolTable
 70
     1
  0
DIMSTYLE
105
3B
102
{ACAD_REACTORS
330
7DB8
330
8D0B
330
8FA8
330
8FB5
330
8FC2
330
919A
330
919B
330
919C
102
}
330
A
100
AcDbSymbolTableRecord
100
AcDbDimStyleTableRecord
  2
STANDARD
 70
     0
  3

  4

  5

  6

  7

 40
1.0
 41
3.5
 42
1.5
 43
7.0
 44
1.5
 45
0.0
 46
0.0
 47
0.1
 48
0.0
140
3.6
141
-1.0
142
0.0
143
25.4
144
1.0
145
0.0
146
1.0
147
1.5
 71
     0
 72
     0
 73
     0
 74
     0
 75
     0
 76
     0
 77
     1
 78
     0
170
     0
171
     2
172
     0
173
     0
174
     0
175
     0
176
     0
177
     0
178
     0
270
     2
271
     2
272
     4
273
     2
274
     2
340
10
275
     0
280
     0
281
     0
282
     0
283
     1
284
     0
285
     0
286
     0
287
     3
288
     0
  0
ENDTAB
  0
TABLE
  2
BLOCK_RECORD
  5
1
330
0
100
AcDbSymbolTable
 70
    14
  0
BLOCK_RECORD
  5
18
330
1
100
AcDbSymbolTableRecord
100
AcDbBlockTableRecord
  2
*MODEL_SPACE
  0
BLOCK_RECORD
  5
15
330
1
100
AcDbSymbolTableRecord
100
AcDbBlockTableRecord
  2
*PAPER_SPACE
  0
BLOCK_RECORD
  5
6FF0
330
1
100
AcDbSymbolTableRecord
100
AcDbBlockTableRecord
  2
A$C0E9351C7
  0
BLOCK_RECORD
  5
7019
330
1
100
AcDbSymbolTableRecord
100
AcDbBlockTableRecord
  2
A$C54DB26EC
  0
BLOCK_RECORD
  5
7DAC
330
1
100
AcDbSymbolTableRecord
100
AcDbBlockTableRecord
  2
*D2
  0
BLOCK_RECORD
  5
80C0
330
1
100
AcDbSymbolTableRecord
100
AcDbBlockTableRecord
  2
A$C394A53EE
  0
BLOCK_RECORD
  5
8CFF
330
1
100
AcDbSymbolTableRecord
100
AcDbBlockTableRecord
  2
*D4
  0
BLOCK_RECORD
  5
8F7F
330
1
100
AcDbSymbolTableRecord
100
AcDbBlockTableRecord
  2
A$C21567AC4
  0
BLOCK_RECORD
  5
8F8E
330
1
100
AcDbSymbolTableRecord
100
AcDbBlockTableRecord
  2
PŁYTKA_2
  0
BLOCK_RECORD
  5
8FA9
330
1
100
AcDbSymbolTableRecord
100
AcDbBlockTableRecord
  2
*D8
  0
BLOCK_RECORD
  5
8FB6
330
1
100
AcDbSymbolTableRecord
100
AcDbBlockTableRecord
  2
*D9
  0
BLOCK_RECORD
  5
8FC3
330
1
100
AcDbSymbolTableRecord
100
AcDbBlockTableRecord
  2
*D10
  0
BLOCK_RECORD
  5
919D
330
1
100
AcDbSymbolTableRecord
100
AcDbBlockTableRecord
  2
*D11
  0
BLOCK_RECORD
  5
91A9
330
1
100
AcDbSymbolTableRecord
100
AcDbBlockTableRecord
  2
*D12
  0
BLOCK_RECORD
  5
91B5
330
1
100
AcDbSymbolTableRecord
100
AcDbBlockTableRecord
  2
*D13
  0
ENDTAB
  0
ENDSEC
  0
SECTION
  2
BLOCKS
  0
BLOCK
  5
29
330
18
100
AcDbEntity
  8
0
100
AcDbBlockBegin
  2
*MODEL_SPACE
 70
     0
 10
0.0
 20
0.0
 30
0.0
  3
*MODEL_SPACE
  1

  0
ENDBLK
  5
2A
330
18
100
AcDbEntity
  8
0
100
AcDbBlockEnd
  0
BLOCK
  5
27
330
15
100
AcDbEntity
 67
     1
  8
0
100
AcDbBlockBegin
  2
*PAPER_SPACE
 70
     0
 10
0.0
 20
0.0
 30
0.0
  3
*PAPER_SPACE
  1

  0
ENDBLK
  5
28
330
15
100
AcDbEntity
 67
     1
  8
0
100
AcDbBlockEnd
  0
BLOCK
  5
700A
330
6FF0
100
AcDbEntity
  8
0
100
AcDbBlockBegin
  2
A$C0E9351C7
 70
     0
 10
0.0
 20
0.0
 30
0.0
  3
A$C0E9351C7
  1
A$C0E9351C7
  0
LINE
  5
6FF1
330
6FF0
100
AcDbEntity
  8
OSIE
100
AcDbLine
 10
8.764174
 20
5.49817
 30
0.0
 11
9.488025
 21
10.329783
 31
0.0
  0
LINE
  5
6FF2
330
6FF0
100
AcDbEntity
  8
1
100
AcDbLine
 10
2.621114
 20
9.931965
 30
0.0
 11
0.608192
 21
10.233941
 31
0.0
  0
ARC
  5
6FF3
330
6FF0
100
AcDbEntity
  8
1
100
AcDbCircle
 10
0.548848
 20
9.838368
 30
0.0
 40
0.4
100
AcDbArc
 50
81.468169
 51
171.468169
  0
LINE
  5
6FF4
330
6FF0
100
AcDbEntity
  8
1
100
AcDbLine
 10
2.621114
 20
9.931965
 30
0.0
 11
17.949988
 21
7.635941
 31
0.0
  0
CIRCLE
  5
6FF5
330
6FF0
100
AcDbEntity
  8
1
100
AcDbCircle
 10
13.937191
 20
3.818016
 30
0.0
 40
1.201329
  0
LINE
  5
6FF6
330
6FF0
100
AcDbEntity
  8
1
100
AcDbLine
 10
17.243285
 20
5.67666
 30
0.0
 11
0.705916
 21
8.154365
 31
0.0
  0
LINE
  5
6FF7
330
6FF0
100
AcDbEntity
  8
1
100
AcDbLine
 10
0.153275
 20
9.897712
 30
0.0
 11
0.0
 21
8.876011
 31
0.0
  0
LINE
  5
6FF8
330
6FF0
100
AcDbEntity
  8
1
100
AcDbLine
 10
0.0
 20
8.876011
 30
0.0
 11
0.709949
 21
8.150242
 31
0.0
  0
CIRCLE
  5
6FF9
330
6FF0
100
AcDbEntity
  8
1
100
AcDbCircle
 10
3.324336
 20
5.411576
 30
0.0
 40
1.201329
  0
LINE
  5
6FFA
330
6FF0
100
AcDbEntity
  8
1
100
AcDbLine
 10
4.512442
 20
5.233822
 30
0.0
 11
4.855969
 21
7.529948
 31
0.0
  0
LINE
  5
6FFB
330
6FF0
100
AcDbEntity
  8
1
100
AcDbLine
 10
3.502721
 20
6.599587
 30
0.0
 11
3.668494
 21
7.707609
 31
0.0
  0
LINE
  5
6FFC
330
6FF0
100
AcDbEntity
  8
WY
100
AcDbLine
 10
2.735921
 20
5.411576
 30
0.0
 11
3.759743
 21
5.411576
 31
0.0
  0
LINE
  5
6FFD
330
6FF0
100
AcDbEntity
  8
WY
100
AcDbLine
 10
3.324336
 20
4.852926
 30
0.0
 11
3.324336
 21
5.941379
 31
0.0
  0
LINE
  5
6FFE
330
6FF0
100
AcDbEntity
  8
WY
100
AcDbLine
 10
2.928739
 20
5.470762
 30
0.0
 11
3.719933
 21
5.35239
 31
0.0
  0
LINE
  5
6FFF
330
6FF0
100
AcDbEntity
  8
WY
100
AcDbLine
 10
3.26515
 20
5.015979
 30
0.0
 11
3.383522
 21
5.807173
 31
0.0
  0
LINE
  5
7000
330
6FF0
100
AcDbEntity
  8
WY
100
AcDbLine
 10
13.878005
 20
3.422419
 30
0.0
 11
13.996377
 21
4.213613
 31
0.0
  0
LINE
  5
7001
330
6FF0
100
AcDbEntity
  8
OSIE
100
AcDbLine
 10
12.749086
 20
3.99577
 30
0.0
 11
13.093455
 21
6.297523
 31
0.0
  0
LINE
  5
7002
330
6FF0
100
AcDbEntity
  8
WY
100
AcDbLine
 10
13.541594
 20
3.877202
 30
0.0
 11
14.332788
 21
3.75883
 31
0.0
  0
LINE
  5
7003
330
6FF0
100
AcDbEntity
  8
OSIE
100
AcDbLine
 10
14.114945
 20
5.006121
 30
0.0
 11
14.28156
 21
6.119769
 31
0.0
  0
LINE
  5
7004
330
6FF0
100
AcDbEntity
  8
1
100
AcDbLine
 10
18.286333
 20
7.181168
 30
0.0
 11
18.133931
 21
6.162524
 31
0.0
  0
ARC
  5
7005
330
6FF0
100
AcDbEntity
  8
1
100
AcDbCircle
 10
17.890736
 20
7.240354
 30
0.0
 40
0.4
100
AcDbArc
 50
351.490988
 51
81.481326
  0
LINE
  5
7006
330
6FF0
100
AcDbEntity
  8
1
100
AcDbLine
 10
15.29066
 20
5.968796
 30
0.0
 11
16.890886
 21
5.729383
 31
0.0
  0
LINE
  5
7007
330
6FF0
100
AcDbEntity
  8
1
100
AcDbLine
 10
18.133931
 20
6.162524
 30
0.0
 11
17.243285
 21
5.67666
 31
0.0
  0
LINE
  5
7008
330
6FF0
100
AcDbEntity
  8
1
100
AcDbLine
 10
18.324138
 20
0.0
 30
0.0
 11
18.324138
 21
1.372117
 31
0.0
  0
POINT
  5
7009
330
6FF0
100
AcDbEntity
  8
DEFPOINTS
  6
BYBLOCK
 62
     0
100
AcDbPoint
 10
15.29066
 20
5.968796
 30
0.0
  0
ENDBLK
  5
700B
330
6FF0
100
AcDbEntity
  8
0
100
AcDbBlockEnd
  0
BLOCK
  5
703D
330
7019
100
AcDbEntity
  8
0
 62
     3
100
AcDbBlockBegin
  2
A$C54DB26EC
 70
     0
 10
0.0
 20
0.0
 30
0.0
  3
A$C54DB26EC
  1
A$C54DB26EC
  0
LINE
  5
701A
330
7019
100
AcDbEntity
  8
1
  6
CONTINUOUS
 62
     3
100
AcDbLine
 10
3.795018
 20
0.552
 30
0.0
 11
23.06175
 21
0.552
 31
0.0
  0
LINE
  5
701B
330
7019
100
AcDbEntity
  8
1
  6
CONTINUOUS
 62
     3
100
AcDbLine
 10
0.441647
 20
15.009598
 30
0.0
 11
28.051647
 21
15.009598
 31
0.0
  0
LINE
  5
701C
330
7019
100
AcDbEntity
  8
1
  6
CONTINUOUS
 62
     3
100
AcDbLine
 10
0.24085
 20
14.808801
 30
0.0
 11
0.24085
 21
0.552
 31
0.0
  0
LINE
  5
701D
330
7019
100
AcDbEntity
  8
1
  6
CONTINUOUS
 62
     3
100
AcDbLine
 10
1.3
 20
0.03497
 30
0.0
 11
1.3
 21
15.13497
 31
0.0
  0
LINE
  5
701E
330
7019
100
AcDbEntity
  8
1
  6
CONTINUOUS
 62
     3
100
AcDbLine
 10
1.299999
 20
0.034383
 30
0.0
 11
1.299999
 21
15.334383
 31
0.0
  0
LINE
  5
701F
330
7019
100
AcDbEntity
  8
1
  6
CONTINUOUS
 62
     3
100
AcDbLine
 10
1.3
 20
0.03497
 30
0.0
 11
1.3
 21
15.13497
 31
0.0
  0
LINE
  5
7020
330
7019
100
AcDbEntity
  8
1
  6
CONTINUOUS
 62
     3
100
AcDbLine
 10
3.493812
 20
0.049997
 30
0.0
 11
3.795011
 21
0.551994
 31
0.0
  0
LINE
  5
7021
330
7019
100
AcDbEntity
  8
1
  6
CONTINUOUS
 62
     3
100
AcDbLine
 10
2.188612
 20
0.552001
 30
0.0
 11
2.489814
 21
0.049998
 31
0.0
  0
LINE
  5
7022
330
7019
100
AcDbEntity
  8
1
  6
CONTINUOUS
 62
     3
100
AcDbLine
 10
5.183459
 20
0.552
 30
0.0
 11
5.183459
 21
0.05
 31
0.0
  0
LINE
  5
7023
330
7019
100
AcDbEntity
  8
1
  6
CONTINUOUS
 62
     3
100
AcDbLine
 10
4.681459
 20
0.552
 30
0.0
 11
4.681459
 21
0.05
 31
0.0
  0
LINE
  5
7024
330
7019
100
AcDbEntity
  8
1
  6
CONTINUOUS
 62
     3
100
AcDbLine
 10
1.403459
 20
0.552
 30
0.0
 11
1.403459
 21
0.05
 31
0.0
  0
LINE
  5
7025
330
7019
100
AcDbEntity
  8
1
  6
CONTINUOUS
 62
     3
100
AcDbLine
 10
0.901459
 20
0.552
 30
0.0
 11
0.901459
 21
0.05
 31
0.0
  0
LINE
  5
7026
330
7019
100
AcDbEntity
  8
1
  6
CONTINUOUS
 62
     3
100
AcDbLine
 10
0.24085
 20
0.552
 30
0.0
 11
2.188612
 21
0.552
 31
0.0
  0
ARC
  5
7027
330
7019
100
AcDbEntity
  8
1
  6
CONTINUOUS
 62
     3
100
AcDbCircle
 10
0.441647
 20
14.808801
 30
0.0
 40
0.2008
100
AcDbArc
 50
90.000003
 51
180.000005
  0
LINE
  5
7028
330
7019
100
AcDbEntity
  8
3
100
AcDbLine
 10
27.002462
 20
15.15
 30
0.0
 11
27.002462
 21
0.05
 31
0.0
  0
LINE
  5
7029
330
7019
100
AcDbEntity
  8
1
  6
CONTINUOUS
 62
     3
100
AcDbLine
 10
28.252459
 20
14.808801
 30
0.0
 11
28.252459
 21
0.552
 31
0.0
  0
LINE
  5
702A
330
7019
100
AcDbEntity
  8
1
  6
CONTINUOUS
 62
     3
100
AcDbLine
 10
27.01161
 20
15.13497
 30
0.0
 11
27.01161
 21
0.03497
 31
0.0
  0
LINE
  5
702B
330
7019
100
AcDbEntity
  8
1
  6
CONTINUOUS
 62
     3
100
AcDbLine
 10
27.011609
 20
15.13497
 30
0.0
 11
27.011609
 21
0.03497
 31
0.0
  0
LINE
  5
702C
330
7019
100
AcDbEntity
  8
1
  6
CONTINUOUS
 62
     3
100
AcDbLine
 10
27.011609
 20
15.134383
 30
0.0
 11
27.011609
 21
0.034383
 31
0.0
  0
LINE
  5
702D
330
7019
100
AcDbEntity
  8
1
  6
CONTINUOUS
 62
     3
100
AcDbLine
 10
27.01161
 20
15.13497
 30
0.0
 11
27.01161
 21
0.03497
 31
0.0
  0
LINE
  5
702E
330
7019
100
AcDbEntity
  8
1
100
AcDbLine
 10
17.620689
 20
0.284383
 30
0.0
 11
17.620689
 21
0.034383
 31
0.0
  0
LINE
  5
702F
330
7019
100
AcDbEntity
  8
1
  6
CONTINUOUS
 62
     3
100
AcDbLine
 10
21.814444
 20
0.552
 30
0.0
 11
21.814444
 21
0.034383
 31
0.0
  0
LINE
  5
7030
330
7019
100
AcDbEntity
  8
1
  6
CONTINUOUS
 62
     3
100
AcDbLine
 10
20.810444
 20
0.552
 30
0.0
 11
20.810444
 21
0.034383
 31
0.0
  0
LINE
  5
7031
330
7019
100
AcDbEntity
  8
1
  6
CONTINUOUS
 62
     3
100
AcDbLine
 10
23.362965
 20
0.049967
 30
0.0
 11
23.061759
 21
0.551977
 31
0.0
  0
LINE
  5
7032
330
7019
100
AcDbEntity
  8
1
  6
CONTINUOUS
 62
     3
100
AcDbLine
 10
25.850459
 20
0.552
 30
0.0
 11
25.850459
 21
0.0
 31
0.0
  0
LINE
  5
7033
330
7019
100
AcDbEntity
  8
1
  6
CONTINUOUS
 62
     3
100
AcDbLine
 10
24.668171
 20
0.552006
 30
0.0
 11
24.366956
 21
0.050002
 31
0.0
  0
LINE
  5
7034
330
7019
100
AcDbEntity
  8
1
  6
CONTINUOUS
 62
     3
100
AcDbLine
 10
26.854459
 20
0.552
 30
0.0
 11
26.854459
 21
0.0
 31
0.0
  0
LINE
  5
7035
330
7019
100
AcDbEntity
  8
1
  6
CONTINUOUS
 62
     3
100
AcDbLine
 10
15.772731
 20
0.552
 30
0.0
 11
15.772731
 21
0.3
 31
0.0
  0
LINE
  5
7036
330
7019
100
AcDbEntity
  8
1
  6
CONTINUOUS
 62
     3
100
AcDbLine
 10
16.776731
 20
0.552
 30
0.0
 11
16.776731
 21
0.3
 31
0.0
  0
LINE
  5
7037
330
7019
100
AcDbEntity
  8
WYMSKALA1
 62
     3
100
AcDbLine
 10
15.238099
 20
0.284383
 30
0.0
 11
15.083879
 21
0.285113
 31
0.0
  0
LINE
  5
7038
330
7019
100
AcDbEntity
  8
1
100
AcDbLine
 10
17.620689
 20
0.284383
 30
0.0
 11
15.238099
 21
0.284383
 31
0.0
  0
LINE
  5
7039
330
7019
100
AcDbEntity
  8
1
  6
CONTINUOUS
 62
     3
100
AcDbLine
 10
24.668172
 20
0.552
 30
0.0
 11
28.252459
 21
0.552
 31
0.0
  0
LINE
  5
703A
330
7019
100
AcDbEntity
  8
1
  6
CONTINUOUS
 62
     3
100
AcDbLine
 10
26.796647
 20
0.552
 30
0.0
 11
27.901053
 21
0.552
 31
0.0
  0
ARC
  5
703B
330
7019
100
AcDbEntity
  8
1
  6
CONTINUOUS
 62
     3
100
AcDbCircle
 10
28.051647
 20
14.808801
 30
0.0
 40
0.2008
100
AcDbArc
 50
0.0
 51
90.000003
  0
LINE
  5
703C
330
7019
100
AcDbEntity
  8
1
  6
CONTINUOUS
 62
     3
100
AcDbLine
 10
0.0
 20
15.33497
 30
0.0
 11
1.1
 21
15.33497
 31
0.0
  0
ENDBLK
  5
703E
330
7019
100
AcDbEntity
  8
0
 62
     3
100
AcDbBlockEnd
  0
BLOCK
  5
8D17
330
7DAC
100
AcDbEntity
  8
0
100
AcDbBlockBegin
  2
*D2
 70
     1
 10
0.0
 20
0.0
 30
0.0
  3
*D2
  1
*D2
  0
LINE
  5
8D18
330
7DAC
100
AcDbEntity
  8
WY
 62
     0
100
AcDbLine
 10
648.1337000629574
 20
112.4326974922145
 30
0.0
 11
665.0174050629574
 21
112.4326974922145
 31
0.0
  0
LINE
  5
8D19
330
7DAC
100
AcDbEntity
  8
WY
 62
     0
100
AcDbLine
 10
648.4337000629574
 20
106.2326974922145
 30
0.0
 11
665.0174050629574
 21
106.2326974922145
 31
0.0
  0
LINE
  5
8D1A
330
7DAC
100
AcDbEntity
  8
WY
 62
     0
100
AcDbLine
 10
663.5174050629574
 20
106.2326974922145
 30
0.0
 11
663.5174050629574
 21
86.8358154922145
 31
0.0
  0
LINE
  5
8D1B
330
7DAC
100
AcDbEntity
  8
WY
 62
     0
100
AcDbLine
 10
663.5174050629574
 20
112.4326974922145
 30
0.0
 11
663.5174050629574
 21
106.2326974922145
 31
0.0
  0
LINE
  5
8D1C
330
7DAC
100
AcDbEntity
  8
WY
 62
     0
100
AcDbLine
 10
663.5174050629574
 20
115.4326974922145
 30
0.0
 11
663.5174050629574
 21
118.4326974922145
 31
0.0
  0
LINE
  5
8D1D
330
7DAC
100
AcDbEntity
  8
WY
 62
     0
100
AcDbLine
 10
663.5174050629574
 20
103.2326974922145
 30
0.0
 11
663.5174050629574
 21
100.2326974922145
 31
0.0
  0
SOLID
  5
8D1E
330
7DAC
100
AcDbEntity
  8
WY
 62
     0
100
AcDbTrace
 10
663.0174050629574
 20
115.4326974922145
 30
0.0
 11
664.0174050629574
 21
115.4326974922145
 31
0.0
 12
663.5174050629574
 22
112.4326974922145
 32
0.0
 13
663.5174050629574
 23
112.4326974922145
 33
0.0
  0
SOLID
  5
8D1F
330
7DAC
100
AcDbEntity
  8
WY
 62
     0
100
AcDbTrace
 10
664.0174050629574
 20
103.2326974922145
 30
0.0
 11
663.0174050629574
 21
103.2326974922145
 31
0.0
 12
663.5174050629574
 22
106.2326974922145
 32
0.0
 13
663.5174050629574
 23
106.2326974922145
 33
0.0
  0
MTEXT
  5
8D20
330
7DAC
100
AcDbEntity
  8
WY
 62
     0
100
AcDbMText
 10
660.5174050629574
 20
92.5858154922145
 30
0.0
 40
3.0
 41
0.0
 71
     5
 72
     1
  1
\A1;6.20
 11
0.0
 21
1.0
 31
0.0
  0
POINT
  5
8D21
330
7DAC
100
AcDbEntity
  8
DEFPOINTS
 62
     0
100
AcDbPoint
 10
646.6337000629574
 20
112.4326974922145
 30
0.0
  0
POINT
  5
8D8F
330
7DAC
100
AcDbEntity
  8
DEFPOINTS
 62
     0
100
AcDbPoint
 10
646.9337000629574
 20
106.2326974922145
 30
0.0
  0
POINT
  5
91C1
330
7DAC
100
AcDbEntity
  8
DEFPOINTS
 62
     0
100
AcDbPoint
 10
663.5174050629574
 20
106.2326974922145
 30
0.0
  0
ENDBLK
  5
8D22
330
7DAC
100
AcDbEntity
  8
0
100
AcDbBlockEnd
  0
BLOCK
  5
842C
330
80C0
100
AcDbEntity
  8
0
 62
     2
100
AcDbBlockBegin
  2
A$C394A53EE
 70
     0
 10
0.0
 20
0.0
 30
0.0
  3
A$C394A53EE
  1
A$C394A53EE
  0
HATCH
  5
80C1
330
80C0
100
AcDbEntity
  8
0
  6
CONTINUOUS
 62
    20
100
AcDbHatch
 10
0.0
 20
0.0
 30
0.0
210
0.0
220
0.0
230
1.0
  2
SOLID
 70
     1
 71
     1
 91
        2
 92
        7
 72
     0
 73
     1
 93
       87
 10
2.730075769928969
 20
0.7449929936242992
 10
3.115937769928968
 20
0.7449929936242992
 10
3.115937769928968
 20
1.181373993624296
 10
3.114642769928968
 20
1.209377993624302
 10
3.110847769928967
 20
1.235271993624307
 10
3.104504769928966
 20
1.259236993624301
 10
3.095705769928969
 20
1.281381993624299
 10
3.084422769928968
 20
1.301637993624295
 10
3.070575769928972
 20
1.320161993624294
 10
3.054248769928966
 20
1.336929993624299
 10
3.03526476992897
 20
1.352027993624297
 10
3.013733769928974
 20
1.365370993624296
 10
2.989437769928968
 20
1.377023993624298
 10
2.962489769928966
 20
1.386944993624299
 10
2.932796769928972
 20
1.395106993624298
 10
2.900426769928965
 20
1.401448993624299
 10
2.865331769928968
 20
1.406035993624299
 10
2.827540769928966
 20
1.408755993624299
 10
2.787004769928967
 20
1.409724993624299
 10
2.746997769928967
 20
1.408736993624298
 10
2.709623769928971
 20
1.405881993624299
 10
2.67494976992897
 20
1.401141993624299
 10
2.642906769928969
 20
1.394515993624299
 10
2.613587769928968
 20
1.386043993624299
 10
2.586941769928968
 20
1.375728993624299
 10
2.562934769928967
 20
1.363614993624298
 10
2.541556769928968
 20
1.349720993624298
 10
2.522835769928969
 20
1.3340079936243
 10
2.506619769928967
 20
1.316515993624298
 10
2.492926769928967
 20
1.297184993624298
 10
2.481666769928969
 20
1.276003993624301
 10
2.472910769928968
 20
1.252873993624298
 10
2.466611769928968
 20
1.227767993624299
 10
2.462815769928969
 20
1.2006659936243
 10
2.461520769928968
 20
1.171385993624293
 10
2.461520769928968
 20
0.4716109936243022
 10
2.462815769928968
 20
0.4422679936243016
 10
2.466611769928968
 20
0.4151659936243018
 10
2.472910769928969
 20
0.3900359936243008
 10
2.481666769928968
 20
0.3669259936243004
 10
2.49292676992897
 20
0.3457049936242983
 10
2.506619769928968
 20
0.3264139936242981
 10
2.522835769928968
 20
0.3089219936242999
 10
2.541556769928967
 20
0.2932519936243009
 10
2.562934769928967
 20
0.2793149936242986
 10
2.586941769928971
 20
0.2672009936242996
 10
2.613587769928969
 20
0.2568859936242989
 10
2.642906769928969
 20
0.2484609936242989
 10
2.674949769928969
 20
0.2418109936242993
 10
2.709623769928969
 20
0.2370909936242992
 10
2.746997769928969
 20
0.2342409936242991
 10
2.787004769928968
 20
0.2332959936242989
 10
2.827540769928968
 20
0.2342169936242988
 10
2.865331769928968
 20
0.2369369936242989
 10
2.900402769928969
 20
0.2414809936242991
 10
2.93279676992897
 20
0.2478899936242992
 10
2.96248976992897
 20
0.2560119936242995
 10
2.989437769928967
 20
0.265952993624299
 10
3.013713769928969
 20
0.2776069936242995
 10
3.035264769928969
 20
0.2909929936243004
 10
3.054248769928968
 20
0.3060479936243
 10
3.070575769928968
 20
0.3228149936242999
 10
3.084422769928969
 20
0.3413149936242993
 10
3.095705769928966
 20
0.3615949936242969
 10
3.10450476992897
 20
0.3836699936243058
 10
3.110847769928967
 20
0.4077009936242958
 10
3.114642769928969
 20
0.4335789936242997
 10
3.115937769928968
 20
0.4616459936242968
 10
3.115937769928968
 20
0.6267479936242993
 10
2.847378769928969
 20
0.6267479936242993
 10
2.847378769928969
 20
0.4629179936243026
 10
2.846591769928968
 20
0.4481699936243009
 10
2.843977769928967
 20
0.4348079936242979
 10
2.839544769928968
 20
0.4230439936242982
 10
2.832985769928969
 20
0.4130359936242999
 10
2.824445769928968
 20
0.4050909936242996
 10
2.814044769928968
 20
0.3994729936242991
 10
2.802213769928968
 20
0.3962249936242989
 10
2.789067769928969
 20
0.3952169936242989
 10
2.775859769928968
 20
0.396224993624299
 10
2.763898769928969
 20
0.3994729936242989
 10
2.753449769928967
 20
0.4050669936242991
 10
2.744737769928968
 20
0.4129929936242993
 10
2.738130769928969
 20
0.4229769936242977
 10
2.733544769928969
 20
0.4347639936242979
 10
2.730910769928969
 20
0.4481499936242983
 10
2.730075769928968
 20
0.4629179936243012
 97
        1
330
80C2
 92
       22
 72
     0
 73
     1
 93
       19
 10
2.730075769928968
 20
0.9028309936242989
 10
2.730075769928968
 20
1.179771993624299
 10
2.730910769928968
 20
1.194145993624299
 10
2.733567769928968
 20
1.2072249936243
 10
2.73817476992897
 20
1.2187249936243
 10
2.744823769928968
 20
1.228511993624298
 10
2.753536769928969
 20
1.236192993624299
 10
2.763985769928969
 20
1.241614993624299
 10
2.775878769928969
 20
1.244732993624299
 10
2.789067769928968
 20
1.245740993624298
 10
2.802170769928968
 20
1.244732993624299
 10
2.813957769928968
 20
1.241594993624298
 10
2.824335769928969
 20
1.236149993624298
 10
2.832894769928971
 20
1.228448993624296
 10
2.839500769928969
 20
1.218681993624299
 10
2.843957769928967
 20
1.207181993624303
 10
2.846591769928968
 20
1.194121993624299
 10
2.847378769928969
 20
1.179747993624295
 10
2.847378769928969
 20
0.902830993624299
 97
        1
330
8239
 75
     0
 76
     1
 47
0.007755
 98
        2
 10
2.627639
 20
0.772296
 10
2.627639
 20
0.772296
  0
LWPOLYLINE
  5
80C2
102
{ACAD_REACTORS
330
80C1
102
}
330
80C0
100
AcDbEntity
  8
WARSTWA_1
  6
CONTINUOUS
 62
    20
100
AcDbPolyline
 90
       87
 70
     1
 43
0.003
 10
3.115938
 20
0.744993
 10
2.730076
 20
0.744993
 10
2.730076
 20
0.462918
 10
2.730911
 20
0.44815
 10
2.733545
 20
0.434764
 10
2.738131
 20
0.422977
 10
2.744738
 20
0.412993
 10
2.75345
 20
0.405067
 10
2.763899
 20
0.399473
 10
2.77586
 20
0.396225
 10
2.789068
 20
0.395217
 10
2.802214
 20
0.396225
 10
2.814045
 20
0.399473
 10
2.824446
 20
0.405091
 10
2.832986
 20
0.413036
 10
2.839545
 20
0.423044
 10
2.843978
 20
0.434808
 10
2.846592
 20
0.44817
 10
2.847379
 20
0.462918
 10
2.847379
 20
0.626748
 10
3.115938
 20
0.626748
 10
3.115938
 20
0.461646
 10
3.114643
 20
0.433579
 10
3.110848
 20
0.407701
 10
3.104505
 20
0.38367
 10
3.095706
 20
0.361595
 10
3.084423
 20
0.341315
 10
3.070576
 20
0.322815
 10
3.054249
 20
0.306048
 10
3.035265
 20
0.290993
 10
3.013714
 20
0.277607
 10
2.989438
 20
0.265953
 10
2.96249
 20
0.256012
 10
2.932797
 20
0.24789
 10
2.900403
 20
0.241481
 10
2.865332
 20
0.236937
 10
2.827541
 20
0.234217
 10
2.787005
 20
0.233296
 10
2.746998
 20
0.234241
 10
2.709624
 20
0.237091
 10
2.67495
 20
0.241811
 10
2.642907
 20
0.248461
 10
2.613588
 20
0.256886
 10
2.586942
 20
0.267201
 10
2.562935
 20
0.279315
 10
2.541557
 20
0.293252
 10
2.522836
 20
0.308922
 10
2.50662
 20
0.326414
 10
2.492927
 20
0.345705
 10
2.481667
 20
0.366926
 10
2.472911
 20
0.390036
 10
2.466612
 20
0.415166
 10
2.462816
 20
0.442268
 10
2.461521
 20
0.471611
 10
2.461521
 20
1.171386
 10
2.462816
 20
1.200666
 10
2.466612
 20
1.227768
 10
2.472911
 20
1.252874
 10
2.481667
 20
1.276004
 10
2.492927
 20
1.297185
 10
2.50662
 20
1.316516
 10
2.522836
 20
1.334008
 10
2.541557
 20
1.349721
 10
2.562935
 20
1.363615
 10
2.586942
 20
1.375729
 10
2.613588
 20
1.386044
 10
2.642907
 20
1.394516
 10
2.67495
 20
1.401142
 10
2.709624
 20
1.405882
 10
2.746998
 20
1.408737
 10
2.787005
 20
1.409725
 10
2.827541
 20
1.408756
 10
2.865332
 20
1.406036
 10
2.900427
 20
1.401449
 10
2.932797
 20
1.395107
 10
2.96249
 20
1.386945
 10
2.989438
 20
1.377024
 10
3.013734
 20
1.365371
 10
3.035265
 20
1.352028
 10
3.054249
 20
1.33693
 10
3.070576
 20
1.320162
 10
3.084423
 20
1.301638
 10
3.095706
 20
1.281382
 10
3.104505
 20
1.259237
 10
3.110848
 20
1.235272
 10
3.114643
 20
1.209378
 10
3.115938
 20
1.181374
  0
HATCH
  5
811B
330
80C0
100
AcDbEntity
  8
0
  6
CONTINUOUS
 62
    20
100
AcDbHatch
 10
0.0
 20
0.0
 30
0.0
210
0.0
220
0.0
230
1.0
  2
SOLID
 70
     1
 71
     1
 91
        2
 92
        7
 72
     0
 73
     1
 93
       63
 10
0.2052417699289691
 20
0.7343429936242992
 10
0.205241769928969
 20
0.5793469936242991
 10
0.2259127699289682
 20
0.6091739936242986
 10
0.2484447699289682
 20
0.6369009936242983
 10
0.2727547699289683
 20
0.6625819936242991
 10
0.2987587699289692
 20
0.6862679936242998
 10
0.3263747699289694
 20
0.7080129936242991
 10
0.35552076992897
 20
0.7278669936243003
 10
0.386112769928969
 20
0.7458849936242982
 10
0.4180667699289681
 20
0.7621169936242992
 10
0.4513017699289697
 20
0.7766169936242995
 10
0.4857347699289689
 20
0.7894369936242992
 10
0.5212817699289684
 20
0.8006289936242986
 10
0.55786076992897
 20
0.8102449936242988
 10
0.5953877699289685
 20
0.8183389936242983
 10
0.6337817699289695
 20
0.8249609936242998
 10
0.6729577699289675
 20
0.8301659936242991
 10
0.7070367699289652
 20
0.8326969936242988
 10
0.7416427699289656
 20
0.834551993624299
 10
0.7778907699289652
 20
0.835858993624299
 10
0.8193517699289701
 20
0.838999993624299
 10
0.8599027699289707
 20
0.8447369936242989
 10
0.8989577699289683
 20
0.853236993624299
 10
0.9365167699289676
 20
0.8645589936242988
 10
0.9724307699289685
 20
0.8789649936242987
 10
1.006489769928968
 20
0.8964449936242989
 10
1.038540769928969
 20
0.917133993624299
 10
1.068382769928969
 20
0.9410669936242992
 10
1.095859769928968
 20
0.9682519936242986
 10
1.120745769928969
 20
0.9985559936242999
 10
1.142969769928968
 20
1.031936993624298
 10
1.162457769928969
 20
1.0682719936243
 10
1.179221769928968
 20
1.107598993624298
 10
1.193201769928968
 20
1.1498189936243
 10
1.204504769928968
 20
1.195007993624298
 10
1.213595769928969
 20
1.2459809936243
 10
1.213595769928968
 20
1.539058993624297
 10
1.211528769928968
 20
1.5634809936243
 10
1.204233769928968
 20
1.589082993624299
 10
1.191662769928969
 20
1.613015993624299
 10
1.173780769928968
 20
1.633787993624297
 10
1.151552769928968
 20
1.650299993624299
 10
1.125930769928967
 20
1.661940993624299
 10
1.09798976992897
 20
1.668814993624299
 10
1.069500769928968
 20
1.671070993624298
 10
0.3323637699289676
 20
1.671070993624299
 10
0.3089347699289691
 20
1.670058993624298
 10
0.2842607699289679
 20
1.665421993624298
 10
0.2603047699289684
 20
1.656184993624298
 10
0.2382257699289695
 20
1.641338993624298
 10
0.2202567699289681
 20
1.620988993624298
 10
0.2078357699289688
 20
1.596755993624298
 10
0.2011507699289692
 20
1.570480993624299
 10
0.1992727699289687
 20
1.544712993624299
 10
0.1992727699289687
 20
0.9418079936242991
 10
0.1988317699289689
 20
0.9417449936242984
 10
0.1580877699289691
 20
0.9320829936242988
 10
0.1214817699289682
 20
0.9192839936242995
 10
0.0888787699289694
 20
0.9027089936242993
 10
0.0605757699289691
 20
0.8816419936242992
 10
0.0375917699289686
 20
0.8553229936242988
 10
0.0217337699289693
 20
0.8242209936242989
 10
0.0018677699289688
 20
0.7343429936242992
 97
        1
330
817F
 92
       22
 72
     0
 73
     1
 93
       95
 10
0.1126277699289688
 20
0.784952993624299
 10
0.0648787699289688
 20
0.784952993624299
 10
0.0725127699289688
 20
0.8137929936242994
 10
0.0894257699289689
 20
0.838652993624299
 10
0.1156197699289689
 20
0.8595359936242996
 10
0.151093769928969
 20
0.8764429936242992
 10
0.1958487699289689
 20
0.8893779936242989
 10
0.2498867699289686
 20
0.8983429936242991
 10
0.2498867699289686
 20
0.9362569936242991
 10
0.2498867699289686
 20
0.9741709936242992
 10
0.2498867699289686
 20
1.012084993624299
 10
0.2498867699289686
 20
1.049998993624298
 10
0.2498867699289686
 20
1.087912993624299
 10
0.2498867699289686
 20
1.125825993624299
 10
0.2498867699289686
 20
1.163739993624299
 10
0.2498867699289686
 20
1.201653993624299
 10
0.2498867699289686
 20
1.239567993624299
 10
0.2498867699289686
 20
1.277480993624299
 10
0.2498867699289686
 20
1.315394993624298
 10
0.2498867699289686
 20
1.353308993624299
 10
0.2498867699289686
 20
1.391222993624298
 10
0.2498867699289686
 20
1.429135993624299
 10
0.2498867699289686
 20
1.467049993624299
 10
0.2498867699289686
 20
1.504963993624299
 10
0.2498867699289686
 20
1.542877993624299
 10
0.259747769928969
 20
1.588047993624299
 10
0.2883307699289686
 20
1.613119993624299
 10
0.3334377699289708
 20
1.620460993624299
 10
0.3701407699289687
 20
1.620460993624299
 10
0.4068437699289689
 20
1.620460993624299
 10
0.4435467699289691
 20
1.620460993624299
 10
0.4802497699289688
 20
1.620460993624299
 10
0.5169517699289689
 20
1.620460993624299
 10
0.5536547699289689
 20
1.620460993624299
 10
0.590357769928969
 20
1.620460993624299
 10
0.6270607699289688
 20
1.620460993624299
 10
0.6637637699289689
 20
1.620460993624299
 10
0.7004667699289691
 20
1.620460993624299
 10
0.7371687699289687
 20
1.620460993624299
 10
0.7738717699289688
 20
1.620460993624299
 10
0.810574769928969
 20
1.620460993624299
 10
0.8472777699289686
 20
1.620460993624299
 10
0.8839807699289687
 20
1.620460993624299
 10
0.9206847699289685
 20
1.620460993624299
 10
0.9573877699289688
 20
1.620460993624299
 10
0.9940907699289688
 20
1.620460993624299
 10
1.030793769928968
 20
1.620460993624299
 10
1.067497769928968
 20
1.620460993624299
 10
1.120514769928968
 20
1.609202993624299
 10
1.152336769928968
 20
1.579813993624298
 10
1.162981769928968
 20
1.536909993624299
 10
1.162981769928968
 20
1.495987993624298
 10
1.162981769928968
 20
1.455064993624299
 10
1.162981769928968
 20
1.414142993624299
 10
1.162981769928968
 20
1.373218993624299
 10
1.162981769928968
 20
1.332295993624299
 10
1.162981769928968
 20
1.291372993624298
 10
1.162981769928968
 20
1.250448993624298
 10
1.155494769928969
 20
1.2081139936243
 10
1.145890769928968
 20
1.168666993624301
 10
1.134209769928969
 20
1.132052993624299
 10
1.120492769928969
 20
1.0982179936243
 10
1.104779769928968
 20
1.067106993624299
 10
1.087109769928967
 20
1.038665993624297
 10
1.067522769928968
 20
1.012840993624299
 10
1.046059769928968
 20
0.9895749936242989
 10
1.022760769928969
 20
0.9688159936242993
 10
0.9976657699289688
 20
0.9505079936242989
 10
0.970813769928969
 20
0.934596993624299
 10
0.9422457699289681
 20
0.9210279936242988
 10
0.9120017699289691
 20
0.909747993624299
 10
0.8801207699289673
 20
0.9006999936242991
 10
0.8466447699289696
 20
0.893830993624299
 10
0.8116127699289668
 20
0.8890859936242994
 10
0.7750637699289717
 20
0.886409993624299
 10
0.7369467699289645
 20
0.8849829936242983
 10
0.6990517699289603
 20
0.8828839936242991
 10
0.6614427699289709
 20
0.8799239936242996
 10
0.6241847699289681
 20
0.8759089936242995
 10
0.587340769928967
 20
0.8706489936242983
 10
0.5509767699289682
 20
0.8639519936242992
 10
0.5151557699289703
 20
0.8556249936242991
 10
0.4799417699289677
 20
0.8454779936242994
 10
0.445400769928969
 20
0.8333189936242991
 10
0.411594769928968
 20
0.8189549936242994
 10
0.3785897699289693
 20
0.8021959936243
 10
0.3464487699289693
 20
0.7828499936242987
 10
0.315236769928968
 20
0.7607249936242987
 10
0.285017769928969
 20
0.7356289936242996
 10
0.255855769928969
 20
0.707370993624299
 10
0.255855769928969
 20
0.7332259936242989
 10
0.255855769928969
 20
0.759084993624299
 10
0.255855769928969
 20
0.784952993624299
 10
0.2081177699289687
 20
0.784952993624299
 10
0.1603747699289686
 20
0.784952993624299
 97
        1
330
811D
 75
     0
 76
     1
 47
0.007755
 98
        2
 10
0.112883
 20
0.76454
 10
0.112883
 20
0.76454
  0
HATCH
  5
811C
330
80C0
100
AcDbEntity
  8
0
  6
CONTINUOUS
 62
    20
100
AcDbHatch
 10
0.0
 20
0.0
 30
0.0
210
0.0
220
0.0
230
1.0
  2
SOLID
 70
     1
 71
     1
 91
        1
 92
        7
 72
     0
 73
     1
 93
       68
 10
1.225063769928968
 20
0.731850993624299
 10
1.225508769928968
 20
0.731917993624299
 10
1.225867769928968
 20
0.789220993624299
 10
1.251944769928969
 20
0.7949229936242992
 10
1.27765576992897
 20
0.8028549936242995
 10
1.302859769928969
 20
0.811614993624299
 10
1.342716769928968
 20
0.8349759936242984
 10
1.370579769928968
 20
0.8587859936242995
 10
1.389481769928969
 20
0.8850969936242993
 10
1.402456769928968
 20
0.9159629936242982
 10
1.412536769928969
 20
0.9534359936243072
 10
1.422756769928968
 20
0.9995669936242988
 10
1.216666769928969
 20
0.9995669936242991
 10
1.216579769928968
 20
0.9992639936242999
 10
1.216567769928968
 20
0.9995669936242988
 10
1.195471769928968
 20
0.9613549936242985
 10
1.172984769928967
 20
0.927359993624298
 10
1.149186769928969
 20
0.8973189936242995
 10
1.12415476992897
 20
0.8709699936243
 10
1.097967769928969
 20
0.8480499936243001
 10
1.070703769928968
 20
0.8282979936242991
 10
1.042441769928968
 20
0.8114499936242987
 10
1.013258769928969
 20
0.7972449936242987
 10
0.983233769928969
 20
0.7854199936242989
 10
0.9524447699289676
 20
0.7757139936242985
 10
0.9209707699289669
 20
0.7678619936242985
 10
0.888889769928968
 20
0.7616039936242986
 10
0.8562797699289662
 20
0.7566769936242989
 10
0.8232187699289658
 20
0.7528189936242985
 10
0.789785769928966
 20
0.7497669936242981
 10
0.7560587699289674
 20
0.7472589936242992
 10
0.7221157699289652
 20
0.745031993624299
 10
0.6921567699289719
 20
0.7426069936242997
 10
0.6615577699289698
 20
0.7390369936242989
 10
0.6304717699289667
 20
0.7342119936242982
 10
0.5990537699289699
 20
0.7280269936242993
 10
0.5674577699289707
 20
0.7203729936242994
 10
0.5358377699289684
 20
0.7111439936242988
 10
0.5043497699289701
 20
0.7002309936242999
 10
0.473145769928969
 20
0.6875279936242992
 10
0.4423817699289684
 20
0.6729269936242993
 10
0.412211769928968
 20
0.6563199936242982
 10
0.3827897699289692
 20
0.6376009936243
 10
0.3542707699289679
 20
0.6166619936242986
 10
0.3268077699289688
 20
0.5933949936242989
 10
0.3005567699289693
 20
0.5676929936242998
 10
0.2756707699289691
 20
0.5394489936242995
 10
0.2523047699289687
 20
0.5085559936242993
 10
0.2306127699289689
 20
0.4749049936242995
 10
0.2107487699289691
 20
0.4383899936242988
 10
0.2107487699289692
 20
0.1345949936242981
 10
0.2128117699289689
 20
0.110177993624299
 10
0.2201077699289692
 20
0.0845749936242992
 10
0.2326747699289689
 20
0.0606419936242987
 10
0.2505607699289685
 20
0.039873993624299
 10
0.2727887699289689
 20
0.0233589936242992
 10
0.2984107699289688
 20
0.0117169936242991
 10
0.3263517699289688
 20
0.0048429936242993
 10
0.3548397699289691
 20
0.0025869936242993
 10
1.091977769928968
 20
0.0025869936242993
 10
1.115406769928968
 20
0.0036029936242992
 10
1.140083769928968
 20
0.0082369936242989
 10
1.164040769928969
 20
0.0174769936242991
 10
1.186119769928968
 20
0.0323229936242989
 10
1.204083769928969
 20
0.0526739936242984
 10
1.216504769928968
 20
0.0769019936242993
 10
1.223189769928968
 20
0.1031779936242981
 10
1.225063769928968
 20
0.1289449936243001
 97
        1
330
81C0
 75
     0
 76
     1
 47
0.007755
 98
        1
 10
1.090843
 20
0.586165
  0
LWPOLYLINE
  5
811D
102
{ACAD_REACTORS
330
811B
102
}
330
80C0
100
AcDbEntity
  8
WARSTWA_1
  6
CONTINUOUS
 62
    20
100
AcDbPolyline
 90
       96
 70
     1
 43
0.003
 10
0.255856
 20
0.707371
 10
0.255856
 20
0.733226
 10
0.255856
 20
0.759085
 10
0.255856
 20
0.784953
 10
0.208118
 20
0.784953
 10
0.160375
 20
0.784953
 10
0.112628
 20
0.784953
 10
0.064879
 20
0.784953
 10
0.072513
 20
0.813793
 10
0.089426
 20
0.838653
 10
0.11562
 20
0.859536
 10
0.151094
 20
0.876443
 10
0.195849
 20
0.889378
 10
0.249887
 20
0.898343
 10
0.249887
 20
0.936257
 10
0.249887
 20
0.974171
 10
0.249887
 20
1.012085
 10
0.249887
 20
1.049999
 10
0.249887
 20
1.087913
 10
0.249887
 20
1.125826
 10
0.249887
 20
1.16374
 10
0.249887
 20
1.201654
 10
0.249887
 20
1.239568
 10
0.249887
 20
1.277481
 10
0.249887
 20
1.315395
 10
0.249887
 20
1.353309
 10
0.249887
 20
1.391223
 10
0.249887
 20
1.429136
 10
0.249887
 20
1.46705
 10
0.249887
 20
1.504964
 10
0.249887
 20
1.542878
 10
0.259748
 20
1.588048
 10
0.288331
 20
1.61312
 10
0.333438
 20
1.620461
 10
0.370141
 20
1.620461
 10
0.406844
 20
1.620461
 10
0.443547
 20
1.620461
 10
0.48025
 20
1.620461
 10
0.516952
 20
1.620461
 10
0.553655
 20
1.620461
 10
0.590358
 20
1.620461
 10
0.627061
 20
1.620461
 10
0.663764
 20
1.620461
 10
0.700467
 20
1.620461
 10
0.737169
 20
1.620461
 10
0.773872
 20
1.620461
 10
0.810575
 20
1.620461
 10
0.847278
 20
1.620461
 10
0.883981
 20
1.620461
 10
0.920685
 20
1.620461
 10
0.957388
 20
1.620461
 10
0.994091
 20
1.620461
 10
1.030794
 20
1.620461
 10
1.067498
 20
1.620461
 10
1.067498
 20
1.620461
 10
1.120515
 20
1.609203
 10
1.152337
 20
1.579814
 10
1.162982
 20
1.53691
 10
1.162982
 20
1.495988
 10
1.162982
 20
1.455065
 10
1.162982
 20
1.414143
 10
1.162982
 20
1.373219
 10
1.162982
 20
1.332296
 10
1.162982
 20
1.291373
 10
1.162982
 20
1.250449
 10
1.155495
 20
1.208114
 10
1.145891
 20
1.168667
 10
1.13421
 20
1.132053
 10
1.120493
 20
1.098218
 10
1.10478
 20
1.067107
 10
1.08711
 20
1.038666
 10
1.067523
 20
1.012841
 10
1.04606
 20
0.989575
 10
1.022761
 20
0.968816
 10
0.997666
 20
0.950508
 10
0.970814
 20
0.934597
 10
0.942246
 20
0.921028
 10
0.912002
 20
0.909748
 10
0.880121
 20
0.9007
 10
0.846645
 20
0.893831
 10
0.811613
 20
0.889086
 10
0.775064
 20
0.88641
 10
0.736947
 20
0.884983
 10
0.699052
 20
0.882884
 10
0.661443
 20
0.879924
 10
0.624185
 20
0.875909
 10
0.587341
 20
0.870649
 10
0.550977
 20
0.863952
 10
0.515156
 20
0.855625
 10
0.479942
 20
0.845478
 10
0.445401
 20
0.833319
 10
0.411595
 20
0.818955
 10
0.37859
 20
0.802196
 10
0.346449
 20
0.78285
 10
0.315237
 20
0.760725
 10
0.285018
 20
0.735629
  0
LWPOLYLINE
  5
817F
102
{ACAD_REACTORS
330
811B
102
}
330
80C0
100
AcDbEntity
  8
WARSTWA_1
  6
CONTINUOUS
 62
    20
100
AcDbPolyline
 90
       63
 70
     1
 43
0.003
 10
0.205242
 20
0.579347
 10
0.205242
 20
0.734343
 10
0.001868
 20
0.734343
 10
0.021734
 20
0.824221
 10
0.037592
 20
0.855323
 10
0.060576
 20
0.881642
 10
0.088879
 20
0.902709
 10
0.121482
 20
0.919284
 10
0.158088
 20
0.932083
 10
0.198832
 20
0.941745
 10
0.199273
 20
0.941808
 10
0.199273
 20
1.544713
 10
0.201151
 20
1.570481
 10
0.207836
 20
1.596756
 10
0.220257
 20
1.620989
 10
0.238226
 20
1.641339
 10
0.260305
 20
1.656185
 10
0.284261
 20
1.665422
 10
0.308935
 20
1.670059
 10
0.332364
 20
1.671071
 10
1.069501
 20
1.671071
 10
1.09799
 20
1.668815
 10
1.125931
 20
1.661941
 10
1.151553
 20
1.6503
 10
1.173781
 20
1.633788
 10
1.191663
 20
1.613016
 10
1.204234
 20
1.589083
 10
1.211529
 20
1.563481
 10
1.213596
 20
1.539059
 10
1.213596
 20
1.245981
 10
1.204505
 20
1.195008
 10
1.193202
 20
1.149819
 10
1.179222
 20
1.107599
 10
1.162458
 20
1.068272
 10
1.14297
 20
1.031937
 10
1.120746
 20
0.998556
 10
1.09586
 20
0.968252
 10
1.068383
 20
0.941067
 10
1.038541
 20
0.917134
 10
1.00649
 20
0.896445
 10
0.972431
 20
0.878965
 10
0.936517
 20
0.864559
 10
0.898958
 20
0.853237
 10
0.859903
 20
0.844737
 10
0.819352
 20
0.839
 10
0.777891
 20
0.835859
 10
0.741643
 20
0.834552
 10
0.707037
 20
0.832697
 10
0.672958
 20
0.830166
 10
0.633782
 20
0.824961
 10
0.595388
 20
0.818339
 10
0.557861
 20
0.810245
 10
0.521282
 20
0.800629
 10
0.485735
 20
0.789437
 10
0.451302
 20
0.776617
 10
0.418067
 20
0.762117
 10
0.386113
 20
0.745885
 10
0.355521
 20
0.727867
 10
0.326375
 20
0.708013
 10
0.298759
 20
0.686268
 10
0.272755
 20
0.662582
 10
0.248445
 20
0.636901
 10
0.225913
 20
0.609174
  0
LWPOLYLINE
  5
81C0
102
{ACAD_REACTORS
330
811C
102
}
330
80C0
100
AcDbEntity
  8
WARSTWA_1
  6
CONTINUOUS
 62
    20
100
AcDbPolyline
 90
       68
 70
     1
 43
0.003
 10
1.21658
 20
0.999264
 10
1.216667
 20
0.999567
 10
1.422757
 20
0.999567
 10
1.412537
 20
0.953436
 10
1.402457
 20
0.915963
 10
1.389482
 20
0.885097
 10
1.37058
 20
0.858786
 10
1.342717
 20
0.834976
 10
1.30286
 20
0.811615
 10
1.277656
 20
0.802855
 10
1.251945
 20
0.794923
 10
1.225868
 20
0.789221
 10
1.225509
 20
0.731918
 10
1.225064
 20
0.731851
 10
1.225064
 20
0.128945
 10
1.22319
 20
0.103178
 10
1.216505
 20
0.076902
 10
1.204084
 20
0.052674
 10
1.18612
 20
0.032323
 10
1.164041
 20
0.017477
 10
1.140084
 20
0.008237
 10
1.115407
 20
0.003603
 10
1.091978
 20
0.002587
 10
0.35484
 20
0.002587
 10
0.326352
 20
0.004843
 10
0.298411
 20
0.011717
 10
0.272789
 20
0.023359
 10
0.250561
 20
0.039874
 10
0.232675
 20
0.060642
 10
0.220108
 20
0.084575
 10
0.212812
 20
0.110178
 10
0.210749
 20
0.134595
 10
0.210749
 20
0.43839
 10
0.230613
 20
0.474905
 10
0.252305
 20
0.508556
 10
0.275671
 20
0.539449
 10
0.300557
 20
0.567693
 10
0.326808
 20
0.593395
 10
0.354271
 20
0.616662
 10
0.38279
 20
0.637601
 10
0.412212
 20
0.65632
 10
0.442382
 20
0.672927
 10
0.473146
 20
0.687528
 10
0.50435
 20
0.700231
 10
0.535838
 20
0.711144
 10
0.567458
 20
0.720373
 10
0.599054
 20
0.728027
 10
0.630472
 20
0.734212
 10
0.661558
 20
0.739037
 10
0.692157
 20
0.742607
 10
0.722116
 20
0.745032
 10
0.756059
 20
0.747259
 10
0.789786
 20
0.749767
 10
0.823219
 20
0.752819
 10
0.85628
 20
0.756677
 10
0.88889
 20
0.761604
 10
0.920971
 20
0.767862
 10
0.952445
 20
0.775714
 10
0.983234
 20
0.78542
 10
1.013259
 20
0.797245
 10
1.042442
 20
0.81145
 10
1.070704
 20
0.828298
 10
1.097968
 20
0.84805
 10
1.124155
 20
0.87097
 10
1.149187
 20
0.897319
 10
1.172985
 20
0.92736
 10
1.195472
 20
0.961355
 10
1.216568
 20
0.999567
  0
HATCH
  5
8206
330
80C0
100
AcDbEntity
  8
0
  6
CONTINUOUS
 62
    20
100
AcDbHatch
 10
0.0
 20
0.0
 30
0.0
210
0.0
220
0.0
230
1.0
  2
SOLID
 70
     1
 71
     1
 91
        1
 92
        7
 72
     0
 73
     1
 93
       48
 10
1.972209769928968
 20
1.181854993624299
 10
1.973067769928969
 20
1.194846993624298
 10
1.975701769928969
 20
1.206854993624298
 10
1.980331769928969
 20
1.2173859936243
 10
1.986981769928969
 20
1.226362993624299
 10
1.995626769928968
 20
1.233342993624298
 10
2.005898769928968
 20
1.238236993624298
 10
2.017575769928969
 20
1.241023993624299
 10
2.030500769928966
 20
1.241944993624298
 10
2.04342676992897
 20
1.240980993624298
 10
2.055036769928969
 20
1.238058993624298
 10
2.065331769928968
 20
1.232944993624299
 10
2.073867769928969
 20
1.225704993624299
 10
2.080493769928969
 20
1.216440993624299
 10
2.085016769928969
 20
1.205578993624299
 10
2.087650769928968
 20
1.193244993624297
 10
2.088461769928969
 20
1.179771993624297
 10
2.088461769928969
 20
0.9344769936242993
 10
2.358052769928968
 20
0.9344769936242993
 10
2.358052769928968
 20
1.251842993624308
 10
2.357174769928968
 20
1.2693549936243
 10
2.354453769928968
 20
1.285684993624301
 10
2.349997769928968
 20
1.3011109936243
 10
2.343721769928968
 20
1.315641993624298
 10
2.335686769928968
 20
1.329310993624299
 10
2.325835769928969
 20
1.342216993624303
 10
2.314071769928966
 20
1.354354993624298
 10
2.300355769928969
 20
1.365720993624299
 10
2.28520976992897
 20
1.375905993624296
 10
2.269300769928968
 20
1.384814993624298
 10
2.252709769928967
 20
1.392362993624298
 10
2.235371769928965
 20
1.398574993624299
 10
2.217331769928962
 20
1.4034019936243
 10
2.198457769928968
 20
1.406893993624299
 10
2.178878769928968
 20
1.408999993624299
 10
2.158382769928967
 20
1.409724993624299
 10
2.129894769928965
 20
1.408956993624299
 10
2.103363769928966
 20
1.406759993624298
 10
2.07887176992897
 20
1.403118993624299
 10
2.05641876992897
 20
1.3981149936243
 10
2.03600876992897
 20
1.391661993624298
 10
2.017595769928969
 20
1.383893993624299
 10
2.001134769928968
 20
1.374720993624299
 10
1.972209769928968
 20
1.353936993624298
 10
1.972209769928968
 20
1.401472993624299
 10
1.702599769928968
 20
1.401472993624298
 10
1.702599769928968
 20
0.2494489936242989
 10
1.972209769928969
 20
0.249448993624299
 97
        1
330
8207
 75
     0
 76
     1
 47
0.007755
 98
        1
 10
1.874764
 20
1.067003
  0
LWPOLYLINE
  5
8207
102
{ACAD_REACTORS
330
8206
102
}
330
80C0
100
AcDbEntity
  8
WARSTWA_1
  6
CONTINUOUS
 62
    20
100
AcDbPolyline
 90
       48
 70
     1
 43
0.003
 10
2.358053
 20
0.934477
 10
2.088462
 20
0.934477
 10
2.088462
 20
1.179772
 10
2.087651
 20
1.193245
 10
2.085017
 20
1.205579
 10
2.080494
 20
1.216441
 10
2.073868
 20
1.225705
 10
2.065332
 20
1.232945
 10
2.055037
 20
1.238059
 10
2.043427
 20
1.240981
 10
2.030501
 20
1.241945
 10
2.017576
 20
1.241024
 10
2.005899
 20
1.238237
 10
1.995627
 20
1.233343
 10
1.986982
 20
1.226363
 10
1.980332
 20
1.217386
 10
1.975702
 20
1.206855
 10
1.973068
 20
1.194847
 10
1.97221
 20
1.181855
 10
1.97221
 20
0.249449
 10
1.7026
 20
0.249449
 10
1.7026
 20
1.401473
 10
1.97221
 20
1.401473
 10
1.97221
 20
1.353937
 10
2.001135
 20
1.374721
 10
2.017596
 20
1.383894
 10
2.036009
 20
1.391662
 10
2.056419
 20
1.398115
 10
2.078872
 20
1.403119
 10
2.103364
 20
1.40676
 10
2.129895
 20
1.408957
 10
2.158383
 20
1.409725
 10
2.178879
 20
1.409
 10
2.198458
 20
1.406894
 10
2.217332
 20
1.403402
 10
2.235372
 20
1.398575
 10
2.25271
 20
1.392363
 10
2.269301
 20
1.384815
 10
2.28521
 20
1.375906
 10
2.300356
 20
1.365721
 10
2.314072
 20
1.354355
 10
2.325836
 20
1.342217
 10
2.335687
 20
1.329311
 10
2.343722
 20
1.315642
 10
2.349998
 20
1.301111
 10
2.354454
 20
1.285685
 10
2.357175
 20
1.269355
 10
2.358053
 20
1.251843
  0
LWPOLYLINE
  5
8239
102
{ACAD_REACTORS
330
80C1
102
}
330
80C0
100
AcDbEntity
  8
WARSTWA_1
  6
CONTINUOUS
 62
    20
100
AcDbPolyline
 90
       19
 70
     1
 43
0.003
 10
2.847379
 20
0.902831
 10
2.847379
 20
1.179748
 10
2.846592
 20
1.194122
 10
2.843958
 20
1.207182
 10
2.839501
 20
1.218682
 10
2.832895
 20
1.228449
 10
2.824336
 20
1.23615
 10
2.813958
 20
1.241595
 10
2.802171
 20
1.244733
 10
2.789068
 20
1.245741
 10
2.775879
 20
1.244733
 10
2.763986
 20
1.241615
 10
2.753537
 20
1.236193
 10
2.744824
 20
1.228512
 10
2.738175
 20
1.218725
 10
2.733568
 20
1.207225
 10
2.730911
 20
1.194146
 10
2.730076
 20
1.179772
 10
2.730076
 20
0.902831
  0
LWPOLYLINE
  5
824E
330
80C0
100
AcDbEntity
  8
WARSTWA_1
  6
CONTINUOUS
 62
    20
100
AcDbPolyline
 90
        4
 70
     1
 43
0.003
 10
5.410466
 20
0.249449
 10
5.140875
 20
0.249449
 10
5.140875
 20
1.672811
 10
5.410466
 20
1.672811
  0
SOLID
  5
8254
330
80C0
100
AcDbEntity
  8
WARSTWA_1
  6
CONTINUOUS
 62
    20
100
AcDbTrace
 10
5.410466
 20
0.249449
 30
0.0
 11
5.140875
 21
0.249449
 31
0.0
 12
5.410466
 22
1.672811
 32
0.0
 13
5.140875
 23
1.672811
 33
0.0
  0
HATCH
  5
8255
330
80C0
100
AcDbEntity
  8
0
  6
CONTINUOUS
 62
    20
100
AcDbHatch
 10
0.0
 20
0.0
 30
0.0
210
0.0
220
0.0
230
1.0
  2
SOLID
 70
     1
 71
     1
 91
        2
 92
        7
 72
     0
 73
     1
 93
       66
 10
4.375087769928969
 20
0.4716109936242766
 10
4.376426769928967
 20
0.4422919936243003
 10
4.380308769928968
 20
0.4151849936243043
 10
4.386760769928969
 20
0.3900789936242974
 10
4.395670769928966
 20
0.3669929936243017
 10
4.407150769928968
 20
0.3457719936242957
 10
4.421130769928968
 20
0.3264809936242983
 10
4.437721769928966
 20
0.3089649936242992
 10
4.456859769928969
 20
0.2933189936243026
 10
4.47873776992897
 20
0.2793629936242996
 10
4.503276769928964
 20
0.2672249936242996
 10
4.530532769928971
 20
0.2569099936242995
 10
4.560489769928967
 20
0.248460993624299
 10
4.593233769928969
 20
0.241830993624299
 10
4.62869776992897
 20
0.237090993624299
 10
4.66693076992897
 20
0.234240993624299
 10
4.707792769928969
 20
0.2332959936242989
 10
4.747713769928967
 20
0.2342169936242988
 10
4.78491476992897
 20
0.236936993624299
 10
4.819477769928967
 20
0.2414809936242988
 10
4.851323769928969
 20
0.2478669936242991
 10
4.88053276992897
 20
0.2560119936242997
 10
4.907044769928968
 20
0.2659299936242982
 10
4.930922769928969
 20
0.2775829936242991
 10
4.952146769928968
 20
0.2909489936243006
 10
4.97084376992897
 20
0.3060039936242979
 10
4.986930769928972
 20
0.3227719936242993
 10
5.000536769928968
 20
0.3412719936243
 10
5.011642769928967
 20
0.361551993624297
 10
5.020355769928968
 20
0.3836499936243034
 10
5.02656376992897
 20
0.4076819936243045
 10
5.030319769928969
 20
0.433578993624301
 10
5.031567769928969
 20
0.4616459936243008
 10
5.031567769928969
 20
1.181350993624298
 10
5.030075769928968
 20
1.210102993624298
 10
5.025532769928969
 20
1.236499993624292
 10
5.018095769928968
 20
1.260818993624295
 10
5.007646769928971
 20
1.2831149936243
 10
4.994304769928969
 20
1.303417993624299
 10
4.97788676992897
 20
1.321917993624297
 10
4.958465769928967
 20
1.338574993624299
 10
4.935815769928963
 20
1.353496993624299
 10
4.910863769928979
 20
1.366555993624298
 10
4.884811769928976
 20
1.377968993624298
 10
4.857819769928969
 20
1.387621993624299
 10
4.82981576992897
 20
1.3955669936243
 10
4.800847769928968
 20
1.401712993624298
 10
4.770847769928965
 20
1.406169993624299
 10
4.739835769928964
 20
1.408803993624298
 10
4.707772769928968
 20
1.409724993624299
 10
4.666930769928965
 20
1.408736993624298
 10
4.62872176992897
 20
1.405881993624299
 10
4.59323376992897
 20
1.401121993624299
 10
4.560489769928969
 20
1.394515993624299
 10
4.530556769928966
 20
1.386019993624298
 10
4.503276769928969
 20
1.375708993624298
 10
4.478717769928973
 20
1.3635709936243
 10
4.456859769928966
 20
1.349677993624297
 10
4.437721769928968
 20
1.333944993624298
 10
4.42115076992897
 20
1.316452993624299
 10
4.40715076992897
 20
1.297118993624299
 10
4.395670769928967
 20
1.275940993624297
 10
4.38676076992897
 20
1.252830993624296
 10
4.380308769928969
 20
1.227744993624298
 10
4.376426769928968
 20
1.200641993624297
 10
4.375087769928969
 20
1.171385993624287
 97
        1
330
8257
 92
       22
 72
     0
 73
     1
 93
       34
 10
4.644674769928968
 20
1.179771993624302
 10
4.645508769928968
 20
1.194145993624303
 10
4.648166769928968
 20
1.207224993624298
 10
4.652772769928966
 20
1.218747993624299
 10
4.659469769928969
 20
1.228535993624298
 10
4.668225769928969
 20
1.236192993624298
 10
4.678737769928968
 20
1.241614993624299
 10
4.690717769928969
 20
1.244732993624299
 10
4.704020769928966
 20
1.245740993624298
 10
4.717012769928969
 20
1.244732993624299
 10
4.728709769928967
 20
1.2415949936243
 10
4.73902476992897
 20
1.236129993624297
 10
4.747540769928972
 20
1.228448993624298
 10
4.754099769928966
 20
1.218661993624302
 10
4.758556769928969
 20
1.207161993624295
 10
4.76116676992897
 20
1.194102993624288
 10
4.76195776992897
 20
1.179747993624284
 10
4.76195776992897
 20
0.4629179936242934
 10
4.761166769928969
 20
0.4481699936243022
 10
4.758575769928969
 20
0.4348269936242979
 10
4.754142769928969
 20
0.4230439936242992
 10
4.747626769928968
 20
0.4130589936243006
 10
4.739134769928968
 20
0.405114993624299
 10
4.728796769928971
 20
0.3994969936242991
 10
4.717056769928968
 20
0.396224993624299
 10
4.704020769928968
 20
0.3952169936242988
 10
4.690674769928969
 20
0.3962249936242989
 10
4.678650769928969
 20
0.3994489936242989
 10
4.668115769928967
 20
0.4050479936242994
 10
4.659402769928968
 20
0.4129689936242993
 10
4.65272976992897
 20
0.4229769936243013
 10
4.648142769928969
 20
0.4347639936242983
 10
4.645508769928969
 20
0.4481499936243
 10
4.644674769928968
 20
0.462917993624288
 97
        1
330
829B
 75
     0
 76
     1
 47
0.007755
 98
        2
 10
4.476443
 20
0.725763
 10
4.476443
 20
0.725763
  0
HATCH
  5
8256
330
80C0
100
AcDbEntity
  8
0
  6
CONTINUOUS
 62
    20
100
AcDbHatch
 10
0.0
 20
0.0
 30
0.0
210
0.0
220
0.0
230
1.0
  2
SOLID
 70
     1
 71
     1
 91
        2
 92
        7
 72
     0
 73
     1
 93
       46
 10
4.268874769928968
 20
1.226712993624292
 10
4.264297769928967
 20
1.258533993624303
 10
4.254660769928968
 20
1.287669993624304
 10
4.240488769928966
 20
1.314010993624302
 10
4.222307769928969
 20
1.337444993624298
 10
4.200643769928964
 20
1.357860993624301
 10
4.176022769928967
 20
1.375147993624301
 10
4.148968769928968
 20
1.389193993624298
 10
4.120007769928969
 20
1.399888993624299
 10
4.089665769928966
 20
1.407119993624299
 10
4.058468769928972
 20
1.410777993624299
 10
4.026940769928968
 20
1.410749993624299
 10
3.995609769928968
 20
1.406924993624299
 10
3.964998769928969
 20
1.399191993624299
 10
3.935634769928969
 20
1.387439993624299
 10
3.908042769928971
 20
1.371557993624301
 10
3.882748769928969
 20
1.351433993624298
 10
3.882374769928968
 20
1.401472993624298
 10
3.614453769928968
 20
1.401472993624298
 10
3.614453769928968
 20
0.0014999936242992
 10
3.883012769928968
 20
0.0014999936242992
 10
3.883012769928969
 20
0.2840589936242988
 10
3.911741769928968
 20
0.2652919936242983
 10
3.928398769928966
 20
0.2569099936243001
 10
3.947032769928965
 20
0.249755993624299
 10
3.967638769928965
 20
0.2438739936242994
 10
3.990288769928969
 20
0.239244993624299
 10
4.014867769928968
 20
0.2359529936242992
 10
4.041445769928969
 20
0.2339529936242993
 10
4.069886769928968
 20
0.2332959936242989
 10
4.090626769928968
 20
0.2339529936242993
 10
4.110489769928968
 20
0.2359729936242993
 10
4.129469769928967
 20
0.2393079936242987
 10
4.147619769928968
 20
0.2439849936242992
 10
4.164914769928966
 20
0.2499529936242991
 10
4.181394769928971
 20
0.2573039936242988
 10
4.197067769928971
 20
0.2659529936243005
 10
4.211902769928967
 20
0.2759369936242975
 10
4.225398769928967
 20
0.2869099936242981
 10
4.23698576992897
 20
0.2986299936242997
 10
4.246729769928967
 20
0.3111619936242992
 10
4.254674769928966
 20
0.324503993624297
 10
4.260863769928969
 20
0.3386579936243048
 10
4.265296769928967
 20
0.3537599936242921
 10
4.267997769928969
 20
0.3697799936243013
 10
4.268874769928968
 20
0.3870519936243079
 97
        1
330
82BF
 92
       22
 72
     0
 73
     1
 93
       34
 10
4.000315769928969
 20
0.459121993624299
 10
3.999504769928968
 20
0.4455829936242994
 10
3.996847769928967
 20
0.4332479936242941
 10
3.99230876992897
 20
0.4223389936243008
 10
3.985658769928969
 20
0.4131459936243
 10
3.977075769928968
 20
0.4058389936242993
 10
3.966717769928968
 20
0.4007679936242993
 10
3.955020769928969
 20
0.3978469936242988
 10
3.942004769928968
 20
0.3969489936242989
 10
3.928969769928968
 20
0.3978269936242991
 10
3.917205769928966
 20
0.4005909936242991
 10
3.906823769928968
 20
0.4054409936242998
 10
3.898048769928968
 20
0.4124409936242979
 10
3.891288769928968
 20
0.4213549936243003
 10
3.886591769928967
 20
0.4319529936242988
 10
3.883871769928967
 20
0.4439369936243022
 10
3.883012769928969
 20
0.4570399936242908
 10
3.883012769928969
 20
1.183917993624302
 10
3.883871769928968
 20
1.1973939936243
 10
3.886548769928968
 20
1.209728993624298
 10
3.891245769928967
 20
1.220566993624296
 10
3.897957769928968
 20
1.229763993624298
 10
3.906737769928968
 20
1.236940993624298
 10
3.917138769928969
 20
1.241944993624298
 10
3.928926769928969
 20
1.244818993624299
 10
3.942004769928968
 20
1.245740993624299
 10
3.955020769928969
 20
1.244818993624299
 10
3.966693769928969
 20
1.241921993624299
 10
3.977032769928968
 20
1.236897993624296
 10
3.985634769928967
 20
1.229720993624299
 10
3.992308769928969
 20
1.220503993624297
 10
3.996847769928968
 20
1.209684993624299
 10
3.999504769928968
 20
1.197350993624301
 10
4.000315769928969
 20
1.183897993624303
 97
        1
330
82EF
 75
     0
 76
     1
 47
0.007755
 98
        2
 10
4.096125
 20
0.741274
 10
4.096125
 20
0.741274
  0
LWPOLYLINE
  5
8257
102
{ACAD_REACTORS
330
8255
102
}
330
80C0
100
AcDbEntity
  8
WARSTWA_1
  6
CONTINUOUS
 62
    20
100
AcDbPolyline
 90
       66
 70
     1
 43
0.003
 10
4.375088
 20
0.471611
 10
4.375088
 20
1.171386
 10
4.376427
 20
1.200642
 10
4.380309
 20
1.227745
 10
4.386761
 20
1.252831
 10
4.395671
 20
1.275941
 10
4.407151
 20
1.297119
 10
4.421151
 20
1.316453
 10
4.437722
 20
1.333945
 10
4.45686
 20
1.349678
 10
4.478718
 20
1.363571
 10
4.503277
 20
1.375709
 10
4.530557
 20
1.38602
 10
4.56049
 20
1.394516
 10
4.593234
 20
1.401122
 10
4.628722
 20
1.405882
 10
4.666931
 20
1.408737
 10
4.707773
 20
1.409725
 10
4.739836
 20
1.408804
 10
4.770848
 20
1.40617
 10
4.800848
 20
1.401713
 10
4.829816
 20
1.395567
 10
4.85782
 20
1.387622
 10
4.884812
 20
1.377969
 10
4.910864
 20
1.366556
 10
4.935816
 20
1.353497
 10
4.958466
 20
1.338575
 10
4.977887
 20
1.321918
 10
4.994305
 20
1.303418
 10
5.007647
 20
1.283115
 10
5.018096
 20
1.260819
 10
5.025533
 20
1.2365
 10
5.030076
 20
1.210103
 10
5.031568
 20
1.181351
 10
5.031568
 20
0.461646
 10
5.03032
 20
0.433579
 10
5.026564
 20
0.407682
 10
5.020356
 20
0.38365
 10
5.011643
 20
0.361552
 10
5.000537
 20
0.341272
 10
4.986931
 20
0.322772
 10
4.970844
 20
0.306004
 10
4.952147
 20
0.290949
 10
4.930923
 20
0.277583
 10
4.907045
 20
0.26593
 10
4.880533
 20
0.256012
 10
4.851324
 20
0.247867
 10
4.819478
 20
0.241481
 10
4.784915
 20
0.236937
 10
4.747714
 20
0.234217
 10
4.707793
 20
0.233296
 10
4.666931
 20
0.234241
 10
4.628698
 20
0.237091
 10
4.593234
 20
0.241831
 10
4.56049
 20
0.248461
 10
4.530533
 20
0.25691
 10
4.503277
 20
0.267225
 10
4.478738
 20
0.279363
 10
4.45686
 20
0.293319
 10
4.437722
 20
0.308965
 10
4.421131
 20
0.326481
 10
4.407151
 20
0.345772
 10
4.395671
 20
0.366993
 10
4.386761
 20
0.390079
 10
4.380309
 20
0.415185
 10
4.376427
 20
0.442292
  0
LWPOLYLINE
  5
829B
102
{ACAD_REACTORS
330
8255
102
}
330
80C0
100
AcDbEntity
  8
WARSTWA_1
  6
CONTINUOUS
 62
    20
100
AcDbPolyline
 90
       34
 70
     1
 43
0.003
 10
4.761958
 20
0.462918
 10
4.761958
 20
1.179748
 10
4.761167
 20
1.194103
 10
4.758557
 20
1.207162
 10
4.7541
 20
1.218662
 10
4.747541
 20
1.228449
 10
4.739025
 20
1.23613
 10
4.72871
 20
1.241595
 10
4.717013
 20
1.244733
 10
4.704021
 20
1.245741
 10
4.690718
 20
1.244733
 10
4.678738
 20
1.241615
 10
4.668226
 20
1.236193
 10
4.65947
 20
1.228536
 10
4.652773
 20
1.218748
 10
4.648167
 20
1.207225
 10
4.645509
 20
1.194146
 10
4.644675
 20
1.179772
 10
4.644675
 20
0.462918
 10
4.645509
 20
0.44815
 10
4.648143
 20
0.434764
 10
4.65273
 20
0.422977
 10
4.659403
 20
0.412969
 10
4.668116
 20
0.405048
 10
4.678651
 20
0.399449
 10
4.690675
 20
0.396225
 10
4.704021
 20
0.395217
 10
4.717057
 20
0.396225
 10
4.728797
 20
0.399497
 10
4.739135
 20
0.405115
 10
4.747627
 20
0.413059
 10
4.754143
 20
0.423044
 10
4.758576
 20
0.434827
 10
4.761167
 20
0.44817
  0
LWPOLYLINE
  5
82BF
102
{ACAD_REACTORS
330
8256
102
}
330
80C0
100
AcDbEntity
  8
WARSTWA_1
  6
CONTINUOUS
 62
    20
100
AcDbPolyline
 90
       46
 70
     1
 43
0.003
 10
3.883013
 20
0.284059
 10
3.883013
 20
0.0015
 10
3.614454
 20
0.0015
 10
3.614454
 20
1.401473
 10
3.882375
 20
1.401473
 10
3.882749
 20
1.351434
 10
3.908043
 20
1.371558
 10
3.935635
 20
1.38744
 10
3.964999
 20
1.399192
 10
3.99561
 20
1.406925
 10
4.026941
 20
1.41075
 10
4.058469
 20
1.410778
 10
4.089666
 20
1.40712
 10
4.120008
 20
1.399889
 10
4.148969
 20
1.389194
 10
4.176023
 20
1.375148
 10
4.200644
 20
1.357861
 10
4.222308
 20
1.337445
 10
4.240489
 20
1.314011
 10
4.254661
 20
1.28767
 10
4.264298
 20
1.258534
 10
4.268875
 20
1.226713
 10
4.268875
 20
0.387052
 10
4.267998
 20
0.36978
 10
4.265297
 20
0.35376
 10
4.260864
 20
0.338658
 10
4.254675
 20
0.324504
 10
4.24673
 20
0.311162
 10
4.236986
 20
0.29863
 10
4.225399
 20
0.28691
 10
4.211903
 20
0.275937
 10
4.197068
 20
0.265953
 10
4.181395
 20
0.257304
 10
4.164915
 20
0.249953
 10
4.14762
 20
0.243985
 10
4.12947
 20
0.239308
 10
4.11049
 20
0.235973
 10
4.090627
 20
0.233953
 10
4.069887
 20
0.233296
 10
4.041446
 20
0.233953
 10
4.014868
 20
0.235953
 10
3.990289
 20
0.239245
 10
3.967639
 20
0.243874
 10
3.947033
 20
0.249756
 10
3.928399
 20
0.25691
 10
3.911742
 20
0.265292
  0
LWPOLYLINE
  5
82EF
102
{ACAD_REACTORS
330
8256
102
}
330
80C0
100
AcDbEntity
  8
WARSTWA_1
  6
CONTINUOUS
 62
    20
100
AcDbPolyline
 90
       34
 70
     1
 43
0.003
 10
4.000316
 20
0.459122
 10
4.000316
 20
1.183898
 10
3.999505
 20
1.197351
 10
3.996848
 20
1.209685
 10
3.992309
 20
1.220504
 10
3.985635
 20
1.229721
 10
3.977033
 20
1.236898
 10
3.966694
 20
1.241922
 10
3.955021
 20
1.244819
 10
3.942005
 20
1.245741
 10
3.928927
 20
1.244819
 10
3.917139
 20
1.241945
 10
3.906738
 20
1.236941
 10
3.897958
 20
1.229764
 10
3.891246
 20
1.220567
 10
3.886549
 20
1.209729
 10
3.883872
 20
1.197394
 10
3.883013
 20
1.183918
 10
3.883013
 20
0.45704
 10
3.883872
 20
0.443937
 10
3.886592
 20
0.431953
 10
3.891289
 20
0.421355
 10
3.898049
 20
0.412441
 10
3.906824
 20
0.405441
 10
3.917206
 20
0.400591
 10
3.92897
 20
0.397827
 10
3.942005
 20
0.396949
 10
3.955021
 20
0.397847
 10
3.966718
 20
0.400768
 10
3.977076
 20
0.405839
 10
3.985659
 20
0.413146
 10
3.992309
 20
0.422339
 10
3.996848
 20
0.433248
 10
3.999505
 20
0.445583
  0
SOLID
  5
8313
330
80C0
100
AcDbEntity
  8
WARSTWA_1
  6
CONTINUOUS
 62
    20
100
AcDbTrace
 10
3.501025
 20
0.249449
 30
0.0
 11
3.231435
 21
0.249449
 31
0.0
 12
3.501025
 22
1.67376
 32
0.0
 13
3.231435
 23
1.67376
 33
0.0
  0
HATCH
  5
8314
330
80C0
100
AcDbEntity
  8
0
  6
CONTINUOUS
 62
    20
100
AcDbHatch
 10
0.0
 20
0.0
 30
0.0
210
0.0
220
0.0
230
1.0
  2
SOLID
 70
     1
 71
     1
 91
        2
 92
        7
 72
     0
 73
     1
 93
        8
 10
6.494831769928969
 20
0.3819339936242998
 10
6.544048769928968
 20
0.2541379936242989
 10
6.607705769928968
 20
0.2541379936242989
 10
6.435016769928969
 20
0.6760559936242992
 10
6.374898769928968
 20
0.6760559936242992
 10
6.212804769928968
 20
0.2541379936242989
 10
6.272142769928969
 20
0.2541379936242989
 10
6.318406769928968
 20
0.3819339936242993
 97
        1
330
8320
 92
       22
 72
     0
 73
     1
 93
        9
 10
6.47765076992897
 20
0.4274139936242995
 10
6.334520769928967
 20
0.4274139936242994
 10
6.380890769928971
 20
0.5511029936243024
 10
6.389960769928967
 20
0.5778569936242822
 10
6.397546769928969
 20
0.6047209936243242
 10
6.403674769928968
 20
0.6317479936242983
 10
6.411335769928973
 20
0.606761993624277
 10
6.421303769928957
 20
0.5775879936242982
 10
6.433540769928965
 20
0.5442209936243854
 97
        1
330
8315
 75
     0
 76
     1
 47
0.003856
 98
        2
 10
6.500793
 20
0.398939
 10
6.500793
 20
0.398939
  0
LWPOLYLINE
  5
8315
102
{ACAD_REACTORS
330
8314
102
}
330
80C0
100
AcDbEntity
  8
WARSTWA_1
  6
CONTINUOUS
 62
    20
100
AcDbPolyline
 90
        9
 70
     1
 43
0.003
 10
6.334521
 20
0.427414
 10
6.477651
 20
0.427414
 10
6.433541
 20
0.544221
 10
6.421304
 20
0.577588
 10
6.411336
 20
0.606762
 10
6.403675
 20
0.631748
 10
6.397547
 20
0.604721
 10
6.389961
 20
0.577857
 10
6.380891
 20
0.551103
  0
LWPOLYLINE
  5
8320
102
{ACAD_REACTORS
330
8314
102
}
330
80C0
100
AcDbEntity
  8
WARSTWA_1
  6
CONTINUOUS
 62
    20
100
AcDbPolyline
 90
        8
 70
     1
 43
0.003
 10
6.212805
 20
0.254138
 10
6.374899
 20
0.676056
 10
6.435017
 20
0.676056
 10
6.607706
 20
0.254138
 10
6.544049
 20
0.254138
 10
6.494832
 20
0.381934
 10
6.318407
 20
0.381934
 10
6.272143
 20
0.254138
  0
HATCH
  5
832A
330
80C0
100
AcDbEntity
  8
0
  6
CONTINUOUS
 62
    20
100
AcDbHatch
 10
0.0
 20
0.0
 30
0.0
210
0.0
220
0.0
230
1.0
  2
SOLID
 70
     1
 71
     1
 91
        1
 92
        7
 72
     0
 73
     1
 93
      101
 10
5.953367769928968
 20
0.3325239936243002
 10
5.944010769928968
 20
0.3223119936242982
 10
5.931853769928967
 20
0.3136459936242991
 10
5.916922769928967
 20
0.3065039936242986
 10
5.89980576992897
 20
0.3012549936242993
 10
5.881017769928969
 20
0.2981049936242992
 10
5.860540769928968
 20
0.2970559936242991
 10
5.837369769928968
 20
0.2984349936242992
 10
5.815787769928966
 20
0.3025899936242987
 10
5.795815769928971
 20
0.3095439936242986
 10
5.778330769928969
 20
0.3187419936243
 10
5.76418576992897
 20
0.3296739936242982
 10
5.753374769928967
 20
0.3423629936242967
 10
5.745347769928971
 20
0.357162993624291
 10
5.73954876992897
 20
0.3744729936242951
 10
5.735977769928968
 20
0.3943149936242989
 10
5.683331769928969
 20
0.389708993624299
 10
5.68637376992897
 20
0.362463993624297
 10
5.69408276992897
 20
0.3371729936242931
 10
5.706418769928968
 20
0.3138669936242965
 10
5.722987769928969
 20
0.2933669936242976
 10
5.743252769928968
 20
0.2766429936242999
 10
5.76723376992897
 20
0.2636739936242983
 10
5.795059769928967
 20
0.254361993624299
 10
5.827051769928969
 20
0.2488119936242992
 10
5.863189769928967
 20
0.2469729936242992
 10
5.892266769928968
 20
0.2488049936242991
 10
5.919359769928968
 20
0.2543039936242993
 10
5.944441769928966
 20
0.263476993624299
 10
5.966639769928971
 20
0.276018993624298
 10
5.985106769928968
 20
0.2914629936243005
 10
5.999847769928969
 20
0.3098269936242981
 10
6.010551769928969
 20
0.3301019936242974
 10
6.016959769928968
 20
0.3512459936243017
 10
6.019091769928969
 20
0.3732879936243009
 10
6.01715576992897
 20
0.3950269936242952
 10
6.011333769928968
 20
0.415045993624296
 10
6.001607769928968
 20
0.4333229936242987
 10
5.987761769928967
 20
0.4496269936243023
 10
5.969609769928966
 20
0.4639669936243006
 10
5.947178769928968
 20
0.4763469936242995
 10
5.925546769928976
 20
0.4844289936242988
 10
5.894407769928966
 20
0.4933939936242976
 10
5.853764769928946
 20
0.5032559936242956
 10
5.814176769928962
 20
0.5134059936243
 10
5.78612876992897
 20
0.5234289936242971
 10
5.769579769928969
 20
0.533314993624299
 10
5.760481769928969
 20
0.5439599936243001
 10
5.755009769928969
 20
0.5564319936242983
 10
5.753182769928968
 20
0.5707409936242972
 10
5.755762769928969
 20
0.5873079936242994
 10
5.763493769928967
 20
0.6022119936242974
 10
5.77635576992897
 20
0.6154369936242987
 10
5.794902769928971
 20
0.6257529936242993
 10
5.819511769928968
 20
0.631943993624299
 10
5.850221769928968
 20
0.6340079936242988
 10
5.879997769928968
 20
0.6317449936242986
 10
5.90448876992897
 20
0.624938993624299
 10
5.923721769928967
 20
0.6135669936243002
 10
5.938029769928969
 20
0.5977979936243019
 10
5.94777676992897
 20
0.5776399936242999
 10
5.95297776992897
 20
0.5531699936242991
 10
6.006516769928968
 20
0.5571849936242992
 10
6.003547769928969
 20
0.5810879936242941
 10
5.996626769928965
 20
0.6032619936243082
 10
5.985796769928965
 20
0.6236889936243026
 10
5.971089769928971
 20
0.6416619936242989
 10
5.952725769928967
 20
0.6564679936243003
 10
5.930693769928969
 20
0.668082993624298
 10
5.905529769928966
 20
0.6765059936242998
 10
5.877948769928969
 20
0.6815459936242994
 10
5.847878769928968
 20
0.6832209936242993
 10
5.820366769928968
 20
0.6816179936242995
 10
5.794577769928969
 20
0.6768259936242988
 10
5.770469769928968
 20
0.6688669936242989
 10
5.74912576992897
 20
0.6577659936243002
 10
5.731463769928969
 20
0.6436959936242991
 10
5.717516769928969
 20
0.6266419936242982
 10
5.707465769928969
 20
0.6076819936242992
 10
5.701447769928967
 20
0.5877889936243011
 10
5.69944576992897
 20
0.5670039936243043
 10
5.701082769928969
 20
0.5482119936242973
 10
5.705991769928971
 20
0.5307059936242992
 10
5.71417476992897
 20
0.5144649936242977
 10
5.725800769928969
 20
0.4996589936242993
 10
5.740828769928969
 20
0.4865429936242986
 10
5.759260769928968
 20
0.4751539936242991
 10
5.778679769928966
 20
0.4667349936242978
 10
5.80584276992897
 20
0.4579699936243
 10
5.840709769929009
 20
0.4488269936242952
 10
5.87489976992897
 20
0.4403229936242995
 10
5.899928769928965
 20
0.4334439936242998
 10
5.915859769928973
 20
0.4281969936242975
 10
5.93179676992897
 20
0.420996993624298
 10
5.944446769928971
 20
0.412721993624298
 10
5.953780769928968
 20
0.4033509936242995
 10
5.960228769928971
 20
0.3928949936242973
 10
5.964077769928969
 20
0.3813539936242942
 10
5.96535576992897
 20
0.3686849936243033
 10
5.964018769928968
 20
0.3559659936242967
 10
5.960018769928968
 20
0.3439259936243028
 97
        1
330
832B
 75
     0
 76
     1
 47
0.003856
 98
        1
 10
5.975986
 20
0.321822
  0
LWPOLYLINE
  5
832B
102
{ACAD_REACTORS
330
832A
102
}
330
80C0
100
AcDbEntity
  8
WARSTWA_1
  6
CONTINUOUS
 62
    20
100
AcDbPolyline
 90
      101
 70
     1
 43
0.003
 10
5.683332
 20
0.389709
 10
5.735978
 20
0.394315
 10
5.739549
 20
0.374473
 10
5.745348
 20
0.357163
 10
5.753375
 20
0.342363
 10
5.764186
 20
0.329674
 10
5.778331
 20
0.318742
 10
5.795816
 20
0.309544
 10
5.815788
 20
0.30259
 10
5.83737
 20
0.298435
 10
5.860541
 20
0.297056
 10
5.881018
 20
0.298105
 10
5.899806
 20
0.301255
 10
5.916923
 20
0.306504
 10
5.931854
 20
0.313646
 10
5.944011
 20
0.322312
 10
5.953368
 20
0.332524
 10
5.960019
 20
0.343926
 10
5.964019
 20
0.355966
 10
5.965356
 20
0.368685
 10
5.964078
 20
0.381354
 10
5.960229
 20
0.392895
 10
5.953781
 20
0.403351
 10
5.944447
 20
0.412722
 10
5.931797
 20
0.420997
 10
5.91586
 20
0.428197
 10
5.899929
 20
0.433444
 10
5.8749
 20
0.440323
 10
5.84071
 20
0.448827
 10
5.805843
 20
0.45797
 10
5.77868
 20
0.466735
 10
5.759261
 20
0.475154
 10
5.740829
 20
0.486543
 10
5.725801
 20
0.499659
 10
5.714175
 20
0.514465
 10
5.705992
 20
0.530706
 10
5.701083
 20
0.548212
 10
5.699446
 20
0.567004
 10
5.701448
 20
0.587789
 10
5.707466
 20
0.607682
 10
5.717517
 20
0.626642
 10
5.731464
 20
0.643696
 10
5.749126
 20
0.657766
 10
5.77047
 20
0.668867
 10
5.794578
 20
0.676826
 10
5.820367
 20
0.681618
 10
5.847879
 20
0.683221
 10
5.877949
 20
0.681546
 10
5.90553
 20
0.676506
 10
5.930694
 20
0.668083
 10
5.952726
 20
0.656468
 10
5.97109
 20
0.641662
 10
5.985797
 20
0.623689
 10
5.996627
 20
0.603262
 10
6.003548
 20
0.581088
 10
6.006517
 20
0.557185
 10
5.952978
 20
0.55317
 10
5.947777
 20
0.57764
 10
5.93803
 20
0.597798
 10
5.923722
 20
0.613567
 10
5.904489
 20
0.624939
 10
5.879998
 20
0.631745
 10
5.850222
 20
0.634008
 10
5.819512
 20
0.631944
 10
5.794903
 20
0.625753
 10
5.776356
 20
0.615437
 10
5.763494
 20
0.602212
 10
5.755763
 20
0.587308
 10
5.753183
 20
0.570741
 10
5.75501
 20
0.556432
 10
5.760482
 20
0.54396
 10
5.76958
 20
0.533315
 10
5.786129
 20
0.523429
 10
5.814177
 20
0.513406
 10
5.853765
 20
0.503256
 10
5.894408
 20
0.493394
 10
5.925547
 20
0.484429
 10
5.947179
 20
0.476347
 10
5.96961
 20
0.463967
 10
5.987762
 20
0.449627
 10
6.001608
 20
0.433323
 10
6.011334
 20
0.415046
 10
6.017156
 20
0.395027
 10
6.019092
 20
0.373288
 10
6.01696
 20
0.351246
 10
6.010552
 20
0.330102
 10
5.999848
 20
0.309827
 10
5.985107
 20
0.291463
 10
5.96664
 20
0.276019
 10
5.944442
 20
0.263477
 10
5.91936
 20
0.254304
 10
5.892267
 20
0.248805
 10
5.86319
 20
0.246973
 10
5.827052
 20
0.248812
 10
5.79506
 20
0.254362
 10
5.767234
 20
0.263674
 10
5.743253
 20
0.276643
 10
5.722988
 20
0.293367
 10
5.706419
 20
0.313867
 10
5.694083
 20
0.337173
 10
5.686374
 20
0.362464
  0
LWPOLYLINE
  5
8392
330
80C0
100
AcDbEntity
  8
WARSTWA_1
  6
CONTINUOUS
 62
    20
100
AcDbPolyline
 90
        4
 70
     1
 43
0.003
 10
6.10347
 20
0.254138
 10
6.10347
 20
0.31317
 10
6.162505
 20
0.31317
 10
6.162505
 20
0.254138
  0
SOLID
  5
8398
330
80C0
100
AcDbEntity
  8
WARSTWA_1
 62
    20
100
AcDbTrace
 10
6.10347
 20
0.254138
 30
0.0
 11
6.10347
 21
0.31317
 31
0.0
 12
6.162505
 22
0.254138
 32
0.0
 13
6.162505
 23
0.31317
 33
0.0
  0
LWPOLYLINE
  5
8399
330
80C0
100
AcDbEntity
  8
WARSTWA_1
  6
CONTINUOUS
 62
    20
100
AcDbPolyline
 90
        4
 70
     1
 43
0.003
 10
6.660356
 20
0.254138
 10
6.660356
 20
0.31317
 10
6.719387
 20
0.31317
 10
6.719387
 20
0.254138
  0
SOLID
  5
839F
330
80C0
100
AcDbEntity
  8
WARSTWA_1
  6
CONTINUOUS
 62
    20
100
AcDbTrace
 10
6.660356
 20
0.254138
 30
0.0
 11
6.660356
 21
0.31317
 31
0.0
 12
6.719387
 22
0.254138
 32
0.0
 13
6.719387
 23
0.31317
 33
0.0
  0
HATCH
  5
83A0
330
80C0
100
AcDbEntity
  8
0
  6
CONTINUOUS
 62
    20
100
AcDbHatch
 10
0.0
 20
0.0
 30
0.0
210
0.0
220
0.0
230
1.0
  2
SOLID
 70
     1
 71
     1
 91
        4
 92
        7
 72
     0
 73
     1
 93
       48
 10
6.213609769928965
 20
1.274360993624299
 10
6.232985769928964
 20
1.245522993624303
 10
6.256288769928965
 20
1.219007993624303
 10
6.283374769928963
 20
1.195036993624298
 10
6.312644769928978
 20
1.175130993624297
 10
6.344126769928966
 20
1.159287993624298
 10
6.377143769928971
 20
1.147762993624298
 10
6.411017769928968
 20
1.140828993624298
 10
6.445776769928968
 20
1.138511993624298
 10
6.480272769928967
 20
1.140828993624299
 10
6.514298769928967
 20
1.147762993624298
 10
6.547800769928968
 20
1.159287993624298
 10
6.579903769928963
 20
1.175051993624297
 10
6.609546769928968
 20
1.194741993624298
 10
6.636756769928967
 20
1.218385993624299
 10
6.660233769928969
 20
1.244389993624298
 10
6.679674769928968
 20
1.272881993624293
 10
6.695107769928971
 20
1.303862993624304
 10
6.70621876992897
 20
1.336743993624301
 10
6.712904769928967
 20
1.371173993624293
 10
6.715138769928968
 20
1.407125993624292
 10
6.712904769928966
 20
1.442120993624304
 10
6.706218769928969
 20
1.476146993624302
 10
6.695107769928974
 20
1.509149993624293
 10
6.679758769928969
 20
1.540505993624303
 10
6.660567769928971
 20
1.569402993624297
 10
6.637504769928965
 20
1.595866993624293
 10
6.610956769928967
 20
1.619623993624296
 10
6.581811769928965
 20
1.639373993624301
 10
6.550040769928972
 20
1.655086993624297
 10
6.516399769928968
 20
1.666579993624297
 10
6.481653769928971
 20
1.673454993624298
 10
6.445776769928968
 20
1.675740993624298
 10
6.410520769928968
 20
1.673588993624299
 10
6.376645769928966
 20
1.667151993624298
 10
6.344126769928969
 20
1.656456993624299
 10
6.313442769928967
 20
1.641523993624296
 10
6.28510776992897
 20
1.622579993624299
 10
6.259150769928968
 20
1.599598993624296
 10
6.235137769928972
 20
1.5725259936243
 10
6.21510576992897
 20
1.542855993624298
 10
6.199056769928971
 20
1.510641993624304
 10
6.187324769928968
 20
1.476753993624301
 10
6.180265769928967
 20
1.4422589936243
 10
6.177906769928967
 20
1.407125993624294
 10
6.180150769928968
 20
1.372372993624297
 10
6.186900769928967
 20
1.3385319936243
 10
6.198186769928967
 20
1.305602993624304
 97
        1
330
83A1
 92
       22
 72
     0
 73
     1
 93
       48
 10
6.230536769928968
 20
1.319165993624298
 10
6.220700769928967
 20
1.347774993624301
 10
6.214820769928969
 20
1.377104993624296
 10
6.212867769928968
 20
1.407125993624296
 10
6.214904769928969
 20
1.437685993624297
 10
6.221033769928967
 20
1.4676379936243
 10
6.231280769928964
 20
1.496952993624297
 10
6.245340769928971
 20
1.524956993624298
 10
6.262884769928966
 20
1.550776993624294
 10
6.283910769928973
 20
1.574468993624301
 10
6.306005769928968
 20
1.594202993624299
 10
6.330449769928971
 20
1.610592993624299
 10
6.357189769928966
 20
1.623610993624298
 10
6.385770769928965
 20
1.633148993624298
 10
6.415539769928968
 20
1.638871993624299
 10
6.446524769928968
 20
1.640779993624298
 10
6.477590769928965
 20
1.638788993624299
 10
6.507608769928967
 20
1.632816993624298
 10
6.536603769928974
 20
1.622862993624298
 10
6.564015769928968
 20
1.6092649936243
 10
6.589520769928977
 20
1.592127993624294
 10
6.613119769928966
 20
1.571480993624295
 10
6.633030769928972
 20
1.548767993624299
 10
6.649485769928969
 20
1.523731993624296
 10
6.662512769928969
 20
1.496456993624299
 10
6.671930769928966
 20
1.4673019936243
 10
6.677562769928969
 20
1.436820993624297
 10
6.679434769928969
 20
1.405011993624303
 10
6.677484769928969
 20
1.374768993624297
 10
6.671635769928967
 20
1.345466993624306
 10
6.66189076992897
 20
1.317047993624295
 10
6.648582769928967
 20
1.290216993624295
 10
6.631817769928965
 20
1.265457993624297
 10
6.61162676992897
 20
1.242771993624299
 10
6.587986769928971
 20
1.222362993624299
 10
6.562356769928966
 20
1.205409993624298
 10
6.534737769928972
 20
1.191885993624301
 10
6.505534769928971
 20
1.182051993624299
 10
6.475393769928968
 20
1.176170993624299
 10
6.444284769928967
 20
1.174216993624299
 10
6.414666769928967
 20
1.176244993624299
 10
6.385520769928971
 20
1.182309993624298
 10
6.356815769928966
 20
1.192381993624299
 10
6.329528769928966
 20
1.206233993624301
 10
6.304397769928967
 20
1.223402993624297
 10
6.281422769928969
 20
1.243889993624296
 10
6.261013769928964
 20
1.266779993624299
 10
6.24406076992897
 20
1.291879993624296
 97
        1
330
83D3
 92
        6
 72
     0
 73
     1
 93
       20
 10
6.338280769928969
 20
1.564511993624299
 10
6.453115769928965
 20
1.564511993624298
 10
6.491841769928971
 20
1.562189993624299
 10
6.523629769928968
 20
1.555223993624298
 10
6.54842276992897
 20
1.543610993624298
 10
6.566135769928967
 20
1.527302993624298
 10
6.576743769928969
 20
1.506460993624297
 10
6.580272769928968
 20
1.4810279936243
 10
6.578235769928968
 20
1.460458993624303
 10
6.572106769928968
 20
1.442293993624299
 10
6.561859769928966
 20
1.426535993624296
 10
6.547960769928969
 20
1.413848993624298
 10
6.53088276992897
 20
1.404673993624299
 10
6.510595769928968
 20
1.399039993624299
 10
6.578780769928969
 20
1.260314993624299
 10
6.514205769928969
 20
1.260314993624299
 10
6.452371769928968
 20
1.389956993624299
 10
6.395886769928968
 20
1.389956993624299
 10
6.395886769928969
 20
1.260314993624299
 10
6.338280769928968
 20
1.260314993624299
 97
        1
330
8405
 92
        6
 72
     0
 73
     1
 93
       15
 10
6.395886769928967
 20
1.426409993624298
 10
6.395886769928967
 20
1.527310993624299
 10
6.442914769928971
 20
1.527310993624299
 10
6.467797769928967
 20
1.525937993624298
 10
6.487704769928972
 20
1.521799993624298
 10
6.502634769928967
 20
1.514870993624299
 10
6.512916769928968
 20
1.504953993624299
 10
6.519105769928968
 20
1.491608993624299
 10
6.521174769928967
 20
1.4748079936243
 10
6.519220769928971
 20
1.459223993624302
 10
6.513340769928966
 20
1.446846993624297
 10
6.503504769928968
 20
1.437732993624299
 10
6.489063769928968
 20
1.431423993624298
 10
6.469342769928966
 20
1.427658993624298
 10
6.44428476992897
 20
1.426409993624298
 97
        1
330
841B
 75
     0
 76
     1
 47
0.003856
 98
        4
 10
6.226813
 20
1.289633
 10
6.226813
 20
1.289633
 10
6.226813
 20
1.289633
 10
6.226813
 20
1.289633
  0
LWPOLYLINE
  5
83A1
102
{ACAD_REACTORS
330
83A0
102
}
330
80C0
100
AcDbEntity
  8
WARSTWA_1
  6
CONTINUOUS
 62
    20
100
AcDbPolyline
 90
       48
 70
     1
 43
0.003
 10
6.445777
 20
1.675741
 10
6.481654
 20
1.673455
 10
6.5164
 20
1.66658
 10
6.550041
 20
1.655087
 10
6.581812
 20
1.639374
 10
6.610957
 20
1.619624
 10
6.637505
 20
1.595867
 10
6.660568
 20
1.569403
 10
6.679759
 20
1.540506
 10
6.695108
 20
1.50915
 10
6.706219
 20
1.476147
 10
6.712905
 20
1.442121
 10
6.715139
 20
1.407126
 10
6.712905
 20
1.371174
 10
6.706219
 20
1.336744
 10
6.695108
 20
1.303863
 10
6.679675
 20
1.272882
 10
6.660234
 20
1.24439
 10
6.636757
 20
1.218386
 10
6.609547
 20
1.194742
 10
6.579904
 20
1.175052
 10
6.547801
 20
1.159288
 10
6.514299
 20
1.147763
 10
6.480273
 20
1.140829
 10
6.445777
 20
1.138512
 10
6.411018
 20
1.140829
 10
6.377144
 20
1.147763
 10
6.344127
 20
1.159288
 10
6.312645
 20
1.175131
 10
6.283375
 20
1.195037
 10
6.256289
 20
1.219008
 10
6.232986
 20
1.245523
 10
6.21361
 20
1.274361
 10
6.198187
 20
1.305603
 10
6.186901
 20
1.338532
 10
6.180151
 20
1.372373
 10
6.177907
 20
1.407126
 10
6.180266
 20
1.442259
 10
6.187325
 20
1.476754
 10
6.199057
 20
1.510642
 10
6.215106
 20
1.542856
 10
6.235138
 20
1.572526
 10
6.259151
 20
1.599599
 10
6.285108
 20
1.62258
 10
6.313443
 20
1.641524
 10
6.344127
 20
1.656457
 10
6.376646
 20
1.667152
 10
6.410521
 20
1.673589
  0
LWPOLYLINE
  5
83D3
102
{ACAD_REACTORS
330
83A0
102
}
330
80C0
100
AcDbEntity
  8
WARSTWA_1
  6
CONTINUOUS
 62
    20
100
AcDbPolyline
 90
       48
 70
     1
 43
0.003
 10
6.679435
 20
1.405012
 10
6.677563
 20
1.436821
 10
6.671931
 20
1.467302
 10
6.662513
 20
1.496457
 10
6.649486
 20
1.523732
 10
6.633031
 20
1.548768
 10
6.61312
 20
1.571481
 10
6.589521
 20
1.592128
 10
6.564016
 20
1.609265
 10
6.536604
 20
1.622863
 10
6.507609
 20
1.632817
 10
6.477591
 20
1.638789
 10
6.446525
 20
1.64078
 10
6.41554
 20
1.638872
 10
6.385771
 20
1.633149
 10
6.35719
 20
1.623611
 10
6.33045
 20
1.610593
 10
6.306006
 20
1.594203
 10
6.283911
 20
1.574469
 10
6.262885
 20
1.550777
 10
6.245341
 20
1.524957
 10
6.231281
 20
1.496953
 10
6.221034
 20
1.467638
 10
6.214905
 20
1.437686
 10
6.212868
 20
1.407126
 10
6.214821
 20
1.377105
 10
6.220701
 20
1.347775
 10
6.230537
 20
1.319166
 10
6.244061
 20
1.29188
 10
6.261014
 20
1.26678
 10
6.281423
 20
1.24389
 10
6.304398
 20
1.223403
 10
6.329529
 20
1.206234
 10
6.356816
 20
1.192382
 10
6.385521
 20
1.18231
 10
6.414667
 20
1.176245
 10
6.444285
 20
1.174217
 10
6.475394
 20
1.176171
 10
6.505535
 20
1.182052
 10
6.534738
 20
1.191886
 10
6.562357
 20
1.20541
 10
6.587987
 20
1.222363
 10
6.611627
 20
1.242772
 10
6.631818
 20
1.265458
 10
6.648583
 20
1.290217
 10
6.661891
 20
1.317048
 10
6.671636
 20
1.345467
 10
6.677485
 20
1.374769
  0
LWPOLYLINE
  5
8405
102
{ACAD_REACTORS
330
83A0
102
}
330
80C0
100
AcDbEntity
  8
WARSTWA_1
  6
CONTINUOUS
 62
    20
100
AcDbPolyline
 90
       20
 70
     1
 43
0.003
 10
6.453116
 20
1.564512
 10
6.491842
 20
1.56219
 10
6.52363
 20
1.555224
 10
6.548423
 20
1.543611
 10
6.566136
 20
1.527303
 10
6.576744
 20
1.506461
 10
6.580273
 20
1.481028
 10
6.578236
 20
1.460459
 10
6.572107
 20
1.442294
 10
6.56186
 20
1.426536
 10
6.547961
 20
1.413849
 10
6.530883
 20
1.404674
 10
6.510596
 20
1.39904
 10
6.578781
 20
1.260315
 10
6.514206
 20
1.260315
 10
6.452372
 20
1.389957
 10
6.395887
 20
1.389957
 10
6.395887
 20
1.260315
 10
6.338281
 20
1.260315
 10
6.338281
 20
1.564512
  0
LWPOLYLINE
  5
841B
102
{ACAD_REACTORS
330
83A0
102
}
330
80C0
100
AcDbEntity
  8
WARSTWA_1
  6
CONTINUOUS
 62
    20
100
AcDbPolyline
 90
       15
 70
     1
 43
0.003
 10
6.442915
 20
1.527311
 10
6.395887
 20
1.527311
 10
6.395887
 20
1.42641
 10
6.444285
 20
1.42641
 10
6.469343
 20
1.427659
 10
6.489064
 20
1.431424
 10
6.503505
 20
1.437733
 10
6.513341
 20
1.446847
 10
6.519221
 20
1.459224
 10
6.521175
 20
1.474808
 10
6.519106
 20
1.491609
 10
6.512917
 20
1.504954
 10
6.502635
 20
1.514871
 10
6.487705
 20
1.5218
 10
6.467798
 20
1.525938
  0
ENDBLK
  5
842D
330
80C0
100
AcDbEntity
  8
0
 62
     2
100
AcDbBlockEnd
  0
BLOCK
  5
8D38
330
8CFF
100
AcDbEntity
  8
0
100
AcDbBlockBegin
  2
*D4
 70
     1
 10
0.0
 20
0.0
 30
0.0
  3
*D4
  1
*D4
  0
LINE
  5
8D39
330
8CFF
100
AcDbEntity
  8
WY
 62
     0
100
AcDbLine
 10
548.4337000629574
 20
104.7326974922145
 30
0.0
 11
548.4337000629574
 21
95.7116344922145
 31
0.0
  0
LINE
  5
8D3A
330
8CFF
100
AcDbEntity
  8
WY
 62
     0
100
AcDbLine
 10
646.9337000629574
 20
104.7326974922145
 30
0.0
 11
646.9337000629574
 21
95.7116344922145
 31
0.0
  0
LINE
  5
8D3B
330
8CFF
100
AcDbEntity
  8
WY
 62
     0
100
AcDbLine
 10
551.4337000629574
 20
97.2116344922145
 30
0.0
 11
643.9337000629574
 21
97.2116344922145
 31
0.0
  0
SOLID
  5
8D3C
330
8CFF
100
AcDbEntity
  8
WY
 62
     0
100
AcDbTrace
 10
551.4337000629574
 20
97.7116344922145
 30
0.0
 11
551.4337000629574
 21
96.7116344922145
 31
0.0
 12
548.4337000629574
 22
97.2116344922145
 32
0.0
 13
548.4337000629574
 23
97.2116344922145
 33
0.0
  0
SOLID
  5
8D3D
330
8CFF
100
AcDbEntity
  8
WY
 62
     0
100
AcDbTrace
 10
643.9337000629574
 20
96.7116344922145
 30
0.0
 11
643.9337000629574
 21
97.7116344922145
 31
0.0
 12
646.9337000629574
 22
97.2116344922145
 32
0.0
 13
646.9337000629574
 23
97.2116344922145
 33
0.0
  0
MTEXT
  5
8D3E
330
8CFF
100
AcDbEntity
  8
WY
 62
     0
100
AcDbMText
 10
597.6837000629574
 20
100.2116344922145
 30
0.0
 40
3.0
 41
0.0
 71
     5
 72
     1
  1
\A1;98.50
  0
POINT
  5
8D3F
330
8CFF
100
AcDbEntity
  8
DEFPOINTS
 62
     0
100
AcDbPoint
 10
548.4337000629574
 20
106.2326974922145
 30
0.0
  0
POINT
  5
8D40
330
8CFF
100
AcDbEntity
  8
DEFPOINTS
 62
     0
100
AcDbPoint
 10
646.9337000629574
 20
106.2326974922145
 30
0.0
  0
POINT
  5
8D41
330
8CFF
100
AcDbEntity
  8
DEFPOINTS
 62
     0
100
AcDbPoint
 10
646.9337000629574
 20
97.2116344922145
 30
0.0
  0
ENDBLK
  5
8D42
330
8CFF
100
AcDbEntity
  8
0
100
AcDbBlockEnd
  0
BLOCK
  5
8F80
330
8F7F
100
AcDbEntity
  8
0
100
AcDbBlockBegin
  2
A$C21567AC4
 70
     0
 10
0.0
 20
0.0
 30
0.0
  3
A$C21567AC4
  1
A$C21567AC4
  0
LINE
  5
8F81
330
8F7F
100
AcDbEntity
  8
1
  6
CONTINUOUS
 62
     3
100
AcDbLine
 10
41.98527733122938
 20
7.954291514026863
 30
0.0
 11
41.98527733122938
 21
15.25135364457554
 31
0.0
  0
LINE
  5
8F82
330
8F7F
100
AcDbEntity
  8
1
  6
CONTINUOUS
 62
     3
100
AcDbLine
 10
41.98527733122938
 20
7.954291514026863
 30
0.0
 11
41.98527733122938
 21
15.25135364457554
 31
0.0
  0
LINE
  5
8F83
330
8F7F
100
AcDbEntity
  8
1
  6
CONTINUOUS
 62
     3
100
AcDbLine
 10
41.98527733122938
 20
7.955466778590846
 30
0.0
 11
41.98527733122938
 21
15.25252890913953
 31
0.0
  0
LINE
  5
8F84
330
8F7F
100
AcDbEntity
  8
1
  6
CONTINUOUS
 62
     3
100
AcDbLine
 10
3.999999411979616
 20
3.400243604396763
 30
0.0
 11
3.999999411979616
 21
5.155466778590863
 31
0.0
  0
LINE
  5
8F85
330
8F7F
100
AcDbEntity
  8
1
  6
CONTINUOUS
 62
     3
100
AcDbLine
 10
7.599999411979525
 20
2.00000038024794
 30
0.0
 11
7.599999411979525
 21
5.155466778590807
 31
0.0
  0
POINT
  5
8F86
330
8F7F
100
AcDbEntity
  8
DEFPOINTS
  6
BYBLOCK
 62
     0
100
AcDbPoint
 10
3.93979819978432
 20
2.785209435106026
 30
0.0
  0
LINE
  5
8F87
330
8F7F
100
AcDbEntity
  8
1
  6
CONTINUOUS
 62
     3
100
AcDbLine
 10
-0.0000005880203844
 20
1.944362667331887
 30
0.0
 11
-0.0000005880203844
 21
0.000000380247883
 31
0.0
  0
LINE
  5
8F88
330
8F7F
100
AcDbEntity
  8
1
  6
CONTINUOUS
 62
     3
100
AcDbLine
 10
-0.0000005880203844
 20
1.944362667331887
 30
0.0
 11
3.999999411979616
 21
3.400243604396763
 31
0.0
  0
ARC
  5
8F89
330
8F7F
100
AcDbEntity
  8
1
  6
CONTINUOUS
 62
     3
100
AcDbCircle
 10
9.599999411979525
 20
2.000000380247883
 30
0.0
 40
2.0
100
AcDbArc
 50
179.9999999999992
 51
270.0
  0
LINE
  5
8F8A
330
8F7F
100
AcDbEntity
  8
1
  6
CONTINUOUS
 62
     3
100
AcDbLine
 10
3.999999411979616
 20
4.755466778590772
 30
0.0
 11
7.599999411979525
 21
4.755466778590829
 31
0.0
  0
ENDBLK
  5
8F8B
330
8F7F
100
AcDbEntity
  8
0
100
AcDbBlockEnd
  0
BLOCK
  5
8F8F
330
8F8E
100
AcDbEntity
  8
0
100
AcDbBlockBegin
  2
PŁYTKA_2
 70
     0
 10
0.0
 20
0.0
 30
0.0
  3
PŁYTKA_2
  1
PŁYTKA_2
  0
CIRCLE
  5
8F90
330
8F8E
100
AcDbEntity
  8
WARSTWA3
100
AcDbCircle
 10
162.5128444802245
 20
305.2554149230302
 30
0.0
 40
1.999800000000018
  0
CIRCLE
  5
8F91
330
8F8E
100
AcDbEntity
  8
1
100
AcDbCircle
 10
172.8354733628653
 20
342.9090399372168
 30
0.0
 40
1.213342014518152
  0
LINE
  5
8F92
330
8F8E
100
AcDbEntity
  8
1
100
AcDbLine
 10
161.4062355234461
 20
349.0841287156265
 30
0.0
 11
181.8237114111491
 21
346.0259130602091
 31
0.0
  0
LINE
  5
8F93
330
8F8E
100
AcDbEntity
  8
1
100
AcDbLine
 10
181.109941340675
 20
344.0470385745601
 30
0.0
 11
159.4718854489891
 21
347.288752820853
 31
0.0
  0
ARC
  5
8F94
330
8F8E
100
AcDbEntity
  8
1
100
AcDbCircle
 10
159.3132472011691
 20
348.9895959018752
 30
0.0
 40
0.404
100
AcDbArc
 50
81.4681689600921
 51
171.4681689600967
  0
LINE
  5
8F95
330
8F8E
100
AcDbEntity
  8
1
100
AcDbLine
 10
158.7589107164446
 20
348.017614927187
 30
0.0
 11
159.475958798657
 21
347.2845887038328
 31
0.0
  0
LINE
  5
8F96
330
8F8E
100
AcDbEntity
  8
1
100
AcDbLine
 10
158.9137180290849
 20
349.0495328742185
 30
0.0
 11
158.7589107164446
 21
348.017614927187
 31
0.0
  0
LINE
  5
8F97
330
8F8E
100
AcDbEntity
  8
OSIE
100
AcDbLine
 10
167.6107269305967
 20
344.6059956957421
 30
0.0
 11
168.3418154929687
 21
349.4859248646852
 31
0.0
  0
LINE
  5
8F98
330
8F8E
100
AcDbEntity
  8
1
100
AcDbLine
 10
163.3164766937805
 20
344.339004024369
 30
0.0
 11
163.6634396559996
 21
346.658092124148
 31
0.0
  0
LINE
  5
8F99
330
8F8E
100
AcDbEntity
  8
WY
100
AcDbLine
 10
161.7169374060174
 20
344.5783139882815
 30
0.0
 11
162.5160434286836
 21
344.4587582918947
 31
0.0
  0
LINE
  5
8F9A
330
8F8E
100
AcDbEntity
  8
WY
100
AcDbLine
 10
162.0567125691571
 20
344.118983128755
 30
0.0
 11
162.1762682655439
 21
344.9180891514213
 31
0.0
  0
LINE
  5
8F9B
330
8F8E
100
AcDbEntity
  8
1
100
AcDbLine
 10
162.2966586215463
 20
345.7184270777953
 30
0.0
 11
162.4640894932711
 21
346.8375290697465
 31
0.0
  0
CIRCLE
  5
8F9C
330
8F8E
100
AcDbEntity
  8
1
100
AcDbCircle
 10
162.1164904173505
 20
344.5185361400881
 30
0.0
 40
1.213342014518152
  0
LINE
  5
8F9D
330
8F8E
100
AcDbEntity
  8
OSIE
100
AcDbLine
 10
171.6354870864353
 20
343.0885720529359
 30
0.0
 11
171.9833002316735
 21
345.4133427457778
 31
0.0
  0
LINE
  5
8F9E
330
8F8E
100
AcDbEntity
  8
1
100
AcDbLine
 10
161.4062355234461
 20
349.0841287156265
 30
0.0
 11
159.3731841735124
 21
349.3891250739595
 31
0.0
  0
LINE
  5
8F9F
330
8F8E
100
AcDbEntity
  8
WY
100
AcDbLine
 10
172.4359203515322
 20
342.9688177854102
 30
0.0
 11
173.2350263741985
 21
342.8492620890234
 31
0.0
  0
POINT
  5
8FA0
330
8F8E
100
AcDbEntity
  8
DEFPOINTS
  6
BYBLOCK
 62
     0
100
AcDbPoint
 10
174.2024770052326
 20
345.0813276976581
 30
0.0
  0
LINE
  5
8FA1
330
8F8E
100
AcDbEntity
  8
1
100
AcDbLine
 10
174.2024770052326
 20
345.0813276976581
 30
0.0
 11
175.8187057741814
 21
344.8395207903002
 31
0.0
  0
LINE
  5
8FA2
330
8F8E
100
AcDbEntity
  8
OSIE
100
AcDbLine
 10
173.0150054785845
 20
344.1090262136468
 30
0.0
 11
173.1832865081035
 21
345.2338106300587
 31
0.0
  0
LINE
  5
8FA3
330
8F8E
100
AcDbEntity
  8
WY
100
AcDbLine
 10
172.775695514672
 20
342.5094869258837
 30
0.0
 11
172.8952512110588
 21
343.3085929485499
 31
0.0
  0
LINE
  5
8FA4
330
8F8E
100
AcDbEntity
  8
1
100
AcDbLine
 10
182.0094939108804
 20
344.5377611423679
 30
0.0
 11
181.109941340675
 21
344.0470385745601
 31
0.0
  0
ARC
  5
8FA5
330
8F8E
100
AcDbEntity
  8
1
100
AcDbCircle
 10
181.7638661866137
 20
345.6263701349803
 30
0.0
 40
0.404
100
AcDbArc
 50
351.4909879949322
 51
81.48132612618035
  0
LINE
  5
8FA6
330
8F8E
100
AcDbEntity
  8
1
100
AcDbLine
 10
182.1634191979468
 20
345.5665922867869
 30
0.0
 11
182.0094939108804
 21
344.5377611423679
 31
0.0
  0
ENDBLK
  5
8FA7
330
8F8E
100
AcDbEntity
  8
0
100
AcDbBlockEnd
  0
BLOCK
  5
8FAA
330
8FA9
100
AcDbEntity
  8
0
100
AcDbBlockBegin
  2
*D8
 70
     1
 10
0.0
 20
0.0
 30
0.0
  3
*D8
  1
*D15
  0
LINE
  5
8FAB
330
8FA9
100
AcDbEntity
  8
WYMIARY
 62
     0
100
AcDbLine
 10
22.0009850433845
 20
15.19509665182508
 30
0.0
 11
22.0009850433845
 21
0.0
 31
0.0
  0
LINE
  5
8FAC
330
8FA9
100
AcDbEntity
  8
WYMIARY
 62
     0
100
AcDbLine
 10
47.03802025743857
 20
17.67282985099658
 30
0.0
 11
47.03802025743857
 21
0.0
 31
0.0
  0
LINE
  5
8FAD
330
8FA9
100
AcDbEntity
  8
WYMIARY
 62
     0
100
AcDbLine
 10
25.0009850433845
 20
1.5
 30
0.0
 11
44.03802025743857
 21
1.5
 31
0.0
  0
SOLID
  5
8FAE
330
8FA9
100
AcDbEntity
  8
WYMIARY
 62
     0
100
AcDbTrace
 10
25.0009850433845
 20
2.0
 30
0.0
 11
25.0009850433845
 21
1.0
 31
0.0
 12
22.0009850433845
 22
1.5
 32
0.0
 13
22.0009850433845
 23
1.5
 33
0.0
  0
SOLID
  5
8FAF
330
8FA9
100
AcDbEntity
  8
WYMIARY
 62
     0
100
AcDbTrace
 10
44.03802025743857
 20
1.0
 30
0.0
 11
44.03802025743857
 21
2.0
 31
0.0
 12
47.03802025743857
 22
1.5
 32
0.0
 13
47.03802025743857
 23
1.5
 33
0.0
  0
MTEXT
  5
8FB0
330
8FA9
100
AcDbEntity
  8
WYMIARY
 62
     0
100
AcDbMText
 10
34.51950265041154
 20
3.5
 30
0.0
 40
3.0
 41
0.0
 71
     5
 72
     1
  1
\A1;25
  0
POINT
  5
8FB1
330
8FA9
100
AcDbEntity
  8
DEFPOINTS
 62
     0
100
AcDbPoint
 10
22.0009850433845
 20
16.69509665182508
 30
0.0
  0
POINT
  5
8FB2
330
8FA9
100
AcDbEntity
  8
DEFPOINTS
 62
     0
100
AcDbPoint
 10
47.03802025743857
 20
19.17282985099658
 30
0.0
  0
POINT
  5
8FB3
330
8FA9
100
AcDbEntity
  8
DEFPOINTS
 62
     0
100
AcDbPoint
 10
47.03802025743857
 20
1.5
 30
0.0
  0
ENDBLK
  5
8FB4
330
8FA9
100
AcDbEntity
  8
0
100
AcDbBlockEnd
  0
BLOCK
  5
8FB7
330
8FB6
100
AcDbEntity
  8
0
100
AcDbBlockBegin
  2
*D9
 70
     1
 10
0.0
 20
0.0
 30
0.0
  3
*D9
  1
*D16
  0
LINE
  5
8FB8
330
8FB6
100
AcDbEntity
  8
WYMIARY
 62
     0
100
AcDbLine
 10
47.03802025743857
 20
17.67282985099658
 30
0.0
 11
47.03802025743857
 21
0.0
 31
0.0
  0
LINE
  5
8FB9
330
8FB6
100
AcDbEntity
  8
WYMIARY
 62
     0
100
AcDbLine
 10
81.76930364550265
 20
17.99521826389949
 30
0.0
 11
81.76930364550265
 21
0.0
 31
0.0
  0
LINE
  5
8FBA
330
8FB6
100
AcDbEntity
  8
WYMIARY
 62
     0
100
AcDbLine
 10
50.03802025743857
 20
1.5
 30
0.0
 11
78.76930364550265
 21
1.5
 31
0.0
  0
SOLID
  5
8FBB
330
8FB6
100
AcDbEntity
  8
WYMIARY
 62
     0
100
AcDbTrace
 10
50.03802025743857
 20
2.0
 30
0.0
 11
50.03802025743857
 21
1.0
 31
0.0
 12
47.03802025743857
 22
1.5
 32
0.0
 13
47.03802025743857
 23
1.5
 33
0.0
  0
SOLID
  5
8FBC
330
8FB6
100
AcDbEntity
  8
WYMIARY
 62
     0
100
AcDbTrace
 10
78.76930364550265
 20
1.0
 30
0.0
 11
78.76930364550265
 21
2.0
 31
0.0
 12
81.76930364550265
 22
1.5
 32
0.0
 13
81.76930364550265
 23
1.5
 33
0.0
  0
MTEXT
  5
8FBD
330
8FB6
100
AcDbEntity
  8
WYMIARY
 62
     0
100
AcDbMText
 10
64.40366195147061
 20
3.5
 30
0.0
 40
3.0
 41
0.0
 71
     5
 72
     1
  1
\A1;34.7
  0
POINT
  5
8FBE
330
8FB6
100
AcDbEntity
  8
DEFPOINTS
 62
     0
100
AcDbPoint
 10
47.03802025743857
 20
19.17282985099658
 30
0.0
  0
POINT
  5
8FBF
330
8FB6
100
AcDbEntity
  8
DEFPOINTS
 62
     0
100
AcDbPoint
 10
81.76930364550265
 20
19.49521826389949
 30
0.0
  0
POINT
  5
8FC0
330
8FB6
100
AcDbEntity
  8
DEFPOINTS
 62
     0
100
AcDbPoint
 10
81.76930364550265
 20
1.5
 30
0.0
  0
ENDBLK
  5
8FC1
330
8FB6
100
AcDbEntity
  8
0
100
AcDbBlockEnd
  0
BLOCK
  5
8FC4
330
8FC3
100
AcDbEntity
  8
0
100
AcDbBlockBegin
  2
*D10
 70
     1
 10
0.0
 20
0.0
 30
0.0
  3
*D10
  1
*D17
  0
LINE
  5
8FC5
330
8FC3
100
AcDbEntity
  8
WYMIARY
 62
     0
100
AcDbLine
 10
22.33439639641006
 20
14.69389164487347
 30
0.0
 11
2.499999999999995
 21
14.69389164487347
 31
0.0
  0
LINE
  5
8FC6
330
8FC3
100
AcDbEntity
  8
WYMIARY
 62
     0
100
AcDbLine
 10
75.7407705404654
 20
100.183442982115
 30
0.0
 11
2.5
 21
100.183442982115
 31
0.0
  0
LINE
  5
8FC7
330
8FC3
100
AcDbEntity
  8
WYMIARY
 62
     0
100
AcDbLine
 10
3.999999999999995
 20
17.69389164487347
 30
0.0
 11
4.0
 21
97.183442982115
 31
0.0
  0
SOLID
  5
8FC8
330
8FC3
100
AcDbEntity
  8
WYMIARY
 62
     0
100
AcDbTrace
 10
3.499999999999995
 20
17.69389164487347
 30
0.0
 11
4.499999999999995
 21
17.69389164487347
 31
0.0
 12
3.999999999999995
 22
14.69389164487347
 32
0.0
 13
3.999999999999995
 23
14.69389164487347
 33
0.0
  0
SOLID
  5
8FC9
330
8FC3
100
AcDbEntity
  8
WYMIARY
 62
     0
100
AcDbTrace
 10
4.5
 20
97.183442982115
 30
0.0
 11
3.5
 21
97.183442982115
 31
0.0
 12
4.0
 22
100.183442982115
 32
0.0
 13
4.0
 23
100.183442982115
 33
0.0
  0
MTEXT
  5
8FCA
330
8FC3
100
AcDbEntity
  8
WYMIARY
 62
     0
100
AcDbMText
 10
1.749999999999997
 20
57.43866731349424
 30
0.0
 40
3.0
 41
0.0
 71
     5
 72
     1
  1
\A1;85.5%%p0,2
 11
6.233592801509144E-17
 21
1.0
 31
0.0
  0
POINT
  5
8FCB
330
8FC3
100
AcDbEntity
  8
DEFPOINTS
 62
     0
100
AcDbPoint
 10
23.83439639641006
 20
14.69389164487347
 30
0.0
  0
POINT
  5
8FCC
330
8FC3
100
AcDbEntity
  8
DEFPOINTS
 62
     0
100
AcDbPoint
 10
77.2407705404654
 20
100.183442982115
 30
0.0
  0
POINT
  5
8FCD
330
8FC3
100
AcDbEntity
  8
DEFPOINTS
 62
     0
100
AcDbPoint
 10
4.0
 20
100.183442982115
 30
0.0
  0
ENDBLK
  5
8FCE
330
8FC3
100
AcDbEntity
  8
0
100
AcDbBlockEnd
  0
BLOCK
  5
919E
330
919D
100
AcDbEntity
  8
0
100
AcDbBlockBegin
  2
*D11
 70
     1
 10
0.0
 20
0.0
 30
0.0
  3
*D11
  1
*D11
  0
LINE
  5
91A0
330
919D
100
AcDbEntity
  8
WYMIARY
 62
     0
100
AcDbLine
 10
548.6097160690146
 20
163.8199270138357
 30
0.0
 11
548.6097160690146
 21
148.6248303620106
 31
0.0
  0
LINE
  5
91A1
330
919D
100
AcDbEntity
  8
WYMIARY
 62
     0
100
AcDbLine
 10
573.6467512830686
 20
166.2976602130072
 30
0.0
 11
573.6467512830686
 21
148.6248303620106
 31
0.0
  0
LINE
  5
91A2
330
919D
100
AcDbEntity
  8
WYMIARY
 62
     0
100
AcDbLine
 10
551.6097160690146
 20
150.1248303620106
 30
0.0
 11
570.6467512830686
 21
150.1248303620106
 31
0.0
  0
SOLID
  5
91A3
330
919D
100
AcDbEntity
  8
WYMIARY
 62
     0
100
AcDbTrace
 10
551.6097160690146
 20
150.6248303620106
 30
0.0
 11
551.6097160690146
 21
149.6248303620106
 31
0.0
 12
548.6097160690146
 22
150.1248303620106
 32
0.0
 13
548.6097160690146
 23
150.1248303620106
 33
0.0
  0
SOLID
  5
91A4
330
919D
100
AcDbEntity
  8
WYMIARY
 62
     0
100
AcDbTrace
 10
570.6467512830686
 20
149.6248303620106
 30
0.0
 11
570.6467512830686
 21
150.6248303620106
 31
0.0
 12
573.6467512830686
 22
150.1248303620106
 32
0.0
 13
573.6467512830686
 23
150.1248303620106
 33
0.0
  0
MTEXT
  5
91A5
330
919D
100
AcDbEntity
  8
WYMIARY
 62
     0
100
AcDbMText
 10
561.1282336760416
 20
152.1248303620106
 30
0.0
 40
3.0
 41
0.0
 71
     5
 72
     1
  1
\A1;25
  0
POINT
  5
91A6
330
919D
100
AcDbEntity
  8
DEFPOINTS
 62
     0
100
AcDbPoint
 10
548.6097160690146
 20
165.3199270138357
 30
0.0
  0
POINT
  5
91A7
330
919D
100
AcDbEntity
  8
DEFPOINTS
 62
     0
100
AcDbPoint
 10
573.6467512830686
 20
167.7976602130072
 30
0.0
  0
POINT
  5
91A8
330
919D
100
AcDbEntity
  8
DEFPOINTS
 62
     0
100
AcDbPoint
 10
573.6467512830686
 20
150.1248303620106
 30
0.0
  0
ENDBLK
  5
919F
330
919D
100
AcDbEntity
  8
0
100
AcDbBlockEnd
  0
BLOCK
  5
91AA
330
91A9
100
AcDbEntity
  8
0
100
AcDbBlockBegin
  2
*D12
 70
     1
 10
0.0
 20
0.0
 30
0.0
  3
*D12
  1
*D12
  0
LINE
  5
91AC
330
91A9
100
AcDbEntity
  8
WYMIARY
 62
     0
100
AcDbLine
 10
573.6467512830686
 20
166.2976602130072
 30
0.0
 11
573.6467512830686
 21
148.6248303620106
 31
0.0
  0
LINE
  5
91AD
330
91A9
100
AcDbEntity
  8
WYMIARY
 62
     0
100
AcDbLine
 10
608.3780346711327
 20
166.6200486259101
 30
0.0
 11
608.3780346711327
 21
148.6248303620106
 31
0.0
  0
LINE
  5
91AE
330
91A9
100
AcDbEntity
  8
WYMIARY
 62
     0
100
AcDbLine
 10
576.6467512830686
 20
150.1248303620106
 30
0.0
 11
605.3780346711327
 21
150.1248303620106
 31
0.0
  0
SOLID
  5
91AF
330
91A9
100
AcDbEntity
  8
WYMIARY
 62
     0
100
AcDbTrace
 10
576.6467512830686
 20
150.6248303620106
 30
0.0
 11
576.6467512830686
 21
149.6248303620106
 31
0.0
 12
573.6467512830686
 22
150.1248303620106
 32
0.0
 13
573.6467512830686
 23
150.1248303620106
 33
0.0
  0
SOLID
  5
91B0
330
91A9
100
AcDbEntity
  8
WYMIARY
 62
     0
100
AcDbTrace
 10
605.3780346711327
 20
149.6248303620106
 30
0.0
 11
605.3780346711327
 21
150.6248303620106
 31
0.0
 12
608.3780346711327
 22
150.1248303620106
 32
0.0
 13
608.3780346711327
 23
150.1248303620106
 33
0.0
  0
MTEXT
  5
91B1
330
91A9
100
AcDbEntity
  8
WYMIARY
 62
     0
100
AcDbMText
 10
591.0123929771007
 20
152.1248303620106
 30
0.0
 40
3.0
 41
0.0
 71
     5
 72
     1
  1
\A1;34.7
  0
POINT
  5
91B2
330
91A9
100
AcDbEntity
  8
DEFPOINTS
 62
     0
100
AcDbPoint
 10
573.6467512830686
 20
167.7976602130072
 30
0.0
  0
POINT
  5
91B3
330
91A9
100
AcDbEntity
  8
DEFPOINTS
 62
     0
100
AcDbPoint
 10
608.3780346711327
 20
168.1200486259101
 30
0.0
  0
POINT
  5
91B4
330
91A9
100
AcDbEntity
  8
DEFPOINTS
 62
     0
100
AcDbPoint
 10
608.3780346711327
 20
150.1248303620106
 30
0.0
  0
ENDBLK
  5
91AB
330
91A9
100
AcDbEntity
  8
0
100
AcDbBlockEnd
  0
BLOCK
  5
91B6
330
91B5
100
AcDbEntity
  8
0
100
AcDbBlockBegin
  2
*D13
 70
     1
 10
0.0
 20
0.0
 30
0.0
  3
*D13
  1
*D13
  0
LINE
  5
91B8
330
91B5
100
AcDbEntity
  8
WYMIARY
 62
     0
100
AcDbLine
 10
548.9431274220401
 20
163.3187220068841
 30
0.0
 11
529.10873102563
 21
163.3187220068841
 31
0.0
  0
LINE
  5
91B9
330
91B5
100
AcDbEntity
  8
WYMIARY
 62
     0
100
AcDbLine
 10
602.3495015660955
 20
248.8082733441256
 30
0.0
 11
529.10873102563
 21
248.8082733441256
 31
0.0
  0
LINE
  5
91BA
330
91B5
100
AcDbEntity
  8
WYMIARY
 62
     0
100
AcDbLine
 10
530.60873102563
 20
166.3187220068841
 30
0.0
 11
530.60873102563
 21
245.8082733441256
 31
0.0
  0
SOLID
  5
91BB
330
91B5
100
AcDbEntity
  8
WYMIARY
 62
     0
100
AcDbTrace
 10
530.10873102563
 20
166.3187220068841
 30
0.0
 11
531.10873102563
 21
166.3187220068841
 31
0.0
 12
530.60873102563
 22
163.3187220068841
 32
0.0
 13
530.60873102563
 23
163.3187220068841
 33
0.0
  0
SOLID
  5
91BC
330
91B5
100
AcDbEntity
  8
WYMIARY
 62
     0
100
AcDbTrace
 10
531.10873102563
 20
245.8082733441256
 30
0.0
 11
530.10873102563
 21
245.8082733441256
 31
0.0
 12
530.60873102563
 22
248.8082733441256
 32
0.0
 13
530.60873102563
 23
248.8082733441256
 33
0.0
  0
MTEXT
  5
91BD
330
91B5
100
AcDbEntity
  8
WYMIARY
 62
     0
100
AcDbMText
 10
528.35873102563
 20
206.0634976755048
 30
0.0
 40
3.0
 41
0.0
 71
     5
 72
     1
  1
\A1;85.5%%p0,2
 11
0.0
 21
1.0
 31
0.0
  0
POINT
  5
91BE
330
91B5
100
AcDbEntity
  8
DEFPOINTS
 62
     0
100
AcDbPoint
 10
550.4431274220401
 20
163.3187220068841
 30
0.0
  0
POINT
  5
91BF
330
91B5
100
AcDbEntity
  8
DEFPOINTS
 62
     0
100
AcDbPoint
 10
603.8495015660955
 20
248.8082733441256
 30
0.0
  0
POINT
  5
91C0
330
91B5
100
AcDbEntity
  8
DEFPOINTS
 62
     0
100
AcDbPoint
 10
530.60873102563
 20
248.8082733441256
 30
0.0
  0
ENDBLK
  5
91B7
330
91B5
100
AcDbEntity
  8
0
100
AcDbBlockEnd
  0
ENDSEC
  0
SECTION
  2
ENTITIES
  0
LINE
  5
2D2D
330
18
100
AcDbEntity
  8
WYMIARY
 62
     6
100
AcDbLine
 10
486.041244
 20
0.0
 30
0.0
 11
486.041244
 21
297.0
 31
0.0
  0
LINE
  5
2D2E
330
18
100
AcDbEntity
  8
WYMIARY
 62
     6
100
AcDbLine
 10
497.671651
 20
292.0
 30
0.0
 11
497.671651
 21
5.0
 31
0.0
  0
LINE
  5
2D34
330
18
100
AcDbEntity
  8
2
100
AcDbLine
 10
682.671651
 20
5.0
 30
0.0
 11
682.671651
 21
292.0
 31
0.0
  0
LINE
  5
2D35
330
18
100
AcDbEntity
  8
2
100
AcDbLine
 10
687.671651
 20
0.0
 30
0.0
 11
687.671651
 21
297.0
 31
0.0
  0
LINE
  5
2D36
330
18
100
AcDbEntity
  8
WY
  6
CONTINUOUS
 62
     3
100
AcDbLine
 10
682.671651
 20
19.689837
 30
0.0
 11
497.671651
 21
19.689837
 31
0.0
  0
LINE
  5
2D38
330
18
100
AcDbEntity
  8
2
100
AcDbLine
 10
497.671651
 20
5.0
 30
0.0
 11
682.671651
 21
5.0
 31
0.0
  0
LINE
  5
2D39
330
18
100
AcDbEntity
  8
2
 62
     6
100
AcDbLine
 10
497.671651
 20
0.0
 30
0.0
 11
687.671651
 21
0.0
 31
0.0
  0
LINE
  5
2D3A
330
18
100
AcDbEntity
  8
0
100
AcDbLine
 10
529.697667
 20
11.742481
 30
0.0
 11
528.795256
 21
11.742481
 31
0.0
  0
ELLIPSE
  5
2D3B
330
18
100
AcDbEntity
  8
0
100
AcDbEllipse
 10
529.697667
 20
11.742481
 30
0.0
 11
-1.203215696869327
 21
1.967000000000000E-13
 31
0.0
210
0.0
220
0.0
230
1.0
 40
0.958812
 41
-1.570796326794739
 42
0.0000000000001705
  0
TEXT
  5
2D3D
330
18
100
AcDbEntity
  8
1
100
AcDbText
 10
515.607578
 20
8.797457
 30
0.0
 40
5.0
  1
A4
 51
15.0
  7
ITALIC
100
AcDbText
  0
LINE
  5
2D40
330
18
100
AcDbEntity
  8
WYMIARY
 62
     6
100
AcDbLine
 10
497.671651
 20
0.0
 30
0.0
 11
486.041244
 21
0.0
 31
0.0
  0
TEXT
  5
2D42
330
18
100
AcDbEntity
  8
WY
100
AcDbText
 10
502.936765
 20
16.373844
 30
0.0
 40
2.0
  1
Skala
 51
15.0
  7
ITALIC
100
AcDbText
  0
TEXT
  5
2D43
330
18
100
AcDbEntity
  8
WY
100
AcDbText
 10
515.042219
 20
16.329369
 30
0.0
 40
2.0
  1
Format
 51
15.0
  7
ITALIC
100
AcDbText
  0
LINE
  5
2D44
330
18
100
AcDbEntity
  8
0
100
AcDbLine
 10
528.494452
 20
11.742481
 30
0.0
 11
528.795256
 21
11.742481
 31
0.0
  0
LINE
  5
2D45
330
18
100
AcDbEntity
  8
0
100
AcDbLine
 10
559.88722
 20
17.211264
 30
0.0
 11
559.88722
 21
9.015264
 31
0.0
  0
LINE
  5
2D46
330
18
100
AcDbEntity
  8
0
100
AcDbLine
 10
550.89322
 20
9.438264
 30
0.0
 11
550.89322
 21
7.416264
 31
0.0
  0
ARC
  5
2D47
330
18
100
AcDbEntity
  8
0
100
AcDbCircle
 10
551.5428
 20
9.724764
 30
0.0
 40
0.709955
100
AcDbArc
 50
203.80008
 51
272.051918
  0
LINE
  5
2D48
330
18
100
AcDbEntity
  8
0
100
AcDbLine
 10
549.34822
 20
7.416264
 30
0.0
 11
549.34822
 21
15.612264
 31
0.0
  0
ARC
  5
2D49
330
18
100
AcDbEntity
  8
0
100
AcDbCircle
 10
551.982126
 20
10.136416
 30
0.0
 40
1.128907
100
AcDbArc
 50
276.719576
 51
2.175194
  0
ARC
  5
2D4A
330
18
100
AcDbEntity
  8
0
100
AcDbCircle
 10
555.243059
 20
10.503572
 30
0.0
 40
1.488419
100
AcDbArc
 50
191.634268
 51
270.699113
  0
ARC
  5
2D4B
330
18
100
AcDbEntity
  8
0
100
AcDbCircle
 10
556.209381
 20
10.503572
 30
0.0
 40
1.488419
100
AcDbArc
 50
269.300887
 51
348.365732
  0
LINE
  5
2D4C
330
18
100
AcDbEntity
  8
0
100
AcDbLine
 10
558.34222
 20
9.015264
 30
0.0
 11
558.34222
 21
17.211264
 31
0.0
  0
ARC
  5
2D4D
330
18
100
AcDbEntity
  8
0
100
AcDbCircle
 10
545.056591
 20
10.472364
 30
0.0
 40
1.425319
100
AcDbArc
 50
269.703671
 51
350.465171
  0
ARC
  5
2D4E
330
18
100
AcDbEntity
  8
0
100
AcDbCircle
 10
544.201848
 20
10.472364
 30
0.0
 40
1.425319
100
AcDbArc
 50
189.534829
 51
270.2963290000001
  0
LINE
  5
2D4F
330
18
100
AcDbEntity
  8
0
100
AcDbLine
 10
547.14922
 20
9.015264
 30
0.0
 11
547.14922
 21
17.211264
 31
0.0
  0
LINE
  5
2D50
330
18
100
AcDbEntity
  8
0
100
AcDbLine
 10
548.69422
 20
17.211264
 30
0.0
 11
548.69422
 21
9.015264
 31
0.0
  0
LINE
  5
2D51
330
18
100
AcDbEntity
  8
0
100
AcDbLine
 10
539.892236
 20
14.361264
 30
0.0
 11
539.903809
 21
9.015264
 31
0.0
  0
LINE
  5
2D52
330
18
100
AcDbEntity
  8
0
100
AcDbLine
 10
538.361694
 20
9.015264
 30
0.0
 11
538.361694
 21
15.60367
 31
0.0
  0
LINE
  5
2D53
330
18
100
AcDbEntity
  8
0
100
AcDbLine
 10
529.697667
 20
9.895061
 30
0.0
 11
529.697667
 21
8.185369
 31
0.0
  0
LINE
  5
2D54
330
18
100
AcDbEntity
  8
0
100
AcDbLine
 10
535.613478
 20
8.185369
 30
0.0
 11
535.613478
 21
11.742481
 31
0.0
  0
LINE
  5
2D55
330
18
100
AcDbEntity
  8
1
100
AcDbLine
 10
563.469863
 20
5.0
 30
0.0
 11
563.469863
 21
19.689837
 31
0.0
  0
LINE
  5
2D56
330
18
100
AcDbEntity
  8
0
100
AcDbLine
 10
530.499811
 20
7.416263
 30
0.0
 11
534.811334
 21
7.416263
 31
0.0
  0
ELLIPSE
  5
2D57
330
18
100
AcDbEntity
  8
0
100
AcDbEllipse
 10
530.499811
 20
8.185369
 30
0.0
 11
-0.8021437979128705
 21
1.540000000000000E-14
 31
0.0
210
0.0
220
0.0
230
1.0
 40
0.958812
 41
0.00000000000002
 42
1.570796326794914
  0
ELLIPSE
  5
2D58
330
18
100
AcDbEntity
  8
0
100
AcDbEllipse
 10
534.811334
 20
8.185369
 30
0.0
 11
0.8021437979128704
 21
1.602000000000000E-13
 31
0.0
210
0.0
220
0.0
230
1.0
 40
0.958812
 41
4.712388980384497
 42
6.283185307179378
  0
LINE
  5
2D59
330
18
100
AcDbEntity
  8
0
100
AcDbLine
 10
539.892236
 20
9.015264
 30
0.0
 11
539.903809
 21
9.022759
 31
0.0
  0
LINE
  5
2D5A
330
18
100
AcDbEntity
  8
0
100
AcDbLine
 10
538.361694
 20
9.015264
 30
0.0
 11
539.903809
 21
9.015264
 31
0.0
  0
LINE
  5
2D5B
330
18
100
AcDbEntity
  8
0
100
AcDbLine
 10
544.194477
 20
9.047064
 30
0.0
 11
545.04922
 21
9.047064
 31
0.0
  0
LINE
  5
2D5C
330
18
100
AcDbEntity
  8
0
100
AcDbLine
 10
550.89322
 20
7.416264
 30
0.0
 11
549.34822
 21
7.416264
 31
0.0
  0
LINE
  5
2D5D
330
18
100
AcDbEntity
  8
0
100
AcDbLine
 10
548.69422
 20
9.015264
 30
0.0
 11
547.14922
 21
9.015264
 31
0.0
  0
LINE
  5
2D5E
330
18
100
AcDbEntity
  8
0
100
AcDbLine
 10
551.576266
 20
9.015264
 30
0.0
 11
552.11422
 21
9.015264
 31
0.0
  0
LINE
  5
2D5F
330
18
100
AcDbEntity
  8
0
100
AcDbLine
 10
555.26122
 20
9.015264
 30
0.0
 11
556.19122
 21
9.015264
 31
0.0
  0
LINE
  5
2D60
330
18
100
AcDbEntity
  8
0
100
AcDbLine
 10
559.88722
 20
9.015264
 30
0.0
 11
558.34222
 21
9.015264
 31
0.0
  0
ARC
  5
2D61
330
18
100
AcDbEntity
  8
0
100
AcDbCircle
 10
545.056591
 20
14.17837
 30
0.0
 40
1.425319
100
AcDbArc
 50
9.534829000000002
 51
90.296329
  0
LINE
  5
2D62
330
18
100
AcDbEntity
  8
0
100
AcDbLine
 10
546.46222
 20
11.81167
 30
0.0
 11
544.33822
 21
11.81167
 31
0.0
  0
LINE
  5
2D63
330
18
100
AcDbEntity
  8
0
100
AcDbLine
 10
545.01322
 20
11.13667
 30
0.0
 11
546.46222
 21
11.13667
 31
0.0
  0
LINE
  5
2D64
330
18
100
AcDbEntity
  8
0
100
AcDbLine
 10
529.697667
 20
13.461283
 30
0.0
 11
529.697667
 21
16.260974
 31
0.0
  0
ELLIPSE
  5
2D65
330
18
100
AcDbEntity
  8
0
100
AcDbEllipse
 10
532.630506
 20
15.17942
 30
0.0
 11
2.983077570132104
 21
2.996000000000000E-13
 31
0.0
210
0.0
220
0.0
230
1.0
 40
0.9588119999999999
 41
-1.562393163247347
 42
0.0084031635475457
  0
ELLIPSE
  5
2D66
330
18
100
AcDbEntity
  8
0
100
AcDbEllipse
 10
532.58733
 20
15.509539
 30
0.0
 11
-4.072692107280919
 21
9.250000000000000E-14
 31
0.0
210
0.0
220
0.0
230
1.0
 40
0.958812
 41
1.587553347046634
 42
2.408388587343224
  0
LINE
  5
2D67
330
18
100
AcDbEntity
  8
0
100
AcDbLine
 10
529.697667
 20
11.742481
 30
0.0
 11
529.697667
 21
11.034514
 31
0.0
  0
LINE
  5
2D68
330
18
100
AcDbEntity
  8
0
100
AcDbLine
 10
529.697667
 20
13.461283
 30
0.0
 11
529.697667
 21
12.896138
 31
0.0
  0
ELLIPSE
  5
2D69
330
18
100
AcDbEntity
  8
0
100
AcDbEllipse
 10
532.249598
 20
9.872487
 30
0.0
 11
2.960559210508897
 21
0.3570763225581005
 31
0.0
210
0.0
220
0.0
230
1.0
 40
0.820999
 41
1.335209029023201
 42
2.503032872947537
  0
ELLIPSE
  5
2D6A
330
18
100
AcDbEntity
  8
0
100
AcDbEllipse
 10
532.480104
 20
8.937306
 30
0.0
 11
3.015746449176212
 21
0.7746519372140013
 31
0.0
210
0.0
220
0.0
230
1.0
 40
0.846775
 41
1.29973646820557
 42
2.479974117225238
  0
LINE
  5
2D6B
330
18
100
AcDbEntity
  8
0
100
AcDbLine
 10
536.816694
 20
12.896138
 30
0.0
 11
536.51589
 21
12.896138
 31
0.0
  0
LINE
  5
2D6C
330
18
100
AcDbEntity
  8
0
100
AcDbLine
 10
535.613478
 20
12.896138
 30
0.0
 11
536.51589
 21
12.896138
 31
0.0
  0
ELLIPSE
  5
2D6D
330
18
100
AcDbEntity
  8
0
100
AcDbEllipse
 10
535.613478
 20
12.896138
 30
0.0
 11
1.203215696869352
 21
8.930000000000000E-14
 31
0.0
210
0.0
220
0.0
230
1.0
 40
0.9588119999999999
 41
4.712388980384611
 42
6.283185307179508
  0
LINE
  5
2D6E
330
18
100
AcDbEntity
  8
0
100
AcDbLine
 10
530.499811
 20
17.030079
 30
0.0
 11
534.811334
 21
17.030079
 31
0.0
  0
ELLIPSE
  5
2D6F
330
18
100
AcDbEntity
  8
0
100
AcDbEllipse
 10
530.499811
 20
16.260974
 30
0.0
 11
0.8021437979128704
 21
3.800000000000000E-14
 31
0.0
210
0.0
220
0.0
230
1.0
 40
0.958812
 41
1.570796326794851
 42
3.141592653589743
  0
LINE
  5
2D70
330
18
100
AcDbEntity
  8
0
100
AcDbLine
 10
535.613478
 20
15.155385
 30
0.0
 11
535.613478
 21
16.260974
 31
0.0
  0
ELLIPSE
  5
2D71
330
18
100
AcDbEntity
  8
0
100
AcDbEllipse
 10
534.811334
 20
16.260974
 30
0.0
 11
-0.8021437979128705
 21
3.800000000000000E-14
 31
0.0
210
0.0
220
0.0
230
1.0
 40
0.958812
 41
3.141592653589842
 42
4.712388980384734
  0
ARC
  5
2D72
330
18
100
AcDbEntity
  8
0
100
AcDbCircle
 10
540.798894
 20
14.34127
 30
0.0
 40
1.377457
100
AcDbArc
 50
16.265061
 51
130.527299
  0
ARC
  5
2D73
330
18
100
AcDbEntity
  8
0
100
AcDbCircle
 10
544.201848
 20
14.17837
 30
0.0
 40
1.425319
100
AcDbArc
 50
89.703671
 51
170.465171
  0
LINE
  5
2D74
330
18
100
AcDbEntity
  8
0
100
AcDbLine
 10
540.911147
 20
12.93607
 30
0.0
 11
542.12122
 21
12.93607
 31
0.0
  0
LINE
  5
2D75
330
18
100
AcDbEntity
  8
0
100
AcDbLine
 10
540.578809
 20
12.93607
 30
0.0
 11
542.12122
 21
12.93607
 31
0.0
  0
ARC
  5
2D76
330
18
100
AcDbEntity
  8
0
100
AcDbCircle
 10
540.229736
 20
14.361264
 30
0.0
 40
0.3375
100
AcDbArc
 50
360.0
 51
180.0
  0
LINE
  5
2D77
330
18
100
AcDbEntity
  8
0
100
AcDbLine
 10
540.567236
 20
14.361264
 30
0.0
 11
540.578809
 21
12.93607
 31
0.0
  0
ARC
  5
2D78
330
18
100
AcDbEntity
  8
0
100
AcDbCircle
 10
544.67572
 20
14.361264
 30
0.0
 40
0.3375
100
AcDbArc
 50
360.0
 51
180.0
  0
LINE
  5
2D79
330
18
100
AcDbEntity
  8
0
100
AcDbLine
 10
544.33822
 20
11.81167
 30
0.0
 11
544.33822
 21
10.236264
 31
0.0
  0
LINE
  5
2D7A
330
18
100
AcDbEntity
  8
0
100
AcDbLine
 10
544.33822
 20
12.71167
 30
0.0
 11
545.01322
 21
12.71167
 31
0.0
  0
LINE
  5
2D7B
330
18
100
AcDbEntity
  8
0
100
AcDbLine
 10
545.01322
 20
11.13667
 30
0.0
 11
545.01322
 21
10.252764
 31
0.0
  0
LINE
  5
2D7C
330
18
100
AcDbEntity
  8
0
100
AcDbLine
 10
544.33822
 20
11.81167
 30
0.0
 11
544.33822
 21
10.252764
 31
0.0
  0
ARC
  5
2D7D
330
18
100
AcDbEntity
  8
0
100
AcDbCircle
 10
544.67572
 20
10.252764
 30
0.0
 40
0.3375
100
AcDbArc
 50
180.0
 51
0.0
  0
LINE
  5
2D7E
330
18
100
AcDbEntity
  8
0
100
AcDbLine
 10
545.01322
 20
14.361264
 30
0.0
 11
545.01322
 21
12.71167
 31
0.0
  0
LINE
  5
2D7F
330
18
100
AcDbEntity
  8
0
100
AcDbLine
 10
544.33822
 20
14.361264
 30
0.0
 11
544.33822
 21
12.71167
 31
0.0
  0
LINE
  5
2D80
330
18
100
AcDbEntity
  8
0
100
AcDbLine
 10
542.12122
 20
12.93607
 30
0.0
 11
542.12122
 21
14.72707
 31
0.0
  0
LINE
  5
2D81
330
18
100
AcDbEntity
  8
0
100
AcDbLine
 10
542.79622
 20
10.236264
 30
0.0
 11
542.79622
 21
14.41447
 31
0.0
  0
LINE
  5
2D82
330
18
100
AcDbEntity
  8
0
100
AcDbLine
 10
539.903809
 20
15.60367
 30
0.0
 11
539.903809
 21
15.38827
 31
0.0
  0
LINE
  5
2D83
330
18
100
AcDbEntity
  8
0
100
AcDbLine
 10
538.361694
 20
15.60367
 30
0.0
 11
539.903809
 21
15.60367
 31
0.0
  0
LINE
  5
2D84
330
18
100
AcDbEntity
  8
0
100
AcDbLine
 10
544.194477
 20
15.60367
 30
0.0
 11
545.04922
 21
15.60367
 31
0.0
  0
ARC
  5
2D85
330
18
100
AcDbEntity
  8
0
100
AcDbCircle
 10
555.243059
 20
14.124104
 30
0.0
 40
1.488419
100
AcDbArc
 50
89.300887
 51
168.365732
  0
ARC
  5
2D86
330
18
100
AcDbEntity
  8
0
100
AcDbCircle
 10
551.752247
 20
14.207365
 30
0.0
 40
1.409039
100
AcDbArc
 50
15.47255
 51
127.56454
  0
LINE
  5
2D87
330
18
100
AcDbEntity
  8
0
100
AcDbLine
 10
546.46222
 20
11.13667
 30
0.0
 11
546.46222
 21
10.236264
 31
0.0
  0
LINE
  5
2D88
330
18
100
AcDbEntity
  8
0
100
AcDbLine
 10
546.46222
 20
11.81167
 30
0.0
 11
546.46222
 21
14.41447
 31
0.0
  0
LINE
  5
2D89
330
18
100
AcDbEntity
  8
0
100
AcDbLine
 10
553.11022
 20
14.583264
 30
0.0
 11
553.11022
 21
10.179264
 31
0.0
  0
LINE
  5
2D8A
330
18
100
AcDbEntity
  8
0
100
AcDbLine
 10
551.56822
 20
14.361264
 30
0.0
 11
551.56822
 21
10.252764
 31
0.0
  0
LINE
  5
2D8B
330
18
100
AcDbEntity
  8
0
100
AcDbLine
 10
550.89322
 20
14.361264
 30
0.0
 11
550.89322
 21
10.252764
 31
0.0
  0
ARC
  5
2D8C
330
18
100
AcDbEntity
  8
0
100
AcDbCircle
 10
551.23072
 20
10.252764
 30
0.0
 40
0.3375
100
AcDbArc
 50
180.0
 51
0.0
  0
ARC
  5
2D8D
330
18
100
AcDbEntity
  8
0
100
AcDbCircle
 10
551.23072
 20
14.361264
 30
0.0
 40
0.3375
100
AcDbArc
 50
360.0
 51
180.0
  0
LINE
  5
2D8E
330
18
100
AcDbEntity
  8
0
100
AcDbLine
 10
549.34822
 20
15.612264
 30
0.0
 11
550.89322
 21
15.612264
 31
0.0
  0
LINE
  5
2D8F
330
18
100
AcDbEntity
  8
0
100
AcDbLine
 10
547.14922
 20
17.211264
 30
0.0
 11
548.69422
 21
17.211264
 31
0.0
  0
LINE
  5
2D90
330
18
100
AcDbEntity
  8
0
100
AcDbLine
 10
550.89322
 20
15.612264
 30
0.0
 11
550.89322
 21
15.324264
 31
0.0
  0
ARC
  5
2D91
330
18
100
AcDbEntity
  8
0
100
AcDbCircle
 10
556.209381
 20
14.124104
 30
0.0
 40
1.488419
100
AcDbArc
 50
11.634268
 51
90.699113
  0
LINE
  5
2D92
330
18
100
AcDbEntity
  8
0
100
AcDbLine
 10
557.66722
 20
14.424264
 30
0.0
 11
557.66722
 21
10.203412
 31
0.0
  0
ARC
  5
2D93
330
18
100
AcDbEntity
  8
0
100
AcDbCircle
 10
555.72622
 20
14.361264
 30
0.0
 40
0.3375
100
AcDbArc
 50
360.0
 51
180.0
  0
ARC
  5
2D94
330
18
100
AcDbEntity
  8
0
100
AcDbCircle
 10
555.72622
 20
10.252764
 30
0.0
 40
0.3375
100
AcDbArc
 50
180.0
 51
0.0
  0
LINE
  5
2D95
330
18
100
AcDbEntity
  8
0
100
AcDbLine
 10
555.38872
 20
14.361264
 30
0.0
 11
555.38872
 21
10.252764
 31
0.0
  0
LINE
  5
2D96
330
18
100
AcDbEntity
  8
0
100
AcDbLine
 10
556.06372
 20
14.361264
 30
0.0
 11
556.06372
 21
10.252764
 31
0.0
  0
LINE
  5
2D97
330
18
100
AcDbEntity
  8
0
100
AcDbLine
 10
553.78522
 20
10.203412
 30
0.0
 11
553.78522
 21
14.424264
 31
0.0
  0
LINE
  5
2D98
330
18
100
AcDbEntity
  8
0
100
AcDbLine
 10
555.26122
 20
15.612412
 30
0.0
 11
556.19122
 21
15.612412
 31
0.0
  0
LINE
  5
2D99
330
18
100
AcDbEntity
  8
0
100
AcDbLine
 10
558.34222
 20
17.211264
 30
0.0
 11
559.88722
 21
17.211264
 31
0.0
  0
TEXT
  5
2D9A
330
18
100
AcDbEntity
  8
WY
100
AcDbText
 10
564.417407
 20
11.60401
 30
0.0
 40
2.0
  1
01-12-2007
 51
15.0
  7
ITALIC
100
AcDbText
  0
TEXT
  5
2D9B
330
18
100
AcDbEntity
  8
WY
100
AcDbText
 10
568.848776
 20
16.149239
 30
0.0
 40
2.0
  1
Data
 51
15.0
  7
ITALIC
100
AcDbText
  0
TEXT
  5
2D9D
330
18
100
AcDbEntity
  8
1
100
AcDbText
 10
637.422754
 20
9.064009
 30
0.0
 40
5.0
  1
PIR6W-1PS
 41
0.8
 51
15.0
  7
ITALIC
100
AcDbText
  0
LINE
  5
2D9E
330
18
100
AcDbEntity
  8
1
100
AcDbLine
 10
627.394234
 20
5.0
 30
0.0
 11
627.394234
 21
19.689837
 31
0.0
  0
TEXT
  5
2D9F
330
18
100
AcDbEntity
  8
WY
100
AcDbText
 10
629.585432
 20
16.599248
 30
0.0
 40
2.0
  1
Product type
 51
15.0
  7
ITALIC
100
AcDbText
  0
LINE
  5
2DF2
330
18
100
AcDbEntity
  8
2
100
AcDbLine
 10
682.671651
 20
292.0
 30
0.0
 11
497.671651
 21
292.0
 31
0.0
  0
LINE
  5
2DF3
330
18
100
AcDbEntity
  8
2
100
AcDbLine
 10
687.671651
 20
297.0
 30
0.0
 11
497.671651
 21
297.0
 31
0.0
  0
LINE
  5
2E74
330
18
100
AcDbEntity
  8
WYMIARY
 62
     6
100
AcDbLine
 10
497.671651
 20
297.0
 30
0.0
 11
486.041244
 21
297.0
 31
0.0
  0
MTEXT
  5
31F2
330
18
100
AcDbEntity
  8
WYMIARY
100
AcDbMText
 10
780.543201
 20
224.476865
 30
0.0
 40
3.5
 41
15.6
 71
     1
 72
     5
  1

  7
ITALIC
  0
TEXT
  5
478E
330
18
100
AcDbEntity
  8
1
100
AcDbText
 10
500.301985
 20
8.797457
 30
0.0
 40
5.0
  1
1:1
 51
15.0
  7
ITALIC
100
AcDbText
  0
LINE
  5
482F
330
18
100
AcDbEntity
  8
WYMIARY
 62
     6
100
AcDbLine
 10
687.671651
 20
0.0
 30
0.0
 11
687.671651
 21
297.0
 31
0.0
  0
LINE
  5
4AD7
330
18
100
AcDbEntity
  8
WYMIARY
 62
     3
100
AcDbLine
 10
512.671651
 20
19.689837
 30
0.0
 11
512.671651
 21
5.0
 31
0.0
  0
LINE
  5
4AD9
330
18
100
AcDbEntity
  8
WYMIARY
 62
     3
100
AcDbLine
 10
527.671651
 20
19.689837
 30
0.0
 11
527.671651
 21
5.0
 31
0.0
  0
LINE
  5
4ADA
330
18
100
AcDbEntity
  8
WYMIARY
 62
     3
100
AcDbLine
 10
586.373187
 20
19.689837
 30
0.0
 11
586.373187
 21
5.0
 31
0.0
  0
TEXT
  5
4ADB
330
18
100
AcDbEntity
  8
WY
100
AcDbText
 10
587.562196
 20
16.599248
 30
0.0
 40
2.0
  1
Draw. No.
 51
15.0
  7
ITALIC
100
AcDbText
  0
TEXT
  5
4ADF
330
18
100
AcDbEntity
  8
1
100
AcDbText
 10
591.935141
 20
9.064009
 30
0.0
 40
4.0
  1
PIR6W-1PS-01A
 41
0.7
 51
15.0
  7
ITALIC
100
AcDbText
  0
LINE
  5
4AE9
330
18
100
AcDbEntity
  8
WYMIARY
 62
     6
100
AcDbLine
 10
687.671651
 20
0.0
 30
0.0
 11
687.671651
 21
297.0
 31
0.0
  0
LINE
  5
6488
330
18
100
AcDbEntity
  8
WYMIARY
 62
     6
100
AcDbLine
 10
687.671651
 20
0.0
 30
0.0
 11
687.671651
 21
297.0
 31
0.0
  0
LINE
  5
648E
330
18
100
AcDbEntity
  8
2
100
AcDbLine
 10
687.671651
 20
0.0
 30
0.0
 11
687.671651
 21
297.0
 31
0.0
  0
LINE
  5
6CB6
330
18
100
AcDbEntity
  8
WYMIARY
 62
     6
100
AcDbLine
 10
687.671651
 20
0.0
 30
0.0
 11
687.671651
 21
297.0
 31
0.0
  0
LINE
  5
6CB8
330
18
100
AcDbEntity
  8
2
100
AcDbLine
 10
687.671651
 20
0.0
 30
0.0
 11
687.671651
 21
297.0
 31
0.0
  0
LINE
  5
77AF
330
18
100
AcDbEntity
  8
1
  6
CONTINUOUS
 62
     3
100
AcDbLine
 10
620.2775610629574
 20
107.2326974922145
 30
0.0
 11
625.0560610629574
 21
107.2326974922145
 31
0.0
  0
LINE
  5
77B3
330
18
100
AcDbEntity
  8
1
  6
CONTINUOUS
 62
     3
100
AcDbLine
 10
548.4337000629574
 20
106.2326974922145
 30
0.0
 11
646.9337000629574
 21
106.2326974922145
 31
0.0
  0
LINE
  5
77B4
330
18
100
AcDbEntity
  8
1
  6
CONTINUOUS
 62
     3
100
AcDbLine
 10
603.3481990629574
 20
112.4326974922145
 30
0.0
 11
646.6337000629574
 21
112.4326974922145
 31
0.0
  0
LINE
  5
77BB
330
18
100
AcDbEntity
  8
WYMSKALA1
100
AcDbLine
 10
554.3588560629574
 20
109.3326974922145
 30
0.0
 11
556.3588560629574
 21
109.3326974922145
 31
0.0
  0
ARC
  5
77BC
330
18
100
AcDbEntity
  8
1
  6
CONTINUOUS
 62
     3
100
AcDbCircle
 10
555.3588560629574
 20
109.3326974922145
 30
0.0
 40
1.95
100
AcDbArc
 50
0.0
 51
180.0
  0
ARC
  5
77BD
330
18
100
AcDbEntity
  8
1
  6
CONTINUOUS
 62
     3
100
AcDbCircle
 10
555.3588560629574
 20
109.3326974922145
 30
0.0
 40
1.95
100
AcDbArc
 50
180.0
 51
0.0
  0
LINE
  5
77BE
330
18
100
AcDbEntity
  8
1
  6
CONTINUOUS
 62
     3
100
AcDbLine
 10
553.7842820629575
 20
110.4830074922145
 30
0.0
 11
556.5091670629574
 21
107.7581224922145
 31
0.0
  0
LINE
  5
77BF
330
18
100
AcDbEntity
  8
1
  6
CONTINUOUS
 62
     3
100
AcDbLine
 10
554.2085460629575
 20
110.9072714922145
 30
0.0
 11
556.9334310629574
 21
108.1823864922145
 31
0.0
  0
LINE
  5
77C1
330
18
100
AcDbEntity
  8
1
  6
CONTINUOUS
 62
     3
100
AcDbLine
 10
548.9697180629574
 20
112.4326974922145
 30
0.0
 11
577.2365900629574
 21
112.4326974922145
 31
0.0
  0
LINE
  5
77C2
330
18
100
AcDbEntity
  8
1
  6
CONTINUOUS
 62
     3
100
AcDbLine
 10
551.9088560629574
 20
107.2326974922145
 30
0.0
 11
551.9088560629574
 21
109.3326974922145
 31
0.0
  0
LINE
  5
77C3
330
18
100
AcDbEntity
  8
1
  6
CONTINUOUS
 62
     3
100
AcDbLine
 10
548.6697180629574
 20
112.1326974922145
 30
0.0
 11
548.6697180629574
 21
106.2326974922145
 31
0.0
  0
LINE
  5
77C5
330
18
100
AcDbEntity
  8
1
  6
CONTINUOUS
 62
     3
100
AcDbLine
 10
548.6697180629574
 20
107.2326974922145
 30
0.0
 11
551.9088560629574
 21
107.2326974922145
 31
0.0
  0
ARC
  5
77C7
330
18
100
AcDbEntity
  8
1
  6
CONTINUOUS
 62
     3
100
AcDbCircle
 10
548.9697180629574
 20
112.1326974922145
 30
0.0
 40
0.3
100
AcDbArc
 50
90.0
 51
180.0
  0
POINT
  5
77C8
330
18
100
AcDbEntity
  8
DEFPOINTS
  6
BYBLOCK
 62
     0
100
AcDbPoint
 10
548.9697180629574
 20
112.4326974922145
 30
0.0
  0
LINE
  5
77C9
330
18
100
AcDbEntity
  8
1
  6
CONTINUOUS
 62
     3
100
AcDbLine
 10
548.4337000629574
 20
111.4326974922145
 30
0.0
 11
548.6697180629574
 21
111.4326974922145
 31
0.0
  0
TEXT
  5
77CA
330
18
100
AcDbEntity
  8
WY
  6
CONTINUOUS
 62
     3
100
AcDbText
 10
549.8941130629574
 20
110.8044144922145
 30
0.0
 40
1.4
  1
A2
 50
270.0
  7
ITALIC
100
AcDbText
  0
LINE
  5
77CB
330
18
100
AcDbEntity
  8
1
  6
CONTINUOUS
 62
     3
100
AcDbLine
 10
551.9088560629574
 20
109.3326974922145
 30
0.0
 11
553.4088560629574
 21
109.3326974922145
 31
0.0
  0
LINE
  5
77DA
330
18
100
AcDbEntity
  8
1
  6
CONTINUOUS
 62
     3
100
AcDbLine
 10
577.2365900629574
 20
112.4326974922145
 30
0.0
 11
603.3481990629574
 21
112.4326974922145
 31
0.0
  0
CIRCLE
  5
77DB
330
18
100
AcDbEntity
  8
1
  6
CONTINUOUS
 62
     3
100
AcDbCircle
 10
572.2365900629574
 20
109.3326974922145
 30
0.0
 40
1.5
  0
LINE
  5
77DC
330
18
100
AcDbEntity
  8
WYMSKALA1
100
AcDbLine
 10
571.2365900629574
 20
109.3326974922145
 30
0.0
 11
573.2365900629574
 21
109.3326974922145
 31
0.0
  0
LINE
  5
77DD
330
18
100
AcDbEntity
  8
WYMSKALA1
100
AcDbLine
 10
572.2365900629574
 20
108.3326974922145
 30
0.0
 11
572.2365900629574
 21
110.3326974922145
 31
0.0
  0
LINE
  5
77DE
330
18
100
AcDbEntity
  8
WYMSKALA1
100
AcDbLine
 10
565.3865900629575
 20
108.3326974922145
 30
0.0
 11
565.3865900629575
 21
110.3326974922145
 31
0.0
  0
LINE
  5
77DF
330
18
100
AcDbEntity
  8
1
  6
CONTINUOUS
 62
     3
100
AcDbLine
 10
561.9365900629574
 20
107.2326974922145
 30
0.0
 11
561.9365900629574
 21
109.3326974922145
 31
0.0
  0
ARC
  5
77E0
330
18
100
AcDbEntity
  8
1
  6
CONTINUOUS
 62
     3
100
AcDbCircle
 10
565.3865900629575
 20
109.3326974922145
 30
0.0
 40
1.95
100
AcDbArc
 50
180.0
 51
0.0
  0
LINE
  5
77E1
330
18
100
AcDbEntity
  8
1
  6
CONTINUOUS
 62
     3
100
AcDbLine
 10
563.8120150629574
 20
110.4830074922145
 30
0.0
 11
566.5369000629574
 21
107.7581224922145
 31
0.0
  0
LINE
  5
77E2
330
18
100
AcDbEntity
  8
1
  6
CONTINUOUS
 62
     3
100
AcDbLine
 10
564.2362790629574
 20
110.9072714922145
 30
0.0
 11
566.9611640629574
 21
108.1823864922145
 31
0.0
  0
LINE
  5
77E3
330
18
100
AcDbEntity
  8
WYMSKALA1
100
AcDbLine
 10
555.3588560629574
 20
108.3326974922145
 30
0.0
 11
555.3588560629574
 21
110.3326974922145
 31
0.0
  0
LINE
  5
77E4
330
18
100
AcDbEntity
  8
1
  6
CONTINUOUS
 62
     3
100
AcDbLine
 10
558.6374510629574
 20
112.4326974922145
 30
0.0
 11
558.6374510629574
 21
106.2326974922145
 31
0.0
  0
LINE
  5
77E5
330
18
100
AcDbEntity
  8
1
  6
CONTINUOUS
 62
     3
100
AcDbLine
 10
568.6365900629575
 20
112.4326974922145
 30
0.0
 11
568.6365900629575
 21
106.2326974922145
 31
0.0
  0
LINE
  5
77E6
330
18
100
AcDbEntity
  8
1
  6
CONTINUOUS
 62
     3
100
AcDbLine
 10
558.6374510629574
 20
107.2326974922145
 30
0.0
 11
561.9365900629574
 21
107.2326974922145
 31
0.0
  0
ARC
  5
77E7
330
18
100
AcDbEntity
  8
1
  6
CONTINUOUS
 62
     3
100
AcDbCircle
 10
565.3865900629575
 20
109.3326974922145
 30
0.0
 40
1.95
100
AcDbArc
 50
0.0
 51
180.0
  0
LINE
  5
77E8
330
18
100
AcDbEntity
  8
1
  6
CONTINUOUS
 62
     3
100
AcDbLine
 10
561.9365900629574
 20
109.3326974922145
 30
0.0
 11
563.4365900629574
 21
109.3326974922145
 31
0.0
  0
LINE
  5
77E9
330
18
100
AcDbEntity
  8
1
  6
CONTINUOUS
 62
     3
100
AcDbLine
 10
557.3088560629574
 20
109.3326974922145
 30
0.0
 11
558.6374510629574
 21
109.3326974922145
 31
0.0
  0
TEXT
  5
77EA
330
18
100
AcDbEntity
  8
WY
  6
CONTINUOUS
 62
     3
100
AcDbText
 10
559.8178060629574
 20
110.6297204922145
 30
0.0
 40
1.4
  1
A1
 50
270.0
  7
ITALIC
100
AcDbText
  0
LINE
  5
77EB
330
18
100
AcDbEntity
  8
1
  6
CONTINUOUS
 62
     3
100
AcDbLine
 10
567.3365900629574
 20
109.3326974922145
 30
0.0
 11
568.6365900629575
 21
109.3326974922145
 31
0.0
  0
LINE
  5
77EC
330
18
100
AcDbEntity
  8
WYMSKALA1
100
AcDbLine
 10
564.3865900629575
 20
109.3326974922145
 30
0.0
 11
566.3865900629575
 21
109.3326974922145
 31
0.0
  0
LINE
  5
77ED
330
18
100
AcDbEntity
  8
1
  6
CONTINUOUS
 62
     3
100
AcDbLine
 10
576.1365900629575
 20
111.8326974922145
 30
0.0
 11
576.1365900629575
 21
106.8326974922145
 31
0.0
  0
LINE
  5
77EE
330
18
100
AcDbEntity
  8
1
  6
CONTINUOUS
 62
     3
100
AcDbLine
 10
577.4365900629574
 20
106.4326974922145
 30
0.0
 11
577.4365900629574
 21
106.8326974922145
 31
0.0
  0
POINT
  5
77EF
330
18
100
AcDbEntity
  8
DEFPOINTS
  6
BYBLOCK
 62
     0
100
AcDbPoint
 10
576.1365900629575
 20
106.8326974922145
 30
0.0
  0
LINE
  5
77F0
330
18
100
AcDbEntity
  8
1
  6
CONTINUOUS
 62
     3
100
AcDbLine
 10
577.4365900629574
 20
106.8326974922145
 30
0.0
 11
576.1365900629575
 21
106.8326974922145
 31
0.0
  0
ARC
  5
77F1
330
18
100
AcDbEntity
  8
1
  6
CONTINUOUS
 62
     3
100
AcDbCircle
 10
577.2365900629574
 20
106.4326974922145
 30
0.0
 40
0.2
100
AcDbArc
 50
270.0
 51
0.0
  0
POINT
  5
77F2
330
18
100
AcDbEntity
  8
DEFPOINTS
  6
BYBLOCK
 62
     0
100
AcDbPoint
 10
580.7616460629574
 20
113.0826974922145
 30
0.0
  0
POINT
  5
77F3
330
18
100
AcDbEntity
  8
DEFPOINTS
  6
BYBLOCK
 62
     0
100
AcDbPoint
 10
580.7616460629574
 20
112.4326974922145
 30
0.0
  0
ARC
  5
77F4
330
18
100
AcDbEntity
  8
1
  6
CONTINUOUS
 62
     3
100
AcDbCircle
 10
577.2365900629574
 20
112.2326974922145
 30
0.0
 40
0.2
100
AcDbArc
 50
0.0
 51
90.0
  0
POINT
  5
77F5
330
18
100
AcDbEntity
  8
DEFPOINTS
  6
BYBLOCK
 62
     0
100
AcDbPoint
 10
576.9816460629575
 20
112.4326974922145
 30
0.0
  0
LINE
  5
77F6
330
18
100
AcDbEntity
  8
1
  6
CONTINUOUS
 62
     3
100
AcDbLine
 10
576.1360850629574
 20
110.6293524922145
 30
0.0
 11
576.1360850629574
 21
111.2933164922145
 31
0.0
  0
LINE
  5
77F7
330
18
100
AcDbEntity
  8
1
  6
CONTINUOUS
 62
     3
100
AcDbLine
 10
576.1360850629574
 20
110.6293524922145
 30
0.0
 11
576.1360850629574
 21
109.9653874922145
 31
0.0
  0
POINT
  5
77F8
330
18
100
AcDbEntity
  8
DEFPOINTS
  6
BYBLOCK
 62
     0
100
AcDbPoint
 10
576.1365900629575
 20
111.8326974922145
 30
0.0
  0
LINE
  5
77F9
330
18
100
AcDbEntity
  8
1
  6
CONTINUOUS
 62
     3
100
AcDbLine
 10
577.4365900629574
 20
111.8326974922145
 30
0.0
 11
576.1365900629575
 21
111.8326974922145
 31
0.0
  0
LINE
  5
77FA
330
18
100
AcDbEntity
  8
1
  6
CONTINUOUS
 62
     3
100
AcDbLine
 10
577.4365900629574
 20
112.2326974922145
 30
0.0
 11
577.4365900629574
 21
111.8326974922145
 31
0.0
  0
POINT
  5
77FB
330
18
100
AcDbEntity
  8
DEFPOINTS
  6
BYBLOCK
 62
     0
100
AcDbPoint
 10
586.2607910629574
 20
111.8326974922145
 30
0.0
  0
LINE
  5
77FC
330
18
100
AcDbEntity
  8
1
  6
CONTINUOUS
 62
     3
100
AcDbLine
 10
601.7252590629574
 20
112.3326974922145
 30
0.0
 11
613.3613970629574
 21
112.3326974922145
 31
0.0
  0
LINE
  5
77FD
330
18
100
AcDbEntity
  8
1
  6
CONTINUOUS
 62
     3
100
AcDbLine
 10
601.7252590629574
 20
106.3326974922145
 30
0.0
 11
613.3613970629574
 21
106.3326974922145
 31
0.0
  0
LINE
  5
77FE
330
18
100
AcDbEntity
  8
1
  6
CONTINUOUS
 62
     3
100
AcDbLine
 10
605.5050620629574
 20
112.3326974922145
 30
0.0
 11
605.5050620629574
 21
106.3326974922145
 31
0.0
  0
LINE
  5
77FF
330
18
100
AcDbEntity
  8
3
100
AcDbLine
 10
604.6392750629574
 20
111.8326974922145
 30
0.0
 11
604.6392750629574
 21
106.8326974922145
 31
0.0
  0
LINE
  5
7800
330
18
100
AcDbEntity
  8
1
  6
CONTINUOUS
 62
     3
100
AcDbLine
 10
604.1518600629574
 20
112.3326974922145
 30
0.0
 11
604.1518600629574
 21
106.3326974922145
 31
0.0
  0
LINE
  5
7801
330
18
100
AcDbEntity
  8
1
  6
CONTINUOUS
 62
     3
100
AcDbLine
 10
605.2030810629574
 20
112.3326974922145
 30
0.0
 11
605.2030810629574
 21
106.3326974922145
 31
0.0
  0
LINE
  5
7802
330
18
100
AcDbEntity
  8
3
100
AcDbLine
 10
603.3392750629574
 20
106.4326974922145
 30
0.0
 11
603.3392750629574
 21
106.8326974922145
 31
0.0
  0
LINE
  5
7803
330
18
100
AcDbEntity
  8
3
100
AcDbLine
 10
603.3392750629574
 20
106.8326974922145
 30
0.0
 11
604.6392750629574
 21
106.8326974922145
 31
0.0
  0
ARC
  5
7804
330
18
100
AcDbEntity
  8
3
100
AcDbCircle
 10
603.5392750629574
 20
106.4326974922145
 30
0.0
 40
0.2
100
AcDbArc
 50
180.0
 51
270.0
  0
POINT
  5
7805
330
18
100
AcDbEntity
  8
DEFPOINTS
  6
BYBLOCK
 62
     0
100
AcDbPoint
 10
597.1295900629574
 20
112.4326974922145
 30
0.0
  0
POINT
  5
7806
330
18
100
AcDbEntity
  8
DEFPOINTS
  6
BYBLOCK
 62
     0
100
AcDbPoint
 10
597.1295900629574
 20
112.3326974922145
 30
0.0
  0
POINT
  5
7807
330
18
100
AcDbEntity
  8
DEFPOINTS
  6
BYBLOCK
 62
     0
100
AcDbPoint
 10
592.1039180629574
 20
112.4326974922145
 30
0.0
  0
POINT
  5
7808
330
18
100
AcDbEntity
  8
DEFPOINTS
  6
BYBLOCK
 62
     0
100
AcDbPoint
 10
602.2045160629574
 20
112.3326974922145
 30
0.0
  0
POINT
  5
7809
330
18
100
AcDbEntity
  8
DEFPOINTS
  6
BYBLOCK
 62
     0
100
AcDbPoint
 10
602.2045160629574
 20
113.0826974922145
 30
0.0
  0
ARC
  5
780A
330
18
100
AcDbEntity
  8
3
100
AcDbCircle
 10
603.5392750629574
 20
112.2326974922145
 30
0.0
 40
0.2
100
AcDbArc
 50
90.0
 51
180.0
  0
LINE
  5
780B
330
18
100
AcDbEntity
  8
3
100
AcDbLine
 10
603.3392750629574
 20
111.8326974922145
 30
0.0
 11
604.6392750629574
 21
111.8326974922145
 31
0.0
  0
LINE
  5
780C
330
18
100
AcDbEntity
  8
3
100
AcDbLine
 10
603.3392750629574
 20
112.2326974922145
 30
0.0
 11
603.3392750629574
 21
111.8326974922145
 31
0.0
  0
LINE
  5
780D
330
18
100
AcDbEntity
  8
1
  6
CONTINUOUS
 62
     3
100
AcDbLine
 10
623.5766990629575
 20
112.4326974922145
 30
0.0
 11
623.5766990629575
 21
107.2326974922145
 31
0.0
  0
LINE
  5
780E
330
18
100
AcDbEntity
  8
1
  6
CONTINUOUS
 62
     3
100
AcDbLine
 10
620.2775610629574
 20
109.3326974922145
 30
0.0
 11
620.2775610629574
 21
107.2326974922145
 31
0.0
  0
LINE
  5
780F
330
18
100
AcDbEntity
  8
WYMSKALA1
100
AcDbLine
 10
616.8275610629574
 20
108.3326974922145
 30
0.0
 11
616.8275610629574
 21
110.3326974922145
 31
0.0
  0
LINE
  5
7810
330
18
100
AcDbEntity
  8
1
  6
CONTINUOUS
 62
     3
100
AcDbLine
 10
615.6772500629575
 20
110.9072714922145
 30
0.0
 11
618.4021350629574
 21
108.1823864922145
 31
0.0
  0
LINE
  5
7811
330
18
100
AcDbEntity
  8
1
  6
CONTINUOUS
 62
     3
100
AcDbLine
 10
615.2529860629573
 20
110.4830074922145
 30
0.0
 11
617.9778710629574
 21
107.7581224922145
 31
0.0
  0
ARC
  5
7812
330
18
100
AcDbEntity
  8
1
  6
CONTINUOUS
 62
     3
100
AcDbCircle
 10
616.8275610629574
 20
109.3326974922145
 30
0.0
 40
1.95
100
AcDbArc
 50
180.0
 51
0.0
  0
LINE
  5
7813
330
18
100
AcDbEntity
  8
1
  6
CONTINUOUS
 62
     3
100
AcDbLine
 10
611.6882470629574
 20
112.3326974922145
 30
0.0
 11
611.6882470629574
 21
106.3326974922145
 31
0.0
  0
LINE
  5
7814
330
18
100
AcDbEntity
  8
1
  6
CONTINUOUS
 62
     3
100
AcDbLine
 10
612.0252250629574
 20
112.3326974922145
 30
0.0
 11
612.0252250629574
 21
106.3326974922145
 31
0.0
  0
LINE
  5
7815
330
18
100
AcDbEntity
  8
1
  6
CONTINUOUS
 62
     3
100
AcDbLine
 10
613.3613970629574
 20
112.3326974922145
 30
0.0
 11
613.3613970629574
 21
106.3326974922145
 31
0.0
  0
ARC
  5
7816
330
18
100
AcDbEntity
  8
1
  6
CONTINUOUS
 62
     3
100
AcDbCircle
 10
616.8275610629574
 20
109.3326974922145
 30
0.0
 40
1.95
100
AcDbArc
 50
0.0
 51
180.0
  0
LINE
  5
7817
330
18
100
AcDbEntity
  8
1
  6
CONTINUOUS
 62
     3
100
AcDbLine
 10
615.3775610629574
 20
109.3326974922145
 30
0.0
 11
613.3881990629574
 21
109.3326974922145
 31
0.0
  0
LINE
  5
7818
330
18
100
AcDbEntity
  8
1
  6
CONTINUOUS
 62
     3
100
AcDbLine
 10
618.2775610629574
 20
109.3326974922145
 30
0.0
 11
620.2775610629574
 21
109.3326974922145
 31
0.0
  0
LINE
  5
7819
330
18
100
AcDbEntity
  8
WYMSKALA1
100
AcDbLine
 10
615.8275610629574
 20
109.3326974922145
 30
0.0
 11
617.8275610629574
 21
109.3326974922145
 31
0.0
  0
TEXT
  5
781A
330
18
100
AcDbEntity
  8
WY
  6
CONTINUOUS
 62
     3
100
AcDbText
 10
621.3965510629574
 20
110.4436914922145
 30
0.0
 40
1.4
  1
11
 50
270.0
  7
ITALIC
100
AcDbText
  0
LINE
  5
786E
330
18
100
AcDbEntity
  8
1
  6
CONTINUOUS
 62
     3
100
AcDbLine
 10
641.6345610629575
 20
109.3326974922145
 30
0.0
 11
643.6345610629575
 21
109.3326974922145
 31
0.0
  0
ARC
  5
786F
330
18
100
AcDbEntity
  8
1
  6
CONTINUOUS
 62
     3
100
AcDbCircle
 10
640.1845610629574
 20
109.3326974922145
 30
0.0
 40
1.95
100
AcDbArc
 50
0.0
 51
180.0
  0
ARC
  5
7870
330
18
100
AcDbEntity
  8
1
  6
CONTINUOUS
 62
     3
100
AcDbCircle
 10
640.1845610629574
 20
109.3326974922145
 30
0.0
 40
1.95
100
AcDbArc
 50
180.0
 51
0.0
  0
LINE
  5
7871
330
18
100
AcDbEntity
  8
1
  6
CONTINUOUS
 62
     3
100
AcDbLine
 10
639.0342500629574
 20
110.9072714922145
 30
0.0
 11
641.7591360629574
 21
108.1823864922145
 31
0.0
  0
LINE
  5
7872
330
18
100
AcDbEntity
  8
WYMSKALA1
100
AcDbLine
 10
640.1845610629574
 20
108.3326974922145
 30
0.0
 11
640.1845610629574
 21
111.2826974922145
 31
0.0
  0
LINE
  5
7873
330
18
100
AcDbEntity
  8
1
  6
CONTINUOUS
 62
     3
100
AcDbLine
 10
638.6099860629574
 20
110.4830074922145
 30
0.0
 11
641.3348720629574
 21
107.7581224922145
 31
0.0
  0
LINE
  5
7874
330
18
100
AcDbEntity
  8
WY
100
AcDbLine
 10
640.1845610629574
 20
109.3326974922145
 30
0.0
 11
640.1845610629574
 21
107.3826974922145
 31
0.0
  0
LINE
  5
7875
330
18
100
AcDbEntity
  8
1
  6
CONTINUOUS
 62
     3
100
AcDbLine
 10
636.7345610629574
 20
109.3326974922145
 30
0.0
 11
636.7345610629574
 21
107.2326974922145
 31
0.0
  0
LINE
  5
7876
330
18
100
AcDbEntity
  8
1
  6
CONTINUOUS
 62
     3
100
AcDbLine
 10
631.9560610629574
 20
109.3326974922145
 30
0.0
 11
631.9560610629574
 21
107.2326974922145
 31
0.0
  0
TEXT
  5
7877
330
18
100
AcDbEntity
  8
WY
  6
CONTINUOUS
 62
     3
100
AcDbText
 10
632.9928140629575
 20
110.3434164922145
 30
0.0
 40
1.4
  1
14
 50
270.0
  7
ITALIC
100
AcDbText
  0
LINE
  5
7878
330
18
100
AcDbEntity
  8
1
  6
CONTINUOUS
 62
     3
100
AcDbLine
 10
635.2552000629574
 20
112.4326974922145
 30
0.0
 11
635.2552000629574
 21
107.2326974922145
 31
0.0
  0
LINE
  5
7879
330
18
100
AcDbEntity
  8
1
  6
CONTINUOUS
 62
     3
100
AcDbLine
 10
627.3557500629574
 20
110.9072714922145
 30
0.0
 11
630.0806350629574
 21
108.1823864922145
 31
0.0
  0
LINE
  5
787A
330
18
100
AcDbEntity
  8
1
  6
CONTINUOUS
 62
     3
100
AcDbLine
 10
626.9314860629574
 20
110.4830074922145
 30
0.0
 11
629.6563710629574
 21
107.7581224922145
 31
0.0
  0
LINE
  5
787B
330
18
100
AcDbEntity
  8
WYMSKALA1
100
AcDbLine
 10
628.5060610629574
 20
108.3326974922145
 30
0.0
 11
628.5060610629574
 21
110.3326974922145
 31
0.0
  0
LINE
  5
787C
330
18
100
AcDbEntity
  8
1
  6
CONTINUOUS
 62
     3
100
AcDbLine
 10
625.0560610629574
 20
109.3326974922145
 30
0.0
 11
625.0560610629574
 21
107.2326974922145
 31
0.0
  0
ARC
  5
787D
330
18
100
AcDbEntity
  8
1
  6
CONTINUOUS
 62
     3
100
AcDbCircle
 10
628.5060610629574
 20
109.3326974922145
 30
0.0
 40
1.95
100
AcDbArc
 50
180.0
 51
0.0
  0
LINE
  5
787E
330
18
100
AcDbEntity
  8
1
  6
CONTINUOUS
 62
     3
100
AcDbLine
 10
631.9560610629574
 20
107.2326974922145
 30
0.0
 11
636.7345610629574
 21
107.2326974922145
 31
0.0
  0
LINE
  5
787F
330
18
100
AcDbEntity
  8
WYMSKALA1
100
AcDbLine
 10
627.5060610629574
 20
109.3326974922145
 30
0.0
 11
629.5060610629574
 21
109.3326974922145
 31
0.0
  0
LINE
  5
7880
330
18
100
AcDbEntity
  8
1
  6
CONTINUOUS
 62
     3
100
AcDbLine
 10
627.0560610629574
 20
109.3326974922145
 30
0.0
 11
625.0560610629574
 21
109.3326974922145
 31
0.0
  0
ARC
  5
7881
330
18
100
AcDbEntity
  8
1
  6
CONTINUOUS
 62
     3
100
AcDbCircle
 10
628.5060610629574
 20
109.3326974922145
 30
0.0
 40
1.95
100
AcDbArc
 50
0.0
 51
180.0
  0
LINE
  5
7882
330
18
100
AcDbEntity
  8
1
  6
CONTINUOUS
 62
     3
100
AcDbLine
 10
629.9560610629574
 20
109.3326974922145
 30
0.0
 11
631.9560610629574
 21
109.3326974922145
 31
0.0
  0
LINE
  5
7883
330
18
100
AcDbEntity
  8
WYMSKALA1
100
AcDbLine
 10
639.1845610629574
 20
109.3326974922145
 30
0.0
 11
641.1845610629574
 21
109.3326974922145
 31
0.0
  0
LINE
  5
7884
330
18
100
AcDbEntity
  8
1
  6
CONTINUOUS
 62
     3
100
AcDbLine
 10
638.7345610629574
 20
109.3326974922145
 30
0.0
 11
636.7345610629574
 21
109.3326974922145
 31
0.0
  0
LINE
  5
7885
330
18
100
AcDbEntity
  8
1
  6
CONTINUOUS
 62
     3
100
AcDbLine
 10
643.6345610629575
 20
109.3326974922145
 30
0.0
 11
643.6345610629575
 21
107.2326974922145
 31
0.0
  0
LINE
  5
7886
330
18
100
AcDbEntity
  8
1
  6
CONTINUOUS
 62
     3
100
AcDbLine
 10
646.9337000629574
 20
112.1326974922145
 30
0.0
 11
646.9337000629574
 21
106.2326974922145
 31
0.0
  0
LINE
  5
7887
330
18
100
AcDbEntity
  8
1
  6
CONTINUOUS
 62
     3
100
AcDbLine
 10
643.6345610629575
 20
107.2326974922145
 30
0.0
 11
646.9337000629574
 21
107.2326974922145
 31
0.0
  0
ARC
  5
7888
330
18
100
AcDbEntity
  8
1
  6
CONTINUOUS
 62
     3
100
AcDbCircle
 10
646.6337000629574
 20
112.1326974922145
 30
0.0
 40
0.3
100
AcDbArc
 50
0.0
 51
90.0
  0
TEXT
  5
7889
330
18
100
AcDbEntity
  8
WY
  6
CONTINUOUS
 62
     3
100
AcDbText
 10
644.6553380629574
 20
110.4922544922145
 30
0.0
 40
1.4
  1
12
 50
270.0
  7
ITALIC
100
AcDbText
  0
TEXT
  5
7908
330
18
100
AcDbEntity
  8
1
100
AcDbText
 10
557.2189
 20
277.682278
 30
0.0
 40
5.0
  1
PIR6W-1PS
 41
0.8
 51
15.0
  7
ITALIC
100
AcDbText
  0
TEXT
  5
7B30
330
18
100
AcDbEntity
  8
WY
  6
CONTINUOUS
 62
     3
100
AcDbText
 10
621.3965510629574
 20
118.2497644922145
 30
0.0
 40
1.4
  1
(+13)
 50
270.0
  7
ITALIC
100
AcDbText
  0
DIMENSION
  5
7DB8
330
18
100
AcDbEntity
  8
WY
100
AcDbDimension
  2
*D2
 10
663.5174050629574
 20
106.2326974922145
 30
0.0
 11
663.5174050629574
 21
92.5858154922145
 31
0.0
 70
   160
  3
STANDARD
100
AcDbAlignedDimension
 13
646.6337000629574
 23
112.4326974922145
 33
0.0
 14
646.9337000629574
 24
106.2326974922145
 34
0.0
 50
90.0
100
AcDbRotatedDimension
1001
ACAD
1000
DSTYLE
1002
{
1070
    41
1040
3.0
1070
   140
1040
3.0
1070
   172
1070
     1
1002
}
  0
DIMENSION
  5
8D0B
330
18
100
AcDbEntity
  8
WY
100
AcDbDimension
  2
*D4
 10
646.9337000629574
 20
97.2116344922145
 30
0.0
 11
597.6837000629574
 21
100.2116344922145
 31
0.0
 70
    32
  3
STANDARD
100
AcDbAlignedDimension
 13
548.4337000629574
 23
106.2326974922145
 33
0.0
 14
646.9337000629574
 24
106.2326974922145
 34
0.0
100
AcDbRotatedDimension
1001
ACAD
1000
DSTYLE
1002
{
1070
    41
1040
3.0
1070
   140
1040
3.0
1070
   172
1070
     1
1002
}
  0
LINE
  5
8D37
330
18
100
AcDbEntity
  8
WYMIARY
 62
     3
100
AcDbLine
 10
548.4337000629574
 20
111.4326974922145
 30
0.0
 11
548.4337000629574
 21
106.2326974922145
 31
0.0
  0
LINE
  5
8FD4
330
18
100
AcDbEntity
  8
1
  6
CONTINUOUS
 62
     3
100
AcDbLine
 10
576.3365890713816
 20
243.7718786442239
 30
0.0
 11
568.6365890713815
 21
243.7718786442239
 31
0.0
  0
ARC
  5
8FD5
330
18
100
AcDbEntity
  8
1
  6
CONTINUOUS
 62
     3
100
AcDbCircle
 10
644.2673041176027
 20
167.4199270138356
 30
0.0
 40
1.0
100
AcDbArc
 50
270.0
 51
0.0
  0
ARC
  5
8FD6
330
18
100
AcDbEntity
  8
1
  6
CONTINUOUS
 62
     3
100
AcDbCircle
 10
644.2181771140976
 20
167.535005557385
 30
0.0
 40
2.715522962546203
100
AcDbArc
 50
271.0366045744143
 51
0.0057525284299234
  0
LINE
  5
8FD7
330
18
100
AcDbEntity
  8
1
  6
CONTINUOUS
 62
     3
100
AcDbLine
 10
549.0285691521041
 20
182.0338327878409
 30
0.0
 11
552.5378673422706
 21
165.5238828592446
 31
0.0
  0
LINE
  5
8FD8
330
18
100
AcDbEntity
  8
1
  6
CONTINUOUS
 62
     3
100
AcDbLine
 10
625.5352486391465
 20
166.4199270138356
 30
0.0
 11
644.2673041176027
 21
166.4199270138356
 31
0.0
  0
LINE
  5
8FD9
330
18
100
AcDbEntity
  8
1
  6
CONTINUOUS
 62
     3
100
AcDbLine
 10
622.2202981147749
 20
164.8199270138357
 30
0.0
 11
644.2673041176027
 21
164.8199270138357
 31
0.0
  0
LINE
  5
8FDA
330
18
100
AcDbEntity
  8
1
  6
CONTINUOUS
 62
     3
100
AcDbLine
 10
578.6355524446625
 20
228.4724662765058
 30
0.0
 11
579.6395524446625
 21
228.4724662765058
 31
0.0
  0
LINE
  5
8FDB
330
18
100
AcDbEntity
  8
1
  6
CONTINUOUS
 62
     3
100
AcDbLine
 10
555.0420332392339
 20
168.9976602130072
 30
0.0
 11
584.4601567916495
 21
168.9976602130072
 31
0.0
  0
LINE
  5
8FDC
330
18
100
AcDbEntity
  8
1
  6
CONTINUOUS
 62
     3
100
AcDbLine
 10
591.2204684286625
 20
228.4718786442239
 30
0.0
 11
577.4365890713815
 21
228.4718786442238
 31
0.0
  0
LINE
  5
8FDD
330
18
100
AcDbEntity
  8
1
  6
CONTINUOUS
 62
     3
100
AcDbLine
 10
577.4365899346625
 20
228.4724662765059
 30
0.0
 11
591.4058994527894
 21
228.4724662765059
 31
0.0
  0
LINE
  5
8FDE
330
18
100
AcDbEntity
  8
1
  6
CONTINUOUS
 62
     3
100
AcDbLine
 10
577.4365899346625
 20
243.4320637665058
 30
0.0
 11
603.1481994726626
 21
243.4320637665058
 31
0.0
  0
LINE
  5
8FDF
330
18
100
AcDbEntity
  8
1
  6
CONTINUOUS
 62
     3
100
AcDbLine
 10
558.6374502415478
 20
208.5369142760335
 30
0.0
 11
558.6374502415479
 21
222.8743041407613
 31
0.0
  0
LINE
  5
8FE0
330
18
100
AcDbEntity
  8
1
  6
CONTINUOUS
 62
     3
100
AcDbLine
 10
558.6374511048288
 20
208.5375019083154
 30
0.0
 11
558.637450241548
 21
226.9743041407613
 31
0.0
  0
LINE
  5
8FE1
330
18
100
AcDbEntity
  8
1
  6
CONTINUOUS
 62
     3
100
AcDbLine
 10
548.6097169322954
 20
187.5140430401208
 30
0.0
 11
548.6097169322954
 21
202.9399274048531
 31
0.0
  0
LINE
  5
8FE2
330
18
100
AcDbEntity
  8
1
  6
CONTINUOUS
 62
     3
100
AcDbLine
 10
549.0285682888231
 20
182.0332451555589
 30
0.0
 11
551.7994923086666
 21
168.9970725807252
 31
0.0
  0
LINE
  5
8FE3
330
18
100
AcDbEntity
  8
1
  6
CONTINUOUS
 62
     3
100
AcDbLine
 10
553.7697169322956
 20
183.2411568463767
 30
0.0
 11
553.7697169322959
 21
186.9134554078388
 31
0.0
  0
LINE
  5
8FE4
330
18
100
AcDbEntity
  8
1
  6
CONTINUOUS
 62
     3
100
AcDbLine
 10
553.7697177955766
 20
183.2417444786587
 30
0.0
 11
553.7697177955766
 21
186.9140430401208
 31
0.0
  0
LINE
  5
8FE5
330
18
100
AcDbEntity
  8
1
  6
CONTINUOUS
 62
     3
100
AcDbLine
 10
553.7697169322956
 20
183.2411568463767
 30
0.0
 11
550.0067158895569
 21
183.2411568463767
 31
0.0
  0
LINE
  5
8FE6
330
18
100
AcDbEntity
  8
1
  6
CONTINUOUS
 62
     3
100
AcDbLine
 10
553.7697169322956
 20
183.2411568463767
 30
0.0
 11
550.0067158895569
 21
183.2411568463767
 31
0.0
  0
LINE
  5
8FE7
330
18
100
AcDbEntity
  8
1
  6
CONTINUOUS
 62
     3
100
AcDbLine
 10
553.7697177955766
 20
183.2417444786587
 30
0.0
 11
550.0067167528379
 21
183.2417444786587
 31
0.0
  0
ARC
  5
8FE8
330
18
100
AcDbEntity
  8
1
  6
CONTINUOUS
 62
     3
100
AcDbCircle
 10
550.0067158895569
 20
182.2411568463767
 30
0.0
 40
1.0
100
AcDbArc
 50
90.0
 51
191.9999999999998
  0
ARC
  5
8FE9
330
18
100
AcDbEntity
  8
1
  6
CONTINUOUS
 62
     3
100
AcDbCircle
 10
550.0067167528379
 20
182.2417444786587
 30
0.0
 40
1.0
100
AcDbArc
 50
90.0
 51
191.9999999999982
  0
LINE
  5
8FEA
330
18
100
AcDbEntity
  8
1
  6
CONTINUOUS
 62
     3
100
AcDbLine
 10
549.6697177955767
 20
186.9140430401208
 30
0.0
 11
553.7697177955768
 21
186.9140430401208
 31
0.0
  0
ARC
  5
8FEB
330
18
100
AcDbEntity
  8
1
  6
CONTINUOUS
 62
     3
100
AcDbCircle
 10
549.3176559849147
 20
187.6297760669762
 30
0.0
 40
0.7173366265070847
100
AcDbArc
 50
189.2845160822601
 51
266.1681805093763
  0
LINE
  5
8FEC
330
18
100
AcDbEntity
  8
1
  6
CONTINUOUS
 62
     3
100
AcDbLine
 10
549.6697177955767
 20
186.9140430401208
 30
0.0
 11
549.2697177955768
 21
186.9140430401208
 31
0.0
  0
LINE
  5
8FED
330
18
100
AcDbEntity
  8
1
  6
CONTINUOUS
 62
     3
100
AcDbLine
 10
548.6097169322956
 20
207.039927404853
 30
0.0
 11
548.6097169322954
 21
202.9399274048531
 31
0.0
  0
LINE
  5
8FEE
330
18
100
AcDbEntity
  8
1
  6
CONTINUOUS
 62
     3
100
AcDbLine
 10
549.2697177955766
 20
208.5375019083148
 30
0.0
 11
558.6374511048288
 21
208.5375019083154
 31
0.0
  0
ARC
  5
8FEF
330
18
100
AcDbEntity
  8
1
  6
CONTINUOUS
 62
     3
100
AcDbCircle
 10
549.3176559849146
 20
207.8217688814595
 30
0.0
 40
0.7173366265070852
100
AcDbArc
 50
93.83181949061446
 51
170.7154839177556
  0
LINE
  5
8FF0
330
18
100
AcDbEntity
  8
1
  6
CONTINUOUS
 62
     3
100
AcDbLine
 10
548.6097169322953
 20
207.9375019083147
 30
0.0
 11
548.6097169322956
 21
207.039927404853
 31
0.0
  0
LINE
  5
8FF1
330
18
100
AcDbEntity
  8
1
  6
CONTINUOUS
 62
     3
100
AcDbLine
 10
568.6367698738022
 20
228.4718786583898
 30
0.0
 11
568.6367698738022
 21
243.77187865839
 31
0.0
  0
LINE
  5
8FF2
330
18
100
AcDbEntity
  8
1
  6
CONTINUOUS
 62
     3
100
AcDbLine
 10
568.6365890713815
 20
228.4718786442237
 30
0.0
 11
568.6365890713815
 21
243.7718786442239
 31
0.0
  0
LINE
  5
8FF3
330
18
100
AcDbEntity
  8
1
  6
CONTINUOUS
 62
     3
100
AcDbLine
 10
568.6365890713815
 20
228.4724662765057
 30
0.0
 11
568.6365890713815
 21
243.7718786442239
 31
0.0
  0
LINE
  5
8FF4
330
18
100
AcDbEntity
  8
1
  6
CONTINUOUS
 62
     3
100
AcDbLine
 10
577.4365890713815
 20
228.4718786442239
 30
0.0
 11
577.4365890713815
 21
243.5718786442239
 31
0.0
  0
LINE
  5
8FF5
330
18
100
AcDbEntity
  8
3
100
AcDbLine
 10
576.3865869226624
 20
243.2312667785058
 30
0.0
 11
576.3865869226624
 21
228.9744662765058
 31
0.0
  0
LINE
  5
8FF6
330
18
100
AcDbEntity
  8
1
  6
CONTINUOUS
 62
     3
100
AcDbLine
 10
577.4365899346625
 20
228.4724662765059
 30
0.0
 11
577.4365899346625
 21
243.5724662765058
 31
0.0
  0
ARC
  5
8FF7
330
18
100
AcDbEntity
  8
1
  6
CONTINUOUS
 62
     3
100
AcDbCircle
 10
559.2374502415478
 20
227.8718786442232
 30
0.0
 40
0.6
100
AcDbArc
 50
90.00000000001087
 51
180.0000000000136
  0
ARC
  5
8FF8
330
18
100
AcDbEntity
  8
1
  6
CONTINUOUS
 62
     3
100
AcDbCircle
 10
559.2374511048288
 20
227.8724662765052
 30
0.0
 40
0.6
100
AcDbArc
 50
90.00000000001087
 51
180.0000000000136
  0
LINE
  5
8FF9
330
18
100
AcDbEntity
  8
1
  6
CONTINUOUS
 62
     3
100
AcDbLine
 10
558.6374502415478
 20
227.871878644223
 30
0.0
 11
558.637450241548
 21
226.9743041407613
 31
0.0
  0
LINE
  5
8FFA
330
18
100
AcDbEntity
  8
1
  6
CONTINUOUS
 62
     3
100
AcDbLine
 10
558.6374511048288
 20
227.872466276505
 30
0.0
 11
558.637451104829
 21
226.9748917730433
 31
0.0
  0
LINE
  5
8FFB
330
18
100
AcDbEntity
  8
1
  6
CONTINUOUS
 62
     3
100
AcDbLine
 10
559.2374511048288
 20
228.4718786442232
 30
0.0
 11
568.6365890713815
 21
228.4718786442237
 31
0.0
  0
LINE
  5
8FFC
330
18
100
AcDbEntity
  8
1
  6
CONTINUOUS
 62
     3
100
AcDbLine
 10
559.2374502415478
 20
228.4718786442232
 30
0.0
 11
568.6365890713815
 21
228.4718786442237
 31
0.0
  0
LINE
  5
8FFD
330
18
100
AcDbEntity
  8
1
  6
CONTINUOUS
 62
     3
100
AcDbLine
 10
559.2374511048288
 20
228.4724662765051
 30
0.0
 11
568.6365890713815
 21
228.4724662765057
 31
0.0
  0
LINE
  5
8FFE
330
18
100
AcDbEntity
  8
1
  6
CONTINUOUS
 62
     3
100
AcDbLine
 10
577.4365899346625
 20
228.9744662765059
 30
0.0
 11
578.3343494326625
 21
228.9744662765058
 31
0.0
  0
LINE
  5
8FFF
330
18
100
AcDbEntity
  8
1
  6
CONTINUOUS
 62
     3
100
AcDbLine
 10
578.3343489306625
 20
228.9744672805058
 30
0.0
 11
578.6355509386625
 21
228.4724637665059
 31
0.0
  0
LINE
  5
9000
330
18
100
AcDbEntity
  8
1
  6
CONTINUOUS
 62
     3
100
AcDbLine
 10
577.5491964606625
 20
228.9744662765058
 30
0.0
 11
577.5491964606625
 21
228.4724662765059
 31
0.0
  0
LINE
  5
9001
330
18
100
AcDbEntity
  8
1
  6
CONTINUOUS
 62
     3
100
AcDbLine
 10
577.0471964606625
 20
228.9744662765058
 30
0.0
 11
577.0471964606625
 21
228.4724662765059
 31
0.0
  0
LINE
  5
9002
330
18
100
AcDbEntity
  8
1
  6
CONTINUOUS
 62
     3
100
AcDbLine
 10
576.3865869226624
 20
228.9744662765058
 30
0.0
 11
577.4365899346625
 21
228.9744662765059
 31
0.0
  0
LINE
  5
9003
330
18
100
AcDbEntity
  8
1
  6
CONTINUOUS
 62
     3
100
AcDbLine
 10
577.4365890713815
 20
228.4718786442238
 30
0.0
 11
577.0471964606625
 21
228.4718786442238
 31
0.0
  0
LINE
  5
9004
330
18
100
AcDbEntity
  8
1
  6
CONTINUOUS
 62
     3
100
AcDbLine
 10
576.1365899346625
 20
243.7724662765059
 30
0.0
 11
568.6365890713815
 21
243.7718786442239
 31
0.0
  0
LINE
  5
9005
330
18
100
AcDbEntity
  8
1
  6
CONTINUOUS
 62
     3
100
AcDbLine
 10
572.3365895030221
 20
243.1065865742237
 30
0.0
 11
572.3365895030221
 21
242.1903847852329
 31
0.0
  0
LINE
  5
9006
330
18
100
AcDbEntity
  8
1
  6
CONTINUOUS
 62
     3
100
AcDbLine
 10
572.3365895030221
 20
243.6065865742237
 30
0.0
 11
572.3365895030221
 21
244.6065865742237
 31
0.0
  0
LINE
  5
9007
330
18
100
AcDbEntity
  8
1
  6
CONTINUOUS
 62
     3
100
AcDbLine
 10
572.3365895030221
 20
245.1065865742237
 30
0.0
 11
572.3365895030221
 21
246.0227883632145
 31
0.0
  0
LINE
  5
9008
330
18
100
AcDbEntity
  8
1
  6
CONTINUOUS
 62
     3
100
AcDbLine
 10
573.7365895030221
 20
244.320192536549
 30
0.0
 11
573.7365895030221
 21
243.7722782341635
 31
0.0
  0
LINE
  5
9009
330
18
100
AcDbEntity
  8
1
  6
CONTINUOUS
 62
     3
100
AcDbLine
 10
570.9365895030222
 20
244.3201925365487
 30
0.0
 11
570.9365895030222
 21
243.7720588514701
 31
0.0
  0
ARC
  5
900A
330
18
100
AcDbEntity
  8
1
  6
CONTINUOUS
 62
     3
100
AcDbCircle
 10
572.3365895030221
 20
244.1065865742237
 30
0.0
 40
1.416201788990775
100
AcDbArc
 50
8.675039412779048
 51
171.3249605872209
  0
LINE
  5
900B
330
18
100
AcDbEntity
  8
1
  6
CONTINUOUS
 62
     3
100
AcDbLine
 10
576.1365890713815
 20
243.7718786442239
 30
0.0
 11
577.2365890713816
 21
243.7718786442239
 31
0.0
  0
LINE
  5
900C
330
18
100
AcDbEntity
  8
1
  6
CONTINUOUS
 62
     3
100
AcDbLine
 10
576.1365899346625
 20
243.7724662765059
 30
0.0
 11
577.2365899346626
 21
243.7724662765059
 31
0.0
  0
ARC
  5
900D
330
18
100
AcDbEntity
  8
3
100
AcDbCircle
 10
576.5873839106624
 20
243.2312667785058
 30
0.0
 40
0.2008
100
AcDbArc
 50
90.0000030000026
 51
180.0000049999718
  0
LINE
  5
900E
330
18
100
AcDbEntity
  8
3
100
AcDbLine
 10
576.5873839106624
 20
243.4320637665058
 30
0.0
 11
577.4365899346625
 21
243.4320637665058
 31
0.0
  0
ARC
  5
900F
330
18
100
AcDbEntity
  8
1
  6
CONTINUOUS
 62
     3
100
AcDbCircle
 10
577.2365890713816
 20
243.5718786442239
 30
0.0
 40
0.2
100
AcDbArc
 50
0.0
 51
90.0
  0
ARC
  5
9010
330
18
100
AcDbEntity
  8
1
  6
CONTINUOUS
 62
     3
100
AcDbCircle
 10
577.2365899346626
 20
243.5724662765058
 30
0.0
 40
0.2
100
AcDbArc
 50
0.0
 51
90.0
  0
LINE
  5
9011
330
18
100
AcDbEntity
  8
1
  6
CONTINUOUS
 62
     3
100
AcDbLine
 10
623.5766988061466
 20
211.9510667927772
 30
0.0
 11
623.5766988061466
 21
223.0243041407614
 31
0.0
  0
LINE
  5
9012
330
18
100
AcDbEntity
  8
1
  6
CONTINUOUS
 62
     3
100
AcDbLine
 10
623.5766988061466
 20
211.9516544250592
 30
0.0
 11
623.5766988061465
 21
226.8248917730434
 31
0.0
  0
LINE
  5
9013
330
18
100
AcDbEntity
  8
1
  6
CONTINUOUS
 62
     3
100
AcDbLine
 10
623.5766996694276
 20
211.9516544250592
 30
0.0
 11
623.5766996694276
 21
222.8748917730434
 31
0.0
  0
LINE
  5
9014
330
18
100
AcDbEntity
  8
1
  6
CONTINUOUS
 62
     3
100
AcDbLine
 10
646.9336991996763
 20
189.8329935107271
 30
0.0
 11
646.9336991996762
 21
193.932993510727
 31
0.0
  0
LINE
  5
9015
330
18
100
AcDbEntity
  8
1
  6
CONTINUOUS
 62
     3
100
AcDbLine
 10
646.9336991996763
 20
193.932993510727
 30
0.0
 11
646.9336991996763
 21
189.832993510727
 31
0.0
  0
LINE
  5
9016
330
18
100
AcDbEntity
  8
1
  6
CONTINUOUS
 62
     3
100
AcDbLine
 10
646.9337000629573
 20
174.6461912782814
 30
0.0
 11
646.9336991996762
 21
193.933581143009
 31
0.0
  0
LINE
  5
9017
330
18
100
AcDbEntity
  8
1
  6
CONTINUOUS
 62
     3
100
AcDbLine
 10
603.6771677971954
 20
168.9970725807252
 30
0.0
 11
624.7646737378774
 21
168.9970725807252
 31
0.0
  0
LINE
  5
9018
330
18
100
AcDbEntity
  8
1
  6
CONTINUOUS
 62
     3
100
AcDbLine
 10
603.6771677971954
 20
168.9976602130072
 30
0.0
 11
624.7646737378774
 21
168.9976602130072
 31
0.0
  0
LINE
  5
9019
330
18
100
AcDbEntity
  8
1
  6
CONTINUOUS
 62
     3
100
AcDbLine
 10
603.6771686604764
 20
168.9976602130072
 30
0.0
 11
622.7352486391466
 21
168.9976602130071
 31
0.0
  0
LINE
  5
901A
330
18
100
AcDbEntity
  8
1
  6
CONTINUOUS
 62
     3
100
AcDbLine
 10
591.2204684286625
 20
168.9970725807252
 30
0.0
 11
599.5771677971953
 21
168.9970725807252
 31
0.0
  0
LINE
  5
901B
330
18
100
AcDbEntity
  8
1
  6
CONTINUOUS
 62
     3
100
AcDbLine
 10
591.2204684286625
 20
168.9976602130072
 30
0.0
 11
599.5771677971953
 21
168.9976602130072
 31
0.0
  0
LINE
  5
901C
330
18
100
AcDbEntity
  8
1
  6
CONTINUOUS
 62
     3
100
AcDbLine
 10
589.6352486391465
 20
168.9976602130072
 30
0.0
 11
599.5771686604763
 21
168.9976602130072
 31
0.0
  0
LINE
  5
901D
330
18
100
AcDbEntity
  8
1
  6
CONTINUOUS
 62
     3
100
AcDbLine
 10
589.6352486391465
 20
168.9976602130072
 30
0.0
 11
603.6771677971954
 21
168.9976602130072
 31
0.0
  0
LINE
  5
901E
330
18
100
AcDbEntity
  8
1
  6
CONTINUOUS
 62
     3
100
AcDbLine
 10
646.9336991996763
 20
174.6456036459994
 30
0.0
 11
646.9336991996763
 21
189.8329935107271
 31
0.0
  0
LINE
  5
901F
330
18
100
AcDbEntity
  8
1
  6
CONTINUOUS
 62
     3
100
AcDbLine
 10
628.8646737378774
 20
168.9970725807251
 30
0.0
 11
646.9336991996762
 21
168.9970725807246
 31
0.0
  0
LINE
  5
9020
330
18
100
AcDbEntity
  8
1
  6
CONTINUOUS
 62
     3
100
AcDbLine
 10
624.7646737378774
 20
168.9970725807252
 30
0.0
 11
646.9336991996762
 21
168.9976602130066
 31
0.0
  0
LINE
  5
9021
330
18
100
AcDbEntity
  8
1
  6
CONTINUOUS
 62
     3
100
AcDbLine
 10
628.8646746011584
 20
168.9976602130071
 30
0.0
 11
645.2673041176027
 21
168.9976602130071
 31
0.0
  0
LINE
  5
9022
330
18
100
AcDbEntity
  8
1
  6
CONTINUOUS
 62
     3
100
AcDbLine
 10
641.7336991996764
 20
170.3970725807251
 30
0.0
 11
641.7336991996764
 21
174.0456036459994
 31
0.0
  0
LINE
  5
9023
330
18
100
AcDbEntity
  8
1
  6
CONTINUOUS
 62
     3
100
AcDbLine
 10
641.7336991996764
 20
170.3976602130071
 30
0.0
 11
641.7336991996764
 21
174.0461912782814
 31
0.0
  0
ARC
  5
9024
330
18
100
AcDbEntity
  8
1
  6
CONTINUOUS
 62
     3
100
AcDbCircle
 10
645.9336991996763
 20
169.3970725807251
 30
0.0
 40
1.0
100
AcDbArc
 50
0.0
 51
90.0
  0
ARC
  5
9025
330
18
100
AcDbEntity
  8
1
  6
CONTINUOUS
 62
     3
100
AcDbCircle
 10
645.9336991996763
 20
169.3976602130071
 30
0.0
 40
1.0
100
AcDbArc
 50
0.0
 51
90.0
  0
ARC
  5
9026
330
18
100
AcDbEntity
  8
1
  6
CONTINUOUS
 62
     3
100
AcDbCircle
 10
645.9337000629573
 20
169.3976602130071
 30
0.0
 40
1.0
100
AcDbArc
 50
0.0
 51
90.0
  0
LINE
  5
9027
330
18
100
AcDbEntity
  8
1
  6
CONTINUOUS
 62
     3
100
AcDbLine
 10
646.9336991996762
 20
168.9970725807251
 30
0.0
 11
646.9336991996763
 21
169.3970725807251
 31
0.0
  0
LINE
  5
9028
330
18
100
AcDbEntity
  8
1
  6
CONTINUOUS
 62
     3
100
AcDbLine
 10
646.9336991996762
 20
168.9976602130071
 30
0.0
 11
646.9336991996763
 21
169.3976602130071
 31
0.0
  0
LINE
  5
9029
330
18
100
AcDbEntity
  8
1
  6
CONTINUOUS
 62
     3
100
AcDbLine
 10
646.9337000629573
 20
168.7976602130071
 30
0.0
 11
646.9337000629573
 21
169.3976602130071
 31
0.0
  0
LINE
  5
902A
330
18
100
AcDbEntity
  8
1
  6
CONTINUOUS
 62
     3
100
AcDbLine
 10
645.2673041176027
 20
168.7976602130071
 30
0.0
 11
646.8673041176027
 21
168.7976602130071
 31
0.0
  0
LINE
  5
902B
330
18
100
AcDbEntity
  8
1
  6
CONTINUOUS
 62
     3
100
AcDbLine
 10
645.2673041176027
 20
168.9976602130071
 30
0.0
 11
645.2673041176027
 21
167.4199270138356
 31
0.0
  0
LINE
  5
902C
330
18
100
AcDbEntity
  8
1
  6
CONTINUOUS
 62
     3
100
AcDbLine
 10
646.9337000629573
 20
168.7976602130071
 30
0.0
 11
646.9337000629573
 21
167.4199270138356
 31
0.0
  0
LINE
  5
902D
330
18
100
AcDbEntity
  8
1
  6
CONTINUOUS
 62
     3
100
AcDbLine
 10
641.7336991996764
 20
170.3970725807251
 30
0.0
 11
645.9336991996763
 21
170.3970725807251
 31
0.0
  0
LINE
  5
902E
330
18
100
AcDbEntity
  8
1
  6
CONTINUOUS
 62
     3
100
AcDbLine
 10
641.7336991996764
 20
170.3976602130071
 30
0.0
 11
645.9336991996763
 21
170.3976602130071
 31
0.0
  0
LINE
  5
902F
330
18
100
AcDbEntity
  8
1
  6
CONTINUOUS
 62
     3
100
AcDbLine
 10
641.7337000629574
 20
170.3976602130071
 30
0.0
 11
645.9337000629573
 21
170.3976602130071
 31
0.0
  0
LINE
  5
9030
330
18
100
AcDbEntity
  8
1
  6
CONTINUOUS
 62
     3
100
AcDbLine
 10
645.6836991996764
 20
174.0456036459995
 30
0.0
 11
641.8836991996765
 21
174.0456036459992
 31
0.0
  0
LINE
  5
9031
330
18
100
AcDbEntity
  8
1
  6
CONTINUOUS
 62
     3
100
AcDbLine
 10
645.8336991996763
 20
174.0456036459994
 30
0.0
 11
641.7336991996764
 21
174.0456036459994
 31
0.0
  0
LINE
  5
9032
330
18
100
AcDbEntity
  8
1
  6
CONTINUOUS
 62
     3
100
AcDbLine
 10
641.7336991996764
 20
174.0456036459994
 30
0.0
 11
645.8336991996764
 21
174.0456036459994
 31
0.0
  0
LINE
  5
9033
330
18
100
AcDbEntity
  8
1
  6
CONTINUOUS
 62
     3
100
AcDbLine
 10
645.6836991996764
 20
174.0456036459994
 30
0.0
 11
641.8836991996764
 21
174.045603645999
 31
0.0
  0
LINE
  5
9034
330
18
100
AcDbEntity
  8
1
  6
CONTINUOUS
 62
     3
100
AcDbLine
 10
645.6836991996764
 20
174.0461912782815
 30
0.0
 11
641.8836991996765
 21
174.0461912782812
 31
0.0
  0
LINE
  5
9035
330
18
100
AcDbEntity
  8
1
  6
CONTINUOUS
 62
     3
100
AcDbLine
 10
645.8336991996763
 20
174.0461912782814
 30
0.0
 11
641.7336991996764
 21
174.0461912782814
 31
0.0
  0
LINE
  5
9036
330
18
100
AcDbEntity
  8
1
  6
CONTINUOUS
 62
     3
100
AcDbLine
 10
641.7336991996764
 20
174.0461912782814
 30
0.0
 11
645.8336991996764
 21
174.0461912782814
 31
0.0
  0
LINE
  5
9037
330
18
100
AcDbEntity
  8
1
  6
CONTINUOUS
 62
     3
100
AcDbLine
 10
645.6836991996764
 20
174.0461912782814
 30
0.0
 11
641.8836991996764
 21
174.046191278281
 31
0.0
  0
LINE
  5
9038
330
18
100
AcDbEntity
  8
1
  6
CONTINUOUS
 62
     3
100
AcDbLine
 10
645.8336991996763
 20
174.0456036459994
 30
0.0
 11
646.3336991996763
 21
174.0456036459994
 31
0.0
  0
LINE
  5
9039
330
18
100
AcDbEntity
  8
1
  6
CONTINUOUS
 62
     3
100
AcDbLine
 10
645.8336991996763
 20
174.0461912782814
 30
0.0
 11
646.3336991996763
 21
174.0461912782814
 31
0.0
  0
LINE
  5
903A
330
18
100
AcDbEntity
  8
1
  6
CONTINUOUS
 62
     3
100
AcDbLine
 10
645.8337000629573
 20
174.0461912782814
 30
0.0
 11
646.3337000629573
 21
174.0461912782814
 31
0.0
  0
ARC
  5
903B
330
18
100
AcDbEntity
  8
1
  6
CONTINUOUS
 62
     3
100
AcDbCircle
 10
646.3336991996763
 20
174.6456036459994
 30
0.0
 40
0.6
100
AcDbArc
 50
270.0
 51
0.0
  0
ARC
  5
903C
330
18
100
AcDbEntity
  8
1
  6
CONTINUOUS
 62
     3
100
AcDbCircle
 10
646.3336991996763
 20
174.6461912782814
 30
0.0
 40
0.6
100
AcDbArc
 50
270.0
 51
0.0
  0
ARC
  5
903D
330
18
100
AcDbEntity
  8
1
  6
CONTINUOUS
 62
     3
100
AcDbCircle
 10
646.3337000629573
 20
174.6461912782814
 30
0.0
 40
0.6
100
AcDbArc
 50
270.0
 51
0.0
  0
LINE
  5
903E
330
18
100
AcDbEntity
  8
1
  6
CONTINUOUS
 62
     3
100
AcDbLine
 10
635.2551990029115
 20
195.4311556464716
 30
0.0
 11
635.2551998661924
 21
210.4540799215966
 31
0.0
  0
LINE
  5
903F
330
18
100
AcDbEntity
  8
1
  6
CONTINUOUS
 62
     3
100
AcDbLine
 10
635.2551990029115
 20
195.4305680141896
 30
0.0
 11
635.2551990029115
 21
206.3534922893147
 31
0.0
  0
LINE
  5
9040
330
18
100
AcDbEntity
  8
1
  6
CONTINUOUS
 62
     3
100
AcDbLine
 10
635.2551998661925
 20
195.4311556464716
 30
0.0
 11
635.2551998661925
 21
206.3540799215967
 31
0.0
  0
LINE
  5
9041
330
18
100
AcDbEntity
  8
1
  6
CONTINUOUS
 62
     3
100
AcDbLine
 10
646.3336991996764
 20
195.4305680141888
 30
0.0
 11
635.2551990029115
 21
195.4305680141896
 31
0.0
  0
LINE
  5
9042
330
18
100
AcDbEntity
  8
1
  6
CONTINUOUS
 62
     3
100
AcDbLine
 10
646.3336991996764
 20
195.4311556464708
 30
0.0
 11
635.2551990029115
 21
195.4311556464716
 31
0.0
  0
LINE
  5
9043
330
18
100
AcDbEntity
  8
1
  6
CONTINUOUS
 62
     3
100
AcDbLine
 10
646.3337000629574
 20
195.4311556464708
 30
0.0
 11
635.2551998661925
 21
195.4311556464716
 31
0.0
  0
LINE
  5
9044
330
18
100
AcDbEntity
  8
1
  6
CONTINUOUS
 62
     3
100
AcDbLine
 10
646.9336991996763
 20
194.8305680141887
 30
0.0
 11
646.9336991996762
 21
193.932993510727
 31
0.0
  0
LINE
  5
9045
330
18
100
AcDbEntity
  8
1
  6
CONTINUOUS
 62
     3
100
AcDbLine
 10
646.9336991996763
 20
194.8311556464707
 30
0.0
 11
646.9336991996762
 21
193.933581143009
 31
0.0
  0
LINE
  5
9046
330
18
100
AcDbEntity
  8
1
  6
CONTINUOUS
 62
     3
100
AcDbLine
 10
646.9337000629573
 20
194.8311556464707
 30
0.0
 11
646.9337000629572
 21
193.933581143009
 31
0.0
  0
ARC
  5
9047
330
18
100
AcDbEntity
  8
1
  6
CONTINUOUS
 62
     3
100
AcDbCircle
 10
646.3336991996763
 20
194.8305680141888
 30
0.0
 40
0.6
100
AcDbArc
 50
359.9999999999864
 51
90.0
  0
ARC
  5
9048
330
18
100
AcDbEntity
  8
1
  6
CONTINUOUS
 62
     3
100
AcDbCircle
 10
646.3336991996763
 20
194.8311556464708
 30
0.0
 40
0.6
100
AcDbArc
 50
359.9999999999864
 51
90.0
  0
ARC
  5
9049
330
18
100
AcDbEntity
  8
1
  6
CONTINUOUS
 62
     3
100
AcDbCircle
 10
646.3337000629573
 20
194.8311556464708
 30
0.0
 40
0.6
100
AcDbArc
 50
359.9999999999864
 51
89.99999999998914
  0
LINE
  5
904A
330
18
100
AcDbEntity
  8
1
  6
CONTINUOUS
 62
     3
100
AcDbLine
 10
634.6551990029117
 20
211.9510667927765
 30
0.0
 11
623.5766988061466
 21
211.9510667927772
 31
0.0
  0
LINE
  5
904B
330
18
100
AcDbEntity
  8
1
  6
CONTINUOUS
 62
     3
100
AcDbLine
 10
634.6551990029117
 20
211.9516544250585
 30
0.0
 11
623.5766988061466
 21
211.9516544250592
 31
0.0
  0
LINE
  5
904C
330
18
100
AcDbEntity
  8
1
  6
CONTINUOUS
 62
     3
100
AcDbLine
 10
634.6551998661927
 20
211.9516544250585
 30
0.0
 11
623.5766996694276
 21
211.9516544250592
 31
0.0
  0
LINE
  5
904D
330
18
100
AcDbEntity
  8
1
  6
CONTINUOUS
 62
     3
100
AcDbLine
 10
635.2551990029115
 20
206.5034922893147
 30
0.0
 11
635.2551990029118
 21
210.3034922893146
 31
0.0
  0
LINE
  5
904E
330
18
100
AcDbEntity
  8
1
  6
CONTINUOUS
 62
     3
100
AcDbLine
 10
635.2551990029115
 20
206.3534922893147
 30
0.0
 11
635.2551990029114
 21
210.4534922893147
 31
0.0
  0
LINE
  5
904F
330
18
100
AcDbEntity
  8
1
  6
CONTINUOUS
 62
     3
100
AcDbLine
 10
635.2551990029117
 20
210.4534922893146
 30
0.0
 11
635.2551990029117
 21
206.3534922893147
 31
0.0
  0
LINE
  5
9050
330
18
100
AcDbEntity
  8
1
  6
CONTINUOUS
 62
     3
100
AcDbLine
 10
635.2551990029117
 20
206.5034922893147
 30
0.0
 11
635.255199002912
 21
210.3034922893146
 31
0.0
  0
ARC
  5
9051
330
18
100
AcDbEntity
  8
1
  6
CONTINUOUS
 62
     3
100
AcDbCircle
 10
634.6551990029116
 20
211.3510667927765
 30
0.0
 40
0.6
100
AcDbArc
 50
359.9999999999864
 51
89.99999999998914
  0
ARC
  5
9052
330
18
100
AcDbEntity
  8
1
  6
CONTINUOUS
 62
     3
100
AcDbCircle
 10
634.6551990029116
 20
211.3516544250585
 30
0.0
 40
0.6
100
AcDbArc
 50
359.9999999999864
 51
89.99999999998914
  0
ARC
  5
9053
330
18
100
AcDbEntity
  8
1
  6
CONTINUOUS
 62
     3
100
AcDbCircle
 10
634.6551998661926
 20
211.3516544250585
 30
0.0
 40
0.6
100
AcDbArc
 50
359.9999999999864
 51
89.99999999998914
  0
LINE
  5
9054
330
18
100
AcDbEntity
  8
1
  6
CONTINUOUS
 62
     3
100
AcDbLine
 10
635.2551990029116
 20
211.3510667927764
 30
0.0
 11
635.2551990029114
 21
210.4534922893147
 31
0.0
  0
LINE
  5
9055
330
18
100
AcDbEntity
  8
1
  6
CONTINUOUS
 62
     3
100
AcDbLine
 10
635.2551990029116
 20
211.3516544250583
 30
0.0
 11
635.2551990029114
 21
210.4540799215966
 31
0.0
  0
LINE
  5
9056
330
18
100
AcDbEntity
  8
1
  6
CONTINUOUS
 62
     3
100
AcDbLine
 10
635.2551998661926
 20
211.3516544250583
 30
0.0
 11
635.2551998661924
 21
210.4540799215966
 31
0.0
  0
LINE
  5
9057
330
18
100
AcDbEntity
  8
1
  6
CONTINUOUS
 62
     3
100
AcDbLine
 10
613.3881986093816
 20
242.053345412355
 30
0.0
 11
613.3881986093816
 21
228.4718786442239
 31
0.0
  0
LINE
  5
9058
330
18
100
AcDbEntity
  8
1
  6
CONTINUOUS
 62
     3
100
AcDbLine
 10
613.3881986093816
 20
242.0539330446369
 30
0.0
 11
613.3881986093816
 21
228.4724662765059
 31
0.0
  0
LINE
  5
9059
330
18
100
AcDbEntity
  8
1
  6
CONTINUOUS
 62
     3
100
AcDbLine
 10
613.3881994726626
 20
242.0539330446369
 30
0.0
 11
613.3881994726626
 21
228.4724662765059
 31
0.0
  0
LINE
  5
905A
330
18
100
AcDbEntity
  8
1
  6
CONTINUOUS
 62
     3
100
AcDbLine
 10
603.1481986093816
 20
243.571878644224
 30
0.0
 11
603.1481986093816
 21
228.4718786442239
 31
0.0
  0
LINE
  5
905B
330
18
100
AcDbEntity
  8
1
  6
CONTINUOUS
 62
     3
100
AcDbLine
 10
603.1481986093816
 20
243.572466276506
 30
0.0
 11
603.1481986093816
 21
228.4724662765059
 31
0.0
  0
LINE
  5
905C
330
18
100
AcDbEntity
  8
3
100
AcDbLine
 10
604.3981964606625
 20
243.2312667785058
 30
0.0
 11
604.3981964606625
 21
228.9744662765058
 31
0.0
  0
LINE
  5
905D
330
18
100
AcDbEntity
  8
1
  6
CONTINUOUS
 62
     3
100
AcDbLine
 10
603.1481994726626
 20
243.572466276506
 30
0.0
 11
603.1481994726626
 21
228.4724662765059
 31
0.0
  0
LINE
  5
905E
330
18
100
AcDbEntity
  8
1
  6
CONTINUOUS
 62
     3
100
AcDbLine
 10
622.9766988061468
 20
228.4718786442232
 30
0.0
 11
613.3881986093816
 21
228.4718786442239
 31
0.0
  0
LINE
  5
905F
330
18
100
AcDbEntity
  8
1
  6
CONTINUOUS
 62
     3
100
AcDbLine
 10
622.9766988061468
 20
228.4724662765052
 30
0.0
 11
613.3881986093816
 21
228.4724662765059
 31
0.0
  0
LINE
  5
9060
330
18
100
AcDbEntity
  8
1
  6
CONTINUOUS
 62
     3
100
AcDbLine
 10
622.9766996694278
 20
228.4724662765052
 30
0.0
 11
613.3881994726626
 21
228.4724662765059
 31
0.0
  0
LINE
  5
9061
330
18
100
AcDbEntity
  8
1
  6
CONTINUOUS
 62
     3
100
AcDbLine
 10
604.8481986093816
 20
226.371878644224
 30
0.0
 11
606.8481986093816
 21
226.371878644224
 31
0.0
  0
LINE
  5
9062
330
18
100
AcDbEntity
  8
1
  6
CONTINUOUS
 62
     3
100
AcDbLine
 10
604.8481986093816
 20
226.3724662765059
 30
0.0
 11
606.8481986093816
 21
226.3724662765059
 31
0.0
  0
LINE
  5
9063
330
18
100
AcDbEntity
  8
1
  6
CONTINUOUS
 62
     3
100
AcDbLine
 10
604.8481994726625
 20
226.3724662765059
 30
0.0
 11
606.8481994726625
 21
226.3724662765059
 31
0.0
  0
LINE
  5
9064
330
18
100
AcDbEntity
  8
1
  6
CONTINUOUS
 62
     3
100
AcDbLine
 10
604.8481994726626
 20
226.3724662765059
 30
0.0
 11
606.8481994726626
 21
226.3724662765059
 31
0.0
  0
LINE
  5
9065
330
18
100
AcDbEntity
  8
1
  6
CONTINUOUS
 62
     3
100
AcDbLine
 10
604.8481994726626
 20
226.3724662765059
 30
0.0
 11
606.8481994726626
 21
226.3724662765059
 31
0.0
  0
POINT
  5
9066
330
18
100
AcDbEntity
  8
1
  6
CONTINUOUS
 62
     3
100
AcDbPoint
 10
604.8481994726626
 20
226.3724662765059
 30
0.0
  0
LINE
  5
9067
330
18
100
AcDbEntity
  8
1
  6
CONTINUOUS
 62
     3
100
AcDbLine
 10
605.0481986093815
 20
226.371878644224
 30
0.0
 11
607.0481986093815
 21
226.371878644224
 31
0.0
  0
LINE
  5
9068
330
18
100
AcDbEntity
  8
1
  6
CONTINUOUS
 62
     3
100
AcDbLine
 10
605.0481986093815
 20
226.371878644224
 30
0.0
 11
607.0481986093815
 21
226.371878644224
 31
0.0
  0
LINE
  5
9069
330
18
100
AcDbEntity
  8
1
  6
CONTINUOUS
 62
     3
100
AcDbLine
 10
605.0481986093815
 20
226.3724662765059
 30
0.0
 11
607.0481986093815
 21
226.3724662765059
 31
0.0
  0
LINE
  5
906A
330
18
100
AcDbEntity
  8
1
  6
CONTINUOUS
 62
     3
100
AcDbLine
 10
605.0481986093815
 20
226.3724662765059
 30
0.0
 11
607.0481986093815
 21
226.3724662765059
 31
0.0
  0
LINE
  5
906B
330
18
100
AcDbEntity
  8
1
  6
CONTINUOUS
 62
     3
100
AcDbLine
 10
605.0481994726625
 20
226.3724662765059
 30
0.0
 11
607.0481994726625
 21
226.3724662765059
 31
0.0
  0
LINE
  5
906C
330
18
100
AcDbEntity
  8
1
  6
CONTINUOUS
 62
     3
100
AcDbLine
 10
605.0481994726625
 20
226.3724662765059
 30
0.0
 11
607.0481994726625
 21
226.3724662765059
 31
0.0
  0
CIRCLE
  5
906D
330
18
100
AcDbEntity
  8
1
  6
CONTINUOUS
 62
     3
100
AcDbCircle
 10
606.0481986093815
 20
226.371878644224
 30
0.0
 40
1.03
  0
CIRCLE
  5
906E
330
18
100
AcDbEntity
  8
1
  6
CONTINUOUS
 62
     3
100
AcDbCircle
 10
606.0481986093815
 20
226.3724662765059
 30
0.0
 40
1.03
  0
CIRCLE
  5
906F
330
18
100
AcDbEntity
  8
1
  6
CONTINUOUS
 62
     3
100
AcDbCircle
 10
606.0481994726625
 20
226.3724662765059
 30
0.0
 40
1.0
  0
CIRCLE
  5
9070
330
18
100
AcDbEntity
  8
1
  6
CONTINUOUS
 62
     3
100
AcDbCircle
 10
606.0481994726625
 20
226.3724662765059
 30
0.0
 40
1.0
  0
CIRCLE
  5
9071
330
18
100
AcDbEntity
  8
1
  6
CONTINUOUS
 62
     3
100
AcDbCircle
 10
606.0481994726625
 20
226.3724662765059
 30
0.0
 40
1.03
  0
LINE
  5
9072
330
18
100
AcDbEntity
  8
1
  6
CONTINUOUS
 62
     3
100
AcDbLine
 10
606.0481986093815
 20
225.371878644224
 30
0.0
 11
606.0481986093815
 21
227.371878644224
 31
0.0
  0
LINE
  5
9073
330
18
100
AcDbEntity
  8
1
  6
CONTINUOUS
 62
     3
100
AcDbLine
 10
606.0481986093815
 20
225.371878644224
 30
0.0
 11
606.0481986093815
 21
227.371878644224
 31
0.0
  0
LINE
  5
9074
330
18
100
AcDbEntity
  8
1
  6
CONTINUOUS
 62
     3
100
AcDbLine
 10
606.0481986093815
 20
225.3724662765059
 30
0.0
 11
606.0481986093815
 21
227.3724662765059
 31
0.0
  0
LINE
  5
9075
330
18
100
AcDbEntity
  8
1
  6
CONTINUOUS
 62
     3
100
AcDbLine
 10
606.0481986093815
 20
225.3724662765059
 30
0.0
 11
606.0481986093815
 21
227.3724662765059
 31
0.0
  0
LINE
  5
9076
330
18
100
AcDbEntity
  8
1
  6
CONTINUOUS
 62
     3
100
AcDbLine
 10
606.0481994726625
 20
225.3724662765059
 30
0.0
 11
606.0481994726625
 21
227.3724662765059
 31
0.0
  0
LINE
  5
9077
330
18
100
AcDbEntity
  8
1
  6
CONTINUOUS
 62
     3
100
AcDbLine
 10
606.0481994726625
 20
225.3724662765059
 30
0.0
 11
606.0481994726625
 21
227.3724662765059
 31
0.0
  0
LINE
  5
9078
330
18
100
AcDbEntity
  8
1
  6
CONTINUOUS
 62
     3
100
AcDbLine
 10
603.1481986093816
 20
228.4718786442239
 30
0.0
 11
591.2204684286625
 21
228.4718786442239
 31
0.0
  0
LINE
  5
9079
330
18
100
AcDbEntity
  8
1
  6
CONTINUOUS
 62
     3
100
AcDbLine
 10
603.1481986093816
 20
228.4724662765059
 30
0.0
 11
591.2204684286625
 21
228.4724662765059
 31
0.0
  0
LINE
  5
907A
330
18
100
AcDbEntity
  8
1
  6
CONTINUOUS
 62
     3
100
AcDbLine
 10
591.4058994527894
 20
228.4724662765059
 30
0.0
 11
603.1481994726626
 21
228.4724662765059
 31
0.0
  0
LINE
  5
907B
330
18
100
AcDbEntity
  8
1
  6
CONTINUOUS
 62
     3
100
AcDbLine
 10
579.9407554566625
 20
228.9744662765058
 30
0.0
 11
599.2074873446625
 21
228.9744662765058
 31
0.0
  0
LINE
  5
907C
330
18
100
AcDbEntity
  8
1
  6
CONTINUOUS
 62
     3
100
AcDbLine
 10
580.8271964606625
 20
228.9744662765058
 30
0.0
 11
580.8271964606625
 21
228.4724662765059
 31
0.0
  0
LINE
  5
907D
330
18
100
AcDbEntity
  8
1
  6
CONTINUOUS
 62
     3
100
AcDbLine
 10
581.3291964606625
 20
228.9744662765058
 30
0.0
 11
581.3291964606625
 21
228.4724662765059
 31
0.0
  0
LINE
  5
907E
330
18
100
AcDbEntity
  8
1
  6
CONTINUOUS
 62
     3
100
AcDbLine
 10
579.6395494326625
 20
228.4724627625059
 30
0.0
 11
579.9407479266624
 21
228.9744597505059
 31
0.0
  0
LINE
  5
907F
330
18
100
AcDbEntity
  8
1
  6
CONTINUOUS
 62
     3
100
AcDbLine
 10
593.7572789552935
 20
228.722466276506
 30
0.0
 11
591.3746886107648
 21
228.722466276506
 31
0.0
  0
LINE
  5
9080
330
18
100
AcDbEntity
  8
1
  6
CONTINUOUS
 62
     3
100
AcDbLine
 10
591.9184684286624
 20
228.9744662765058
 30
0.0
 11
591.9184684286624
 21
228.722466276506
 31
0.0
  0
LINE
  5
9081
330
18
100
AcDbEntity
  8
1
  6
CONTINUOUS
 62
     3
100
AcDbLine
 10
591.3746886107648
 20
228.722466276506
 30
0.0
 11
591.4058994527894
 21
228.4724662765058
 31
0.0
  0
LINE
  5
9082
330
18
100
AcDbEntity
  8
1
  6
CONTINUOUS
 62
     3
100
AcDbLine
 10
592.9224684286625
 20
228.9744662765058
 30
0.0
 11
592.9224684286625
 21
228.722466276506
 31
0.0
  0
LINE
  5
9083
330
18
100
AcDbEntity
  8
1
  6
CONTINUOUS
 62
     3
100
AcDbLine
 10
593.7572789552935
 20
228.722466276506
 30
0.0
 11
593.7572789552934
 21
228.4724662765059
 31
0.0
  0
LINE
  5
9084
330
18
100
AcDbEntity
  8
1
  6
CONTINUOUS
 62
     3
100
AcDbLine
 10
600.8139084286624
 20
228.9744723005059
 30
0.0
 11
600.5126933686624
 21
228.4724677825059
 31
0.0
  0
LINE
  5
9085
330
18
100
AcDbEntity
  8
1
  6
CONTINUOUS
 62
     3
100
AcDbLine
 10
599.5087024046625
 20
228.4724331445058
 30
0.0
 11
599.2074963806625
 21
228.9744431845058
 31
0.0
  0
LINE
  5
9086
330
18
100
AcDbEntity
  8
1
  6
CONTINUOUS
 62
     3
100
AcDbLine
 10
597.9601808986624
 20
228.9744662765058
 30
0.0
 11
597.9601808986624
 21
228.4724662765059
 31
0.0
  0
LINE
  5
9087
330
18
100
AcDbEntity
  8
1
  6
CONTINUOUS
 62
     3
100
AcDbLine
 10
599.5087059186625
 20
228.4724622605059
 30
0.0
 11
600.5127059186625
 21
228.4724622605059
 31
0.0
  0
LINE
  5
9088
330
18
100
AcDbEntity
  8
1
  6
CONTINUOUS
 62
     3
100
AcDbLine
 10
596.9561808986624
 20
228.9744662765058
 30
0.0
 11
596.9561808986624
 21
228.4724662765059
 31
0.0
  0
LINE
  5
9089
330
18
100
AcDbEntity
  8
1
  6
CONTINUOUS
 62
     3
100
AcDbLine
 10
600.8139089306625
 20
228.9744662765058
 30
0.0
 11
603.1481994726626
 21
228.9744662765058
 31
0.0
  0
LINE
  5
908A
330
18
100
AcDbEntity
  8
1
  6
CONTINUOUS
 62
     3
100
AcDbLine
 10
603.1481986093816
 20
228.4718786442239
 30
0.0
 11
603.1481986093816
 21
228.4718786442239
 31
0.0
  0
LINE
  5
908B
330
18
100
AcDbEntity
  8
1
  6
CONTINUOUS
 62
     3
100
AcDbLine
 10
603.1481986093816
 20
228.4724662765059
 30
0.0
 11
603.1481986093816
 21
228.4724662765059
 31
0.0
  0
LINE
  5
908C
330
18
100
AcDbEntity
  8
1
  6
CONTINUOUS
 62
     3
100
AcDbLine
 10
603.0001964606626
 20
228.9744662765058
 30
0.0
 11
603.0001964606626
 21
228.4724662765059
 31
0.0
  0
LINE
  5
908D
330
18
100
AcDbEntity
  8
1
  6
CONTINUOUS
 62
     3
100
AcDbLine
 10
601.9961964606624
 20
228.9744662765058
 30
0.0
 11
601.9961964606624
 21
228.4724662765059
 31
0.0
  0
LINE
  5
908E
330
18
100
AcDbEntity
  8
1
  6
CONTINUOUS
 62
     3
100
AcDbLine
 10
603.1481994726626
 20
228.9744662765058
 30
0.0
 11
604.3981964606625
 21
228.9744662765058
 31
0.0
  0
LINE
  5
908F
330
18
100
AcDbEntity
  8
1
  6
CONTINUOUS
 62
     3
100
AcDbLine
 10
602.9423839106624
 20
228.9744662765058
 30
0.0
 11
604.0467899346625
 21
228.9744662765058
 31
0.0
  0
ARC
  5
9090
330
18
100
AcDbEntity
  8
1
  6
CONTINUOUS
 62
     3
100
AcDbCircle
 10
622.9766988061467
 20
227.8718786442232
 30
0.0
 40
0.6
100
AcDbArc
 50
359.9999999999864
 51
89.99999999998914
  0
ARC
  5
9091
330
18
100
AcDbEntity
  8
1
  6
CONTINUOUS
 62
     3
100
AcDbCircle
 10
622.9766988061467
 20
227.8724662765052
 30
0.0
 40
0.6
100
AcDbArc
 50
359.9999999999864
 51
89.99999999998914
  0
ARC
  5
9092
330
18
100
AcDbEntity
  8
1
  6
CONTINUOUS
 62
     3
100
AcDbCircle
 10
622.9766996694277
 20
227.8724662765052
 30
0.0
 40
0.6
100
AcDbArc
 50
359.9999999999864
 51
89.99999999998914
  0
LINE
  5
9093
330
18
100
AcDbEntity
  8
1
  6
CONTINUOUS
 62
     3
100
AcDbLine
 10
623.5766988061467
 20
227.8718786442231
 30
0.0
 11
623.5766988061465
 21
226.8243041407614
 31
0.0
  0
LINE
  5
9094
330
18
100
AcDbEntity
  8
1
  6
CONTINUOUS
 62
     3
100
AcDbLine
 10
623.5766988061467
 20
227.8724662765051
 30
0.0
 11
623.5766988061465
 21
226.8248917730434
 31
0.0
  0
LINE
  5
9095
330
18
100
AcDbEntity
  8
1
  6
CONTINUOUS
 62
     3
100
AcDbLine
 10
623.5766996694277
 20
227.8724662765051
 30
0.0
 11
623.5766996694275
 21
226.9748917730434
 31
0.0
  0
LINE
  5
9096
330
18
100
AcDbEntity
  8
1
  6
CONTINUOUS
 62
     3
100
AcDbLine
 10
611.6882465554837
 20
245.5270038853994
 30
0.0
 11
612.0252237316957
 21
246.2027353783713
 31
0.0
  0
LINE
  5
9097
330
18
100
AcDbEntity
  8
1
  6
CONTINUOUS
 62
     3
100
AcDbLine
 10
612.0252237316957
 20
246.2027353783713
 30
0.0
 11
613.3613962537556
 21
246.002828192295
 31
0.0
  0
LINE
  5
9098
330
18
100
AcDbEntity
  8
1
100
AcDbLine
 10
605.2352347750757
 20
246.2996150028844
 30
0.0
 11
605.2211079117577
 21
245.3503367628338
 31
0.0
  0
LINE
  5
9099
330
18
100
AcDbEntity
  8
1
  6
CONTINUOUS
 62
     3
100
AcDbLine
 10
602.040429850278
 20
246.2315618500872
 30
0.0
 11
602.040429850278
 21
245.929204090718
 31
0.0
  0
LINE
  5
909A
330
18
100
AcDbEntity
  8
1
  6
CONTINUOUS
 62
     3
100
AcDbLine
 10
602.040429850278
 20
246.2315618500871
 30
0.0
 11
602.040429850278
 21
245.929204090718
 31
0.0
  0
LINE
  5
909B
330
18
100
AcDbEntity
  8
1
  6
CONTINUOUS
 62
     3
100
AcDbLine
 10
602.040429850278
 20
246.2315618500871
 30
0.0
 11
602.040429850278
 21
245.929204090718
 31
0.0
  0
LINE
  5
909C
330
18
100
AcDbEntity
  8
1
  6
CONTINUOUS
 62
     3
100
AcDbLine
 10
604.6481986093816
 20
243.7718786442239
 30
0.0
 11
605.6481986093814
 21
243.7718786442239
 31
0.0
  0
LINE
  5
909D
330
18
100
AcDbEntity
  8
1
  6
CONTINUOUS
 62
     3
100
AcDbLine
 10
604.6481986093816
 20
243.7724662765059
 30
0.0
 11
605.6481986093814
 21
243.7724662765059
 31
0.0
  0
LINE
  5
909E
330
18
100
AcDbEntity
  8
1
100
AcDbLine
 10
605.8481994726626
 20
243.9810687387053
 30
0.0
 11
604.6481994726626
 21
243.9810687387053
 31
0.0
  0
LINE
  5
909F
330
18
100
AcDbEntity
  8
1
100
AcDbLine
 10
605.8481994726626
 20
243.9810687387053
 30
0.0
 11
604.6481994726626
 21
243.9810687387053
 31
0.0
  0
LINE
  5
90A0
330
18
100
AcDbEntity
  8
1
100
AcDbLine
 10
605.8481994726626
 20
243.9810687387053
 30
0.0
 11
604.6481994726626
 21
243.9810687387053
 31
0.0
  0
LINE
  5
90A1
330
18
100
AcDbEntity
  8
1
  6
CONTINUOUS
 62
     3
100
AcDbLine
 10
604.6481994726626
 20
243.7724662765059
 30
0.0
 11
605.6481994726624
 21
243.7724662765059
 31
0.0
  0
LINE
  5
90A2
330
18
100
AcDbEntity
  8
1
100
AcDbLine
 10
604.6481994726626
 20
243.7724662765059
 30
0.0
 11
604.6481994726626
 21
243.9810687387053
 31
0.0
  0
POINT
  5
90A3
330
18
100
AcDbEntity
  8
1
  6
CONTINUOUS
 62
     3
100
AcDbPoint
 10
604.6481986093817
 20
243.7718786442239
 30
0.0
  0
POINT
  5
90A4
330
18
100
AcDbEntity
  8
1
  6
CONTINUOUS
 62
     3
100
AcDbPoint
 10
604.6481986093817
 20
243.7724662765059
 30
0.0
  0
ARC
  5
90A5
330
18
100
AcDbEntity
  8
3
100
AcDbCircle
 10
604.1973839106624
 20
243.2312667785058
 30
0.0
 40
0.2008
100
AcDbArc
 50
0.0
 51
90.0000030000026
  0
ARC
  5
90A6
330
18
100
AcDbEntity
  8
1
  6
CONTINUOUS
 62
     3
100
AcDbCircle
 10
603.3481986093815
 20
243.571878644224
 30
0.0
 40
0.2
100
AcDbArc
 50
90.0
 51
180.0
  0
ARC
  5
90A7
330
18
100
AcDbEntity
  8
1
  6
CONTINUOUS
 62
     3
100
AcDbCircle
 10
603.3481986093815
 20
243.572466276506
 30
0.0
 40
0.2
100
AcDbArc
 50
90.0
 51
180.0
  0
ARC
  5
90A8
330
18
100
AcDbEntity
  8
1
  6
CONTINUOUS
 62
     3
100
AcDbCircle
 10
603.3481994726625
 20
243.572466276506
 30
0.0
 40
0.2
100
AcDbArc
 50
90.0
 51
180.0
  0
LINE
  5
90A9
330
18
100
AcDbEntity
  8
1
  6
CONTINUOUS
 62
     3
100
AcDbLine
 10
602.040429850278
 20
245.929204090718
 30
0.0
 11
601.725258185273
 21
245.8359327280312
 31
0.0
  0
LINE
  5
90AA
330
18
100
AcDbEntity
  8
1
  6
CONTINUOUS
 62
     3
100
AcDbLine
 10
601.725258185273
 20
245.8359327280312
 30
0.0
 11
602.040429850278
 21
245.929204090718
 31
0.0
  0
LINE
  5
90AB
330
18
100
AcDbEntity
  8
1
  6
CONTINUOUS
 62
     3
100
AcDbLine
 10
602.040429850278
 20
245.929204090718
 30
0.0
 11
601.725258185273
 21
245.8359327280312
 31
0.0
  0
LINE
  5
90AC
330
18
100
AcDbEntity
  8
1
  6
CONTINUOUS
 62
     3
100
AcDbLine
 10
601.725258185273
 20
245.8359327280312
 30
0.0
 11
602.040429850278
 21
245.929204090718
 31
0.0
  0
LINE
  5
90AD
330
18
100
AcDbEntity
  8
1
  6
CONTINUOUS
 62
     3
100
AcDbLine
 10
601.725258185273
 20
245.8359327280311
 30
0.0
 11
602.040429850278
 21
245.929204090718
 31
0.0
  0
LINE
  5
90AE
330
18
100
AcDbEntity
  8
1
  6
CONTINUOUS
 62
     3
100
AcDbLine
 10
602.040429850278
 20
245.929204090718
 30
0.0
 11
601.725258185273
 21
245.8359327280311
 31
0.0
  0
LINE
  5
90AF
330
18
100
AcDbEntity
  8
1
  6
CONTINUOUS
 62
     3
100
AcDbLine
 10
601.725258185273
 20
245.8359327280311
 30
0.0
 11
602.040429850278
 21
245.929204090718
 31
0.0
  0
LINE
  5
90B0
330
18
100
AcDbEntity
  8
1
  6
CONTINUOUS
 62
     3
100
AcDbLine
 10
602.040429850278
 20
245.929204090718
 30
0.0
 11
601.725258185273
 21
245.8359327280311
 31
0.0
  0
LINE
  5
90B1
330
18
100
AcDbEntity
  8
1
  6
CONTINUOUS
 62
     3
100
AcDbLine
 10
601.725258185273
 20
245.8359327280311
 30
0.0
 11
602.040429850278
 21
245.929204090718
 31
0.0
  0
LINE
  5
90B2
330
18
100
AcDbEntity
  8
1
  6
CONTINUOUS
 62
     3
100
AcDbLine
 10
602.040429850278
 20
245.929204090718
 30
0.0
 11
601.725258185273
 21
245.8359327280311
 31
0.0
  0
LINE
  5
90B3
330
18
100
AcDbEntity
  8
1
  6
CONTINUOUS
 62
     3
100
AcDbLine
 10
601.725258185273
 20
245.8359327280311
 30
0.0
 11
602.040429850278
 21
245.929204090718
 31
0.0
  0
LINE
  5
90B4
330
18
100
AcDbEntity
  8
1
  6
CONTINUOUS
 62
     3
100
AcDbLine
 10
602.040429850278
 20
245.929204090718
 30
0.0
 11
601.725258185273
 21
245.8359327280311
 31
0.0
  0
LINE
  5
90B5
330
18
100
AcDbEntity
  8
1
  6
CONTINUOUS
 62
     3
100
AcDbLine
 10
601.725258185273
 20
245.533574968662
 30
0.0
 11
602.040429850278
 21
245.4403036059752
 31
0.0
  0
LINE
  5
90B6
330
18
100
AcDbEntity
  8
1
  6
CONTINUOUS
 62
     3
100
AcDbLine
 10
602.040429850278
 20
245.4403036059752
 30
0.0
 11
601.725258185273
 21
245.533574968662
 31
0.0
  0
LINE
  5
90B7
330
18
100
AcDbEntity
  8
1
  6
CONTINUOUS
 62
     3
100
AcDbLine
 10
601.725258185273
 20
245.533574968662
 30
0.0
 11
602.040429850278
 21
245.4403036059752
 31
0.0
  0
LINE
  5
90B8
330
18
100
AcDbEntity
  8
1
  6
CONTINUOUS
 62
     3
100
AcDbLine
 10
602.040429850278
 20
245.4403036059752
 30
0.0
 11
601.725258185273
 21
245.533574968662
 31
0.0
  0
LINE
  5
90B9
330
18
100
AcDbEntity
  8
1
  6
CONTINUOUS
 62
     3
100
AcDbLine
 10
602.0404298502781
 20
245.4403036059752
 30
0.0
 11
601.725258185273
 21
245.533574968662
 31
0.0
  0
LINE
  5
90BA
330
18
100
AcDbEntity
  8
1
  6
CONTINUOUS
 62
     3
100
AcDbLine
 10
601.725258185273
 20
245.533574968662
 30
0.0
 11
602.0404298502781
 21
245.4403036059752
 31
0.0
  0
LINE
  5
90BB
330
18
100
AcDbEntity
  8
1
  6
CONTINUOUS
 62
     3
100
AcDbLine
 10
602.0404298502781
 20
245.4403036059752
 30
0.0
 11
601.725258185273
 21
245.533574968662
 31
0.0
  0
LINE
  5
90BC
330
18
100
AcDbEntity
  8
1
  6
CONTINUOUS
 62
     3
100
AcDbLine
 10
601.725258185273
 20
245.533574968662
 30
0.0
 11
602.0404298502781
 21
245.4403036059752
 31
0.0
  0
LINE
  5
90BD
330
18
100
AcDbEntity
  8
1
  6
CONTINUOUS
 62
     3
100
AcDbLine
 10
602.0404298502781
 20
245.4403036059752
 30
0.0
 11
601.725258185273
 21
245.533574968662
 31
0.0
  0
LINE
  5
90BE
330
18
100
AcDbEntity
  8
1
  6
CONTINUOUS
 62
     3
100
AcDbLine
 10
601.725258185273
 20
245.533574968662
 30
0.0
 11
602.0404298502781
 21
245.4403036059752
 31
0.0
  0
LINE
  5
90BF
330
18
100
AcDbEntity
  8
1
  6
CONTINUOUS
 62
     3
100
AcDbLine
 10
602.0404298502781
 20
245.4403036059752
 30
0.0
 11
601.725258185273
 21
245.533574968662
 31
0.0
  0
LINE
  5
90C0
330
18
100
AcDbEntity
  8
1
  6
CONTINUOUS
 62
     3
100
AcDbLine
 10
601.725258185273
 20
245.533574968662
 30
0.0
 11
602.0404298502781
 21
245.4403036059752
 31
0.0
  0
LINE
  5
90C1
330
18
100
AcDbEntity
  8
1
  6
CONTINUOUS
 62
     3
100
AcDbLine
 10
601.725258185273
 20
245.8359327280312
 30
0.0
 11
601.725258185273
 21
245.533574968662
 31
0.0
  0
LINE
  5
90C2
330
18
100
AcDbEntity
  8
1
  6
CONTINUOUS
 62
     3
100
AcDbLine
 10
601.725258185273
 20
245.8359327280312
 30
0.0
 11
601.725258185273
 21
245.533574968662
 31
0.0
  0
LINE
  5
90C3
330
18
100
AcDbEntity
  8
1
  6
CONTINUOUS
 62
     3
100
AcDbLine
 10
601.725258185273
 20
245.8359327280312
 30
0.0
 11
601.725258185273
 21
245.533574968662
 31
0.0
  0
LINE
  5
90C4
330
18
100
AcDbEntity
  8
1
  6
CONTINUOUS
 62
     3
100
AcDbLine
 10
602.040429850278
 20
243.9810687387053
 30
0.0
 11
602.040429850278
 21
245.4403036059752
 31
0.0
  0
LINE
  5
90C5
330
18
100
AcDbEntity
  8
1
  6
CONTINUOUS
 62
     3
100
AcDbLine
 10
602.040429850278
 20
243.9810687387053
 30
0.0
 11
602.040429850278
 21
245.4403036059752
 31
0.0
  0
LINE
  5
90C6
330
18
100
AcDbEntity
  8
1
  6
CONTINUOUS
 62
     3
100
AcDbLine
 10
602.040429850278
 20
243.9810687387053
 30
0.0
 11
602.040429850278
 21
245.4403036059752
 31
0.0
  0
LINE
  5
90C7
330
18
100
AcDbEntity
  8
1
  6
CONTINUOUS
 62
     3
100
AcDbLine
 10
603.3481986093815
 20
243.771878644224
 30
0.0
 11
604.6481986093816
 21
243.7718786442239
 31
0.0
  0
LINE
  5
90C8
330
18
100
AcDbEntity
  8
1
  6
CONTINUOUS
 62
     3
100
AcDbLine
 10
603.3481986093815
 20
243.772466276506
 30
0.0
 11
604.6481986093816
 21
243.7724662765059
 31
0.0
  0
LINE
  5
90C9
330
18
100
AcDbEntity
  8
1
  6
CONTINUOUS
 62
     3
100
AcDbLine
 10
603.1481994726626
 20
243.4320637665058
 30
0.0
 11
604.1973839106624
 21
243.4320637665058
 31
0.0
  0
LINE
  5
90CA
330
18
100
AcDbEntity
  8
1
  6
CONTINUOUS
 62
     3
100
AcDbLine
 10
603.3481994726625
 20
243.772466276506
 30
0.0
 11
604.6481994726626
 21
243.7724662765059
 31
0.0
  0
LINE
  5
90CB
330
18
100
AcDbEntity
  8
1
  6
CONTINUOUS
 62
     3
100
AcDbLine
 10
604.6481994726626
 20
243.9810687387053
 30
0.0
 11
602.040429850278
 21
243.9810687387053
 31
0.0
  0
LINE
  5
90CC
330
18
100
AcDbEntity
  8
1
  6
CONTINUOUS
 62
     3
100
AcDbLine
 10
604.6481994726626
 20
243.9810687387053
 30
0.0
 11
602.040429850278
 21
243.9810687387053
 31
0.0
  0
LINE
  5
90CD
330
18
100
AcDbEntity
  8
1
  6
CONTINUOUS
 62
     3
100
AcDbLine
 10
604.6481994726626
 20
243.9810687387053
 30
0.0
 11
602.040429850278
 21
243.9810687387053
 31
0.0
  0
LINE
  5
90CE
330
18
100
AcDbEntity
  8
1
  6
CONTINUOUS
 62
     3
100
AcDbLine
 10
604.6481994726626
 20
243.9810687387053
 30
0.0
 11
602.040429850278
 21
243.9810687387053
 31
0.0
  0
LINE
  5
90CF
330
18
100
AcDbEntity
  8
1
  6
CONTINUOUS
 62
     3
100
AcDbLine
 10
604.6481994726626
 20
243.9810687387053
 30
0.0
 11
602.040429850278
 21
243.9810687387053
 31
0.0
  0
LINE
  5
90D0
330
18
100
AcDbEntity
  8
1
  6
CONTINUOUS
 62
     3
100
AcDbLine
 10
604.6481994726626
 20
243.9810687387053
 30
0.0
 11
602.040429850278
 21
243.9810687387053
 31
0.0
  0
LINE
  5
90D1
330
18
100
AcDbEntity
  8
1
  6
CONTINUOUS
 62
     3
100
AcDbLine
 10
613.3613962537556
 20
242.8768992767033
 30
0.0
 11
613.3613962537556
 21
243.9314112193284
 31
0.0
  0
ARC
  5
90D2
330
18
100
AcDbEntity
  8
1
  6
CONTINUOUS
 62
     3
100
AcDbCircle
 10
605.841110150004
 20
226.3515911834201
 30
0.0
 40
17.42135557525718
100
AcDbArc
 50
65.07366128736666
 51
90.63446515077527
  0
ARC
  5
90D3
330
18
100
AcDbEntity
  8
1
  6
CONTINUOUS
 62
     3
100
AcDbCircle
 10
605.841110150004
 20
226.352178815702
 30
0.0
 40
17.42135557525718
100
AcDbArc
 50
65.07366128736666
 51
90.63446515077527
  0
ARC
  5
90D4
330
18
100
AcDbEntity
  8
1
  6
CONTINUOUS
 62
     3
100
AcDbCircle
 10
605.5209566239719
 20
227.1578348521268
 30
0.0
 40
17.15651535589976
100
AcDbArc
 50
67.31851545899005
 51
80.64655439081645
  0
ARC
  5
90D5
330
18
100
AcDbEntity
  8
1
  6
CONTINUOUS
 62
     3
100
AcDbCircle
 10
605.8411110132851
 20
226.352178815702
 30
0.0
 40
17.42135557525718
100
AcDbArc
 50
64.32861401250479
 51
90.63446515077527
  0
ARC
  5
90D6
330
18
100
AcDbEntity
  8
1
  6
CONTINUOUS
 62
     3
100
AcDbCircle
 10
612.6094396312672
 20
243.0751334582988
 30
0.0
 40
0.4808022909300121
100
AcDbArc
 50
190.4712151110514
 51
335.6506795444254
  0
LINE
  5
90D7
330
18
100
AcDbEntity
  8
1
  6
CONTINUOUS
 62
     3
100
AcDbLine
 10
613.0474739361003
 20
242.8768992767033
 30
0.0
 11
613.3613962537556
 21
242.8768992767033
 31
0.0
  0
ARC
  5
90D8
330
18
100
AcDbEntity
  8
1
  6
CONTINUOUS
 62
     3
100
AcDbCircle
 10
605.841110150004
 20
226.3515911834201
 30
0.0
 40
17.42135557525718
100
AcDbArc
 50
64.32861401250479
 51
65.07366128736666
  0
ARC
  5
90D9
330
18
100
AcDbEntity
  8
1
  6
CONTINUOUS
 62
     3
100
AcDbCircle
 10
605.841110150004
 20
226.352178815702
 30
0.0
 40
17.42135557525718
100
AcDbArc
 50
64.32861401250479
 51
65.07366128736666
  0
LINE
  5
90DA
330
18
100
AcDbEntity
  8
1
  6
CONTINUOUS
 62
     3
100
AcDbLine
 10
613.2049723033084
 20
242.4668818546465
 30
0.0
 11
613.1096254881265
 21
242.4872994058305
 31
0.0
  0
LINE
  5
90DB
330
18
100
AcDbEntity
  8
1
  6
CONTINUOUS
 62
     3
100
AcDbLine
 10
613.1096254881265
 20
242.4872994058305
 30
0.0
 11
612.9315679122207
 21
242.2654172784272
 31
0.0
  0
LINE
  5
90DC
330
18
100
AcDbEntity
  8
1
  6
CONTINUOUS
 62
     3
100
AcDbLine
 10
613.1834013657691
 20
242.1507682506527
 30
0.0
 11
613.2049723033084
 21
242.4668818546465
 31
0.0
  0
ARC
  5
90DD
330
18
100
AcDbEntity
  8
1
  6
CONTINUOUS
 62
     3
100
AcDbCircle
 10
605.8908797974411
 20
228.1940069335793
 30
0.0
 40
17.15651535589976
100
AcDbArc
 50
70.3487678927082
 51
90.1119472906078
  0
LINE
  5
90DE
330
18
100
AcDbEntity
  8
1
  6
CONTINUOUS
 62
     3
100
AcDbLine
 10
608.1107919272063
 20
243.8350994129036
 30
0.0
 11
608.1442936708983
 21
243.6206176485907
 31
0.0
  0
ARC
  5
90DF
330
18
100
AcDbEntity
  8
1
  6
CONTINUOUS
 62
     3
100
AcDbCircle
 10
608.3154181015661
 20
243.8773860442386
 30
0.0
 40
0.2089498275252573
100
AcDbArc
 50
91.67591903951559
 51
191.6759918358121
  0
LINE
  5
90E0
330
18
100
AcDbEntity
  8
1
100
AcDbLine
 10
605.8483187545048
 20
245.3503367628338
 30
0.0
 11
605.2211079117577
 21
245.3503367628338
 31
0.0
  0
ARC
  5
90E1
330
18
100
AcDbEntity
  8
1
  6
CONTINUOUS
 62
     3
100
AcDbCircle
 10
606.0004675502305
 20
228.7326923135757
 30
0.0
 40
15.24913666965756
100
AcDbArc
 50
82.04532064944009
 51
90.57212833581973
  0
LINE
  5
90E2
330
18
100
AcDbEntity
  8
1
  6
CONTINUOUS
 62
     3
100
AcDbLine
 10
613.3613962537556
 20
243.2453524660352
 30
0.0
 11
613.3613962537556
 21
244.2534162398073
 31
0.0
  0
LINE
  5
90E3
330
18
100
AcDbEntity
  8
1
  6
CONTINUOUS
 62
     3
100
AcDbLine
 10
613.3613962537556
 20
243.2453524660352
 30
0.0
 11
613.3613962537556
 21
244.2534162398073
 31
0.0
  0
LINE
  5
90E4
330
18
100
AcDbEntity
  8
1
  6
CONTINUOUS
 62
     3
100
AcDbLine
 10
613.3613962537556
 20
243.2453524660352
 30
0.0
 11
613.3613962537555
 21
243.9314112193284
 31
0.0
  0
LINE
  5
90E5
330
18
100
AcDbEntity
  8
1
  6
CONTINUOUS
 62
     3
100
AcDbLine
 10
613.3613962537556
 20
243.2453524660352
 30
0.0
 11
613.3613962537556
 21
243.9314112193284
 31
0.0
  0
LINE
  5
90E6
330
18
100
AcDbEntity
  8
1
  6
CONTINUOUS
 62
     3
100
AcDbLine
 10
613.3613962537556
 20
245.2115699481831
 30
0.0
 11
613.3613962537556
 21
245.5292571342557
 31
0.0
  0
LINE
  5
90E7
330
18
100
AcDbEntity
  8
1
  6
CONTINUOUS
 62
     3
100
AcDbLine
 10
613.3613962537556
 20
245.5139277075522
 30
0.0
 11
613.3613962537556
 21
245.2115699481831
 31
0.0
  0
LINE
  5
90E8
330
18
100
AcDbEntity
  8
1
  6
CONTINUOUS
 62
     3
100
AcDbLine
 10
613.3613962537555
 20
244.7226694634402
 30
0.0
 11
613.3613962537555
 21
244.4203117040711
 31
0.0
  0
LINE
  5
90E9
330
18
100
AcDbEntity
  8
1
  6
CONTINUOUS
 62
     3
100
AcDbLine
 10
613.3613962537556
 20
243.9314112193284
 30
0.0
 11
613.3613962537556
 21
246.002828192295
 31
0.0
  0
LINE
  5
90EA
330
18
100
AcDbEntity
  8
1
  6
CONTINUOUS
 62
     3
100
AcDbLine
 10
611.6882465554837
 20
245.5270038853994
 30
0.0
 11
611.8534483514275
 21
245.3254127651462
 31
0.0
  0
LINE
  5
90EB
330
18
100
AcDbEntity
  8
1
  6
CONTINUOUS
 62
     3
100
AcDbLine
 10
611.8534483514275
 20
245.3254127651462
 30
0.0
 11
611.6605094393758
 21
244.3512775246208
 31
0.0
  0
LINE
  5
90EC
330
18
100
AcDbEntity
  8
1
100
AcDbLine
 10
605.20308014466
 20
247.2248274618628
 30
0.0
 11
604.0948097483551
 21
247.3910890936373
 31
0.0
  0
LINE
  5
90ED
330
18
100
AcDbEntity
  8
1
  6
CONTINUOUS
 62
     3
100
AcDbLine
 10
602.040429850278
 20
247.5117205789418
 30
0.0
 11
602.040429850278
 21
247.5117205789418
 31
0.0
  0
LINE
  5
90EE
330
18
100
AcDbEntity
  8
1
  6
CONTINUOUS
 62
     3
100
AcDbLine
 10
602.040429850278
 20
247.5117205789419
 30
0.0
 11
602.040429850278
 21
247.5117205789419
 31
0.0
  0
LINE
  5
90EF
330
18
100
AcDbEntity
  8
1
  6
CONTINUOUS
 62
     3
100
AcDbLine
 10
602.040429850278
 20
247.6898060839127
 30
0.0
 11
602.040429850278
 21
247.5117205789418
 31
0.0
  0
LINE
  5
90F0
330
18
100
AcDbEntity
  8
1
  6
CONTINUOUS
 62
     3
100
AcDbLine
 10
602.040429850278
 20
247.5117205789419
 30
0.0
 11
602.040429850278
 21
247.5117205789419
 31
0.0
  0
LINE
  5
90F1
330
18
100
AcDbEntity
  8
1
  6
CONTINUOUS
 62
     3
100
AcDbLine
 10
602.040429850278
 20
247.5117205789418
 30
0.0
 11
602.040429850278
 21
247.5117205789418
 31
0.0
  0
LINE
  5
90F2
330
18
100
AcDbEntity
  8
1
  6
CONTINUOUS
 62
     3
100
AcDbLine
 10
602.040429850278
 20
247.5117205789419
 30
0.0
 11
602.040429850278
 21
247.5117205789419
 31
0.0
  0
LINE
  5
90F3
330
18
100
AcDbEntity
  8
1
  6
CONTINUOUS
 62
     3
100
AcDbLine
 10
602.040429850278
 20
247.5117205789418
 30
0.0
 11
602.040429850278
 21
247.5117205789418
 31
0.0
  0
LINE
  5
90F4
330
18
100
AcDbEntity
  8
1
  6
CONTINUOUS
 62
     3
100
AcDbLine
 10
601.7252581852729
 20
247.4184492162551
 30
0.0
 11
601.7252581852729
 21
247.116091456886
 31
0.0
  0
LINE
  5
90F5
330
18
100
AcDbEntity
  8
1
  6
CONTINUOUS
 62
     3
100
AcDbLine
 10
601.7252581852729
 20
247.4184492162551
 30
0.0
 11
601.7252581852729
 21
247.1160914568858
 31
0.0
  0
LINE
  5
90F6
330
18
100
AcDbEntity
  8
1
  6
CONTINUOUS
 62
     3
100
AcDbLine
 10
601.7252581852729
 20
247.4184492162551
 30
0.0
 11
601.7252581852729
 21
247.1160914568858
 31
0.0
  0
LINE
  5
90F7
330
18
100
AcDbEntity
  8
1
  6
CONTINUOUS
 62
     3
100
AcDbLine
 10
601.7252581852729
 20
247.116091456886
 30
0.0
 11
602.040429850278
 21
247.0228200941991
 31
0.0
  0
LINE
  5
90F8
330
18
100
AcDbEntity
  8
1
  6
CONTINUOUS
 62
     3
100
AcDbLine
 10
602.040429850278
 20
247.5117205789419
 30
0.0
 11
601.7252581852729
 21
247.4184492162551
 31
0.0
  0
LINE
  5
90F9
330
18
100
AcDbEntity
  8
1
  6
CONTINUOUS
 62
     3
100
AcDbLine
 10
602.040429850278
 20
247.0228200941991
 30
0.0
 11
601.7252581852729
 21
247.116091456886
 31
0.0
  0
LINE
  5
90FA
330
18
100
AcDbEntity
  8
1
  6
CONTINUOUS
 62
     3
100
AcDbLine
 10
601.7252581852729
 20
247.4184492162551
 30
0.0
 11
602.040429850278
 21
247.5117205789419
 31
0.0
  0
LINE
  5
90FB
330
18
100
AcDbEntity
  8
1
  6
CONTINUOUS
 62
     3
100
AcDbLine
 10
602.040429850278
 20
247.0228200941991
 30
0.0
 11
601.7252581852729
 21
247.116091456886
 31
0.0
  0
LINE
  5
90FC
330
18
100
AcDbEntity
  8
1
  6
CONTINUOUS
 62
     3
100
AcDbLine
 10
601.7252581852729
 20
247.116091456886
 30
0.0
 11
602.040429850278
 21
247.0228200941991
 31
0.0
  0
LINE
  5
90FD
330
18
100
AcDbEntity
  8
1
  6
CONTINUOUS
 62
     3
100
AcDbLine
 10
601.7252581852729
 20
247.4184492162551
 30
0.0
 11
602.040429850278
 21
247.5117205789419
 31
0.0
  0
LINE
  5
90FE
330
18
100
AcDbEntity
  8
1
  6
CONTINUOUS
 62
     3
100
AcDbLine
 10
602.040429850278
 20
247.5117205789419
 30
0.0
 11
601.7252581852729
 21
247.4184492162551
 31
0.0
  0
LINE
  5
90FF
330
18
100
AcDbEntity
  8
1
  6
CONTINUOUS
 62
     3
100
AcDbLine
 10
602.040429850278
 20
247.0228200941991
 30
0.0
 11
601.7252581852729
 21
247.116091456886
 31
0.0
  0
LINE
  5
9100
330
18
100
AcDbEntity
  8
1
  6
CONTINUOUS
 62
     3
100
AcDbLine
 10
601.7252581852729
 20
247.116091456886
 30
0.0
 11
602.040429850278
 21
247.0228200941991
 31
0.0
  0
LINE
  5
9101
330
18
100
AcDbEntity
  8
1
  6
CONTINUOUS
 62
     3
100
AcDbLine
 10
601.7252581852729
 20
247.4184492162551
 30
0.0
 11
602.040429850278
 21
247.5117205789419
 31
0.0
  0
LINE
  5
9102
330
18
100
AcDbEntity
  8
1
  6
CONTINUOUS
 62
     3
100
AcDbLine
 10
602.040429850278
 20
247.5117205789419
 30
0.0
 11
601.7252581852729
 21
247.4184492162551
 31
0.0
  0
LINE
  5
9103
330
18
100
AcDbEntity
  8
1
  6
CONTINUOUS
 62
     3
100
AcDbLine
 10
602.040429850278
 20
247.0228200941991
 30
0.0
 11
602.040429850278
 21
246.72046233483
 31
0.0
  0
LINE
  5
9104
330
18
100
AcDbEntity
  8
1
  6
CONTINUOUS
 62
     3
100
AcDbLine
 10
602.040429850278
 20
247.0228200941991
 30
0.0
 11
602.040429850278
 21
246.72046233483
 31
0.0
  0
LINE
  5
9105
330
18
100
AcDbEntity
  8
1
  6
CONTINUOUS
 62
     3
100
AcDbLine
 10
602.040429850278
 20
247.0228200941991
 30
0.0
 11
602.040429850278
 21
246.72046233483
 31
0.0
  0
LINE
  5
9106
330
18
100
AcDbEntity
  8
1
  6
CONTINUOUS
 62
     3
100
AcDbLine
 10
601.7252581852729
 20
246.6271909721431
 30
0.0
 11
601.725258185273
 21
246.324833212774
 31
0.0
  0
LINE
  5
9107
330
18
100
AcDbEntity
  8
1
  6
CONTINUOUS
 62
     3
100
AcDbLine
 10
601.7252581852729
 20
246.6271909721431
 30
0.0
 11
601.725258185273
 21
246.324833212774
 31
0.0
  0
LINE
  5
9108
330
18
100
AcDbEntity
  8
1
  6
CONTINUOUS
 62
     3
100
AcDbLine
 10
601.7252581852729
 20
246.6271909721431
 30
0.0
 11
601.725258185273
 21
246.324833212774
 31
0.0
  0
LINE
  5
9109
330
18
100
AcDbEntity
  8
1
  6
CONTINUOUS
 62
     3
100
AcDbLine
 10
602.040429850278
 20
246.2315618500872
 30
0.0
 11
601.725258185273
 21
246.324833212774
 31
0.0
  0
LINE
  5
910A
330
18
100
AcDbEntity
  8
1
  6
CONTINUOUS
 62
     3
100
AcDbLine
 10
601.725258185273
 20
246.324833212774
 30
0.0
 11
602.040429850278
 21
246.2315618500872
 31
0.0
  0
LINE
  5
910B
330
18
100
AcDbEntity
  8
1
  6
CONTINUOUS
 62
     3
100
AcDbLine
 10
602.040429850278
 20
246.2315618500872
 30
0.0
 11
601.725258185273
 21
246.324833212774
 31
0.0
  0
LINE
  5
910C
330
18
100
AcDbEntity
  8
1
  6
CONTINUOUS
 62
     3
100
AcDbLine
 10
601.725258185273
 20
246.324833212774
 30
0.0
 11
602.040429850278
 21
246.2315618500872
 31
0.0
  0
LINE
  5
910D
330
18
100
AcDbEntity
  8
1
  6
CONTINUOUS
 62
     3
100
AcDbLine
 10
601.725258185273
 20
246.324833212774
 30
0.0
 11
602.040429850278
 21
246.2315618500871
 31
0.0
  0
LINE
  5
910E
330
18
100
AcDbEntity
  8
1
  6
CONTINUOUS
 62
     3
100
AcDbLine
 10
602.040429850278
 20
246.2315618500871
 30
0.0
 11
601.725258185273
 21
246.324833212774
 31
0.0
  0
LINE
  5
910F
330
18
100
AcDbEntity
  8
1
  6
CONTINUOUS
 62
     3
100
AcDbLine
 10
601.725258185273
 20
246.324833212774
 30
0.0
 11
602.040429850278
 21
246.2315618500871
 31
0.0
  0
LINE
  5
9110
330
18
100
AcDbEntity
  8
1
  6
CONTINUOUS
 62
     3
100
AcDbLine
 10
602.040429850278
 20
246.2315618500871
 30
0.0
 11
601.725258185273
 21
246.324833212774
 31
0.0
  0
LINE
  5
9111
330
18
100
AcDbEntity
  8
1
  6
CONTINUOUS
 62
     3
100
AcDbLine
 10
601.725258185273
 20
246.324833212774
 30
0.0
 11
602.040429850278
 21
246.2315618500871
 31
0.0
  0
LINE
  5
9112
330
18
100
AcDbEntity
  8
1
  6
CONTINUOUS
 62
     3
100
AcDbLine
 10
602.040429850278
 20
246.2315618500871
 30
0.0
 11
601.725258185273
 21
246.324833212774
 31
0.0
  0
LINE
  5
9113
330
18
100
AcDbEntity
  8
1
  6
CONTINUOUS
 62
     3
100
AcDbLine
 10
601.725258185273
 20
246.324833212774
 30
0.0
 11
602.040429850278
 21
246.2315618500871
 31
0.0
  0
LINE
  5
9114
330
18
100
AcDbEntity
  8
1
  6
CONTINUOUS
 62
     3
100
AcDbLine
 10
602.040429850278
 20
246.2315618500871
 30
0.0
 11
601.725258185273
 21
246.324833212774
 31
0.0
  0
LINE
  5
9115
330
18
100
AcDbEntity
  8
1
  6
CONTINUOUS
 62
     3
100
AcDbLine
 10
601.7252581852729
 20
246.6271909721431
 30
0.0
 11
602.040429850278
 21
246.72046233483
 31
0.0
  0
LINE
  5
9116
330
18
100
AcDbEntity
  8
1
  6
CONTINUOUS
 62
     3
100
AcDbLine
 10
602.040429850278
 20
246.72046233483
 30
0.0
 11
601.7252581852729
 21
246.6271909721431
 31
0.0
  0
LINE
  5
9117
330
18
100
AcDbEntity
  8
1
  6
CONTINUOUS
 62
     3
100
AcDbLine
 10
601.7252581852729
 20
246.6271909721431
 30
0.0
 11
602.040429850278
 21
246.72046233483
 31
0.0
  0
LINE
  5
9118
330
18
100
AcDbEntity
  8
1
  6
CONTINUOUS
 62
     3
100
AcDbLine
 10
602.040429850278
 20
246.72046233483
 30
0.0
 11
601.7252581852729
 21
246.6271909721431
 31
0.0
  0
LINE
  5
9119
330
18
100
AcDbEntity
  8
1
  6
CONTINUOUS
 62
     3
100
AcDbLine
 10
602.040429850278
 20
246.72046233483
 30
0.0
 11
601.7252581852729
 21
246.6271909721431
 31
0.0
  0
LINE
  5
911A
330
18
100
AcDbEntity
  8
1
  6
CONTINUOUS
 62
     3
100
AcDbLine
 10
601.7252581852729
 20
246.6271909721431
 30
0.0
 11
602.040429850278
 21
246.72046233483
 31
0.0
  0
LINE
  5
911B
330
18
100
AcDbEntity
  8
1
  6
CONTINUOUS
 62
     3
100
AcDbLine
 10
602.040429850278
 20
246.72046233483
 30
0.0
 11
601.7252581852729
 21
246.6271909721431
 31
0.0
  0
LINE
  5
911C
330
18
100
AcDbEntity
  8
1
  6
CONTINUOUS
 62
     3
100
AcDbLine
 10
601.7252581852729
 20
246.6271909721431
 30
0.0
 11
602.040429850278
 21
246.72046233483
 31
0.0
  0
LINE
  5
911D
330
18
100
AcDbEntity
  8
1
  6
CONTINUOUS
 62
     3
100
AcDbLine
 10
602.040429850278
 20
246.72046233483
 30
0.0
 11
601.7252581852729
 21
246.6271909721431
 31
0.0
  0
LINE
  5
911E
330
18
100
AcDbEntity
  8
1
  6
CONTINUOUS
 62
     3
100
AcDbLine
 10
601.7252581852729
 20
246.6271909721431
 30
0.0
 11
602.040429850278
 21
246.72046233483
 31
0.0
  0
LINE
  5
911F
330
18
100
AcDbEntity
  8
1
  6
CONTINUOUS
 62
     3
100
AcDbLine
 10
602.040429850278
 20
246.72046233483
 30
0.0
 11
601.7252581852729
 21
246.6271909721431
 31
0.0
  0
LINE
  5
9120
330
18
100
AcDbEntity
  8
1
  6
CONTINUOUS
 62
     3
100
AcDbLine
 10
601.7252581852729
 20
246.6271909721431
 30
0.0
 11
602.040429850278
 21
246.72046233483
 31
0.0
  0
LINE
  5
9121
330
18
100
AcDbEntity
  8
1
100
AcDbLine
 10
605.5050606753705
 20
246.4686217069448
 30
0.0
 11
605.2352347750757
 21
246.2996150028844
 31
0.0
  0
LINE
  5
9122
330
18
100
AcDbEntity
  8
1
100
AcDbLine
 10
605.20308014466
 20
247.2248274618628
 30
0.0
 11
605.5050606753705
 21
246.4686217069448
 31
0.0
  0
LINE
  5
9123
330
18
100
AcDbEntity
  8
1
100
AcDbLine
 10
604.2451306881514
 20
248.3931016791205
 30
0.0
 11
604.1518593254646
 21
248.8082733441256
 31
0.0
  0
LINE
  5
9124
330
18
100
AcDbEntity
  8
1
100
AcDbLine
 10
604.1518593254646
 20
248.8082733441256
 30
0.0
 11
604.2451306881514
 21
248.3931016791205
 31
0.0
  0
LINE
  5
9125
330
18
100
AcDbEntity
  8
1
  6
CONTINUOUS
 62
     3
100
AcDbLine
 10
603.8495015660955
 20
248.8082733441256
 30
0.0
 11
603.7562302034086
 21
248.3931016791205
 31
0.0
  0
LINE
  5
9126
330
18
100
AcDbEntity
  8
1
  6
CONTINUOUS
 62
     3
100
AcDbLine
 10
603.7562302034086
 20
248.3931016791205
 30
0.0
 11
603.8495015660955
 21
248.8082733441256
 31
0.0
  0
LINE
  5
9127
330
18
100
AcDbEntity
  8
1
  6
CONTINUOUS
 62
     3
100
AcDbLine
 10
604.1518593254646
 20
248.8082733441256
 30
0.0
 11
603.8495015660955
 21
248.8082733441256
 31
0.0
  0
LINE
  5
9128
330
18
100
AcDbEntity
  8
1
100
AcDbLine
 10
604.2451306881514
 20
248.3931016791205
 30
0.0
 11
604.0948097483551
 21
247.3910890936373
 31
0.0
  0
LINE
  5
9129
330
18
100
AcDbEntity
  8
1
  6
CONTINUOUS
 62
     3
100
AcDbLine
 10
602.040429850278
 20
247.9931016791205
 30
0.0
 11
602.040429850278
 21
247.5117205789418
 31
0.0
  0
ARC
  5
912A
330
18
100
AcDbEntity
  8
1
  6
CONTINUOUS
 62
     3
100
AcDbCircle
 10
602.440429850278
 20
247.9931016791205
 30
0.0
 40
0.4
100
AcDbArc
 50
90.0
 51
180.0
  0
LINE
  5
912B
330
18
100
AcDbEntity
  8
1
  6
CONTINUOUS
 62
     3
100
AcDbLine
 10
603.7562302034086
 20
248.3931016791205
 30
0.0
 11
602.440429850278
 21
248.3931016791204
 31
0.0
  0
LINE
  5
912C
330
18
100
AcDbEntity
  8
1
  6
CONTINUOUS
 62
     3
100
AcDbLine
 10
550.4097160690145
 20
168.4976602130072
 30
0.0
 11
550.4097160690145
 21
167.2199270138357
 31
0.0
  0
LINE
  5
912D
330
18
100
AcDbEntity
  8
1
  6
CONTINUOUS
 62
     3
100
AcDbLine
 10
548.6097160690146
 20
168.9976602130072
 30
0.0
 11
548.6097160690146
 21
165.3199270138357
 31
0.0
  0
LINE
  5
912E
330
18
100
AcDbEntity
  8
1
  6
CONTINUOUS
 62
     3
100
AcDbLine
 10
548.6097160690146
 20
168.9976602130072
 30
0.0
 11
548.6097160690146
 21
165.3199270138357
 31
0.0
  0
LINE
  5
912F
330
18
100
AcDbEntity
  8
1
  6
CONTINUOUS
 62
     3
100
AcDbLine
 10
553.2817996182151
 20
166.8258057290105
 30
0.0
 11
552.8655221768253
 21
168.9976602130072
 31
0.0
  0
LINE
  5
9130
330
18
100
AcDbEntity
  8
1
  6
CONTINUOUS
 62
     3
100
AcDbLine
 10
551.7994914453857
 20
168.9976602130072
 30
0.0
 11
552.1946205420188
 21
167.138723967856
 31
0.0
  0
LINE
  5
9131
330
18
100
AcDbEntity
  8
1
  6
CONTINUOUS
 62
     3
100
AcDbLine
 10
553.2818004814961
 20
166.8258057290105
 30
0.0
 11
552.8656356710696
 21
168.9970725807252
 31
0.0
  0
LINE
  5
9132
330
18
100
AcDbEntity
  8
1
  6
CONTINUOUS
 62
     3
100
AcDbLine
 10
550.7097160690145
 20
166.7763504606106
 30
0.0
 11
551.9011762617987
 21
166.7763504606106
 31
0.0
  0
ARC
  5
9133
330
18
100
AcDbEntity
  8
1
  6
CONTINUOUS
 62
     3
100
AcDbCircle
 10
550.9097160690145
 20
165.4199270138357
 30
0.0
 40
0.5
100
AcDbArc
 50
180.0
 51
270.0
  0
LINE
  5
9134
330
18
100
AcDbEntity
  8
0
  6
CONTINUOUS
 62
     2
100
AcDbLine
 10
550.5097160690145
 20
163.3199270138357
 30
0.0
 11
554.0352469125845
 21
163.3199270138357
 31
0.0
  0
LINE
  5
9135
330
18
100
AcDbEntity
  8
1
  6
CONTINUOUS
 62
     3
100
AcDbLine
 10
550.5097160690145
 20
163.3199270138357
 30
0.0
 11
554.0352477758655
 21
163.3199270138357
 31
0.0
  0
LINE
  5
9136
330
18
100
AcDbEntity
  8
1
  6
CONTINUOUS
 62
     3
100
AcDbLine
 10
550.4097160690145
 20
165.4199270138357
 30
0.0
 11
550.4097160690145
 21
167.0763504606106
 31
0.0
  0
ARC
  5
9137
330
18
100
AcDbEntity
  8
1
  6
CONTINUOUS
 62
     3
100
AcDbCircle
 10
550.4431274220401
 20
165.1591677992099
 30
0.0
 40
1.84044579232589
100
AcDbArc
 50
174.9889436887707
 51
272.0734548824604
  0
LINE
  5
9138
330
18
100
AcDbEntity
  8
1
  6
CONTINUOUS
 62
     3
100
AcDbLine
 10
550.4097160690145
 20
167.4199270138357
 30
0.0
 11
550.4097160690145
 21
167.0763504606106
 31
0.0
  0
ARC
  5
9139
330
18
100
AcDbEntity
  8
1
  6
CONTINUOUS
 62
     3
100
AcDbCircle
 10
550.7097160690145
 20
167.0763504606106
 30
0.0
 40
0.3
100
AcDbArc
 50
180.0
 51
270.0
  0
ARC
  5
913A
330
18
100
AcDbEntity
  8
1
  6
CONTINUOUS
 62
     3
100
AcDbCircle
 10
552.0487918153417
 20
165.4199270138357
 30
0.0
 40
0.5
100
AcDbArc
 50
270.0
 51
11.99999999999979
  0
ARC
  5
913B
330
18
100
AcDbEntity
  8
1
  6
CONTINUOUS
 62
     3
100
AcDbCircle
 10
552.0487926786228
 20
165.4199270138357
 30
0.0
 40
0.5
100
AcDbArc
 50
270.0
 51
11.99999999999979
  0
LINE
  5
913C
330
18
100
AcDbEntity
  8
1
  6
CONTINUOUS
 62
     3
100
AcDbLine
 10
550.9097160690145
 20
164.9199270138357
 30
0.0
 11
552.0487918153417
 21
164.9199270138357
 31
0.0
  0
POINT
  5
913D
330
18
100
AcDbEntity
  8
DEFPOINTS
  6
BYBLOCK
 62
     0
100
AcDbPoint
 10
554.5352477758655
 20
163.3199270138357
 30
0.0
  0
LINE
  5
913E
330
18
100
AcDbEntity
  8
1
  6
CONTINUOUS
 62
     3
100
AcDbLine
 10
554.5352469125845
 20
164.3199270138357
 30
0.0
 11
554.5352469125845
 21
163.8199270138357
 31
0.0
  0
ARC
  5
913F
330
18
100
AcDbEntity
  8
0
  6
CONTINUOUS
 62
     2
100
AcDbCircle
 10
554.0352469125845
 20
163.8199270138357
 30
0.0
 40
0.5
100
AcDbArc
 50
270.0
 51
0.0
  0
ARC
  5
9140
330
18
100
AcDbEntity
  8
1
  6
CONTINUOUS
 62
     3
100
AcDbCircle
 10
555.0352469125845
 20
164.3199270138357
 30
0.0
 40
0.5
100
AcDbArc
 50
90.0
 51
180.0
  0
ARC
  5
9141
330
18
100
AcDbEntity
  8
1
  6
CONTINUOUS
 62
     3
100
AcDbCircle
 10
554.0352477758655
 20
163.8199270138357
 30
0.0
 40
0.5
100
AcDbArc
 50
270.0
 51
0.0
  0
LINE
  5
9142
330
18
100
AcDbEntity
  8
1
  6
CONTINUOUS
 62
     3
100
AcDbLine
 10
554.5352477758655
 20
164.3199270138357
 30
0.0
 11
554.5352477758655
 21
163.8199270138357
 31
0.0
  0
ARC
  5
9143
330
18
100
AcDbEntity
  8
1
  6
CONTINUOUS
 62
     3
100
AcDbCircle
 10
555.0352477758655
 20
164.3199270138357
 30
0.0
 40
0.5
100
AcDbArc
 50
90.0
 51
180.0
  0
ARC
  5
9144
330
18
100
AcDbEntity
  8
1
  6
CONTINUOUS
 62
     3
100
AcDbCircle
 10
551.9011762617987
 20
167.0763504606107
 30
0.0
 40
0.3
100
AcDbArc
 50
270.0
 51
12.00000000000069
  0
LINE
  5
9145
330
18
100
AcDbEntity
  8
1
  6
CONTINUOUS
 62
     3
100
AcDbLine
 10
552.1127524923686
 20
167.5238828592446
 30
0.0
 11
552.5378656157086
 21
165.5238828592446
 31
0.0
  0
ARC
  5
9146
330
18
100
AcDbEntity
  8
1
  6
CONTINUOUS
 62
     3
100
AcDbCircle
 10
553.7728609012979
 20
166.9199270138357
 30
0.0
 40
0.5
100
AcDbArc
 50
190.0000000000029
 51
270.0
  0
ARC
  5
9147
330
18
100
AcDbEntity
  8
1
  6
CONTINUOUS
 62
     3
100
AcDbCircle
 10
553.772861764579
 20
166.9199270138357
 30
0.0
 40
0.5
100
AcDbArc
 50
190.0000000000029
 51
270.0
  0
LINE
  5
9148
330
18
100
AcDbEntity
  8
1
  6
CONTINUOUS
 62
     3
100
AcDbLine
 10
548.6097160690146
 20
168.9976602130072
 30
0.0
 11
549.9097160690145
 21
168.9976602130072
 31
0.0
  0
LINE
  5
9149
330
18
100
AcDbEntity
  8
1
  6
CONTINUOUS
 62
     3
100
AcDbLine
 10
548.6097160690146
 20
168.9976602130072
 30
0.0
 11
549.9097160690145
 21
168.9976602130072
 31
0.0
  0
ARC
  5
914A
330
18
100
AcDbEntity
  8
1
  6
CONTINUOUS
 62
     3
100
AcDbCircle
 10
549.9097160690145
 20
168.4976602130072
 30
0.0
 40
0.4999999999999929
100
AcDbArc
 50
0.0
 51
90.0
  0
LINE
  5
914B
330
18
100
AcDbEntity
  8
1
  6
CONTINUOUS
 62
     3
100
AcDbLine
 10
555.0420315126719
 20
168.9970725807252
 30
0.0
 11
551.7994914453856
 21
168.9970725807252
 31
0.0
  0
LINE
  5
914C
330
18
100
AcDbEntity
  8
1
  6
CONTINUOUS
 62
     3
100
AcDbLine
 10
552.9038560011636
 20
168.7976602130072
 30
0.0
 11
551.8420027577197
 21
168.7976602130072
 31
0.0
  0
LINE
  5
914D
330
18
100
AcDbEntity
  8
1
  6
CONTINUOUS
 62
     3
100
AcDbLine
 10
552.9038568644446
 20
168.7976602130072
 30
0.0
 11
551.8420036210008
 21
168.7976602130072
 31
0.0
  0
LINE
  5
914E
330
18
100
AcDbEntity
  8
1
  6
CONTINUOUS
 62
     3
100
AcDbLine
 10
555.042032375953
 20
168.9976602130072
 30
0.0
 11
584.4601559283686
 21
168.9976602130072
 31
0.0
  0
LINE
  5
914F
330
18
100
AcDbEntity
  8
1
  6
CONTINUOUS
 62
     3
100
AcDbLine
 10
555.0352469125845
 20
164.8199270138357
 30
0.0
 11
565.8071749269484
 21
164.8199270138357
 31
0.0
  0
LINE
  5
9150
330
18
100
AcDbEntity
  8
1
  6
CONTINUOUS
 62
     3
100
AcDbLine
 10
553.7728609012979
 20
166.4199270138357
 30
0.0
 11
565.8071749269484
 21
166.4199270138357
 31
0.0
  0
LINE
  5
9151
330
18
100
AcDbEntity
  8
1
  6
CONTINUOUS
 62
     3
100
AcDbLine
 10
555.0420315126719
 20
168.9976602130072
 30
0.0
 11
562.3468550513761
 21
168.9976602130072
 31
0.0
  0
LINE
  5
9152
330
18
100
AcDbEntity
  8
1
  6
CONTINUOUS
 62
     3
100
AcDbLine
 10
555.0420315126719
 20
168.9970725807252
 30
0.0
 11
567.4175769755119
 21
168.9970725807252
 31
0.0
  0
LINE
  5
9153
330
18
100
AcDbEntity
  8
1
  6
CONTINUOUS
 62
     3
100
AcDbLine
 10
573.6467512830686
 20
167.7976602130072
 30
0.0
 11
573.6467512830686
 21
168.9976602130072
 31
0.0
  0
LINE
  5
9154
330
18
100
AcDbEntity
  8
1
  6
CONTINUOUS
 62
     3
100
AcDbLine
 10
570.6331846320314
 20
168.370657444196
 30
0.0
 11
570.6331846320314
 21
168.7976602130072
 31
0.0
  0
LINE
  5
9155
330
18
100
AcDbEntity
  8
1
  6
CONTINUOUS
 62
     3
100
AcDbLine
 10
567.2068625364492
 20
168.9976602130072
 30
0.0
 11
568.0596492399019
 21
167.2773804279325
 31
0.0
  0
LINE
  5
9156
330
18
100
AcDbEntity
  8
1
  6
CONTINUOUS
 62
     3
100
AcDbLine
 10
572.2238951721909
 20
168.9976602130072
 30
0.0
 11
572.2853011243802
 21
167.6756037480896
 31
0.0
  0
ARC
  5
9157
330
18
100
AcDbEntity
  8
1
  6
CONTINUOUS
 62
     3
100
AcDbCircle
 10
569.4331846320314
 20
168.370657444196
 30
0.0
 40
1.2
100
AcDbArc
 50
270.0
 51
0.0
  0
LINE
  5
9158
330
18
100
AcDbEntity
  8
1
  6
CONTINUOUS
 62
     3
100
AcDbLine
 10
565.8071749269484
 20
166.4199270138357
 30
0.0
 11
571.0865934447256
 21
166.4199270138357
 31
0.0
  0
LINE
  5
9159
330
18
100
AcDbEntity
  8
1
  6
CONTINUOUS
 62
     3
100
AcDbLine
 10
565.8071749269484
 20
164.8199270138357
 30
0.0
 11
572.0467512830686
 21
164.8199270138357
 31
0.0
  0
ARC
  5
915A
330
18
100
AcDbEntity
  8
1
  6
CONTINUOUS
 62
     3
100
AcDbCircle
 10
568.2365655993405
 20
167.370657444196
 30
0.0
 40
0.2
100
AcDbArc
 50
207.7998990195555
 51
270.0
  0
LINE
  5
915B
330
18
100
AcDbEntity
  8
1
  6
CONTINUOUS
 62
     3
100
AcDbLine
 10
569.4331846320314
 20
167.170657444196
 30
0.0
 11
568.2365655993405
 21
167.170657444196
 31
0.0
  0
LINE
  5
915C
330
18
100
AcDbEntity
  8
1
  6
CONTINUOUS
 62
     3
100
AcDbLine
 10
574.6467512830686
 20
167.2203099438175
 30
0.0
 11
573.3763596061233
 21
165.0199270138357
 31
0.0
  0
LINE
  5
915D
330
18
100
AcDbEntity
  8
1
  6
CONTINUOUS
 62
     3
100
AcDbLine
 10
572.0467512830686
 20
164.5199270138357
 30
0.0
 11
572.5103342023389
 21
164.5199270138357
 31
0.0
  0
LINE
  5
915E
330
18
100
AcDbEntity
  8
1
  6
CONTINUOUS
 62
     3
100
AcDbLine
 10
572.0467512830686
 20
164.5199270138357
 30
0.0
 11
572.0467512830686
 21
164.8199270138357
 31
0.0
  0
ARC
  5
915F
330
18
100
AcDbEntity
  8
1
  6
CONTINUOUS
 62
     3
100
AcDbCircle
 10
572.5103342023389
 20
165.5199270138357
 30
0.0
 40
1.0
100
AcDbArc
 50
270.0
 51
329.9999999999981
  0
ARC
  5
9160
330
18
100
AcDbEntity
  8
1
  6
CONTINUOUS
 62
     3
100
AcDbCircle
 10
571.0865934447256
 20
167.6199270138357
 30
0.0
 40
1.2
100
AcDbArc
 50
270.0
 51
2.659322948171427
  0
LINE
  5
9161
330
18
100
AcDbEntity
  8
1
  6
CONTINUOUS
 62
     3
100
AcDbLine
 10
570.5627695661525
 20
168.2383359063038
 30
0.0
 11
570.5627695661525
 21
168.2383359063038
 31
0.0
  0
LINE
  5
9162
330
18
100
AcDbEntity
  8
1
  6
CONTINUOUS
 62
     3
100
AcDbLine
 10
573.6467512830686
 20
167.7976602130072
 30
0.0
 11
574.6467512830686
 21
167.2203099438175
 31
0.0
  0
LINE
  5
9163
330
18
100
AcDbEntity
  8
1
  6
CONTINUOUS
 62
     3
100
AcDbLine
 10
566.446855051376
 20
168.9976602130072
 30
0.0
 11
567.2068625364492
 21
168.9976602130072
 31
0.0
  0
LINE
  5
9164
330
18
100
AcDbEntity
  8
WY
 62
     3
100
AcDbLine
 10
567.2068625364492
 20
168.9976602130072
 30
0.0
 11
566.446855051376
 21
168.9976602130072
 31
0.0
  0
LINE
  5
9165
330
18
100
AcDbEntity
  8
1
  6
CONTINUOUS
 62
     3
100
AcDbLine
 10
573.6467512830686
 20
168.7976602130072
 30
0.0
 11
572.2331846320315
 21
168.7976602130072
 31
0.0
  0
LINE
  5
9166
330
18
100
AcDbEntity
  8
1
  6
CONTINUOUS
 62
     3
100
AcDbLine
 10
570.0716594355716
 20
168.9976602130072
 30
0.0
 11
570.4331846320315
 21
168.9976602130072
 31
0.0
  0
ARC
  5
9167
330
18
100
AcDbEntity
  8
1
  6
CONTINUOUS
 62
     3
100
AcDbCircle
 10
570.4331846320314
 20
168.7976602130072
 30
0.0
 40
0.2
100
AcDbArc
 50
0.0
 51
90.0
  0
LINE
  5
9168
330
18
100
AcDbEntity
  8
1
  6
CONTINUOUS
 62
     3
100
AcDbLine
 10
575.2467512830686
 20
168.9976602130072
 30
0.0
 11
576.8319710725847
 21
168.9976602130072
 31
0.0
  0
LINE
  5
9169
330
18
100
AcDbEntity
  8
1
  6
CONTINUOUS
 62
     3
100
AcDbLine
 10
625.5410602400515
 20
166.4199270138356
 30
0.0
 11
644.2673023910407
 21
166.4199270138356
 31
0.0
  0
LINE
  5
916A
330
18
100
AcDbEntity
  8
1
  6
CONTINUOUS
 62
     3
100
AcDbLine
 10
607.1780346711327
 20
164.8199270138356
 30
0.0
 11
644.2673023910407
 21
164.8199270138357
 31
0.0
  0
LINE
  5
916B
330
18
100
AcDbEntity
  8
WY
 62
     3
100
AcDbLine
 10
599.5771669339143
 20
168.9976602130072
 30
0.0
 11
646.9336983363953
 21
168.9976602130072
 31
0.0
  0
LINE
  5
916C
330
18
100
AcDbEntity
  8
1
  6
CONTINUOUS
 62
     3
100
AcDbLine
 10
603.6771669339144
 20
168.9976602130072
 30
0.0
 11
624.5352469125845
 21
168.9976602130071
 31
0.0
  0
LINE
  5
916D
330
18
100
AcDbEntity
  8
1
  6
CONTINUOUS
 62
     3
100
AcDbLine
 10
599.5771669339143
 20
168.9970725807252
 30
0.0
 11
624.7646728745964
 21
168.9970725807252
 31
0.0
  0
LINE
  5
916E
330
18
100
AcDbEntity
  8
1
  6
CONTINUOUS
 62
     3
100
AcDbLine
 10
603.6771669339144
 20
168.9976602130072
 30
0.0
 11
624.7646728745964
 21
168.9976602130072
 31
0.0
  0
LINE
  5
916F
330
18
100
AcDbEntity
  8
1
  6
CONTINUOUS
 62
     3
100
AcDbLine
 10
603.6771677971955
 20
168.9976602130072
 30
0.0
 11
622.7352477758656
 21
168.9976602130071
 31
0.0
  0
LINE
  5
9170
330
18
100
AcDbEntity
  8
1
  6
CONTINUOUS
 62
     3
100
AcDbLine
 10
591.2204675653816
 20
168.9970725807252
 30
0.0
 11
599.5771669339143
 21
168.9970725807252
 31
0.0
  0
LINE
  5
9171
330
18
100
AcDbEntity
  8
1
  6
CONTINUOUS
 62
     3
100
AcDbLine
 10
591.2204675653816
 20
168.9976602130072
 30
0.0
 11
599.5771669339143
 21
168.9976602130072
 31
0.0
  0
LINE
  5
9172
330
18
100
AcDbEntity
  8
1
  6
CONTINUOUS
 62
     3
100
AcDbLine
 10
589.6352477758657
 20
168.9976602130072
 30
0.0
 11
599.5771677971953
 21
168.9976602130072
 31
0.0
  0
LINE
  5
9173
330
18
100
AcDbEntity
  8
1
  6
CONTINUOUS
 62
     3
100
AcDbLine
 10
589.6352477758657
 20
168.9976602130072
 30
0.0
 11
599.5771677971953
 21
168.9976602130072
 31
0.0
  0
LINE
  5
9174
330
18
100
AcDbEntity
  8
1
  6
CONTINUOUS
 62
     3
100
AcDbLine
 10
584.4601550650875
 20
168.9970725807252
 30
0.0
 11
591.2204675653816
 21
168.9970725807252
 31
0.0
  0
LINE
  5
9175
330
18
100
AcDbEntity
  8
1
  6
CONTINUOUS
 62
     3
100
AcDbLine
 10
610.1780346711327
 20
167.4199270138356
 30
0.0
 11
610.1780346711327
 21
168.9976602130071
 31
0.0
  0
LINE
  5
9176
330
18
100
AcDbEntity
  8
1
  6
CONTINUOUS
 62
     3
100
AcDbLine
 10
608.3780346711327
 20
168.1200486259101
 30
0.0
 11
608.3780346711327
 21
168.9976602130071
 31
0.0
  0
ARC
  5
9177
330
18
100
AcDbEntity
  8
1
  6
CONTINUOUS
 62
     3
100
AcDbCircle
 10
607.1780346711327
 20
165.6199270138356
 30
0.0
 40
0.8
100
AcDbArc
 50
180.0
 51
270.0
  0
POINT
  5
9178
330
18
100
AcDbEntity
  8
DEFPOINTS
  6
BYBLOCK
 62
     0
100
AcDbPoint
 10
608.347934065035
 20
167.8125315412647
 30
0.0
  0
LINE
  5
9179
330
18
100
AcDbEntity
  8
1
  6
CONTINUOUS
 62
     3
100
AcDbLine
 10
606.3780346711327
 20
167.3921081573776
 30
0.0
 11
608.3780346711327
 21
168.1200486259101
 31
0.0
  0
LINE
  5
917A
330
18
100
AcDbEntity
  8
1
  6
CONTINUOUS
 62
     3
100
AcDbLine
 10
606.3780346711327
 20
167.3921081573776
 30
0.0
 11
606.3780346711327
 21
165.6199270138356
 31
0.0
  0
ARC
  5
917B
330
18
100
AcDbEntity
  8
1
  6
CONTINUOUS
 62
     3
100
AcDbCircle
 10
611.1780346711327
 20
167.4199270138356
 30
0.0
 40
1.0
100
AcDbArc
 50
180.0
 51
270.0
  0
LINE
  5
917C
330
18
100
AcDbEntity
  8
1
  6
CONTINUOUS
 62
     3
100
AcDbLine
 10
608.3780346711327
 20
168.797660213007
 30
0.0
 11
610.1780346711327
 21
168.7976602130071
 31
0.0
  0
LINE
  5
917D
330
18
100
AcDbEntity
  8
1
  6
CONTINUOUS
 62
     3
100
AcDbLine
 10
628.8646728745964
 20
168.9976602130071
 30
0.0
 11
645.2673023910407
 21
168.9976602130071
 31
0.0
  0
LINE
  5
917E
330
18
100
AcDbEntity
  8
1
  6
CONTINUOUS
 62
     3
100
AcDbLine
 10
625.5352477758655
 20
166.4199270138356
 30
0.0
 11
644.2673032543217
 21
166.4199270138356
 31
0.0
  0
LINE
  5
917F
330
18
100
AcDbEntity
  8
1
  6
CONTINUOUS
 62
     3
100
AcDbLine
 10
622.2202972514939
 20
164.8199270138357
 30
0.0
 11
644.2673032543217
 21
164.8199270138357
 31
0.0
  0
LINE
  5
9180
330
18
100
AcDbEntity
  8
1
  6
CONTINUOUS
 62
     3
100
AcDbLine
 10
628.8646737378774
 20
168.9976602130071
 30
0.0
 11
645.2673032543217
 21
168.9976602130071
 31
0.0
  0
LINE
  5
9181
330
18
100
AcDbEntity
  8
1
  6
CONTINUOUS
 62
     3
100
AcDbLine
 10
628.8646728745964
 20
168.9970725807251
 30
0.0
 11
646.9336983363952
 21
168.9970725807246
 31
0.0
  0
LINE
  5
9182
330
18
100
AcDbEntity
  8
1
  6
CONTINUOUS
 62
     3
100
AcDbLine
 10
628.8646728745964
 20
168.9976602130071
 30
0.0
 11
646.9336983363952
 21
168.9976602130066
 31
0.0
  0
LINE
  5
9183
330
18
100
AcDbEntity
  8
1
  6
CONTINUOUS
 62
     3
100
AcDbLine
 10
646.9336983363953
 20
168.7976602130071
 30
0.0
 11
646.9336983363953
 21
167.4199270138356
 31
0.0
  0
LINE
  5
9184
330
18
100
AcDbEntity
  8
1
  6
CONTINUOUS
 62
     3
100
AcDbLine
 10
645.2673023910407
 20
168.9976602130071
 30
0.0
 11
645.2673023910407
 21
167.4199270138356
 31
0.0
  0
LINE
  5
9185
330
18
100
AcDbEntity
  8
1
  6
CONTINUOUS
 62
     3
100
AcDbLine
 10
646.9336991996764
 20
168.7976602130071
 30
0.0
 11
646.9336991996764
 21
167.4199270138356
 31
0.0
  0
LINE
  5
9186
330
18
100
AcDbEntity
  8
1
  6
CONTINUOUS
 62
     3
100
AcDbLine
 10
645.2673032543217
 20
168.9976602130071
 30
0.0
 11
645.2673032543217
 21
167.4199270138356
 31
0.0
  0
ARC
  5
9187
330
18
100
AcDbEntity
  8
1
  6
CONTINUOUS
 62
     3
100
AcDbCircle
 10
644.2181753875356
 20
167.535005557385
 30
0.0
 40
2.715522962546203
100
AcDbArc
 50
271.0366045744143
 51
0.0057525284299234
  0
ARC
  5
9188
330
18
100
AcDbEntity
  8
1
  6
CONTINUOUS
 62
     3
100
AcDbCircle
 10
644.2181762508166
 20
167.535005557385
 30
0.0
 40
2.715522962546203
100
AcDbArc
 50
271.0366045744143
 51
0.0057525284299234
  0
ARC
  5
9189
330
18
100
AcDbEntity
  8
1
  6
CONTINUOUS
 62
     3
100
AcDbCircle
 10
644.2673023910407
 20
167.4199270138356
 30
0.0
 40
1.0
100
AcDbArc
 50
270.0
 51
0.0
  0
ARC
  5
918A
330
18
100
AcDbEntity
  8
1
  6
CONTINUOUS
 62
     3
100
AcDbCircle
 10
644.2673032543217
 20
167.4199270138356
 30
0.0
 40
1.0
100
AcDbArc
 50
270.0
 51
0.0
  0
LINE
  5
918B
330
18
100
AcDbEntity
  8
1
  6
CONTINUOUS
 62
     3
100
AcDbLine
 10
641.7336983363954
 20
170.3970725807251
 30
0.0
 11
645.9336983363953
 21
170.3970725807251
 31
0.0
  0
LINE
  5
918C
330
18
100
AcDbEntity
  8
1
  6
CONTINUOUS
 62
     3
100
AcDbLine
 10
641.7336983363954
 20
170.3976602130071
 30
0.0
 11
645.9336983363953
 21
170.3976602130071
 31
0.0
  0
LINE
  5
918D
330
18
100
AcDbEntity
  8
1
  6
CONTINUOUS
 62
     3
100
AcDbLine
 10
641.7336991996764
 20
170.3976602130071
 30
0.0
 11
645.9336991996763
 21
170.3976602130071
 31
0.0
  0
LINE
  5
918E
330
18
100
AcDbEntity
  8
1
  6
CONTINUOUS
 62
     3
100
AcDbLine
 10
646.9336983363953
 20
168.7976602130071
 30
0.0
 11
646.9336983363953
 21
168.9976602130072
 31
0.0
  0
ARC
  5
918F
330
18
100
AcDbEntity
  8
1
  6
CONTINUOUS
 62
     3
100
AcDbCircle
 10
645.9336983363953
 20
169.3970725807251
 30
0.0
 40
1.0
100
AcDbArc
 50
0.0
 51
90.0
  0
ARC
  5
9190
330
18
100
AcDbEntity
  8
1
  6
CONTINUOUS
 62
     3
100
AcDbCircle
 10
645.9336983363953
 20
169.3976602130071
 30
0.0
 40
1.0
100
AcDbArc
 50
0.0
 51
90.0
  0
ARC
  5
9191
330
18
100
AcDbEntity
  8
1
  6
CONTINUOUS
 62
     3
100
AcDbCircle
 10
645.9336991996763
 20
169.3976602130071
 30
0.0
 40
1.0
100
AcDbArc
 50
0.0
 51
90.0
  0
LINE
  5
9192
330
18
100
AcDbEntity
  8
1
  6
CONTINUOUS
 62
     3
100
AcDbLine
 10
646.9336983363952
 20
168.9970725807251
 30
0.0
 11
646.9336983363953
 21
169.3970725807251
 31
0.0
  0
LINE
  5
9193
330
18
100
AcDbEntity
  8
1
  6
CONTINUOUS
 62
     3
100
AcDbLine
 10
646.9336983363952
 20
168.9976602130071
 30
0.0
 11
646.9336983363953
 21
169.3976602130071
 31
0.0
  0
LINE
  5
9194
330
18
100
AcDbEntity
  8
1
  6
CONTINUOUS
 62
     3
100
AcDbLine
 10
646.9336991996764
 20
168.7976602130071
 30
0.0
 11
646.9336991996763
 21
169.3976602130071
 31
0.0
  0
LINE
  5
9195
330
18
100
AcDbEntity
  8
1
  6
CONTINUOUS
 62
     3
100
AcDbLine
 10
645.2673032543217
 20
168.7976602130071
 30
0.0
 11
646.8673032543217
 21
168.7976602130071
 31
0.0
  0
LINE
  5
9196
330
18
100
AcDbEntity
  8
1
  6
CONTINUOUS
 62
     3
100
AcDbLine
 10
641.7336983363954
 20
170.3970725807251
 30
0.0
 11
641.7336983363954
 21
174.0456036459994
 31
0.0
  0
INSERT
  5
9197
330
18
100
AcDbEntity
  8
3
100
AcDbBlockReference
  2
A$C21567AC4
 10
620.7410605340617
 20
166.4199268237117
 30
0.0
 41
0.5
 42
0.5
 43
0.5
  0
LINE
  5
9198
330
18
100
AcDbEntity
  8
1
  6
CONTINUOUS
 62
     3
100
AcDbLine
 10
611.1780346711327
 20
166.4199270138356
 30
0.0
 11
620.7410602400515
 21
166.4199270138356
 31
0.0
  0
INSERT
  5
9199
330
18
100
AcDbEntity
  8
1
100
AcDbBlockReference
  2
PŁYTKA_2
 10
524.7917772325503
 20
73.7447588149908
 30
0.0
 41
0.5
 42
0.5
 43
0.5
  0
DIMENSION
  5
919A
330
18
100
AcDbEntity
  8
WYMIARY
100
AcDbDimension
  2
*D11
 10
573.6467512830686
 20
150.1248303620106
 30
0.0
 11
561.1282336760416
 21
152.1248303620106
 31
0.0
 70
    32
  3
STANDARD
100
AcDbAlignedDimension
 13
548.6097160690146
 23
165.3199270138357
 33
0.0
 14
573.6467512830686
 24
167.7976602130072
 34
0.0
100
AcDbRotatedDimension
1001
ACAD
1000
DSTYLE
1002
{
1070
   287
1070
     5
1070
   172
1070
     1
1070
   271
1070
     1
1070
    41
1040
3.0
1070
   147
1040
0.5
1070
   279
1070
     2
1070
   140
1040
3.0
1070
   284
1070
     8
1070
    78
1070
     8
1002
}
  0
DIMENSION
  5
919B
330
18
100
AcDbEntity
  8
WYMIARY
100
AcDbDimension
  2
*D12
 10
608.3780346711327
 20
150.1248303620106
 30
0.0
 11
591.0123929771007
 21
152.1248303620106
 31
0.0
 70
    32
  3
STANDARD
100
AcDbAlignedDimension
 13
573.6467512830686
 23
167.7976602130072
 33
0.0
 14
608.3780346711327
 24
168.1200486259101
 34
0.0
100
AcDbRotatedDimension
1001
ACAD
1000
DSTYLE
1002
{
1070
   287
1070
     5
1070
   172
1070
     1
1070
   271
1070
     1
1070
    41
1040
3.0
1070
   147
1040
0.5
1070
   279
1070
     2
1070
   140
1040
3.0
1070
   284
1070
     8
1070
    78
1070
     8
1002
}
  0
DIMENSION
  5
919C
330
18
100
AcDbEntity
  8
WYMIARY
100
AcDbDimension
  2
*D13
 10
530.60873102563
 20
248.8082733441256
 30
0.0
 11
528.35873102563
 21
206.0634976755048
 31
0.0
 70
    32
  3
STANDARD
100
AcDbAlignedDimension
 13
550.4431274220401
 23
163.3187220068841
 33
0.0
 14
603.8495015660955
 24
248.8082733441256
 34
0.0
 50
90.0
100
AcDbRotatedDimension
1001
ACAD
1000
DSTYLE
1002
{
1070
   287
1070
     5
1070
   172
1070
     1
1070
     3
1000
%%p0,2
1070
   271
1070
     1
1070
    41
1040
3.0
1070
   147
1040
0.5
1070
   279
1070
     2
1070
   140
1040
3.0
1070
   284
1070
     8
1070
    78
1070
     8
1002
}
  0
ENDSEC
  0
SECTION
  2
OBJECTS
  0
DICTIONARY
  5
C
330
0
100
AcDbDictionary
  3
ACAD_GROUP
350
D
  3
ACAD_IMAGE_VARS
350
8D8E
  3
ACAD_MLINESTYLE
350
E
  3
ACAD_SCALELIST
350
8D46
  3
ACDBVARIABLEDICTIONARY
350
C1B
  3
APPDATA
350
8D8C
  3
DWGPROPS
350
91C4
  0
DICTIONARY
  5
8FCF
330
2
100
AcDbDictionary
280
     1
  3
ACAD_LAYERSTATES
360
8FD0
  0
DICTIONARY
  5
D
102
{ACAD_REACTORS
330
C
102
}
330
C
100
AcDbDictionary
  0
RASTERVARIABLES
  5
8D8E
102
{ACAD_REACTORS
330
C
102
}
330
C
100
AcDbRasterVariables
 90
        0
 70
     1
 71
     1
 72
     0
  0
DICTIONARY
  5
E
102
{ACAD_REACTORS
330
C
102
}
330
C
100
AcDbDictionary
  3
STANDARD
350
1B
  0
DICTIONARY
  5
8D46
102
{ACAD_REACTORS
330
C
102
}
330
C
100
AcDbDictionary
  0
DICTIONARY
  5
C1B
102
{ACAD_REACTORS
330
C
102
}
330
C
100
AcDbDictionary
  3
SORTENTS
350
C1C
  0
DICTIONARY
  5
8D8C
102
{ACAD_REACTORS
330
C
102
}
330
C
100
AcDbDictionary
  0
XRECORD
  5
91C4
102
{ACAD_REACTORS
330
C
102
}
330
C
100
AcDbXrecord
  1
DWGPROPS COOKIE
  2

  3

  4

  6

  7

  8
pikusl
  9

300
=
301
=
302
=
303
=
304
=
305
=
306
=
307
=
308
=
309
=
 40
0.0
 41
2448721.315803356
 42
2457520.519952882
  1

 90
        0
  0
DICTIONARY
  5
8FD0
102
{ACAD_REACTORS
330
8FCF
102
}
330
8FCF
100
AcDbDictionary
  0
MLINESTYLE
  5
1B
102
{ACAD_REACTORS
330
E
102
}
330
E
100
AcDbMlineStyle
  2
STANDARD
 70
     0
  3

 62
     0
 51
90.0
 52
90.0
 71
     2
 49
0.5
 62
   256
  6
BYLAYER
 49
-0.5
 62
   256
  6
BYLAYER
  0
DICTIONARYVAR
  5
C1C
102
{ACAD_REACTORS
330
C1B
102
}
330
C1B
100
DictionaryVariables
280
     0
  1
96
  0
ENDSEC
  0
EOF
