  0
SECTION
  2
HEADER
  9
$ACADVER
  1
AC1014
  9
$ACADMAINTVER
 70
     9
  9
$DWGCODEPAGE
  3
ANSI_1250
  9
$INSBASE
 10
0.0
 20
0.0
 30
0.0
  9
$EXTMIN
 10
486.041244
 20
0.0
 30
0.0
  9
$EXTMAX
 10
687.671651
 20
297.0
 30
3.0
  9
$LIMMIN
 10
0.0
 20
0.0
  9
$LIMMAX
 10
420.0
 20
297.0
  9
$ORTHOMODE
 70
     0
  9
$REGENMODE
 70
     1
  9
$FILLMODE
 70
     1
  9
$QTEXTMODE
 70
     0
  9
$MIRRTEXT
 70
     1
  9
$DRAGMODE
 70
     2
  9
$LTSCALE
 40
6.0
  9
$OSMODE
 70
  9143
  9
$ATTMODE
 70
     1
  9
$TEXTSIZE
 40
0.2
  9
$TRACEWID
 40
0.05
  9
$TEXTSTYLE
  7
ITALIC
  9
$CLAYER
  8
WYMIARY
  9
$CELTYPE
  6
BYLAYER
  9
$CECOLOR
 62
   256
  9
$CELTSCALE
 40
1.0
  9
$DELOBJ
 70
     1
  9
$DISPSILH
 70
     0
  9
$DIMSCALE
 40
1.0
  9
$DIMASZ
 40
2.5
  9
$DIMEXO
 40
1.5
  9
$DIMDLI
 40
7.0
  9
$DIMRND
 40
0.0
  9
$DIMDLE
 40
0.0
  9
$DIMEXE
 40
1.5
  9
$DIMTP
 40
0.1
  9
$DIMTM
 40
0.0
  9
$DIMTXT
 40
1.8
  9
$DIMCEN
 40
-1.0
  9
$DIMTSZ
 40
0.0
  9
$DIMTOL
 70
     0
  9
$DIMLIM
 70
     0
  9
$DIMTIH
 70
     0
  9
$DIMTOH
 70
     0
  9
$DIMSE1
 70
     0
  9
$DIMSE2
 70
     0
  9
$DIMTAD
 70
     1
  9
$DIMZIN
 70
     0
  9
$DIMBLK
  1

  9
$DIMASO
 70
     1
  9
$DIMSHO
 70
     0
  9
$DIMPOST
  1

  9
$DIMAPOST
  1

  9
$DIMALT
 70
     0
  9
$DIMALTD
 70
     2
  9
$DIMALTF
 40
25.4
  9
$DIMLFAC
 40
1.0
  9
$DIMTOFL
 70
     0
  9
$DIMTVP
 40
0.0
  9
$DIMTIX
 70
     0
  9
$DIMSOXD
 70
     0
  9
$DIMSAH
 70
     0
  9
$DIMBLK1
  1

  9
$DIMBLK2
  1

  9
$DIMSTYLE
  2
STANDARD
  9
$DIMCLRD
 70
     0
  9
$DIMCLRE
 70
     0
  9
$DIMCLRT
 70
     0
  9
$DIMTFAC
 40
1.0
  9
$DIMGAP
 40
0.75
  9
$DIMJUST
 70
     0
  9
$DIMSD1
 70
     0
  9
$DIMSD2
 70
     0
  9
$DIMTOLJ
 70
     1
  9
$DIMTZIN
 70
     0
  9
$DIMALTZ
 70
     0
  9
$DIMALTTZ
 70
     0
  9
$DIMFIT
 70
     5
  9
$DIMUPT
 70
     0
  9
$DIMUNIT
 70
     2
  9
$DIMDEC
 70
     2
  9
$DIMTDEC
 70
     4
  9
$DIMALTU
 70
     2
  9
$DIMALTTD
 70
     2
  9
$DIMTXSTY
  7
STANDARD
  9
$DIMAUNIT
 70
     0
  9
$LUNITS
 70
     2
  9
$LUPREC
 70
     2
  9
$SKETCHINC
 40
0.1
  9
$FILLETRAD
 40
0.1
  9
$AUNITS
 70
     0
  9
$AUPREC
 70
     2
  9
$MENU
  1
ACAD
  9
$ELEVATION
 40
0.0
  9
$PELEVATION
 40
0.0
  9
$THICKNESS
 40
0.0
  9
$LIMCHECK
 70
     0
  9
$CHAMFERA
 40
0.0
  9
$CHAMFERB
 40
0.0
  9
$CHAMFERC
 40
0.0
  9
$CHAMFERD
 40
0.0
  9
$SKPOLY
 70
     0
  9
$TDCREATE
 40
2448721.39913669
  9
$TDUPDATE
 40
2457521.381407222
  9
$TDINDWG
 40
1.6703422222
  9
$TDUSRTIMER
 40
2457521.2940789
  9
$USRTIMER
 70
     1
  9
$ANGBASE
 50
0.0
  9
$ANGDIR
 70
     0
  9
$PDMODE
 70
     0
  9
$PDSIZE
 40
0.0
  9
$PLINEWID
 40
0.5
  9
$COORDS
 70
     1
  9
$SPLFRAME
 70
     0
  9
$SPLINETYPE
 70
     6
  9
$SPLINESEGS
 70
     8
  9
$ATTDIA
 70
     0
  9
$ATTREQ
 70
     1
  9
$HANDLING
 70
     1
  9
$HANDSEED
  5
114DB
  9
$SURFTAB1
 70
     6
  9
$SURFTAB2
 70
     6
  9
$SURFTYPE
 70
     6
  9
$SURFU
 70
     6
  9
$SURFV
 70
     6
  9
$UCSNAME
  2

  9
$UCSORG
 10
0.0
 20
0.0
 30
0.0
  9
$UCSXDIR
 10
1.0
 20
0.0
 30
0.0
  9
$UCSYDIR
 10
0.0
 20
1.0
 30
0.0
  9
$PUCSNAME
  2

  9
$PUCSORG
 10
0.0
 20
0.0
 30
0.0
  9
$PUCSXDIR
 10
1.0
 20
0.0
 30
0.0
  9
$PUCSYDIR
 10
0.0
 20
1.0
 30
0.0
  9
$USERI1
 70
     0
  9
$USERI2
 70
     0
  9
$USERI3
 70
     0
  9
$USERI4
 70
     0
  9
$USERI5
 70
     0
  9
$USERR1
 40
0.0
  9
$USERR2
 40
0.0
  9
$USERR3
 40
0.0
  9
$USERR4
 40
0.0
  9
$USERR5
 40
0.0
  9
$WORLDVIEW
 70
     1
  9
$SHADEDGE
 70
     3
  9
$SHADEDIF
 70
    70
  9
$TILEMODE
 70
     1
  9
$MAXACTVP
 70
    16
  9
$PINSBASE
 10
0.0
 20
0.0
 30
0.0
  9
$PLIMCHECK
 70
     0
  9
$PEXTMIN
 10
1.000000000000000E+20
 20
1.000000000000000E+20
 30
1.000000000000000E+20
  9
$PEXTMAX
 10
-1.000000000000000E+20
 20
-1.000000000000000E+20
 30
-1.000000000000000E+20
  9
$PLIMMIN
 10
0.0
 20
0.0
  9
$PLIMMAX
 10
0.0
 20
0.0
  9
$UNITMODE
 70
     0
  9
$VISRETAIN
 70
     0
  9
$PLINEGEN
 70
     0
  9
$PSLTSCALE
 70
     0
  9
$TREEDEPTH
 70
  3020
  9
$PICKSTYLE
 70
     1
  9
$CMLSTYLE
  2
STANDARD
  9
$CMLJUST
 70
     0
  9
$CMLSCALE
 40
1.0
  9
$PROXYGRAPHICS
 70
     1
  9
$MEASUREMENT
 70
     0
  0
ENDSEC
  0
SECTION
  2
CLASSES
  0
CLASS
  1
HATCH
  2
AcDbHatch
  3
ObjectDBX Classes
 90
        0
280
     0
281
     1
  0
CLASS
  1
LWPOLYLINE
  2
AcDbPolyline
  3
ObjectDBX Classes
 90
        0
280
     0
281
     1
  0
CLASS
  1
DICTIONARYVAR
  2
AcDbDictionaryVar
  3
ObjectDBX Classes
 90
        0
280
     0
281
     0
  0
CLASS
  1
XRECORD
  2
AcDbXrecord
  3
ObjectDBX Classes
 90
        0
280
     0
281
     0
  0
CLASS
  1
SCALE
  2
AcDbScale
  3
ObjectDBX Classes
 90
     1153
280
     0
281
     0
  0
CLASS
  1
VISUALSTYLE
  2
AcDbVisualStyle
  3
ObjectDBX Classes
 90
     4095
280
     0
281
     0
  0
CLASS
  1
MATERIAL
  2
AcDbMaterial
  3
ObjectDBX Classes
 90
     1153
280
     0
281
     0
  0
CLASS
  1
TABLESTYLE
  2
AcDbTableStyle
  3
ObjectDBX Classes
 90
     4095
280
     0
281
     0
  0
CLASS
  1
MLEADERSTYLE
  2
AcDbMLeaderStyle
  3
ACDB_MLEADERSTYLE_CLASS
 90
     4095
280
     0
281
     0
  0
CLASS
  1
SUN
  2
AcDbSun
  3
SCENEOE
 90
     1153
280
     0
281
     0
  0
CLASS
  1
RASTERVARIABLES
  2
AcDbRasterVariables
  3
ISM
 90
        0
280
     0
281
     0
  0
CLASS
  1
ACDBDICTIONARYWDFLT
  2
AcDbDictionaryWithDefault
  3
ObjectDBX Classes
 90
        0
280
     0
281
     0
  0
CLASS
  1
DIMASSOC
  2
AcDbDimAssoc
  3
"AcDbDimAssoc|Product Desc:     AcDim ARX App For Dimension|Company:          Autodesk, Inc.|WEB Address:      www.autodesk.com"
 90
        0
280
     0
281
     0
  0
ENDSEC
  0
SECTION
  2
TABLES
  0
TABLE
  2
VPORT
  5
8
330
0
100
AcDbSymbolTable
 70
     1
  0
VPORT
  5
10E1C
330
8
100
AcDbSymbolTableRecord
100
AcDbViewportTableRecord
  2
*ACTIVE
 70
     0
 10
0.0
 20
0.0
 11
1.0
 21
1.0
 12
586.8564475000001
 22
148.5
 13
0.0
 23
0.0
 14
1.0
 24
1.0
 15
5.0
 25
5.0
 16
0.0
 26
0.0
 36
1.0
 17
0.0
 27
0.0
 37
0.0
 40
302.94
 41
2.443631039531479
 42
50.0
 43
0.0
 44
0.0
 50
0.0
 51
0.0
 71
    16
 72
   100
 73
     1
 74
     0
 75
     0
 76
     0
 77
     0
 78
     0
  0
ENDTAB
  0
TABLE
  2
LTYPE
  5
5
330
0
100
AcDbSymbolTable
 70
     4
  0
LTYPE
  5
12
330
5
100
AcDbSymbolTableRecord
100
AcDbLinetypeTableRecord
  2
BYBLOCK
 70
     0
  3

 72
    65
 73
     0
 40
0.0
  0
LTYPE
  5
13
330
5
100
AcDbSymbolTableRecord
100
AcDbLinetypeTableRecord
  2
BYLAYER
 70
     0
  3

 72
    65
 73
     0
 40
0.0
  0
LTYPE
  5
14
330
5
100
AcDbSymbolTableRecord
100
AcDbLinetypeTableRecord
  2
CONTINUOUS
 70
     0
  3
Solid line
 72
    65
 73
     0
 40
0.0
  0
LTYPE
  5
1D
330
5
100
AcDbSymbolTableRecord
100
AcDbLinetypeTableRecord
  2
CENTER
 70
     0
  3
____ _ ____ _ ____ _ ____ _ ____ _ ____ _ ____
 72
    65
 73
     4
 40
2.0
 49
1.25
 74
     0
 49
-0.25
 74
     0
 49
0.25
 74
     0
 49
-0.25
 74
     0
  0
LTYPE
  5
1E
330
5
100
AcDbSymbolTableRecord
100
AcDbLinetypeTableRecord
  2
HIDDEN
 70
     0
  3
_ _ _ _ _ _ _ _ _ _ _ _ _ _ _ _ _ _ _ _ _ _ _
 72
    65
 73
     2
 40
0.375
 49
0.25
 74
     0
 49
-0.125
 74
     0
  0
LTYPE
  5
8093
330
5
100
AcDbSymbolTableRecord
100
AcDbLinetypeTableRecord
  2
PHANTOM
 70
     0
  3
Phantom ______  __  __  ______  __  __  ______
 72
    65
 73
     6
 40
12.7
 49
6.35
 74
     0
 49
-1.27
 74
     0
 49
1.27
 74
     0
 49
-1.27
 74
     0
 49
1.27
 74
     0
 49
-1.27
 74
     0
  0
ENDTAB
  0
TABLE
  2
LAYER
  5
2
102
{ACAD_XDICTIONARY
360
111A1
102
}
330
0
100
AcDbSymbolTable
 70
    13
  0
LAYER
  5
F
330
2
100
AcDbSymbolTableRecord
100
AcDbLayerTableRecord
  2
0
 70
     0
 62
     7
  6
CONTINUOUS
  0
LAYER
  5
21
330
2
100
AcDbSymbolTableRecord
100
AcDbLayerTableRecord
  2
1
 70
     0
 62
     3
  6
CONTINUOUS
  0
LAYER
  5
22
330
2
100
AcDbSymbolTableRecord
100
AcDbLayerTableRecord
  2
2
 70
     0
 62
     6
  6
CONTINUOUS
  0
LAYER
  5
23
330
2
100
AcDbSymbolTableRecord
100
AcDbLayerTableRecord
  2
3
 70
     0
 62
     4
  6
HIDDEN
  0
LAYER
  5
24
330
2
100
AcDbSymbolTableRecord
100
AcDbLayerTableRecord
  2
OSIE
 70
     0
 62
     2
  6
CENTER
  0
LAYER
  5
25
330
2
100
AcDbSymbolTableRecord
100
AcDbLayerTableRecord
  2
WY
 70
     0
 62
     1
  6
CONTINUOUS
  0
LAYER
  5
26
330
2
100
AcDbSymbolTableRecord
100
AcDbLayerTableRecord
  2
DEFPOINTS
 70
     0
 62
     7
  6
CONTINUOUS
  0
LAYER
  5
464
330
2
100
AcDbSymbolTableRecord
100
AcDbLayerTableRecord
  2
WYMIARY
 70
     0
 62
     1
  6
CONTINUOUS
  0
LAYER
  5
FA0C
330
2
100
AcDbSymbolTableRecord
100
AcDbLayerTableRecord
  2
C
 70
     0
 62
     7
  6
CONTINUOUS
  0
LAYER
  5
FA0D
330
2
100
AcDbSymbolTableRecord
100
AcDbLayerTableRecord
  2
WYMSKALA1
 70
     0
 62
     1
  6
CONTINUOUS
  0
LAYER
  5
FA0E
330
2
100
AcDbSymbolTableRecord
100
AcDbLayerTableRecord
  2
WARSTWA_1
 70
     0
 62
     7
  6
CONTINUOUS
  0
LAYER
  5
10E70
330
2
100
AcDbSymbolTableRecord
100
AcDbLayerTableRecord
  2
WARSTWA3
 70
     0
 62
     3
  6
CONTINUOUS
  0
LAYER
  5
10E71
330
2
100
AcDbSymbolTableRecord
100
AcDbLayerTableRecord
  2
NAPISY
 70
     0
 62
     1
  6
CONTINUOUS
  0
ENDTAB
  0
TABLE
  2
STYLE
  5
3
330
0
100
AcDbSymbolTable
 70
     3
  0
STYLE
  5
10
330
3
100
AcDbSymbolTableRecord
100
AcDbTextStyleTableRecord
  2
STANDARD
 70
     0
 40
0.0
 41
1.0
 50
0.0
 71
     0
 42
6.0
  3
txt
  4

  0
STYLE
  5
1C
330
3
100
AcDbSymbolTableRecord
100
AcDbTextStyleTableRecord
  2
ITALIC
 70
     0
 40
0.0
 41
1.0
 50
15.0
 71
     0
 42
0.2
  3
simplex
  4

  0
STYLE
  5
FA0F
330
3
100
AcDbSymbolTableRecord
100
AcDbTextStyleTableRecord
  2
GOST
 70
     0
 40
0.0
 41
1.0
 50
15.0
 71
     0
 42
3.0
  3
ISO
  4

  0
ENDTAB
  0
TABLE
  2
VIEW
  5
6
330
0
100
AcDbSymbolTable
 70
     0
  0
ENDTAB
  0
TABLE
  2
UCS
  5
7
330
0
100
AcDbSymbolTable
 70
     0
  0
ENDTAB
  0
TABLE
  2
APPID
  5
9
330
0
100
AcDbSymbolTable
 70
     1
  0
APPID
  5
11
330
9
100
AcDbSymbolTableRecord
100
AcDbRegAppTableRecord
  2
ACAD
 70
     0
  0
ENDTAB
  0
TABLE
  2
DIMSTYLE
  5
A
330
0
100
AcDbSymbolTable
 70
     1
  0
DIMSTYLE
105
3B
102
{ACAD_REACTORS
330
1024A
330
10DAE
330
114A2
330
114B1
330
114C0
102
}
330
A
100
AcDbSymbolTableRecord
100
AcDbDimStyleTableRecord
  2
STANDARD
 70
     0
  3

  4

  5

  6

  7

 40
1.0
 41
3.5
 42
1.5
 43
7.0
 44
1.5
 45
0.0
 46
0.0
 47
0.1
 48
0.0
140
3.6
141
-1.0
142
0.0
143
25.4
144
1.0
145
0.0
146
1.0
147
1.5
 71
     0
 72
     0
 73
     0
 74
     0
 75
     0
 76
     0
 77
     1
 78
     0
170
     0
171
     2
172
     0
173
     0
174
     0
175
     0
176
     0
177
     0
178
     0
270
     2
271
     2
272
     4
273
     2
274
     2
340
10
275
     0
280
     0
281
     0
282
     0
283
     1
284
     0
285
     0
286
     0
287
     3
288
     0
  0
ENDTAB
  0
TABLE
  2
BLOCK_RECORD
  5
1
330
0
100
AcDbSymbolTable
 70
    17
  0
BLOCK_RECORD
  5
18
330
1
100
AcDbSymbolTableRecord
100
AcDbBlockTableRecord
  2
*MODEL_SPACE
  0
BLOCK_RECORD
  5
15
330
1
100
AcDbSymbolTableRecord
100
AcDbBlockTableRecord
  2
*PAPER_SPACE
  0
BLOCK_RECORD
  5
7EA0
330
1
100
AcDbSymbolTableRecord
100
AcDbBlockTableRecord
  2
A$C312173AA
  0
BLOCK_RECORD
  5
7F70
330
1
100
AcDbSymbolTableRecord
100
AcDbBlockTableRecord
  2
A$C54971FCD
  0
BLOCK_RECORD
  5
7FC9
330
1
100
AcDbSymbolTableRecord
100
AcDbBlockTableRecord
  2
A$C369D6037
  0
BLOCK_RECORD
  5
8081
330
1
100
AcDbSymbolTableRecord
100
AcDbBlockTableRecord
  2
A$C3D1C28BF
  0
BLOCK_RECORD
  5
F5B7
330
1
100
AcDbSymbolTableRecord
100
AcDbBlockTableRecord
  2
A$C0E9351C7
  0
BLOCK_RECORD
  5
F5E0
330
1
100
AcDbSymbolTableRecord
100
AcDbBlockTableRecord
  2
A$C54DB26EC
  0
BLOCK_RECORD
  5
F62B
330
1
100
AcDbSymbolTableRecord
100
AcDbBlockTableRecord
  2
A$C394A53EE
  0
BLOCK_RECORD
  5
10A7E
330
1
100
AcDbSymbolTableRecord
100
AcDbBlockTableRecord
  2
*D7
  0
BLOCK_RECORD
  5
10DA2
330
1
100
AcDbSymbolTableRecord
100
AcDbBlockTableRecord
  2
*D8
  0
BLOCK_RECORD
  5
10F13
330
1
100
AcDbSymbolTableRecord
100
AcDbBlockTableRecord
  2
A$C2E0C7790
  0
BLOCK_RECORD
  5
10F16
330
1
100
AcDbSymbolTableRecord
100
AcDbBlockTableRecord
  2
A$C38A41158
  0
BLOCK_RECORD
  5
11088
330
1
100
AcDbSymbolTableRecord
100
AcDbBlockTableRecord
  2
A$C371C7AD0
  0
BLOCK_RECORD
  5
11187
330
1
100
AcDbSymbolTableRecord
100
AcDbBlockTableRecord
  2
PŁYTKA_2
  0
BLOCK_RECORD
  5
114A5
330
1
100
AcDbSymbolTableRecord
100
AcDbBlockTableRecord
  2
*D14
  0
BLOCK_RECORD
  5
114B4
330
1
100
AcDbSymbolTableRecord
100
AcDbBlockTableRecord
  2
*D15
  0
BLOCK_RECORD
  5
114C3
330
1
100
AcDbSymbolTableRecord
100
AcDbBlockTableRecord
  2
*D16
  0
ENDTAB
  0
ENDSEC
  0
SECTION
  2
BLOCKS
  0
BLOCK
  5
29
330
18
100
AcDbEntity
  8
0
100
AcDbBlockBegin
  2
*MODEL_SPACE
 70
     0
 10
0.0
 20
0.0
 30
0.0
  3
*MODEL_SPACE
  1

  0
ENDBLK
  5
2A
330
18
100
AcDbEntity
  8
0
100
AcDbBlockEnd
  0
BLOCK
  5
27
330
15
100
AcDbEntity
 67
     1
  8
0
100
AcDbBlockBegin
  2
*PAPER_SPACE
 70
     0
 10
0.0
 20
0.0
 30
0.0
  3
*PAPER_SPACE
  1

  0
ENDBLK
  5
28
330
15
100
AcDbEntity
 67
     1
  8
0
100
AcDbBlockEnd
  0
BLOCK
  5
7EAF
330
7EA0
100
AcDbEntity
  8
0
100
AcDbBlockBegin
  2
A$C312173AA
 70
     0
 10
0.0
 20
0.0
 30
0.0
  3
A$C312173AA
  1
A$C312173AA
  0
HATCH
  5
7EA1
330
7EA0
100
AcDbEntity
  8
1
100
AcDbHatch
 10
0.0
 20
0.0
 30
0.0
210
0.0
220
0.0
230
1.0
  2
SOLID
 70
     1
 71
     1
 91
        1
 92
        7
 72
     0
 73
     1
 93
        4
 10
2.724690422176706
 20
5.013136352600668
 10
5.058157912552363
 20
1.095673373491763
 10
5.076413282682712
 20
1.095673373491763
 10
7.382430158279476
 20
5.013136352600668
 97
        4
330
7EA6
330
7EAA
330
7EA5
330
7EA8
 75
     0
 76
     1
 47
0.057765
 98
        1
 10
5.461965
 20
4.283681
  0
HATCH
  5
7EA2
330
7EA0
100
AcDbEntity
  8
1
100
AcDbHatch
 10
0.0
 20
0.0
 30
0.0
210
0.0
220
0.0
230
1.0
  2
SOLID
 70
     1
 71
     1
 91
        1
 92
        7
 72
     0
 73
     1
 93
        4
 10
2.724690422176706
 20
5.013136352600668
 10
5.058157912552363
 20
1.095673373491763
 10
5.076413282682712
 20
1.095673373491763
 10
7.382430158279476
 20
5.013136352600668
 97
        4
330
7EA4
330
7EA9
330
7EA3
330
7EA7
 75
     0
 76
     1
 47
0.057765
 98
        1
 10
5.461965
 20
4.283681
  0
LINE
  5
7EA3
102
{ACAD_REACTORS
330
7EA2
102
}
330
7EA0
100
AcDbEntity
  8
1
100
AcDbLine
 10
7.376974
 20
1.095673
 30
0.0
 11
2.719445
 21
1.095673
 31
0.0
  0
LINE
  5
7EA4
102
{ACAD_REACTORS
330
7EA2
102
}
330
7EA0
100
AcDbEntity
  8
1
100
AcDbLine
 10
2.716507
 20
5.013136
 30
0.0
 11
7.38243
 21
5.013136
 31
0.0
  0
LINE
  5
7EA5
102
{ACAD_REACTORS
330
7EA1
102
}
330
7EA0
100
AcDbEntity
  8
1
100
AcDbLine
 10
7.376974
 20
1.095673
 30
0.0
 11
2.719445
 21
1.095673
 31
0.0
  0
LINE
  5
7EA6
102
{ACAD_REACTORS
330
7EA1
102
}
330
7EA0
100
AcDbEntity
  8
1
100
AcDbLine
 10
2.716507
 20
5.013136
 30
0.0
 11
7.38243
 21
5.013136
 31
0.0
  0
LINE
  5
7EA7
102
{ACAD_REACTORS
330
7EA2
102
}
330
7EA0
100
AcDbEntity
  8
1
100
AcDbLine
 10
7.38243
 20
5.013136
 30
0.0
 11
5.049469
 21
1.0499
 31
0.0
  0
LINE
  5
7EA8
102
{ACAD_REACTORS
330
7EA1
102
}
330
7EA0
100
AcDbEntity
  8
1
100
AcDbLine
 10
7.38243
 20
5.013136
 30
0.0
 11
5.049469
 21
1.0499
 31
0.0
  0
LINE
  5
7EA9
102
{ACAD_REACTORS
330
7EA2
102
}
330
7EA0
100
AcDbEntity
  8
1
100
AcDbLine
 10
5.048209
 20
1.112376
 30
0.0
 11
2.719445
 21
5.021942
 31
0.0
  0
LINE
  5
7EAA
102
{ACAD_REACTORS
330
7EA1
102
}
330
7EA0
100
AcDbEntity
  8
1
100
AcDbLine
 10
5.048209
 20
1.112376
 30
0.0
 11
2.719445
 21
5.021942
 31
0.0
  0
LINE
  5
7EAB
330
7EA0
100
AcDbEntity
  8
1
100
AcDbLine
 10
3.176777
 20
2.240563
 30
0.0
 11
1.859991
 21
0.714974
 31
0.0
  0
LINE
  5
7EAC
330
7EA0
100
AcDbEntity
  8
1
100
AcDbLine
 10
1.935572
 20
2.29404
 30
0.0
 11
0.618786
 21
0.768452
 31
0.0
  0
HATCH
  5
7EAD
330
7EA0
100
AcDbEntity
  8
1
100
AcDbHatch
 10
0.0
 20
0.0
 30
0.0
210
0.0
220
0.0
230
1.0
  2
SOLID
 70
     1
 71
     0
 91
        1
 92
        7
 72
     0
 73
     1
 93
        3
 10
2.13435432304297
 20
0.5079866047149438
 10
1.594971700028992
 20
0.9149117569309055
 10
1.241204476589189
 20
0.0000001052034975
 97
        0
 75
     0
 76
     1
 47
0.009825
 98
        1
 10
1.617082
 20
0.370646
  0
HATCH
  5
7EAE
330
7EA0
100
AcDbEntity
  8
1
100
AcDbHatch
 10
0.0
 20
0.0
 30
0.0
210
0.0
220
0.0
230
1.0
  2
SOLID
 70
     1
 71
     0
 91
        1
 92
        7
 72
     0
 73
     1
 93
        3
 10
0.8931496793437361
 20
0.5614642425206
 10
0.3537670563297865
 20
0.9683893947365334
 10
-0.0000001671100733
 20
0.0534777430091538
 97
        0
 75
     0
 76
     1
 47
0.009825
 98
        1
 10
0.375878
 20
0.424123
  0
ENDBLK
  5
7EB0
330
7EA0
100
AcDbEntity
  8
0
100
AcDbBlockEnd
  0
BLOCK
  5
7FC7
330
7F70
100
AcDbEntity
  8
0
100
AcDbBlockBegin
  2
A$C54971FCD
 70
     0
 10
0.0
 20
0.0
 30
0.0
  3
A$C54971FCD
  1
A$C54971FCD
  0
LINE
  5
7F71
330
7F70
100
AcDbEntity
  8
1
100
AcDbLine
 10
6.05
 20
1.507465
 30
0.0
 11
5.82196
 21
3.612976
 31
0.0
  0
LINE
  5
7F72
330
7F70
100
AcDbEntity
  8
1
100
AcDbLine
 10
6.019458
 20
1.789458
 30
0.0
 11
6.11805
 21
3.55
 31
0.0
  0
LINE
  5
7F73
330
7F70
100
AcDbEntity
  8
1
100
AcDbLine
 10
4.65
 20
1.507465
 30
0.0
 11
4.878039
 21
3.612976
 31
0.0
  0
LINE
  5
7F74
330
7F70
100
AcDbEntity
  8
1
100
AcDbLine
 10
4.680541
 20
1.789458
 30
0.0
 11
4.581949
 21
3.55
 31
0.0
  0
LINE
  5
7F75
330
7F70
100
AcDbEntity
  8
OSIE
100
AcDbLine
 10
5.35
 20
3.35
 30
0.0
 11
5.35
 21
1.4
 31
0.0
  0
ARC
  5
7F76
330
7F70
100
AcDbEntity
  8
1
100
AcDbCircle
 10
5.35
 20
5.35
 30
0.0
 40
5.259241
100
AcDbArc
 50
205.906088
 51
334.093912
  0
ARC
  5
7F77
330
7F70
100
AcDbEntity
  8
1
100
AcDbCircle
 10
5.35
 20
5.35
 30
0.0
 40
3.622932
100
AcDbArc
 50
259.3514829999999
 51
280.648517
  0
ARC
  5
7F78
330
7F70
100
AcDbEntity
  8
1
100
AcDbCircle
 10
5.35
 20
5.35
 30
0.0
 40
3.905775
100
AcDbArc
 50
259.675564
 51
280.3244359999999
  0
LINE
  5
7F79
330
7F70
100
AcDbEntity
  8
1
100
AcDbLine
 10
4.65
 20
0.399243
 30
0.0
 11
4.65
 21
1.507465
 31
0.0
  0
LINE
  5
7F7A
330
7F70
100
AcDbEntity
  8
1
100
AcDbLine
 10
6.05
 20
0.399243
 30
0.0
 11
6.05
 21
1.507465
 31
0.0
  0
LINE
  5
7F7B
330
7F70
100
AcDbEntity
  8
OSIE
100
AcDbLine
 10
4.35
 20
5.35
 30
0.0
 11
6.35
 21
5.35
 31
0.0
  0
ARC
  5
7F7C
330
7F70
100
AcDbEntity
  8
1
100
AcDbCircle
 10
5.35
 20
5.35
 30
0.0
 40
1.8
100
AcDbArc
 50
74.79935
 51
105.20065
  0
ARC
  5
7F7D
330
7F70
100
AcDbEntity
  8
1
100
AcDbCircle
 10
5.35
 20
5.35
 30
0.0
 40
3.622932
100
AcDbArc
 50
79.351483
 51
100.648517
  0
ARC
  5
7F7E
330
7F70
100
AcDbEntity
  8
1
100
AcDbCircle
 10
5.35
 20
5.35
 30
0.0
 40
3.905775
100
AcDbArc
 50
79.675564
 51
100.324436
  0
ARC
  5
7F7F
330
7F70
100
AcDbEntity
  8
1
100
AcDbCircle
 10
5.35
 20
5.35
 30
0.0
 40
1.8
100
AcDbArc
 50
254.79935
 51
285.20065
  0
LINE
  5
7F80
330
7F70
100
AcDbEntity
  8
OSIE
 48
3.0
100
AcDbLine
 10
2.606298
 20
2.606299
 30
0.0
 11
8.093701
 21
8.093701
 31
0.0
  0
LINE
  5
7F81
330
7F70
100
AcDbEntity
  8
OSIE
 48
3.0
100
AcDbLine
 10
2.606298
 20
8.093701
 30
0.0
 11
8.093701
 21
2.606299
 31
0.0
  0
LINE
  5
7F82
330
7F70
100
AcDbEntity
  8
1
100
AcDbLine
 10
4.680541
 20
8.910542
 30
0.0
 11
4.581949
 21
7.15
 31
0.0
  0
LINE
  5
7F83
330
7F70
100
AcDbEntity
  8
1
100
AcDbLine
 10
4.65
 20
9.192535
 30
0.0
 11
4.878039
 21
7.087024
 31
0.0
  0
LINE
  5
7F84
330
7F70
100
AcDbEntity
  8
OSIE
100
AcDbLine
 10
5.35
 20
7.35
 30
0.0
 11
5.35
 21
9.3
 31
0.0
  0
LINE
  5
7F85
330
7F70
100
AcDbEntity
  8
1
100
AcDbLine
 10
3.55
 20
6.11805
 30
0.0
 11
4.295348
 21
6.404652
 31
0.0
  0
LINE
  5
7F86
330
7F70
100
AcDbEntity
  8
1
100
AcDbLine
 10
4.536087
 20
6.163912
 30
0.0
 11
4.878039
 21
7.087024
 31
0.0
  0
LINE
  5
7F87
330
7F70
100
AcDbEntity
  8
1
100
AcDbLine
 10
3.612975
 20
5.82196
 30
0.0
 11
4.536087
 21
6.163912
 31
0.0
  0
ARC
  5
7F88
330
7F70
100
AcDbEntity
  8
1
100
AcDbCircle
 10
5.35
 20
5.35
 30
0.0
 40
1.8
100
AcDbArc
 50
180.0
 51
195.20065
  0
LINE
  5
7F89
330
7F70
100
AcDbEntity
  8
1
100
AcDbLine
 10
3.612975
 20
5.82196
 30
0.0
 11
3.55
 21
6.11805
 31
0.0
  0
ARC
  5
7F8A
330
7F70
100
AcDbEntity
  8
1
100
AcDbCircle
 10
5.35
 20
5.35
 30
0.0
 40
1.8
100
AcDbArc
 50
164.79935
 51
180.0
  0
LINE
  5
7F8B
330
7F70
100
AcDbEntity
  8
1
100
AcDbLine
 10
4.295348
 20
6.404652
 30
0.0
 11
4.582681
 21
7.16307
 31
0.0
  0
LINE
  5
7F8C
330
7F70
100
AcDbEntity
  8
1
100
AcDbLine
 10
4.878039
 20
7.087024
 30
0.0
 11
4.581949
 21
7.15
 31
0.0
  0
ARC
  5
7F8D
330
7F70
100
AcDbEntity
  8
1
100
AcDbCircle
 10
5.35
 20
5.35
 30
0.0
 40
3.905775
100
AcDbArc
 50
180.0
 51
190.324436
  0
ARC
  5
7F8E
330
7F70
100
AcDbEntity
  8
1
100
AcDbCircle
 10
5.35
 20
5.35
 30
0.0
 40
3.905775
100
AcDbArc
 50
169.675564
 51
180.0
  0
ARC
  5
7F8F
330
7F70
100
AcDbEntity
  8
1
100
AcDbCircle
 10
5.35
 20
5.35
 30
0.0
 40
3.622932
100
AcDbArc
 50
180.0
 51
190.648517
  0
ARC
  5
7F90
330
7F70
100
AcDbEntity
  8
1
100
AcDbCircle
 10
5.35
 20
5.35
 30
0.0
 40
3.622932
100
AcDbArc
 50
169.351483
 51
180.0
  0
LINE
  5
7F91
330
7F70
100
AcDbEntity
  8
1
100
AcDbLine
 10
1.507465
 20
4.65
 30
0.0
 11
3.612975
 21
4.87804
 31
0.0
  0
LINE
  5
7F92
330
7F70
100
AcDbEntity
  8
1
100
AcDbLine
 10
1.507465
 20
6.05
 30
0.0
 11
3.612975
 21
5.82196
 31
0.0
  0
LINE
  5
7F93
330
7F70
100
AcDbEntity
  8
1
100
AcDbLine
 10
1.789458
 20
6.019459
 30
0.0
 11
3.55
 21
6.11805
 31
0.0
  0
LINE
  5
7F94
330
7F70
100
AcDbEntity
  8
OSIE
100
AcDbLine
 10
3.35
 20
5.35
 30
0.0
 11
1.4
 21
5.35
 31
0.0
  0
LINE
  5
7F95
330
7F70
100
AcDbEntity
  8
1
100
AcDbLine
 10
4.295348
 20
4.295348
 30
0.0
 11
4.582681
 21
3.53693
 31
0.0
  0
LINE
  5
7F96
330
7F70
100
AcDbEntity
  8
1
100
AcDbLine
 10
4.878039
 20
3.612976
 30
0.0
 11
4.581949
 21
3.55
 31
0.0
  0
LINE
  5
7F97
330
7F70
100
AcDbEntity
  8
1
100
AcDbLine
 10
4.536087
 20
4.536088
 30
0.0
 11
4.878039
 21
3.612976
 31
0.0
  0
LINE
  5
7F98
330
7F70
100
AcDbEntity
  8
1
100
AcDbLine
 10
3.55
 20
4.58195
 30
0.0
 11
4.295348
 21
4.295348
 31
0.0
  0
LINE
  5
7F99
330
7F70
100
AcDbEntity
  8
OSIE
100
AcDbLine
 10
5.35
 20
4.35
 30
0.0
 11
5.35
 21
6.35
 31
0.0
  0
LINE
  5
7F9A
330
7F70
100
AcDbEntity
  8
1
100
AcDbLine
 10
3.612975
 20
4.87804
 30
0.0
 11
4.536087
 21
4.536088
 31
0.0
  0
LINE
  5
7F9B
330
7F70
100
AcDbEntity
  8
1
100
AcDbLine
 10
1.789458
 20
4.680542
 30
0.0
 11
3.55
 21
4.58195
 31
0.0
  0
LINE
  5
7F9C
330
7F70
100
AcDbEntity
  8
1
100
AcDbLine
 10
3.612975
 20
4.87804
 30
0.0
 11
3.55
 21
4.58195
 31
0.0
  0
LINE
  5
7F9D
330
7F70
100
AcDbEntity
  8
1
100
AcDbLine
 10
4.65
 20
10.300758
 30
0.0
 11
4.65
 21
9.192535
 31
0.0
  0
LINE
  5
7F9E
330
7F70
100
AcDbEntity
  8
1
100
AcDbLine
 10
6.019458
 20
8.910542
 30
0.0
 11
6.11805
 21
7.15
 31
0.0
  0
LINE
  5
7F9F
330
7F70
100
AcDbEntity
  8
1
100
AcDbLine
 10
6.05
 20
9.192535
 30
0.0
 11
5.82196
 21
7.087024
 31
0.0
  0
ARC
  5
7FA0
330
7F70
100
AcDbEntity
  8
1
100
AcDbCircle
 10
5.35
 20
5.35
 30
0.0
 40
3.622932
100
AcDbArc
 50
349.351483
 51
360.0
  0
ARC
  5
7FA1
330
7F70
100
AcDbEntity
  8
1
100
AcDbCircle
 10
5.35
 20
5.35
 30
0.0
 40
3.905775
100
AcDbArc
 50
349.675564
 51
360.0
  0
ARC
  5
7FA2
330
7F70
100
AcDbEntity
  8
1
100
AcDbCircle
 10
5.35
 20
5.35
 30
0.0
 40
3.622932
100
AcDbArc
 50
0.0
 51
10.648517
  0
ARC
  5
7FA3
330
7F70
100
AcDbEntity
  8
1
100
AcDbCircle
 10
5.35
 20
5.35
 30
0.0
 40
3.905775
100
AcDbArc
 50
0.0
 51
10.324436
  0
LINE
  5
7FA4
330
7F70
100
AcDbEntity
  8
1
100
AcDbLine
 10
6.404651
 20
6.404652
 30
0.0
 11
7.16307
 21
6.117318
 31
0.0
  0
LINE
  5
7FA5
330
7F70
100
AcDbEntity
  8
1
100
AcDbLine
 10
5.82196
 20
7.087024
 30
0.0
 11
6.163912
 21
6.163912
 31
0.0
  0
LINE
  5
7FA6
330
7F70
100
AcDbEntity
  8
1
100
AcDbLine
 10
6.163912
 20
6.163912
 30
0.0
 11
7.087024
 21
5.82196
 31
0.0
  0
ARC
  5
7FA7
330
7F70
100
AcDbEntity
  8
1
100
AcDbCircle
 10
5.35
 20
5.35
 30
0.0
 40
1.8
100
AcDbArc
 50
344.7993499999999
 51
360.0
  0
ARC
  5
7FA8
330
7F70
100
AcDbEntity
  8
1
100
AcDbCircle
 10
5.35
 20
5.35
 30
0.0
 40
1.8
100
AcDbArc
 50
0.0
 51
15.20065
  0
LINE
  5
7FA9
330
7F70
100
AcDbEntity
  8
1
100
AcDbLine
 10
7.087024
 20
5.82196
 30
0.0
 11
7.15
 21
6.11805
 31
0.0
  0
LINE
  5
7FAA
330
7F70
100
AcDbEntity
  8
1
100
AcDbLine
 10
6.11805
 20
7.15
 30
0.0
 11
6.404651
 21
6.404652
 31
0.0
  0
LINE
  5
7FAB
330
7F70
100
AcDbEntity
  8
1
100
AcDbLine
 10
5.82196
 20
7.087024
 30
0.0
 11
6.11805
 21
7.15
 31
0.0
  0
LINE
  5
7FAC
330
7F70
100
AcDbEntity
  8
1
100
AcDbLine
 10
6.11805
 20
3.55
 30
0.0
 11
6.404651
 21
4.295348
 31
0.0
  0
LINE
  5
7FAD
330
7F70
100
AcDbEntity
  8
1
100
AcDbLine
 10
5.82196
 20
3.612976
 30
0.0
 11
6.11805
 21
3.55
 31
0.0
  0
LINE
  5
7FAE
330
7F70
100
AcDbEntity
  8
1
100
AcDbLine
 10
5.82196
 20
3.612976
 30
0.0
 11
6.163912
 21
4.536088
 31
0.0
  0
LINE
  5
7FAF
330
7F70
100
AcDbEntity
  8
1
100
AcDbLine
 10
6.404651
 20
4.295348
 30
0.0
 11
7.16307
 21
4.582682
 31
0.0
  0
LINE
  5
7FB0
330
7F70
100
AcDbEntity
  8
1
100
AcDbLine
 10
6.163912
 20
4.536088
 30
0.0
 11
7.087024
 21
4.87804
 31
0.0
  0
LINE
  5
7FB1
330
7F70
100
AcDbEntity
  8
1
100
AcDbLine
 10
7.087024
 20
4.87804
 30
0.0
 11
7.15
 21
4.58195
 31
0.0
  0
LINE
  5
7FB2
330
7F70
100
AcDbEntity
  8
1
100
AcDbLine
 10
9.192535
 20
4.65
 30
0.0
 11
7.087024
 21
4.87804
 31
0.0
  0
LINE
  5
7FB3
330
7F70
100
AcDbEntity
  8
1
100
AcDbLine
 10
8.910542
 20
4.680542
 30
0.0
 11
7.15
 21
4.58195
 31
0.0
  0
LINE
  5
7FB4
330
7F70
100
AcDbEntity
  8
1
100
AcDbLine
 10
8.910542
 20
6.019459
 30
0.0
 11
7.15
 21
6.11805
 31
0.0
  0
LINE
  5
7FB5
330
7F70
100
AcDbEntity
  8
1
100
AcDbLine
 10
9.192535
 20
6.05
 30
0.0
 11
7.087024
 21
5.82196
 31
0.0
  0
LINE
  5
7FB6
330
7F70
100
AcDbEntity
  8
OSIE
100
AcDbLine
 10
7.35
 20
5.35
 30
0.0
 11
9.3
 21
5.35
 31
0.0
  0
LINE
  5
7FB7
330
7F70
100
AcDbEntity
  8
1
100
AcDbLine
 10
10.556845
 20
6.539065
 30
0.0
 11
10.660275
 21
5.948524
 31
0.0
  0
LINE
  5
7FB8
330
7F70
100
AcDbEntity
  8
1
100
AcDbLine
 10
10.15
 20
7.664915
 30
0.0
 11
10.385993
 21
7.113751
 31
0.0
  0
LINE
  5
7FB9
330
7F70
100
AcDbEntity
  8
1
100
AcDbLine
 10
10.385993
 20
7.113751
 30
0.0
 11
10.556845
 21
6.539065
 31
0.0
  0
LINE
  5
7FBA
330
7F70
100
AcDbEntity
  8
1
100
AcDbLine
 10
10.080746
 20
7.647749
 30
0.0
 11
10.15
 21
7.580424
 31
0.0
  0
LINE
  5
7FBB
330
7F70
100
AcDbEntity
  8
1
100
AcDbLine
 10
10.660275
 20
5.948524
 30
0.0
 11
10.694906
 21
5.35
 31
0.0
  0
LINE
  5
7FBC
330
7F70
100
AcDbEntity
  8
1
100
AcDbLine
 10
10.694906
 20
5.35
 30
0.0
 11
10.660275
 21
4.751477
 31
0.0
  0
LINE
  5
7FBD
330
7F70
100
AcDbEntity
  8
1
100
AcDbLine
 10
10.556845
 20
4.160935
 30
0.0
 11
10.385993
 21
3.58625
 31
0.0
  0
LINE
  5
7FBE
330
7F70
100
AcDbEntity
  8
1
100
AcDbLine
 10
10.385993
 20
3.58625
 30
0.0
 11
10.15
 21
3.035085
 31
0.0
  0
LINE
  5
7FBF
330
7F70
100
AcDbEntity
  8
1
100
AcDbLine
 10
10.080746
 20
3.052252
 30
0.0
 11
10.15
 21
3.119576
 31
0.0
  0
LINE
  5
7FC0
330
7F70
100
AcDbEntity
  8
1
100
AcDbLine
 10
10.660275
 20
4.751477
 30
0.0
 11
10.556845
 21
4.160935
 31
0.0
  0
LINE
  5
7FC1
330
7F70
100
AcDbEntity
  8
1
100
AcDbLine
 10
6.05
 20
10.300758
 30
0.0
 11
6.05
 21
9.192535
 31
0.0
  0
ARC
  5
7FC2
330
7F70
100
AcDbEntity
  8
1
100
AcDbCircle
 10
5.35
 20
5.35
 30
0.0
 40
5.0
100
AcDbArc
 50
0.0
 51
180.0
  0
CIRCLE
  5
7FC3
330
7F70
100
AcDbEntity
  8
1
100
AcDbCircle
 10
5.35
 20
5.35
 30
0.0
 40
5.35
  0
ARC
  5
7FC4
330
7F70
100
AcDbEntity
  8
1
100
AcDbCircle
 10
5.35
 20
5.35
 30
0.0
 40
5.0
100
AcDbArc
 50
180.0
 51
0.0
  0
ARC
  5
7FC5
330
7F70
100
AcDbEntity
  8
1
100
AcDbCircle
 10
5.35
 20
5.35
 30
0.0
 40
5.259241
100
AcDbArc
 50
25.906088
 51
154.093912
  0
LINE
  5
7FC6
330
7F70
100
AcDbEntity
  8
1
100
AcDbLine
 10
0.314006
 20
3.58625
 30
0.0
 11
0.143155
 21
4.160935
 31
0.0
  0
ENDBLK
  5
7FC8
330
7F70
100
AcDbEntity
  8
0
100
AcDbBlockEnd
  0
BLOCK
  5
7FCB
330
7FC9
100
AcDbEntity
  8
0
100
AcDbBlockBegin
  2
A$C369D6037
 70
     0
 10
0.0
 20
0.0
 30
0.0
  3
A$C369D6037
  1
A$C369D6037
  0
INSERT
  5
7FCA
330
7FC9
100
AcDbEntity
  8
1
100
AcDbBlockReference
  2
A$C312173AA
 10
0.0
 20
0.0
 30
0.0
  0
ENDBLK
  5
7FCC
330
7FC9
100
AcDbEntity
  8
0
100
AcDbBlockEnd
  0
BLOCK
  5
8091
330
8081
100
AcDbEntity
  8
0
 62
     3
100
AcDbBlockBegin
  2
A$C3D1C28BF
 70
     0
 10
0.0
 20
0.0
 30
0.0
  3
A$C3D1C28BF
  1
A$C3D1C28BF
  0
LINE
  5
8082
330
8081
100
AcDbEntity
  8
WYMIARY
 62
     3
100
AcDbLine
 10
60.772901
 20
28.671415
 30
0.0
 11
21.812605
 21
56.839707
 31
0.0
  0
LINE
  5
8083
330
8081
100
AcDbEntity
  8
WYMIARY
 62
     3
100
AcDbLine
 10
87.562069
 20
22.937132
 30
0.0
 11
109.230664
 21
55.263482
 31
0.0
  0
LINE
  5
8084
330
8081
100
AcDbEntity
  8
WYMIARY
 62
     3
100
AcDbLine
 10
73.784782
 20
19.496562
 30
0.0
 11
73.784782
 21
49.697118
 31
0.0
  0
LINE
  5
8085
330
8081
100
AcDbEntity
  8
WYMIARY
 62
     3
100
AcDbLine
 10
88.327474
 20
0.0
 30
0.0
 11
149.559859
 21
49.697118
 31
0.0
  0
TEXT
  5
8086
330
8081
100
AcDbEntity
  8
WY
 62
     3
100
AcDbText
 10
94.795662
 20
57.462112
 30
0.0
 40
2.0
  1
Description plate GZT4-0035
 51
15.0
  7
ITALIC
100
AcDbText
  0
TEXT
  5
8087
330
8081
100
AcDbEntity
  8
WY
 62
     3
100
AcDbText
 10
94.795662
 20
60.76955
 30
0.0
 40
2.0
  1
Płytka do opisu GZT4-0035
 51
15.0
  7
ITALIC
100
AcDbText
  0
TEXT
  5
8088
330
8081
100
AcDbEntity
  8
WY
 62
     3
100
AcDbText
 10
-0.000001
 20
58.652527
 30
0.0
 40
2.0
  1
Retainer / retractor clip GZT80-0040
 51
15.0
  7
ITALIC
100
AcDbText
  0
TEXT
  5
8089
330
8081
100
AcDbEntity
  8
WY
 62
     3
100
AcDbText
 10
0.183542
 20
61.683112
 30
0.0
 40
2.0
  1
Obejma wyrzutnikowa GZT80-0040
 51
15.0
  7
ITALIC
100
AcDbText
  0
TEXT
  5
808A
330
8081
100
AcDbEntity
  8
WY
 62
     3
100
AcDbText
 10
63.255465
 20
54.536716
 30
0.0
 40
2.0
  1
Przekaźnik R2
 51
15.0
  7
ITALIC
100
AcDbText
  0
TEXT
  5
808B
330
8081
100
AcDbEntity
  8
WY
 62
     3
100
AcDbText
 10
63.255465
 20
51.229278
 30
0.0
 40
2.0
  1
Relay R2
 51
15.0
  7
ITALIC
100
AcDbText
  0
TEXT
  5
808C
330
8081
100
AcDbEntity
  8
WY
 62
     3
100
AcDbText
 10
145.711378
 20
51.660487
 30
0.0
 40
2.0
  1
Socket GZM2
 51
15.0
  7
ITALIC
100
AcDbText
  0
TEXT
  5
808D
330
8081
100
AcDbEntity
  8
WY
 62
     3
100
AcDbText
 10
145.711378
 20
54.967926
 30
0.0
 40
2.0
  1
Gniazdo GZM2
 51
15.0
  7
ITALIC
100
AcDbText
  0
TEXT
  5
808E
330
8081
100
AcDbEntity
  8
WY
 62
     3
100
AcDbText
 10
0.97021
 20
41.467875
 30
0.0
 40
2.0
  1
Moduł typu M...
 51
15.0
  7
ITALIC
100
AcDbText
  0
LINE
  5
808F
330
8081
100
AcDbEntity
  8
WYMIARY
 62
     3
100
AcDbLine
 10
45.273452
 20
9.557138
 30
0.0
 11
10.638884
 21
36.508268
 31
0.0
  0
TEXT
  5
8090
330
8081
100
AcDbEntity
  8
WY
 62
     3
100
AcDbText
 10
0.97021
 20
38.160437
 30
0.0
 40
2.0
  1
Module type M...
 51
15.0
  7
ITALIC
100
AcDbText
  0
ENDBLK
  5
8092
330
8081
100
AcDbEntity
  8
0
 62
     3
100
AcDbBlockEnd
  0
BLOCK
  5
F5D1
330
F5B7
100
AcDbEntity
  8
0
100
AcDbBlockBegin
  2
A$C0E9351C7
 70
     0
 10
0.0
 20
0.0
 30
0.0
  3
A$C0E9351C7
  1
A$C0E9351C7
  0
LINE
  5
F5B8
330
F5B7
100
AcDbEntity
  8
OSIE
100
AcDbLine
 10
8.764174
 20
5.49817
 30
0.0
 11
9.488025
 21
10.329783
 31
0.0
  0
LINE
  5
F5B9
330
F5B7
100
AcDbEntity
  8
1
100
AcDbLine
 10
2.621114
 20
9.931965
 30
0.0
 11
0.608192
 21
10.233941
 31
0.0
  0
ARC
  5
F5BA
330
F5B7
100
AcDbEntity
  8
1
100
AcDbCircle
 10
0.548848
 20
9.838368
 30
0.0
 40
0.4
100
AcDbArc
 50
81.468169
 51
171.468169
  0
LINE
  5
F5BB
330
F5B7
100
AcDbEntity
  8
1
100
AcDbLine
 10
2.621114
 20
9.931965
 30
0.0
 11
17.949988
 21
7.635941
 31
0.0
  0
CIRCLE
  5
F5BC
330
F5B7
100
AcDbEntity
  8
1
100
AcDbCircle
 10
13.937191
 20
3.818016
 30
0.0
 40
1.201329
  0
LINE
  5
F5BD
330
F5B7
100
AcDbEntity
  8
1
100
AcDbLine
 10
17.243285
 20
5.67666
 30
0.0
 11
0.705916
 21
8.154365
 31
0.0
  0
LINE
  5
F5BE
330
F5B7
100
AcDbEntity
  8
1
100
AcDbLine
 10
0.153275
 20
9.897712
 30
0.0
 11
0.0
 21
8.876011
 31
0.0
  0
LINE
  5
F5BF
330
F5B7
100
AcDbEntity
  8
1
100
AcDbLine
 10
0.0
 20
8.876011
 30
0.0
 11
0.709949
 21
8.150242
 31
0.0
  0
CIRCLE
  5
F5C0
330
F5B7
100
AcDbEntity
  8
1
100
AcDbCircle
 10
3.324336
 20
5.411576
 30
0.0
 40
1.201329
  0
LINE
  5
F5C1
330
F5B7
100
AcDbEntity
  8
1
100
AcDbLine
 10
4.512442
 20
5.233822
 30
0.0
 11
4.855969
 21
7.529948
 31
0.0
  0
LINE
  5
F5C2
330
F5B7
100
AcDbEntity
  8
1
100
AcDbLine
 10
3.502721
 20
6.599587
 30
0.0
 11
3.668494
 21
7.707609
 31
0.0
  0
LINE
  5
F5C3
330
F5B7
100
AcDbEntity
  8
WY
100
AcDbLine
 10
2.735921
 20
5.411576
 30
0.0
 11
3.759743
 21
5.411576
 31
0.0
  0
LINE
  5
F5C4
330
F5B7
100
AcDbEntity
  8
WY
100
AcDbLine
 10
3.324336
 20
4.852926
 30
0.0
 11
3.324336
 21
5.941379
 31
0.0
  0
LINE
  5
F5C5
330
F5B7
100
AcDbEntity
  8
WY
100
AcDbLine
 10
2.928739
 20
5.470762
 30
0.0
 11
3.719933
 21
5.35239
 31
0.0
  0
LINE
  5
F5C6
330
F5B7
100
AcDbEntity
  8
WY
100
AcDbLine
 10
3.26515
 20
5.015979
 30
0.0
 11
3.383522
 21
5.807173
 31
0.0
  0
LINE
  5
F5C7
330
F5B7
100
AcDbEntity
  8
WY
100
AcDbLine
 10
13.878005
 20
3.422419
 30
0.0
 11
13.996377
 21
4.213613
 31
0.0
  0
LINE
  5
F5C8
330
F5B7
100
AcDbEntity
  8
OSIE
100
AcDbLine
 10
12.749086
 20
3.99577
 30
0.0
 11
13.093455
 21
6.297523
 31
0.0
  0
LINE
  5
F5C9
330
F5B7
100
AcDbEntity
  8
WY
100
AcDbLine
 10
13.541594
 20
3.877202
 30
0.0
 11
14.332788
 21
3.75883
 31
0.0
  0
LINE
  5
F5CA
330
F5B7
100
AcDbEntity
  8
OSIE
100
AcDbLine
 10
14.114945
 20
5.006121
 30
0.0
 11
14.28156
 21
6.119769
 31
0.0
  0
LINE
  5
F5CB
330
F5B7
100
AcDbEntity
  8
1
100
AcDbLine
 10
18.286333
 20
7.181168
 30
0.0
 11
18.133931
 21
6.162524
 31
0.0
  0
ARC
  5
F5CC
330
F5B7
100
AcDbEntity
  8
1
100
AcDbCircle
 10
17.890736
 20
7.240354
 30
0.0
 40
0.4
100
AcDbArc
 50
351.490988
 51
81.481326
  0
LINE
  5
F5CD
330
F5B7
100
AcDbEntity
  8
1
100
AcDbLine
 10
15.29066
 20
5.968796
 30
0.0
 11
16.890886
 21
5.729383
 31
0.0
  0
LINE
  5
F5CE
330
F5B7
100
AcDbEntity
  8
1
100
AcDbLine
 10
18.133931
 20
6.162524
 30
0.0
 11
17.243285
 21
5.67666
 31
0.0
  0
LINE
  5
F5CF
330
F5B7
100
AcDbEntity
  8
1
100
AcDbLine
 10
18.324138
 20
0.0
 30
0.0
 11
18.324138
 21
1.372117
 31
0.0
  0
POINT
  5
F5D0
330
F5B7
100
AcDbEntity
  8
DEFPOINTS
  6
BYBLOCK
 62
     0
100
AcDbPoint
 10
15.29066
 20
5.968796
 30
0.0
  0
ENDBLK
  5
F5D2
330
F5B7
100
AcDbEntity
  8
0
100
AcDbBlockEnd
  0
BLOCK
  5
F604
330
F5E0
100
AcDbEntity
  8
0
 62
     3
100
AcDbBlockBegin
  2
A$C54DB26EC
 70
     0
 10
0.0
 20
0.0
 30
0.0
  3
A$C54DB26EC
  1
A$C54DB26EC
  0
LINE
  5
F5E1
330
F5E0
100
AcDbEntity
  8
1
  6
CONTINUOUS
 62
     3
100
AcDbLine
 10
3.795018
 20
0.552
 30
0.0
 11
23.06175
 21
0.552
 31
0.0
  0
LINE
  5
F5E2
330
F5E0
100
AcDbEntity
  8
1
  6
CONTINUOUS
 62
     3
100
AcDbLine
 10
0.441647
 20
15.009598
 30
0.0
 11
28.051647
 21
15.009598
 31
0.0
  0
LINE
  5
F5E3
330
F5E0
100
AcDbEntity
  8
1
  6
CONTINUOUS
 62
     3
100
AcDbLine
 10
0.24085
 20
14.808801
 30
0.0
 11
0.24085
 21
0.552
 31
0.0
  0
LINE
  5
F5E4
330
F5E0
100
AcDbEntity
  8
1
  6
CONTINUOUS
 62
     3
100
AcDbLine
 10
1.3
 20
0.03497
 30
0.0
 11
1.3
 21
15.13497
 31
0.0
  0
LINE
  5
F5E5
330
F5E0
100
AcDbEntity
  8
1
  6
CONTINUOUS
 62
     3
100
AcDbLine
 10
1.299999
 20
0.034383
 30
0.0
 11
1.299999
 21
15.334383
 31
0.0
  0
LINE
  5
F5E6
330
F5E0
100
AcDbEntity
  8
1
  6
CONTINUOUS
 62
     3
100
AcDbLine
 10
1.3
 20
0.03497
 30
0.0
 11
1.3
 21
15.13497
 31
0.0
  0
LINE
  5
F5E7
330
F5E0
100
AcDbEntity
  8
1
  6
CONTINUOUS
 62
     3
100
AcDbLine
 10
3.493812
 20
0.049997
 30
0.0
 11
3.795011
 21
0.551994
 31
0.0
  0
LINE
  5
F5E8
330
F5E0
100
AcDbEntity
  8
1
  6
CONTINUOUS
 62
     3
100
AcDbLine
 10
2.188612
 20
0.552001
 30
0.0
 11
2.489814
 21
0.049998
 31
0.0
  0
LINE
  5
F5E9
330
F5E0
100
AcDbEntity
  8
1
  6
CONTINUOUS
 62
     3
100
AcDbLine
 10
5.183459
 20
0.552
 30
0.0
 11
5.183459
 21
0.05
 31
0.0
  0
LINE
  5
F5EA
330
F5E0
100
AcDbEntity
  8
1
  6
CONTINUOUS
 62
     3
100
AcDbLine
 10
4.681459
 20
0.552
 30
0.0
 11
4.681459
 21
0.05
 31
0.0
  0
LINE
  5
F5EB
330
F5E0
100
AcDbEntity
  8
1
  6
CONTINUOUS
 62
     3
100
AcDbLine
 10
1.403459
 20
0.552
 30
0.0
 11
1.403459
 21
0.05
 31
0.0
  0
LINE
  5
F5EC
330
F5E0
100
AcDbEntity
  8
1
  6
CONTINUOUS
 62
     3
100
AcDbLine
 10
0.901459
 20
0.552
 30
0.0
 11
0.901459
 21
0.05
 31
0.0
  0
LINE
  5
F5ED
330
F5E0
100
AcDbEntity
  8
1
  6
CONTINUOUS
 62
     3
100
AcDbLine
 10
0.24085
 20
0.552
 30
0.0
 11
2.188612
 21
0.552
 31
0.0
  0
ARC
  5
F5EE
330
F5E0
100
AcDbEntity
  8
1
  6
CONTINUOUS
 62
     3
100
AcDbCircle
 10
0.441647
 20
14.808801
 30
0.0
 40
0.2008
100
AcDbArc
 50
90.000003
 51
180.000005
  0
LINE
  5
F5EF
330
F5E0
100
AcDbEntity
  8
3
100
AcDbLine
 10
27.002462
 20
15.15
 30
0.0
 11
27.002462
 21
0.05
 31
0.0
  0
LINE
  5
F5F0
330
F5E0
100
AcDbEntity
  8
1
  6
CONTINUOUS
 62
     3
100
AcDbLine
 10
28.252459
 20
14.808801
 30
0.0
 11
28.252459
 21
0.552
 31
0.0
  0
LINE
  5
F5F1
330
F5E0
100
AcDbEntity
  8
1
  6
CONTINUOUS
 62
     3
100
AcDbLine
 10
27.01161
 20
15.13497
 30
0.0
 11
27.01161
 21
0.03497
 31
0.0
  0
LINE
  5
F5F2
330
F5E0
100
AcDbEntity
  8
1
  6
CONTINUOUS
 62
     3
100
AcDbLine
 10
27.011609
 20
15.13497
 30
0.0
 11
27.011609
 21
0.03497
 31
0.0
  0
LINE
  5
F5F3
330
F5E0
100
AcDbEntity
  8
1
  6
CONTINUOUS
 62
     3
100
AcDbLine
 10
27.011609
 20
15.134383
 30
0.0
 11
27.011609
 21
0.034383
 31
0.0
  0
LINE
  5
F5F4
330
F5E0
100
AcDbEntity
  8
1
  6
CONTINUOUS
 62
     3
100
AcDbLine
 10
27.01161
 20
15.13497
 30
0.0
 11
27.01161
 21
0.03497
 31
0.0
  0
LINE
  5
F5F5
330
F5E0
100
AcDbEntity
  8
1
100
AcDbLine
 10
17.620689
 20
0.284383
 30
0.0
 11
17.620689
 21
0.034383
 31
0.0
  0
LINE
  5
F5F6
330
F5E0
100
AcDbEntity
  8
1
  6
CONTINUOUS
 62
     3
100
AcDbLine
 10
21.814444
 20
0.552
 30
0.0
 11
21.814444
 21
0.034383
 31
0.0
  0
LINE
  5
F5F7
330
F5E0
100
AcDbEntity
  8
1
  6
CONTINUOUS
 62
     3
100
AcDbLine
 10
20.810444
 20
0.552
 30
0.0
 11
20.810444
 21
0.034383
 31
0.0
  0
LINE
  5
F5F8
330
F5E0
100
AcDbEntity
  8
1
  6
CONTINUOUS
 62
     3
100
AcDbLine
 10
23.362965
 20
0.049967
 30
0.0
 11
23.061759
 21
0.551977
 31
0.0
  0
LINE
  5
F5F9
330
F5E0
100
AcDbEntity
  8
1
  6
CONTINUOUS
 62
     3
100
AcDbLine
 10
25.850459
 20
0.552
 30
0.0
 11
25.850459
 21
0.0
 31
0.0
  0
LINE
  5
F5FA
330
F5E0
100
AcDbEntity
  8
1
  6
CONTINUOUS
 62
     3
100
AcDbLine
 10
24.668171
 20
0.552006
 30
0.0
 11
24.366956
 21
0.050002
 31
0.0
  0
LINE
  5
F5FB
330
F5E0
100
AcDbEntity
  8
1
  6
CONTINUOUS
 62
     3
100
AcDbLine
 10
26.854459
 20
0.552
 30
0.0
 11
26.854459
 21
0.0
 31
0.0
  0
LINE
  5
F5FC
330
F5E0
100
AcDbEntity
  8
1
  6
CONTINUOUS
 62
     3
100
AcDbLine
 10
15.772731
 20
0.552
 30
0.0
 11
15.772731
 21
0.3
 31
0.0
  0
LINE
  5
F5FD
330
F5E0
100
AcDbEntity
  8
1
  6
CONTINUOUS
 62
     3
100
AcDbLine
 10
16.776731
 20
0.552
 30
0.0
 11
16.776731
 21
0.3
 31
0.0
  0
LINE
  5
F5FE
330
F5E0
100
AcDbEntity
  8
WYMSKALA1
 62
     3
100
AcDbLine
 10
15.238099
 20
0.284383
 30
0.0
 11
15.083879
 21
0.285113
 31
0.0
  0
LINE
  5
F5FF
330
F5E0
100
AcDbEntity
  8
1
100
AcDbLine
 10
17.620689
 20
0.284383
 30
0.0
 11
15.238099
 21
0.284383
 31
0.0
  0
LINE
  5
F600
330
F5E0
100
AcDbEntity
  8
1
  6
CONTINUOUS
 62
     3
100
AcDbLine
 10
24.668172
 20
0.552
 30
0.0
 11
28.252459
 21
0.552
 31
0.0
  0
LINE
  5
F601
330
F5E0
100
AcDbEntity
  8
1
  6
CONTINUOUS
 62
     3
100
AcDbLine
 10
26.796647
 20
0.552
 30
0.0
 11
27.901053
 21
0.552
 31
0.0
  0
ARC
  5
F602
330
F5E0
100
AcDbEntity
  8
1
  6
CONTINUOUS
 62
     3
100
AcDbCircle
 10
28.051647
 20
14.808801
 30
0.0
 40
0.2008
100
AcDbArc
 50
0.0
 51
90.000003
  0
LINE
  5
F603
330
F5E0
100
AcDbEntity
  8
1
  6
CONTINUOUS
 62
     3
100
AcDbLine
 10
0.0
 20
15.33497
 30
0.0
 11
1.1
 21
15.33497
 31
0.0
  0
ENDBLK
  5
F605
330
F5E0
100
AcDbEntity
  8
0
 62
     3
100
AcDbBlockEnd
  0
BLOCK
  5
F997
330
F62B
100
AcDbEntity
  8
0
 62
     2
100
AcDbBlockBegin
  2
A$C394A53EE
 70
     0
 10
0.0
 20
0.0
 30
0.0
  3
A$C394A53EE
  1
A$C394A53EE
  0
HATCH
  5
F62C
330
F62B
100
AcDbEntity
  8
0
  6
CONTINUOUS
 62
    20
100
AcDbHatch
 10
0.0
 20
0.0
 30
0.0
210
0.0
220
0.0
230
1.0
  2
SOLID
 70
     1
 71
     1
 91
        2
 92
        7
 72
     0
 73
     1
 93
       87
 10
2.730075769928969
 20
0.7449929936242992
 10
3.115937769928968
 20
0.7449929936242992
 10
3.115937769928968
 20
1.181373993624296
 10
3.114642769928968
 20
1.209377993624302
 10
3.110847769928967
 20
1.235271993624307
 10
3.104504769928966
 20
1.259236993624301
 10
3.095705769928969
 20
1.281381993624299
 10
3.084422769928968
 20
1.301637993624295
 10
3.070575769928972
 20
1.320161993624294
 10
3.054248769928966
 20
1.336929993624299
 10
3.03526476992897
 20
1.352027993624297
 10
3.013733769928974
 20
1.365370993624296
 10
2.989437769928968
 20
1.377023993624298
 10
2.962489769928966
 20
1.386944993624299
 10
2.932796769928972
 20
1.395106993624298
 10
2.900426769928965
 20
1.401448993624299
 10
2.865331769928968
 20
1.406035993624299
 10
2.827540769928966
 20
1.408755993624299
 10
2.787004769928967
 20
1.409724993624299
 10
2.746997769928967
 20
1.408736993624298
 10
2.709623769928971
 20
1.405881993624299
 10
2.67494976992897
 20
1.401141993624299
 10
2.642906769928969
 20
1.394515993624299
 10
2.613587769928968
 20
1.386043993624299
 10
2.586941769928968
 20
1.375728993624299
 10
2.562934769928967
 20
1.363614993624298
 10
2.541556769928968
 20
1.349720993624298
 10
2.522835769928969
 20
1.3340079936243
 10
2.506619769928967
 20
1.316515993624298
 10
2.492926769928967
 20
1.297184993624298
 10
2.481666769928969
 20
1.276003993624301
 10
2.472910769928968
 20
1.252873993624298
 10
2.466611769928968
 20
1.227767993624299
 10
2.462815769928969
 20
1.2006659936243
 10
2.461520769928968
 20
1.171385993624293
 10
2.461520769928968
 20
0.4716109936243022
 10
2.462815769928968
 20
0.4422679936243016
 10
2.466611769928968
 20
0.4151659936243018
 10
2.472910769928969
 20
0.3900359936243008
 10
2.481666769928968
 20
0.3669259936243004
 10
2.49292676992897
 20
0.3457049936242983
 10
2.506619769928968
 20
0.3264139936242981
 10
2.522835769928968
 20
0.3089219936242999
 10
2.541556769928967
 20
0.2932519936243009
 10
2.562934769928967
 20
0.2793149936242986
 10
2.586941769928971
 20
0.2672009936242996
 10
2.613587769928969
 20
0.2568859936242989
 10
2.642906769928969
 20
0.2484609936242989
 10
2.674949769928969
 20
0.2418109936242993
 10
2.709623769928969
 20
0.2370909936242992
 10
2.746997769928969
 20
0.2342409936242991
 10
2.787004769928968
 20
0.2332959936242989
 10
2.827540769928968
 20
0.2342169936242988
 10
2.865331769928968
 20
0.2369369936242989
 10
2.900402769928969
 20
0.2414809936242991
 10
2.93279676992897
 20
0.2478899936242992
 10
2.96248976992897
 20
0.2560119936242995
 10
2.989437769928967
 20
0.265952993624299
 10
3.013713769928969
 20
0.2776069936242995
 10
3.035264769928969
 20
0.2909929936243004
 10
3.054248769928968
 20
0.3060479936243
 10
3.070575769928968
 20
0.3228149936242999
 10
3.084422769928969
 20
0.3413149936242993
 10
3.095705769928966
 20
0.3615949936242969
 10
3.10450476992897
 20
0.3836699936243058
 10
3.110847769928967
 20
0.4077009936242958
 10
3.114642769928969
 20
0.4335789936242997
 10
3.115937769928968
 20
0.4616459936242968
 10
3.115937769928968
 20
0.6267479936242993
 10
2.847378769928969
 20
0.6267479936242993
 10
2.847378769928969
 20
0.4629179936243026
 10
2.846591769928968
 20
0.4481699936243009
 10
2.843977769928967
 20
0.4348079936242979
 10
2.839544769928968
 20
0.4230439936242982
 10
2.832985769928969
 20
0.4130359936242999
 10
2.824445769928968
 20
0.4050909936242996
 10
2.814044769928968
 20
0.3994729936242991
 10
2.802213769928968
 20
0.3962249936242989
 10
2.789067769928969
 20
0.3952169936242989
 10
2.775859769928968
 20
0.396224993624299
 10
2.763898769928969
 20
0.3994729936242989
 10
2.753449769928967
 20
0.4050669936242991
 10
2.744737769928968
 20
0.4129929936242993
 10
2.738130769928969
 20
0.4229769936242977
 10
2.733544769928969
 20
0.4347639936242979
 10
2.730910769928969
 20
0.4481499936242983
 10
2.730075769928968
 20
0.4629179936243012
 97
        1
330
F62D
 92
       22
 72
     0
 73
     1
 93
       19
 10
2.730075769928968
 20
0.9028309936242989
 10
2.730075769928968
 20
1.179771993624299
 10
2.730910769928968
 20
1.194145993624299
 10
2.733567769928968
 20
1.2072249936243
 10
2.73817476992897
 20
1.2187249936243
 10
2.744823769928968
 20
1.228511993624298
 10
2.753536769928969
 20
1.236192993624299
 10
2.763985769928969
 20
1.241614993624299
 10
2.775878769928969
 20
1.244732993624299
 10
2.789067769928968
 20
1.245740993624298
 10
2.802170769928968
 20
1.244732993624299
 10
2.813957769928968
 20
1.241594993624298
 10
2.824335769928969
 20
1.236149993624298
 10
2.832894769928971
 20
1.228448993624296
 10
2.839500769928969
 20
1.218681993624299
 10
2.843957769928967
 20
1.207181993624303
 10
2.846591769928968
 20
1.194121993624299
 10
2.847378769928969
 20
1.179747993624295
 10
2.847378769928969
 20
0.902830993624299
 97
        1
330
F7A4
 75
     0
 76
     1
 47
0.007755
 98
        2
 10
2.627639
 20
0.772296
 10
2.627639
 20
0.772296
  0
LWPOLYLINE
  5
F62D
102
{ACAD_REACTORS
330
F62C
102
}
330
F62B
100
AcDbEntity
  8
WARSTWA_1
  6
CONTINUOUS
 62
    20
100
AcDbPolyline
 90
       87
 70
     1
 43
0.003
 10
3.115938
 20
0.744993
 10
2.730076
 20
0.744993
 10
2.730076
 20
0.462918
 10
2.730911
 20
0.44815
 10
2.733545
 20
0.434764
 10
2.738131
 20
0.422977
 10
2.744738
 20
0.412993
 10
2.75345
 20
0.405067
 10
2.763899
 20
0.399473
 10
2.77586
 20
0.396225
 10
2.789068
 20
0.395217
 10
2.802214
 20
0.396225
 10
2.814045
 20
0.399473
 10
2.824446
 20
0.405091
 10
2.832986
 20
0.413036
 10
2.839545
 20
0.423044
 10
2.843978
 20
0.434808
 10
2.846592
 20
0.44817
 10
2.847379
 20
0.462918
 10
2.847379
 20
0.626748
 10
3.115938
 20
0.626748
 10
3.115938
 20
0.461646
 10
3.114643
 20
0.433579
 10
3.110848
 20
0.407701
 10
3.104505
 20
0.38367
 10
3.095706
 20
0.361595
 10
3.084423
 20
0.341315
 10
3.070576
 20
0.322815
 10
3.054249
 20
0.306048
 10
3.035265
 20
0.290993
 10
3.013714
 20
0.277607
 10
2.989438
 20
0.265953
 10
2.96249
 20
0.256012
 10
2.932797
 20
0.24789
 10
2.900403
 20
0.241481
 10
2.865332
 20
0.236937
 10
2.827541
 20
0.234217
 10
2.787005
 20
0.233296
 10
2.746998
 20
0.234241
 10
2.709624
 20
0.237091
 10
2.67495
 20
0.241811
 10
2.642907
 20
0.248461
 10
2.613588
 20
0.256886
 10
2.586942
 20
0.267201
 10
2.562935
 20
0.279315
 10
2.541557
 20
0.293252
 10
2.522836
 20
0.308922
 10
2.50662
 20
0.326414
 10
2.492927
 20
0.345705
 10
2.481667
 20
0.366926
 10
2.472911
 20
0.390036
 10
2.466612
 20
0.415166
 10
2.462816
 20
0.442268
 10
2.461521
 20
0.471611
 10
2.461521
 20
1.171386
 10
2.462816
 20
1.200666
 10
2.466612
 20
1.227768
 10
2.472911
 20
1.252874
 10
2.481667
 20
1.276004
 10
2.492927
 20
1.297185
 10
2.50662
 20
1.316516
 10
2.522836
 20
1.334008
 10
2.541557
 20
1.349721
 10
2.562935
 20
1.363615
 10
2.586942
 20
1.375729
 10
2.613588
 20
1.386044
 10
2.642907
 20
1.394516
 10
2.67495
 20
1.401142
 10
2.709624
 20
1.405882
 10
2.746998
 20
1.408737
 10
2.787005
 20
1.409725
 10
2.827541
 20
1.408756
 10
2.865332
 20
1.406036
 10
2.900427
 20
1.401449
 10
2.932797
 20
1.395107
 10
2.96249
 20
1.386945
 10
2.989438
 20
1.377024
 10
3.013734
 20
1.365371
 10
3.035265
 20
1.352028
 10
3.054249
 20
1.33693
 10
3.070576
 20
1.320162
 10
3.084423
 20
1.301638
 10
3.095706
 20
1.281382
 10
3.104505
 20
1.259237
 10
3.110848
 20
1.235272
 10
3.114643
 20
1.209378
 10
3.115938
 20
1.181374
  0
HATCH
  5
F686
330
F62B
100
AcDbEntity
  8
0
  6
CONTINUOUS
 62
    20
100
AcDbHatch
 10
0.0
 20
0.0
 30
0.0
210
0.0
220
0.0
230
1.0
  2
SOLID
 70
     1
 71
     1
 91
        2
 92
        7
 72
     0
 73
     1
 93
       63
 10
0.2052417699289691
 20
0.7343429936242992
 10
0.205241769928969
 20
0.5793469936242991
 10
0.2259127699289682
 20
0.6091739936242986
 10
0.2484447699289682
 20
0.6369009936242983
 10
0.2727547699289683
 20
0.6625819936242991
 10
0.2987587699289692
 20
0.6862679936242998
 10
0.3263747699289694
 20
0.7080129936242991
 10
0.35552076992897
 20
0.7278669936243003
 10
0.386112769928969
 20
0.7458849936242982
 10
0.4180667699289681
 20
0.7621169936242992
 10
0.4513017699289697
 20
0.7766169936242995
 10
0.4857347699289689
 20
0.7894369936242992
 10
0.5212817699289684
 20
0.8006289936242986
 10
0.55786076992897
 20
0.8102449936242988
 10
0.5953877699289685
 20
0.8183389936242983
 10
0.6337817699289695
 20
0.8249609936242998
 10
0.6729577699289675
 20
0.8301659936242991
 10
0.7070367699289652
 20
0.8326969936242988
 10
0.7416427699289656
 20
0.834551993624299
 10
0.7778907699289652
 20
0.835858993624299
 10
0.8193517699289701
 20
0.838999993624299
 10
0.8599027699289707
 20
0.8447369936242989
 10
0.8989577699289683
 20
0.853236993624299
 10
0.9365167699289676
 20
0.8645589936242988
 10
0.9724307699289685
 20
0.8789649936242987
 10
1.006489769928968
 20
0.8964449936242989
 10
1.038540769928969
 20
0.917133993624299
 10
1.068382769928969
 20
0.9410669936242992
 10
1.095859769928968
 20
0.9682519936242986
 10
1.120745769928969
 20
0.9985559936242999
 10
1.142969769928968
 20
1.031936993624298
 10
1.162457769928969
 20
1.0682719936243
 10
1.179221769928968
 20
1.107598993624298
 10
1.193201769928968
 20
1.1498189936243
 10
1.204504769928968
 20
1.195007993624298
 10
1.213595769928969
 20
1.2459809936243
 10
1.213595769928968
 20
1.539058993624297
 10
1.211528769928968
 20
1.5634809936243
 10
1.204233769928968
 20
1.589082993624299
 10
1.191662769928969
 20
1.613015993624299
 10
1.173780769928968
 20
1.633787993624297
 10
1.151552769928968
 20
1.650299993624299
 10
1.125930769928967
 20
1.661940993624299
 10
1.09798976992897
 20
1.668814993624299
 10
1.069500769928968
 20
1.671070993624298
 10
0.3323637699289676
 20
1.671070993624299
 10
0.3089347699289691
 20
1.670058993624298
 10
0.2842607699289679
 20
1.665421993624298
 10
0.2603047699289684
 20
1.656184993624298
 10
0.2382257699289695
 20
1.641338993624298
 10
0.2202567699289681
 20
1.620988993624298
 10
0.2078357699289688
 20
1.596755993624298
 10
0.2011507699289692
 20
1.570480993624299
 10
0.1992727699289687
 20
1.544712993624299
 10
0.1992727699289687
 20
0.9418079936242991
 10
0.1988317699289689
 20
0.9417449936242984
 10
0.1580877699289691
 20
0.9320829936242988
 10
0.1214817699289682
 20
0.9192839936242995
 10
0.0888787699289694
 20
0.9027089936242993
 10
0.0605757699289691
 20
0.8816419936242992
 10
0.0375917699289686
 20
0.8553229936242988
 10
0.0217337699289693
 20
0.8242209936242989
 10
0.0018677699289688
 20
0.7343429936242992
 97
        1
330
F6EA
 92
       22
 72
     0
 73
     1
 93
       95
 10
0.1126277699289688
 20
0.784952993624299
 10
0.0648787699289688
 20
0.784952993624299
 10
0.0725127699289688
 20
0.8137929936242994
 10
0.0894257699289689
 20
0.838652993624299
 10
0.1156197699289689
 20
0.8595359936242996
 10
0.151093769928969
 20
0.8764429936242992
 10
0.1958487699289689
 20
0.8893779936242989
 10
0.2498867699289686
 20
0.8983429936242991
 10
0.2498867699289686
 20
0.9362569936242991
 10
0.2498867699289686
 20
0.9741709936242992
 10
0.2498867699289686
 20
1.012084993624299
 10
0.2498867699289686
 20
1.049998993624298
 10
0.2498867699289686
 20
1.087912993624299
 10
0.2498867699289686
 20
1.125825993624299
 10
0.2498867699289686
 20
1.163739993624299
 10
0.2498867699289686
 20
1.201653993624299
 10
0.2498867699289686
 20
1.239567993624299
 10
0.2498867699289686
 20
1.277480993624299
 10
0.2498867699289686
 20
1.315394993624298
 10
0.2498867699289686
 20
1.353308993624299
 10
0.2498867699289686
 20
1.391222993624298
 10
0.2498867699289686
 20
1.429135993624299
 10
0.2498867699289686
 20
1.467049993624299
 10
0.2498867699289686
 20
1.504963993624299
 10
0.2498867699289686
 20
1.542877993624299
 10
0.259747769928969
 20
1.588047993624299
 10
0.2883307699289686
 20
1.613119993624299
 10
0.3334377699289708
 20
1.620460993624299
 10
0.3701407699289687
 20
1.620460993624299
 10
0.4068437699289689
 20
1.620460993624299
 10
0.4435467699289691
 20
1.620460993624299
 10
0.4802497699289688
 20
1.620460993624299
 10
0.5169517699289689
 20
1.620460993624299
 10
0.5536547699289689
 20
1.620460993624299
 10
0.590357769928969
 20
1.620460993624299
 10
0.6270607699289688
 20
1.620460993624299
 10
0.6637637699289689
 20
1.620460993624299
 10
0.7004667699289691
 20
1.620460993624299
 10
0.7371687699289687
 20
1.620460993624299
 10
0.7738717699289688
 20
1.620460993624299
 10
0.810574769928969
 20
1.620460993624299
 10
0.8472777699289686
 20
1.620460993624299
 10
0.8839807699289687
 20
1.620460993624299
 10
0.9206847699289685
 20
1.620460993624299
 10
0.9573877699289688
 20
1.620460993624299
 10
0.9940907699289688
 20
1.620460993624299
 10
1.030793769928968
 20
1.620460993624299
 10
1.067497769928968
 20
1.620460993624299
 10
1.120514769928968
 20
1.609202993624299
 10
1.152336769928968
 20
1.579813993624298
 10
1.162981769928968
 20
1.536909993624299
 10
1.162981769928968
 20
1.495987993624298
 10
1.162981769928968
 20
1.455064993624299
 10
1.162981769928968
 20
1.414142993624299
 10
1.162981769928968
 20
1.373218993624299
 10
1.162981769928968
 20
1.332295993624299
 10
1.162981769928968
 20
1.291372993624298
 10
1.162981769928968
 20
1.250448993624298
 10
1.155494769928969
 20
1.2081139936243
 10
1.145890769928968
 20
1.168666993624301
 10
1.134209769928969
 20
1.132052993624299
 10
1.120492769928969
 20
1.0982179936243
 10
1.104779769928968
 20
1.067106993624299
 10
1.087109769928967
 20
1.038665993624297
 10
1.067522769928968
 20
1.012840993624299
 10
1.046059769928968
 20
0.9895749936242989
 10
1.022760769928969
 20
0.9688159936242993
 10
0.9976657699289688
 20
0.9505079936242989
 10
0.970813769928969
 20
0.934596993624299
 10
0.9422457699289681
 20
0.9210279936242988
 10
0.9120017699289691
 20
0.909747993624299
 10
0.8801207699289673
 20
0.9006999936242991
 10
0.8466447699289696
 20
0.893830993624299
 10
0.8116127699289668
 20
0.8890859936242994
 10
0.7750637699289717
 20
0.886409993624299
 10
0.7369467699289645
 20
0.8849829936242983
 10
0.6990517699289603
 20
0.8828839936242991
 10
0.6614427699289709
 20
0.8799239936242996
 10
0.6241847699289681
 20
0.8759089936242995
 10
0.587340769928967
 20
0.8706489936242983
 10
0.5509767699289682
 20
0.8639519936242992
 10
0.5151557699289703
 20
0.8556249936242991
 10
0.4799417699289677
 20
0.8454779936242994
 10
0.445400769928969
 20
0.8333189936242991
 10
0.411594769928968
 20
0.8189549936242994
 10
0.3785897699289693
 20
0.8021959936243
 10
0.3464487699289693
 20
0.7828499936242987
 10
0.315236769928968
 20
0.7607249936242987
 10
0.285017769928969
 20
0.7356289936242996
 10
0.255855769928969
 20
0.707370993624299
 10
0.255855769928969
 20
0.7332259936242989
 10
0.255855769928969
 20
0.759084993624299
 10
0.255855769928969
 20
0.784952993624299
 10
0.2081177699289687
 20
0.784952993624299
 10
0.1603747699289686
 20
0.784952993624299
 97
        1
330
F688
 75
     0
 76
     1
 47
0.007755
 98
        2
 10
0.112883
 20
0.76454
 10
0.112883
 20
0.76454
  0
HATCH
  5
F687
330
F62B
100
AcDbEntity
  8
0
  6
CONTINUOUS
 62
    20
100
AcDbHatch
 10
0.0
 20
0.0
 30
0.0
210
0.0
220
0.0
230
1.0
  2
SOLID
 70
     1
 71
     1
 91
        1
 92
        7
 72
     0
 73
     1
 93
       68
 10
1.225063769928968
 20
0.731850993624299
 10
1.225508769928968
 20
0.731917993624299
 10
1.225867769928968
 20
0.789220993624299
 10
1.251944769928969
 20
0.7949229936242992
 10
1.27765576992897
 20
0.8028549936242995
 10
1.302859769928969
 20
0.811614993624299
 10
1.342716769928968
 20
0.8349759936242984
 10
1.370579769928968
 20
0.8587859936242995
 10
1.389481769928969
 20
0.8850969936242993
 10
1.402456769928968
 20
0.9159629936242982
 10
1.412536769928969
 20
0.9534359936243072
 10
1.422756769928968
 20
0.9995669936242988
 10
1.216666769928969
 20
0.9995669936242991
 10
1.216579769928968
 20
0.9992639936242999
 10
1.216567769928968
 20
0.9995669936242988
 10
1.195471769928968
 20
0.9613549936242985
 10
1.172984769928967
 20
0.927359993624298
 10
1.149186769928969
 20
0.8973189936242995
 10
1.12415476992897
 20
0.8709699936243
 10
1.097967769928969
 20
0.8480499936243001
 10
1.070703769928968
 20
0.8282979936242991
 10
1.042441769928968
 20
0.8114499936242987
 10
1.013258769928969
 20
0.7972449936242987
 10
0.983233769928969
 20
0.7854199936242989
 10
0.9524447699289676
 20
0.7757139936242985
 10
0.9209707699289669
 20
0.7678619936242985
 10
0.888889769928968
 20
0.7616039936242986
 10
0.8562797699289662
 20
0.7566769936242989
 10
0.8232187699289658
 20
0.7528189936242985
 10
0.789785769928966
 20
0.7497669936242981
 10
0.7560587699289674
 20
0.7472589936242992
 10
0.7221157699289652
 20
0.745031993624299
 10
0.6921567699289719
 20
0.7426069936242997
 10
0.6615577699289698
 20
0.7390369936242989
 10
0.6304717699289667
 20
0.7342119936242982
 10
0.5990537699289699
 20
0.7280269936242993
 10
0.5674577699289707
 20
0.7203729936242994
 10
0.5358377699289684
 20
0.7111439936242988
 10
0.5043497699289701
 20
0.7002309936242999
 10
0.473145769928969
 20
0.6875279936242992
 10
0.4423817699289684
 20
0.6729269936242993
 10
0.412211769928968
 20
0.6563199936242982
 10
0.3827897699289692
 20
0.6376009936243
 10
0.3542707699289679
 20
0.6166619936242986
 10
0.3268077699289688
 20
0.5933949936242989
 10
0.3005567699289693
 20
0.5676929936242998
 10
0.2756707699289691
 20
0.5394489936242995
 10
0.2523047699289687
 20
0.5085559936242993
 10
0.2306127699289689
 20
0.4749049936242995
 10
0.2107487699289691
 20
0.4383899936242988
 10
0.2107487699289692
 20
0.1345949936242981
 10
0.2128117699289689
 20
0.110177993624299
 10
0.2201077699289692
 20
0.0845749936242992
 10
0.2326747699289689
 20
0.0606419936242987
 10
0.2505607699289685
 20
0.039873993624299
 10
0.2727887699289689
 20
0.0233589936242992
 10
0.2984107699289688
 20
0.0117169936242991
 10
0.3263517699289688
 20
0.0048429936242993
 10
0.3548397699289691
 20
0.0025869936242993
 10
1.091977769928968
 20
0.0025869936242993
 10
1.115406769928968
 20
0.0036029936242992
 10
1.140083769928968
 20
0.0082369936242989
 10
1.164040769928969
 20
0.0174769936242991
 10
1.186119769928968
 20
0.0323229936242989
 10
1.204083769928969
 20
0.0526739936242984
 10
1.216504769928968
 20
0.0769019936242993
 10
1.223189769928968
 20
0.1031779936242981
 10
1.225063769928968
 20
0.1289449936243001
 97
        1
330
F72B
 75
     0
 76
     1
 47
0.007755
 98
        1
 10
1.090843
 20
0.586165
  0
LWPOLYLINE
  5
F688
102
{ACAD_REACTORS
330
F686
102
}
330
F62B
100
AcDbEntity
  8
WARSTWA_1
  6
CONTINUOUS
 62
    20
100
AcDbPolyline
 90
       96
 70
     1
 43
0.003
 10
0.255856
 20
0.707371
 10
0.255856
 20
0.733226
 10
0.255856
 20
0.759085
 10
0.255856
 20
0.784953
 10
0.208118
 20
0.784953
 10
0.160375
 20
0.784953
 10
0.112628
 20
0.784953
 10
0.064879
 20
0.784953
 10
0.072513
 20
0.813793
 10
0.089426
 20
0.838653
 10
0.11562
 20
0.859536
 10
0.151094
 20
0.876443
 10
0.195849
 20
0.889378
 10
0.249887
 20
0.898343
 10
0.249887
 20
0.936257
 10
0.249887
 20
0.974171
 10
0.249887
 20
1.012085
 10
0.249887
 20
1.049999
 10
0.249887
 20
1.087913
 10
0.249887
 20
1.125826
 10
0.249887
 20
1.16374
 10
0.249887
 20
1.201654
 10
0.249887
 20
1.239568
 10
0.249887
 20
1.277481
 10
0.249887
 20
1.315395
 10
0.249887
 20
1.353309
 10
0.249887
 20
1.391223
 10
0.249887
 20
1.429136
 10
0.249887
 20
1.46705
 10
0.249887
 20
1.504964
 10
0.249887
 20
1.542878
 10
0.259748
 20
1.588048
 10
0.288331
 20
1.61312
 10
0.333438
 20
1.620461
 10
0.370141
 20
1.620461
 10
0.406844
 20
1.620461
 10
0.443547
 20
1.620461
 10
0.48025
 20
1.620461
 10
0.516952
 20
1.620461
 10
0.553655
 20
1.620461
 10
0.590358
 20
1.620461
 10
0.627061
 20
1.620461
 10
0.663764
 20
1.620461
 10
0.700467
 20
1.620461
 10
0.737169
 20
1.620461
 10
0.773872
 20
1.620461
 10
0.810575
 20
1.620461
 10
0.847278
 20
1.620461
 10
0.883981
 20
1.620461
 10
0.920685
 20
1.620461
 10
0.957388
 20
1.620461
 10
0.994091
 20
1.620461
 10
1.030794
 20
1.620461
 10
1.067498
 20
1.620461
 10
1.067498
 20
1.620461
 10
1.120515
 20
1.609203
 10
1.152337
 20
1.579814
 10
1.162982
 20
1.53691
 10
1.162982
 20
1.495988
 10
1.162982
 20
1.455065
 10
1.162982
 20
1.414143
 10
1.162982
 20
1.373219
 10
1.162982
 20
1.332296
 10
1.162982
 20
1.291373
 10
1.162982
 20
1.250449
 10
1.155495
 20
1.208114
 10
1.145891
 20
1.168667
 10
1.13421
 20
1.132053
 10
1.120493
 20
1.098218
 10
1.10478
 20
1.067107
 10
1.08711
 20
1.038666
 10
1.067523
 20
1.012841
 10
1.04606
 20
0.989575
 10
1.022761
 20
0.968816
 10
0.997666
 20
0.950508
 10
0.970814
 20
0.934597
 10
0.942246
 20
0.921028
 10
0.912002
 20
0.909748
 10
0.880121
 20
0.9007
 10
0.846645
 20
0.893831
 10
0.811613
 20
0.889086
 10
0.775064
 20
0.88641
 10
0.736947
 20
0.884983
 10
0.699052
 20
0.882884
 10
0.661443
 20
0.879924
 10
0.624185
 20
0.875909
 10
0.587341
 20
0.870649
 10
0.550977
 20
0.863952
 10
0.515156
 20
0.855625
 10
0.479942
 20
0.845478
 10
0.445401
 20
0.833319
 10
0.411595
 20
0.818955
 10
0.37859
 20
0.802196
 10
0.346449
 20
0.78285
 10
0.315237
 20
0.760725
 10
0.285018
 20
0.735629
  0
LWPOLYLINE
  5
F6EA
102
{ACAD_REACTORS
330
F686
102
}
330
F62B
100
AcDbEntity
  8
WARSTWA_1
  6
CONTINUOUS
 62
    20
100
AcDbPolyline
 90
       63
 70
     1
 43
0.003
 10
0.205242
 20
0.579347
 10
0.205242
 20
0.734343
 10
0.001868
 20
0.734343
 10
0.021734
 20
0.824221
 10
0.037592
 20
0.855323
 10
0.060576
 20
0.881642
 10
0.088879
 20
0.902709
 10
0.121482
 20
0.919284
 10
0.158088
 20
0.932083
 10
0.198832
 20
0.941745
 10
0.199273
 20
0.941808
 10
0.199273
 20
1.544713
 10
0.201151
 20
1.570481
 10
0.207836
 20
1.596756
 10
0.220257
 20
1.620989
 10
0.238226
 20
1.641339
 10
0.260305
 20
1.656185
 10
0.284261
 20
1.665422
 10
0.308935
 20
1.670059
 10
0.332364
 20
1.671071
 10
1.069501
 20
1.671071
 10
1.09799
 20
1.668815
 10
1.125931
 20
1.661941
 10
1.151553
 20
1.6503
 10
1.173781
 20
1.633788
 10
1.191663
 20
1.613016
 10
1.204234
 20
1.589083
 10
1.211529
 20
1.563481
 10
1.213596
 20
1.539059
 10
1.213596
 20
1.245981
 10
1.204505
 20
1.195008
 10
1.193202
 20
1.149819
 10
1.179222
 20
1.107599
 10
1.162458
 20
1.068272
 10
1.14297
 20
1.031937
 10
1.120746
 20
0.998556
 10
1.09586
 20
0.968252
 10
1.068383
 20
0.941067
 10
1.038541
 20
0.917134
 10
1.00649
 20
0.896445
 10
0.972431
 20
0.878965
 10
0.936517
 20
0.864559
 10
0.898958
 20
0.853237
 10
0.859903
 20
0.844737
 10
0.819352
 20
0.839
 10
0.777891
 20
0.835859
 10
0.741643
 20
0.834552
 10
0.707037
 20
0.832697
 10
0.672958
 20
0.830166
 10
0.633782
 20
0.824961
 10
0.595388
 20
0.818339
 10
0.557861
 20
0.810245
 10
0.521282
 20
0.800629
 10
0.485735
 20
0.789437
 10
0.451302
 20
0.776617
 10
0.418067
 20
0.762117
 10
0.386113
 20
0.745885
 10
0.355521
 20
0.727867
 10
0.326375
 20
0.708013
 10
0.298759
 20
0.686268
 10
0.272755
 20
0.662582
 10
0.248445
 20
0.636901
 10
0.225913
 20
0.609174
  0
LWPOLYLINE
  5
F72B
102
{ACAD_REACTORS
330
F687
102
}
330
F62B
100
AcDbEntity
  8
WARSTWA_1
  6
CONTINUOUS
 62
    20
100
AcDbPolyline
 90
       68
 70
     1
 43
0.003
 10
1.21658
 20
0.999264
 10
1.216667
 20
0.999567
 10
1.422757
 20
0.999567
 10
1.412537
 20
0.953436
 10
1.402457
 20
0.915963
 10
1.389482
 20
0.885097
 10
1.37058
 20
0.858786
 10
1.342717
 20
0.834976
 10
1.30286
 20
0.811615
 10
1.277656
 20
0.802855
 10
1.251945
 20
0.794923
 10
1.225868
 20
0.789221
 10
1.225509
 20
0.731918
 10
1.225064
 20
0.731851
 10
1.225064
 20
0.128945
 10
1.22319
 20
0.103178
 10
1.216505
 20
0.076902
 10
1.204084
 20
0.052674
 10
1.18612
 20
0.032323
 10
1.164041
 20
0.017477
 10
1.140084
 20
0.008237
 10
1.115407
 20
0.003603
 10
1.091978
 20
0.002587
 10
0.35484
 20
0.002587
 10
0.326352
 20
0.004843
 10
0.298411
 20
0.011717
 10
0.272789
 20
0.023359
 10
0.250561
 20
0.039874
 10
0.232675
 20
0.060642
 10
0.220108
 20
0.084575
 10
0.212812
 20
0.110178
 10
0.210749
 20
0.134595
 10
0.210749
 20
0.43839
 10
0.230613
 20
0.474905
 10
0.252305
 20
0.508556
 10
0.275671
 20
0.539449
 10
0.300557
 20
0.567693
 10
0.326808
 20
0.593395
 10
0.354271
 20
0.616662
 10
0.38279
 20
0.637601
 10
0.412212
 20
0.65632
 10
0.442382
 20
0.672927
 10
0.473146
 20
0.687528
 10
0.50435
 20
0.700231
 10
0.535838
 20
0.711144
 10
0.567458
 20
0.720373
 10
0.599054
 20
0.728027
 10
0.630472
 20
0.734212
 10
0.661558
 20
0.739037
 10
0.692157
 20
0.742607
 10
0.722116
 20
0.745032
 10
0.756059
 20
0.747259
 10
0.789786
 20
0.749767
 10
0.823219
 20
0.752819
 10
0.85628
 20
0.756677
 10
0.88889
 20
0.761604
 10
0.920971
 20
0.767862
 10
0.952445
 20
0.775714
 10
0.983234
 20
0.78542
 10
1.013259
 20
0.797245
 10
1.042442
 20
0.81145
 10
1.070704
 20
0.828298
 10
1.097968
 20
0.84805
 10
1.124155
 20
0.87097
 10
1.149187
 20
0.897319
 10
1.172985
 20
0.92736
 10
1.195472
 20
0.961355
 10
1.216568
 20
0.999567
  0
HATCH
  5
F771
330
F62B
100
AcDbEntity
  8
0
  6
CONTINUOUS
 62
    20
100
AcDbHatch
 10
0.0
 20
0.0
 30
0.0
210
0.0
220
0.0
230
1.0
  2
SOLID
 70
     1
 71
     1
 91
        1
 92
        7
 72
     0
 73
     1
 93
       48
 10
1.972209769928968
 20
1.181854993624299
 10
1.973067769928969
 20
1.194846993624298
 10
1.975701769928969
 20
1.206854993624298
 10
1.980331769928969
 20
1.2173859936243
 10
1.986981769928969
 20
1.226362993624299
 10
1.995626769928968
 20
1.233342993624298
 10
2.005898769928968
 20
1.238236993624298
 10
2.017575769928969
 20
1.241023993624299
 10
2.030500769928966
 20
1.241944993624298
 10
2.04342676992897
 20
1.240980993624298
 10
2.055036769928969
 20
1.238058993624298
 10
2.065331769928968
 20
1.232944993624299
 10
2.073867769928969
 20
1.225704993624299
 10
2.080493769928969
 20
1.216440993624299
 10
2.085016769928969
 20
1.205578993624299
 10
2.087650769928968
 20
1.193244993624297
 10
2.088461769928969
 20
1.179771993624297
 10
2.088461769928969
 20
0.9344769936242993
 10
2.358052769928968
 20
0.9344769936242993
 10
2.358052769928968
 20
1.251842993624308
 10
2.357174769928968
 20
1.2693549936243
 10
2.354453769928968
 20
1.285684993624301
 10
2.349997769928968
 20
1.3011109936243
 10
2.343721769928968
 20
1.315641993624298
 10
2.335686769928968
 20
1.329310993624299
 10
2.325835769928969
 20
1.342216993624303
 10
2.314071769928966
 20
1.354354993624298
 10
2.300355769928969
 20
1.365720993624299
 10
2.28520976992897
 20
1.375905993624296
 10
2.269300769928968
 20
1.384814993624298
 10
2.252709769928967
 20
1.392362993624298
 10
2.235371769928965
 20
1.398574993624299
 10
2.217331769928962
 20
1.4034019936243
 10
2.198457769928968
 20
1.406893993624299
 10
2.178878769928968
 20
1.408999993624299
 10
2.158382769928967
 20
1.409724993624299
 10
2.129894769928965
 20
1.408956993624299
 10
2.103363769928966
 20
1.406759993624298
 10
2.07887176992897
 20
1.403118993624299
 10
2.05641876992897
 20
1.3981149936243
 10
2.03600876992897
 20
1.391661993624298
 10
2.017595769928969
 20
1.383893993624299
 10
2.001134769928968
 20
1.374720993624299
 10
1.972209769928968
 20
1.353936993624298
 10
1.972209769928968
 20
1.401472993624299
 10
1.702599769928968
 20
1.401472993624298
 10
1.702599769928968
 20
0.2494489936242989
 10
1.972209769928969
 20
0.249448993624299
 97
        1
330
F772
 75
     0
 76
     1
 47
0.007755
 98
        1
 10
1.874764
 20
1.067003
  0
LWPOLYLINE
  5
F772
102
{ACAD_REACTORS
330
F771
102
}
330
F62B
100
AcDbEntity
  8
WARSTWA_1
  6
CONTINUOUS
 62
    20
100
AcDbPolyline
 90
       48
 70
     1
 43
0.003
 10
2.358053
 20
0.934477
 10
2.088462
 20
0.934477
 10
2.088462
 20
1.179772
 10
2.087651
 20
1.193245
 10
2.085017
 20
1.205579
 10
2.080494
 20
1.216441
 10
2.073868
 20
1.225705
 10
2.065332
 20
1.232945
 10
2.055037
 20
1.238059
 10
2.043427
 20
1.240981
 10
2.030501
 20
1.241945
 10
2.017576
 20
1.241024
 10
2.005899
 20
1.238237
 10
1.995627
 20
1.233343
 10
1.986982
 20
1.226363
 10
1.980332
 20
1.217386
 10
1.975702
 20
1.206855
 10
1.973068
 20
1.194847
 10
1.97221
 20
1.181855
 10
1.97221
 20
0.249449
 10
1.7026
 20
0.249449
 10
1.7026
 20
1.401473
 10
1.97221
 20
1.401473
 10
1.97221
 20
1.353937
 10
2.001135
 20
1.374721
 10
2.017596
 20
1.383894
 10
2.036009
 20
1.391662
 10
2.056419
 20
1.398115
 10
2.078872
 20
1.403119
 10
2.103364
 20
1.40676
 10
2.129895
 20
1.408957
 10
2.158383
 20
1.409725
 10
2.178879
 20
1.409
 10
2.198458
 20
1.406894
 10
2.217332
 20
1.403402
 10
2.235372
 20
1.398575
 10
2.25271
 20
1.392363
 10
2.269301
 20
1.384815
 10
2.28521
 20
1.375906
 10
2.300356
 20
1.365721
 10
2.314072
 20
1.354355
 10
2.325836
 20
1.342217
 10
2.335687
 20
1.329311
 10
2.343722
 20
1.315642
 10
2.349998
 20
1.301111
 10
2.354454
 20
1.285685
 10
2.357175
 20
1.269355
 10
2.358053
 20
1.251843
  0
LWPOLYLINE
  5
F7A4
102
{ACAD_REACTORS
330
F62C
102
}
330
F62B
100
AcDbEntity
  8
WARSTWA_1
  6
CONTINUOUS
 62
    20
100
AcDbPolyline
 90
       19
 70
     1
 43
0.003
 10
2.847379
 20
0.902831
 10
2.847379
 20
1.179748
 10
2.846592
 20
1.194122
 10
2.843958
 20
1.207182
 10
2.839501
 20
1.218682
 10
2.832895
 20
1.228449
 10
2.824336
 20
1.23615
 10
2.813958
 20
1.241595
 10
2.802171
 20
1.244733
 10
2.789068
 20
1.245741
 10
2.775879
 20
1.244733
 10
2.763986
 20
1.241615
 10
2.753537
 20
1.236193
 10
2.744824
 20
1.228512
 10
2.738175
 20
1.218725
 10
2.733568
 20
1.207225
 10
2.730911
 20
1.194146
 10
2.730076
 20
1.179772
 10
2.730076
 20
0.902831
  0
LWPOLYLINE
  5
F7B9
330
F62B
100
AcDbEntity
  8
WARSTWA_1
  6
CONTINUOUS
 62
    20
100
AcDbPolyline
 90
        4
 70
     1
 43
0.003
 10
5.410466
 20
0.249449
 10
5.140875
 20
0.249449
 10
5.140875
 20
1.672811
 10
5.410466
 20
1.672811
  0
SOLID
  5
F7BF
330
F62B
100
AcDbEntity
  8
WARSTWA_1
  6
CONTINUOUS
 62
    20
100
AcDbTrace
 10
5.410466
 20
0.249449
 30
0.0
 11
5.140875
 21
0.249449
 31
0.0
 12
5.410466
 22
1.672811
 32
0.0
 13
5.140875
 23
1.672811
 33
0.0
  0
HATCH
  5
F7C0
330
F62B
100
AcDbEntity
  8
0
  6
CONTINUOUS
 62
    20
100
AcDbHatch
 10
0.0
 20
0.0
 30
0.0
210
0.0
220
0.0
230
1.0
  2
SOLID
 70
     1
 71
     1
 91
        2
 92
        7
 72
     0
 73
     1
 93
       66
 10
4.375087769928969
 20
0.4716109936242766
 10
4.376426769928967
 20
0.4422919936243003
 10
4.380308769928968
 20
0.4151849936243043
 10
4.386760769928969
 20
0.3900789936242974
 10
4.395670769928966
 20
0.3669929936243017
 10
4.407150769928968
 20
0.3457719936242957
 10
4.421130769928968
 20
0.3264809936242983
 10
4.437721769928966
 20
0.3089649936242992
 10
4.456859769928969
 20
0.2933189936243026
 10
4.47873776992897
 20
0.2793629936242996
 10
4.503276769928964
 20
0.2672249936242996
 10
4.530532769928971
 20
0.2569099936242995
 10
4.560489769928967
 20
0.248460993624299
 10
4.593233769928969
 20
0.241830993624299
 10
4.62869776992897
 20
0.237090993624299
 10
4.66693076992897
 20
0.234240993624299
 10
4.707792769928969
 20
0.2332959936242989
 10
4.747713769928967
 20
0.2342169936242988
 10
4.78491476992897
 20
0.236936993624299
 10
4.819477769928967
 20
0.2414809936242988
 10
4.851323769928969
 20
0.2478669936242991
 10
4.88053276992897
 20
0.2560119936242997
 10
4.907044769928968
 20
0.2659299936242982
 10
4.930922769928969
 20
0.2775829936242991
 10
4.952146769928968
 20
0.2909489936243006
 10
4.97084376992897
 20
0.3060039936242979
 10
4.986930769928972
 20
0.3227719936242993
 10
5.000536769928968
 20
0.3412719936243
 10
5.011642769928967
 20
0.361551993624297
 10
5.020355769928968
 20
0.3836499936243034
 10
5.02656376992897
 20
0.4076819936243045
 10
5.030319769928969
 20
0.433578993624301
 10
5.031567769928969
 20
0.4616459936243008
 10
5.031567769928969
 20
1.181350993624298
 10
5.030075769928968
 20
1.210102993624298
 10
5.025532769928969
 20
1.236499993624292
 10
5.018095769928968
 20
1.260818993624295
 10
5.007646769928971
 20
1.2831149936243
 10
4.994304769928969
 20
1.303417993624299
 10
4.97788676992897
 20
1.321917993624297
 10
4.958465769928967
 20
1.338574993624299
 10
4.935815769928963
 20
1.353496993624299
 10
4.910863769928979
 20
1.366555993624298
 10
4.884811769928976
 20
1.377968993624298
 10
4.857819769928969
 20
1.387621993624299
 10
4.82981576992897
 20
1.3955669936243
 10
4.800847769928968
 20
1.401712993624298
 10
4.770847769928965
 20
1.406169993624299
 10
4.739835769928964
 20
1.408803993624298
 10
4.707772769928968
 20
1.409724993624299
 10
4.666930769928965
 20
1.408736993624298
 10
4.62872176992897
 20
1.405881993624299
 10
4.59323376992897
 20
1.401121993624299
 10
4.560489769928969
 20
1.394515993624299
 10
4.530556769928966
 20
1.386019993624298
 10
4.503276769928969
 20
1.375708993624298
 10
4.478717769928973
 20
1.3635709936243
 10
4.456859769928966
 20
1.349677993624297
 10
4.437721769928968
 20
1.333944993624298
 10
4.42115076992897
 20
1.316452993624299
 10
4.40715076992897
 20
1.297118993624299
 10
4.395670769928967
 20
1.275940993624297
 10
4.38676076992897
 20
1.252830993624296
 10
4.380308769928969
 20
1.227744993624298
 10
4.376426769928968
 20
1.200641993624297
 10
4.375087769928969
 20
1.171385993624287
 97
        1
330
F7C2
 92
       22
 72
     0
 73
     1
 93
       34
 10
4.644674769928968
 20
1.179771993624302
 10
4.645508769928968
 20
1.194145993624303
 10
4.648166769928968
 20
1.207224993624298
 10
4.652772769928966
 20
1.218747993624299
 10
4.659469769928969
 20
1.228535993624298
 10
4.668225769928969
 20
1.236192993624298
 10
4.678737769928968
 20
1.241614993624299
 10
4.690717769928969
 20
1.244732993624299
 10
4.704020769928966
 20
1.245740993624298
 10
4.717012769928969
 20
1.244732993624299
 10
4.728709769928967
 20
1.2415949936243
 10
4.73902476992897
 20
1.236129993624297
 10
4.747540769928972
 20
1.228448993624298
 10
4.754099769928966
 20
1.218661993624302
 10
4.758556769928969
 20
1.207161993624295
 10
4.76116676992897
 20
1.194102993624288
 10
4.76195776992897
 20
1.179747993624284
 10
4.76195776992897
 20
0.4629179936242934
 10
4.761166769928969
 20
0.4481699936243022
 10
4.758575769928969
 20
0.4348269936242979
 10
4.754142769928969
 20
0.4230439936242992
 10
4.747626769928968
 20
0.4130589936243006
 10
4.739134769928968
 20
0.405114993624299
 10
4.728796769928971
 20
0.3994969936242991
 10
4.717056769928968
 20
0.396224993624299
 10
4.704020769928968
 20
0.3952169936242988
 10
4.690674769928969
 20
0.3962249936242989
 10
4.678650769928969
 20
0.3994489936242989
 10
4.668115769928967
 20
0.4050479936242994
 10
4.659402769928968
 20
0.4129689936242993
 10
4.65272976992897
 20
0.4229769936243013
 10
4.648142769928969
 20
0.4347639936242983
 10
4.645508769928969
 20
0.4481499936243
 10
4.644674769928968
 20
0.462917993624288
 97
        1
330
F806
 75
     0
 76
     1
 47
0.007755
 98
        2
 10
4.476443
 20
0.725763
 10
4.476443
 20
0.725763
  0
HATCH
  5
F7C1
330
F62B
100
AcDbEntity
  8
0
  6
CONTINUOUS
 62
    20
100
AcDbHatch
 10
0.0
 20
0.0
 30
0.0
210
0.0
220
0.0
230
1.0
  2
SOLID
 70
     1
 71
     1
 91
        2
 92
        7
 72
     0
 73
     1
 93
       46
 10
4.268874769928968
 20
1.226712993624292
 10
4.264297769928967
 20
1.258533993624303
 10
4.254660769928968
 20
1.287669993624304
 10
4.240488769928966
 20
1.314010993624302
 10
4.222307769928969
 20
1.337444993624298
 10
4.200643769928964
 20
1.357860993624301
 10
4.176022769928967
 20
1.375147993624301
 10
4.148968769928968
 20
1.389193993624298
 10
4.120007769928969
 20
1.399888993624299
 10
4.089665769928966
 20
1.407119993624299
 10
4.058468769928972
 20
1.410777993624299
 10
4.026940769928968
 20
1.410749993624299
 10
3.995609769928968
 20
1.406924993624299
 10
3.964998769928969
 20
1.399191993624299
 10
3.935634769928969
 20
1.387439993624299
 10
3.908042769928971
 20
1.371557993624301
 10
3.882748769928969
 20
1.351433993624298
 10
3.882374769928968
 20
1.401472993624298
 10
3.614453769928968
 20
1.401472993624298
 10
3.614453769928968
 20
0.0014999936242992
 10
3.883012769928968
 20
0.0014999936242992
 10
3.883012769928969
 20
0.2840589936242988
 10
3.911741769928968
 20
0.2652919936242983
 10
3.928398769928966
 20
0.2569099936243001
 10
3.947032769928965
 20
0.249755993624299
 10
3.967638769928965
 20
0.2438739936242994
 10
3.990288769928969
 20
0.239244993624299
 10
4.014867769928968
 20
0.2359529936242992
 10
4.041445769928969
 20
0.2339529936242993
 10
4.069886769928968
 20
0.2332959936242989
 10
4.090626769928968
 20
0.2339529936242993
 10
4.110489769928968
 20
0.2359729936242993
 10
4.129469769928967
 20
0.2393079936242987
 10
4.147619769928968
 20
0.2439849936242992
 10
4.164914769928966
 20
0.2499529936242991
 10
4.181394769928971
 20
0.2573039936242988
 10
4.197067769928971
 20
0.2659529936243005
 10
4.211902769928967
 20
0.2759369936242975
 10
4.225398769928967
 20
0.2869099936242981
 10
4.23698576992897
 20
0.2986299936242997
 10
4.246729769928967
 20
0.3111619936242992
 10
4.254674769928966
 20
0.324503993624297
 10
4.260863769928969
 20
0.3386579936243048
 10
4.265296769928967
 20
0.3537599936242921
 10
4.267997769928969
 20
0.3697799936243013
 10
4.268874769928968
 20
0.3870519936243079
 97
        1
330
F82A
 92
       22
 72
     0
 73
     1
 93
       34
 10
4.000315769928969
 20
0.459121993624299
 10
3.999504769928968
 20
0.4455829936242994
 10
3.996847769928967
 20
0.4332479936242941
 10
3.99230876992897
 20
0.4223389936243008
 10
3.985658769928969
 20
0.4131459936243
 10
3.977075769928968
 20
0.4058389936242993
 10
3.966717769928968
 20
0.4007679936242993
 10
3.955020769928969
 20
0.3978469936242988
 10
3.942004769928968
 20
0.3969489936242989
 10
3.928969769928968
 20
0.3978269936242991
 10
3.917205769928966
 20
0.4005909936242991
 10
3.906823769928968
 20
0.4054409936242998
 10
3.898048769928968
 20
0.4124409936242979
 10
3.891288769928968
 20
0.4213549936243003
 10
3.886591769928967
 20
0.4319529936242988
 10
3.883871769928967
 20
0.4439369936243022
 10
3.883012769928969
 20
0.4570399936242908
 10
3.883012769928969
 20
1.183917993624302
 10
3.883871769928968
 20
1.1973939936243
 10
3.886548769928968
 20
1.209728993624298
 10
3.891245769928967
 20
1.220566993624296
 10
3.897957769928968
 20
1.229763993624298
 10
3.906737769928968
 20
1.236940993624298
 10
3.917138769928969
 20
1.241944993624298
 10
3.928926769928969
 20
1.244818993624299
 10
3.942004769928968
 20
1.245740993624299
 10
3.955020769928969
 20
1.244818993624299
 10
3.966693769928969
 20
1.241921993624299
 10
3.977032769928968
 20
1.236897993624296
 10
3.985634769928967
 20
1.229720993624299
 10
3.992308769928969
 20
1.220503993624297
 10
3.996847769928968
 20
1.209684993624299
 10
3.999504769928968
 20
1.197350993624301
 10
4.000315769928969
 20
1.183897993624303
 97
        1
330
F85A
 75
     0
 76
     1
 47
0.007755
 98
        2
 10
4.096125
 20
0.741274
 10
4.096125
 20
0.741274
  0
LWPOLYLINE
  5
F7C2
102
{ACAD_REACTORS
330
F7C0
102
}
330
F62B
100
AcDbEntity
  8
WARSTWA_1
  6
CONTINUOUS
 62
    20
100
AcDbPolyline
 90
       66
 70
     1
 43
0.003
 10
4.375088
 20
0.471611
 10
4.375088
 20
1.171386
 10
4.376427
 20
1.200642
 10
4.380309
 20
1.227745
 10
4.386761
 20
1.252831
 10
4.395671
 20
1.275941
 10
4.407151
 20
1.297119
 10
4.421151
 20
1.316453
 10
4.437722
 20
1.333945
 10
4.45686
 20
1.349678
 10
4.478718
 20
1.363571
 10
4.503277
 20
1.375709
 10
4.530557
 20
1.38602
 10
4.56049
 20
1.394516
 10
4.593234
 20
1.401122
 10
4.628722
 20
1.405882
 10
4.666931
 20
1.408737
 10
4.707773
 20
1.409725
 10
4.739836
 20
1.408804
 10
4.770848
 20
1.40617
 10
4.800848
 20
1.401713
 10
4.829816
 20
1.395567
 10
4.85782
 20
1.387622
 10
4.884812
 20
1.377969
 10
4.910864
 20
1.366556
 10
4.935816
 20
1.353497
 10
4.958466
 20
1.338575
 10
4.977887
 20
1.321918
 10
4.994305
 20
1.303418
 10
5.007647
 20
1.283115
 10
5.018096
 20
1.260819
 10
5.025533
 20
1.2365
 10
5.030076
 20
1.210103
 10
5.031568
 20
1.181351
 10
5.031568
 20
0.461646
 10
5.03032
 20
0.433579
 10
5.026564
 20
0.407682
 10
5.020356
 20
0.38365
 10
5.011643
 20
0.361552
 10
5.000537
 20
0.341272
 10
4.986931
 20
0.322772
 10
4.970844
 20
0.306004
 10
4.952147
 20
0.290949
 10
4.930923
 20
0.277583
 10
4.907045
 20
0.26593
 10
4.880533
 20
0.256012
 10
4.851324
 20
0.247867
 10
4.819478
 20
0.241481
 10
4.784915
 20
0.236937
 10
4.747714
 20
0.234217
 10
4.707793
 20
0.233296
 10
4.666931
 20
0.234241
 10
4.628698
 20
0.237091
 10
4.593234
 20
0.241831
 10
4.56049
 20
0.248461
 10
4.530533
 20
0.25691
 10
4.503277
 20
0.267225
 10
4.478738
 20
0.279363
 10
4.45686
 20
0.293319
 10
4.437722
 20
0.308965
 10
4.421131
 20
0.326481
 10
4.407151
 20
0.345772
 10
4.395671
 20
0.366993
 10
4.386761
 20
0.390079
 10
4.380309
 20
0.415185
 10
4.376427
 20
0.442292
  0
LWPOLYLINE
  5
F806
102
{ACAD_REACTORS
330
F7C0
102
}
330
F62B
100
AcDbEntity
  8
WARSTWA_1
  6
CONTINUOUS
 62
    20
100
AcDbPolyline
 90
       34
 70
     1
 43
0.003
 10
4.761958
 20
0.462918
 10
4.761958
 20
1.179748
 10
4.761167
 20
1.194103
 10
4.758557
 20
1.207162
 10
4.7541
 20
1.218662
 10
4.747541
 20
1.228449
 10
4.739025
 20
1.23613
 10
4.72871
 20
1.241595
 10
4.717013
 20
1.244733
 10
4.704021
 20
1.245741
 10
4.690718
 20
1.244733
 10
4.678738
 20
1.241615
 10
4.668226
 20
1.236193
 10
4.65947
 20
1.228536
 10
4.652773
 20
1.218748
 10
4.648167
 20
1.207225
 10
4.645509
 20
1.194146
 10
4.644675
 20
1.179772
 10
4.644675
 20
0.462918
 10
4.645509
 20
0.44815
 10
4.648143
 20
0.434764
 10
4.65273
 20
0.422977
 10
4.659403
 20
0.412969
 10
4.668116
 20
0.405048
 10
4.678651
 20
0.399449
 10
4.690675
 20
0.396225
 10
4.704021
 20
0.395217
 10
4.717057
 20
0.396225
 10
4.728797
 20
0.399497
 10
4.739135
 20
0.405115
 10
4.747627
 20
0.413059
 10
4.754143
 20
0.423044
 10
4.758576
 20
0.434827
 10
4.761167
 20
0.44817
  0
LWPOLYLINE
  5
F82A
102
{ACAD_REACTORS
330
F7C1
102
}
330
F62B
100
AcDbEntity
  8
WARSTWA_1
  6
CONTINUOUS
 62
    20
100
AcDbPolyline
 90
       46
 70
     1
 43
0.003
 10
3.883013
 20
0.284059
 10
3.883013
 20
0.0015
 10
3.614454
 20
0.0015
 10
3.614454
 20
1.401473
 10
3.882375
 20
1.401473
 10
3.882749
 20
1.351434
 10
3.908043
 20
1.371558
 10
3.935635
 20
1.38744
 10
3.964999
 20
1.399192
 10
3.99561
 20
1.406925
 10
4.026941
 20
1.41075
 10
4.058469
 20
1.410778
 10
4.089666
 20
1.40712
 10
4.120008
 20
1.399889
 10
4.148969
 20
1.389194
 10
4.176023
 20
1.375148
 10
4.200644
 20
1.357861
 10
4.222308
 20
1.337445
 10
4.240489
 20
1.314011
 10
4.254661
 20
1.28767
 10
4.264298
 20
1.258534
 10
4.268875
 20
1.226713
 10
4.268875
 20
0.387052
 10
4.267998
 20
0.36978
 10
4.265297
 20
0.35376
 10
4.260864
 20
0.338658
 10
4.254675
 20
0.324504
 10
4.24673
 20
0.311162
 10
4.236986
 20
0.29863
 10
4.225399
 20
0.28691
 10
4.211903
 20
0.275937
 10
4.197068
 20
0.265953
 10
4.181395
 20
0.257304
 10
4.164915
 20
0.249953
 10
4.14762
 20
0.243985
 10
4.12947
 20
0.239308
 10
4.11049
 20
0.235973
 10
4.090627
 20
0.233953
 10
4.069887
 20
0.233296
 10
4.041446
 20
0.233953
 10
4.014868
 20
0.235953
 10
3.990289
 20
0.239245
 10
3.967639
 20
0.243874
 10
3.947033
 20
0.249756
 10
3.928399
 20
0.25691
 10
3.911742
 20
0.265292
  0
LWPOLYLINE
  5
F85A
102
{ACAD_REACTORS
330
F7C1
102
}
330
F62B
100
AcDbEntity
  8
WARSTWA_1
  6
CONTINUOUS
 62
    20
100
AcDbPolyline
 90
       34
 70
     1
 43
0.003
 10
4.000316
 20
0.459122
 10
4.000316
 20
1.183898
 10
3.999505
 20
1.197351
 10
3.996848
 20
1.209685
 10
3.992309
 20
1.220504
 10
3.985635
 20
1.229721
 10
3.977033
 20
1.236898
 10
3.966694
 20
1.241922
 10
3.955021
 20
1.244819
 10
3.942005
 20
1.245741
 10
3.928927
 20
1.244819
 10
3.917139
 20
1.241945
 10
3.906738
 20
1.236941
 10
3.897958
 20
1.229764
 10
3.891246
 20
1.220567
 10
3.886549
 20
1.209729
 10
3.883872
 20
1.197394
 10
3.883013
 20
1.183918
 10
3.883013
 20
0.45704
 10
3.883872
 20
0.443937
 10
3.886592
 20
0.431953
 10
3.891289
 20
0.421355
 10
3.898049
 20
0.412441
 10
3.906824
 20
0.405441
 10
3.917206
 20
0.400591
 10
3.92897
 20
0.397827
 10
3.942005
 20
0.396949
 10
3.955021
 20
0.397847
 10
3.966718
 20
0.400768
 10
3.977076
 20
0.405839
 10
3.985659
 20
0.413146
 10
3.992309
 20
0.422339
 10
3.996848
 20
0.433248
 10
3.999505
 20
0.445583
  0
SOLID
  5
F87E
330
F62B
100
AcDbEntity
  8
WARSTWA_1
  6
CONTINUOUS
 62
    20
100
AcDbTrace
 10
3.501025
 20
0.249449
 30
0.0
 11
3.231435
 21
0.249449
 31
0.0
 12
3.501025
 22
1.67376
 32
0.0
 13
3.231435
 23
1.67376
 33
0.0
  0
HATCH
  5
F87F
330
F62B
100
AcDbEntity
  8
0
  6
CONTINUOUS
 62
    20
100
AcDbHatch
 10
0.0
 20
0.0
 30
0.0
210
0.0
220
0.0
230
1.0
  2
SOLID
 70
     1
 71
     1
 91
        2
 92
        7
 72
     0
 73
     1
 93
        8
 10
6.494831769928969
 20
0.3819339936242998
 10
6.544048769928968
 20
0.2541379936242989
 10
6.607705769928968
 20
0.2541379936242989
 10
6.435016769928969
 20
0.6760559936242992
 10
6.374898769928968
 20
0.6760559936242992
 10
6.212804769928968
 20
0.2541379936242989
 10
6.272142769928969
 20
0.2541379936242989
 10
6.318406769928968
 20
0.3819339936242993
 97
        1
330
F88B
 92
       22
 72
     0
 73
     1
 93
        9
 10
6.47765076992897
 20
0.4274139936242995
 10
6.334520769928967
 20
0.4274139936242994
 10
6.380890769928971
 20
0.5511029936243024
 10
6.389960769928967
 20
0.5778569936242822
 10
6.397546769928969
 20
0.6047209936243242
 10
6.403674769928968
 20
0.6317479936242983
 10
6.411335769928973
 20
0.606761993624277
 10
6.421303769928957
 20
0.5775879936242982
 10
6.433540769928965
 20
0.5442209936243854
 97
        1
330
F880
 75
     0
 76
     1
 47
0.003856
 98
        2
 10
6.500793
 20
0.398939
 10
6.500793
 20
0.398939
  0
LWPOLYLINE
  5
F880
102
{ACAD_REACTORS
330
F87F
102
}
330
F62B
100
AcDbEntity
  8
WARSTWA_1
  6
CONTINUOUS
 62
    20
100
AcDbPolyline
 90
        9
 70
     1
 43
0.003
 10
6.334521
 20
0.427414
 10
6.477651
 20
0.427414
 10
6.433541
 20
0.544221
 10
6.421304
 20
0.577588
 10
6.411336
 20
0.606762
 10
6.403675
 20
0.631748
 10
6.397547
 20
0.604721
 10
6.389961
 20
0.577857
 10
6.380891
 20
0.551103
  0
LWPOLYLINE
  5
F88B
102
{ACAD_REACTORS
330
F87F
102
}
330
F62B
100
AcDbEntity
  8
WARSTWA_1
  6
CONTINUOUS
 62
    20
100
AcDbPolyline
 90
        8
 70
     1
 43
0.003
 10
6.212805
 20
0.254138
 10
6.374899
 20
0.676056
 10
6.435017
 20
0.676056
 10
6.607706
 20
0.254138
 10
6.544049
 20
0.254138
 10
6.494832
 20
0.381934
 10
6.318407
 20
0.381934
 10
6.272143
 20
0.254138
  0
HATCH
  5
F895
330
F62B
100
AcDbEntity
  8
0
  6
CONTINUOUS
 62
    20
100
AcDbHatch
 10
0.0
 20
0.0
 30
0.0
210
0.0
220
0.0
230
1.0
  2
SOLID
 70
     1
 71
     1
 91
        1
 92
        7
 72
     0
 73
     1
 93
      101
 10
5.953367769928968
 20
0.3325239936243002
 10
5.944010769928968
 20
0.3223119936242982
 10
5.931853769928967
 20
0.3136459936242991
 10
5.916922769928967
 20
0.3065039936242986
 10
5.89980576992897
 20
0.3012549936242993
 10
5.881017769928969
 20
0.2981049936242992
 10
5.860540769928968
 20
0.2970559936242991
 10
5.837369769928968
 20
0.2984349936242992
 10
5.815787769928966
 20
0.3025899936242987
 10
5.795815769928971
 20
0.3095439936242986
 10
5.778330769928969
 20
0.3187419936243
 10
5.76418576992897
 20
0.3296739936242982
 10
5.753374769928967
 20
0.3423629936242967
 10
5.745347769928971
 20
0.357162993624291
 10
5.73954876992897
 20
0.3744729936242951
 10
5.735977769928968
 20
0.3943149936242989
 10
5.683331769928969
 20
0.389708993624299
 10
5.68637376992897
 20
0.362463993624297
 10
5.69408276992897
 20
0.3371729936242931
 10
5.706418769928968
 20
0.3138669936242965
 10
5.722987769928969
 20
0.2933669936242976
 10
5.743252769928968
 20
0.2766429936242999
 10
5.76723376992897
 20
0.2636739936242983
 10
5.795059769928967
 20
0.254361993624299
 10
5.827051769928969
 20
0.2488119936242992
 10
5.863189769928967
 20
0.2469729936242992
 10
5.892266769928968
 20
0.2488049936242991
 10
5.919359769928968
 20
0.2543039936242993
 10
5.944441769928966
 20
0.263476993624299
 10
5.966639769928971
 20
0.276018993624298
 10
5.985106769928968
 20
0.2914629936243005
 10
5.999847769928969
 20
0.3098269936242981
 10
6.010551769928969
 20
0.3301019936242974
 10
6.016959769928968
 20
0.3512459936243017
 10
6.019091769928969
 20
0.3732879936243009
 10
6.01715576992897
 20
0.3950269936242952
 10
6.011333769928968
 20
0.415045993624296
 10
6.001607769928968
 20
0.4333229936242987
 10
5.987761769928967
 20
0.4496269936243023
 10
5.969609769928966
 20
0.4639669936243006
 10
5.947178769928968
 20
0.4763469936242995
 10
5.925546769928976
 20
0.4844289936242988
 10
5.894407769928966
 20
0.4933939936242976
 10
5.853764769928946
 20
0.5032559936242956
 10
5.814176769928962
 20
0.5134059936243
 10
5.78612876992897
 20
0.5234289936242971
 10
5.769579769928969
 20
0.533314993624299
 10
5.760481769928969
 20
0.5439599936243001
 10
5.755009769928969
 20
0.5564319936242983
 10
5.753182769928968
 20
0.5707409936242972
 10
5.755762769928969
 20
0.5873079936242994
 10
5.763493769928967
 20
0.6022119936242974
 10
5.77635576992897
 20
0.6154369936242987
 10
5.794902769928971
 20
0.6257529936242993
 10
5.819511769928968
 20
0.631943993624299
 10
5.850221769928968
 20
0.6340079936242988
 10
5.879997769928968
 20
0.6317449936242986
 10
5.90448876992897
 20
0.624938993624299
 10
5.923721769928967
 20
0.6135669936243002
 10
5.938029769928969
 20
0.5977979936243019
 10
5.94777676992897
 20
0.5776399936242999
 10
5.95297776992897
 20
0.5531699936242991
 10
6.006516769928968
 20
0.5571849936242992
 10
6.003547769928969
 20
0.5810879936242941
 10
5.996626769928965
 20
0.6032619936243082
 10
5.985796769928965
 20
0.6236889936243026
 10
5.971089769928971
 20
0.6416619936242989
 10
5.952725769928967
 20
0.6564679936243003
 10
5.930693769928969
 20
0.668082993624298
 10
5.905529769928966
 20
0.6765059936242998
 10
5.877948769928969
 20
0.6815459936242994
 10
5.847878769928968
 20
0.6832209936242993
 10
5.820366769928968
 20
0.6816179936242995
 10
5.794577769928969
 20
0.6768259936242988
 10
5.770469769928968
 20
0.6688669936242989
 10
5.74912576992897
 20
0.6577659936243002
 10
5.731463769928969
 20
0.6436959936242991
 10
5.717516769928969
 20
0.6266419936242982
 10
5.707465769928969
 20
0.6076819936242992
 10
5.701447769928967
 20
0.5877889936243011
 10
5.69944576992897
 20
0.5670039936243043
 10
5.701082769928969
 20
0.5482119936242973
 10
5.705991769928971
 20
0.5307059936242992
 10
5.71417476992897
 20
0.5144649936242977
 10
5.725800769928969
 20
0.4996589936242993
 10
5.740828769928969
 20
0.4865429936242986
 10
5.759260769928968
 20
0.4751539936242991
 10
5.778679769928966
 20
0.4667349936242978
 10
5.80584276992897
 20
0.4579699936243
 10
5.840709769929009
 20
0.4488269936242952
 10
5.87489976992897
 20
0.4403229936242995
 10
5.899928769928965
 20
0.4334439936242998
 10
5.915859769928973
 20
0.4281969936242975
 10
5.93179676992897
 20
0.420996993624298
 10
5.944446769928971
 20
0.412721993624298
 10
5.953780769928968
 20
0.4033509936242995
 10
5.960228769928971
 20
0.3928949936242973
 10
5.964077769928969
 20
0.3813539936242942
 10
5.96535576992897
 20
0.3686849936243033
 10
5.964018769928968
 20
0.3559659936242967
 10
5.960018769928968
 20
0.3439259936243028
 97
        1
330
F896
 75
     0
 76
     1
 47
0.003856
 98
        1
 10
5.975986
 20
0.321822
  0
LWPOLYLINE
  5
F896
102
{ACAD_REACTORS
330
F895
102
}
330
F62B
100
AcDbEntity
  8
WARSTWA_1
  6
CONTINUOUS
 62
    20
100
AcDbPolyline
 90
      101
 70
     1
 43
0.003
 10
5.683332
 20
0.389709
 10
5.735978
 20
0.394315
 10
5.739549
 20
0.374473
 10
5.745348
 20
0.357163
 10
5.753375
 20
0.342363
 10
5.764186
 20
0.329674
 10
5.778331
 20
0.318742
 10
5.795816
 20
0.309544
 10
5.815788
 20
0.30259
 10
5.83737
 20
0.298435
 10
5.860541
 20
0.297056
 10
5.881018
 20
0.298105
 10
5.899806
 20
0.301255
 10
5.916923
 20
0.306504
 10
5.931854
 20
0.313646
 10
5.944011
 20
0.322312
 10
5.953368
 20
0.332524
 10
5.960019
 20
0.343926
 10
5.964019
 20
0.355966
 10
5.965356
 20
0.368685
 10
5.964078
 20
0.381354
 10
5.960229
 20
0.392895
 10
5.953781
 20
0.403351
 10
5.944447
 20
0.412722
 10
5.931797
 20
0.420997
 10
5.91586
 20
0.428197
 10
5.899929
 20
0.433444
 10
5.8749
 20
0.440323
 10
5.84071
 20
0.448827
 10
5.805843
 20
0.45797
 10
5.77868
 20
0.466735
 10
5.759261
 20
0.475154
 10
5.740829
 20
0.486543
 10
5.725801
 20
0.499659
 10
5.714175
 20
0.514465
 10
5.705992
 20
0.530706
 10
5.701083
 20
0.548212
 10
5.699446
 20
0.567004
 10
5.701448
 20
0.587789
 10
5.707466
 20
0.607682
 10
5.717517
 20
0.626642
 10
5.731464
 20
0.643696
 10
5.749126
 20
0.657766
 10
5.77047
 20
0.668867
 10
5.794578
 20
0.676826
 10
5.820367
 20
0.681618
 10
5.847879
 20
0.683221
 10
5.877949
 20
0.681546
 10
5.90553
 20
0.676506
 10
5.930694
 20
0.668083
 10
5.952726
 20
0.656468
 10
5.97109
 20
0.641662
 10
5.985797
 20
0.623689
 10
5.996627
 20
0.603262
 10
6.003548
 20
0.581088
 10
6.006517
 20
0.557185
 10
5.952978
 20
0.55317
 10
5.947777
 20
0.57764
 10
5.93803
 20
0.597798
 10
5.923722
 20
0.613567
 10
5.904489
 20
0.624939
 10
5.879998
 20
0.631745
 10
5.850222
 20
0.634008
 10
5.819512
 20
0.631944
 10
5.794903
 20
0.625753
 10
5.776356
 20
0.615437
 10
5.763494
 20
0.602212
 10
5.755763
 20
0.587308
 10
5.753183
 20
0.570741
 10
5.75501
 20
0.556432
 10
5.760482
 20
0.54396
 10
5.76958
 20
0.533315
 10
5.786129
 20
0.523429
 10
5.814177
 20
0.513406
 10
5.853765
 20
0.503256
 10
5.894408
 20
0.493394
 10
5.925547
 20
0.484429
 10
5.947179
 20
0.476347
 10
5.96961
 20
0.463967
 10
5.987762
 20
0.449627
 10
6.001608
 20
0.433323
 10
6.011334
 20
0.415046
 10
6.017156
 20
0.395027
 10
6.019092
 20
0.373288
 10
6.01696
 20
0.351246
 10
6.010552
 20
0.330102
 10
5.999848
 20
0.309827
 10
5.985107
 20
0.291463
 10
5.96664
 20
0.276019
 10
5.944442
 20
0.263477
 10
5.91936
 20
0.254304
 10
5.892267
 20
0.248805
 10
5.86319
 20
0.246973
 10
5.827052
 20
0.248812
 10
5.79506
 20
0.254362
 10
5.767234
 20
0.263674
 10
5.743253
 20
0.276643
 10
5.722988
 20
0.293367
 10
5.706419
 20
0.313867
 10
5.694083
 20
0.337173
 10
5.686374
 20
0.362464
  0
LWPOLYLINE
  5
F8FD
330
F62B
100
AcDbEntity
  8
WARSTWA_1
  6
CONTINUOUS
 62
    20
100
AcDbPolyline
 90
        4
 70
     1
 43
0.003
 10
6.10347
 20
0.254138
 10
6.10347
 20
0.31317
 10
6.162505
 20
0.31317
 10
6.162505
 20
0.254138
  0
SOLID
  5
F903
330
F62B
100
AcDbEntity
  8
WARSTWA_1
 62
    20
100
AcDbTrace
 10
6.10347
 20
0.254138
 30
0.0
 11
6.10347
 21
0.31317
 31
0.0
 12
6.162505
 22
0.254138
 32
0.0
 13
6.162505
 23
0.31317
 33
0.0
  0
LWPOLYLINE
  5
F904
330
F62B
100
AcDbEntity
  8
WARSTWA_1
  6
CONTINUOUS
 62
    20
100
AcDbPolyline
 90
        4
 70
     1
 43
0.003
 10
6.660356
 20
0.254138
 10
6.660356
 20
0.31317
 10
6.719387
 20
0.31317
 10
6.719387
 20
0.254138
  0
SOLID
  5
F90A
330
F62B
100
AcDbEntity
  8
WARSTWA_1
  6
CONTINUOUS
 62
    20
100
AcDbTrace
 10
6.660356
 20
0.254138
 30
0.0
 11
6.660356
 21
0.31317
 31
0.0
 12
6.719387
 22
0.254138
 32
0.0
 13
6.719387
 23
0.31317
 33
0.0
  0
HATCH
  5
F90B
330
F62B
100
AcDbEntity
  8
0
  6
CONTINUOUS
 62
    20
100
AcDbHatch
 10
0.0
 20
0.0
 30
0.0
210
0.0
220
0.0
230
1.0
  2
SOLID
 70
     1
 71
     1
 91
        4
 92
        7
 72
     0
 73
     1
 93
       48
 10
6.213609769928965
 20
1.274360993624299
 10
6.232985769928964
 20
1.245522993624303
 10
6.256288769928965
 20
1.219007993624303
 10
6.283374769928963
 20
1.195036993624298
 10
6.312644769928978
 20
1.175130993624297
 10
6.344126769928966
 20
1.159287993624298
 10
6.377143769928971
 20
1.147762993624298
 10
6.411017769928968
 20
1.140828993624298
 10
6.445776769928968
 20
1.138511993624298
 10
6.480272769928967
 20
1.140828993624299
 10
6.514298769928967
 20
1.147762993624298
 10
6.547800769928968
 20
1.159287993624298
 10
6.579903769928963
 20
1.175051993624297
 10
6.609546769928968
 20
1.194741993624298
 10
6.636756769928967
 20
1.218385993624299
 10
6.660233769928969
 20
1.244389993624298
 10
6.679674769928968
 20
1.272881993624293
 10
6.695107769928971
 20
1.303862993624304
 10
6.70621876992897
 20
1.336743993624301
 10
6.712904769928967
 20
1.371173993624293
 10
6.715138769928968
 20
1.407125993624292
 10
6.712904769928966
 20
1.442120993624304
 10
6.706218769928969
 20
1.476146993624302
 10
6.695107769928974
 20
1.509149993624293
 10
6.679758769928969
 20
1.540505993624303
 10
6.660567769928971
 20
1.569402993624297
 10
6.637504769928965
 20
1.595866993624293
 10
6.610956769928967
 20
1.619623993624296
 10
6.581811769928965
 20
1.639373993624301
 10
6.550040769928972
 20
1.655086993624297
 10
6.516399769928968
 20
1.666579993624297
 10
6.481653769928971
 20
1.673454993624298
 10
6.445776769928968
 20
1.675740993624298
 10
6.410520769928968
 20
1.673588993624299
 10
6.376645769928966
 20
1.667151993624298
 10
6.344126769928969
 20
1.656456993624299
 10
6.313442769928967
 20
1.641523993624296
 10
6.28510776992897
 20
1.622579993624299
 10
6.259150769928968
 20
1.599598993624296
 10
6.235137769928972
 20
1.5725259936243
 10
6.21510576992897
 20
1.542855993624298
 10
6.199056769928971
 20
1.510641993624304
 10
6.187324769928968
 20
1.476753993624301
 10
6.180265769928967
 20
1.4422589936243
 10
6.177906769928967
 20
1.407125993624294
 10
6.180150769928968
 20
1.372372993624297
 10
6.186900769928967
 20
1.3385319936243
 10
6.198186769928967
 20
1.305602993624304
 97
        1
330
F90C
 92
       22
 72
     0
 73
     1
 93
       48
 10
6.230536769928968
 20
1.319165993624298
 10
6.220700769928967
 20
1.347774993624301
 10
6.214820769928969
 20
1.377104993624296
 10
6.212867769928968
 20
1.407125993624296
 10
6.214904769928969
 20
1.437685993624297
 10
6.221033769928967
 20
1.4676379936243
 10
6.231280769928964
 20
1.496952993624297
 10
6.245340769928971
 20
1.524956993624298
 10
6.262884769928966
 20
1.550776993624294
 10
6.283910769928973
 20
1.574468993624301
 10
6.306005769928968
 20
1.594202993624299
 10
6.330449769928971
 20
1.610592993624299
 10
6.357189769928966
 20
1.623610993624298
 10
6.385770769928965
 20
1.633148993624298
 10
6.415539769928968
 20
1.638871993624299
 10
6.446524769928968
 20
1.640779993624298
 10
6.477590769928965
 20
1.638788993624299
 10
6.507608769928967
 20
1.632816993624298
 10
6.536603769928974
 20
1.622862993624298
 10
6.564015769928968
 20
1.6092649936243
 10
6.589520769928977
 20
1.592127993624294
 10
6.613119769928966
 20
1.571480993624295
 10
6.633030769928972
 20
1.548767993624299
 10
6.649485769928969
 20
1.523731993624296
 10
6.662512769928969
 20
1.496456993624299
 10
6.671930769928966
 20
1.4673019936243
 10
6.677562769928969
 20
1.436820993624297
 10
6.679434769928969
 20
1.405011993624303
 10
6.677484769928969
 20
1.374768993624297
 10
6.671635769928967
 20
1.345466993624306
 10
6.66189076992897
 20
1.317047993624295
 10
6.648582769928967
 20
1.290216993624295
 10
6.631817769928965
 20
1.265457993624297
 10
6.61162676992897
 20
1.242771993624299
 10
6.587986769928971
 20
1.222362993624299
 10
6.562356769928966
 20
1.205409993624298
 10
6.534737769928972
 20
1.191885993624301
 10
6.505534769928971
 20
1.182051993624299
 10
6.475393769928968
 20
1.176170993624299
 10
6.444284769928967
 20
1.174216993624299
 10
6.414666769928967
 20
1.176244993624299
 10
6.385520769928971
 20
1.182309993624298
 10
6.356815769928966
 20
1.192381993624299
 10
6.329528769928966
 20
1.206233993624301
 10
6.304397769928967
 20
1.223402993624297
 10
6.281422769928969
 20
1.243889993624296
 10
6.261013769928964
 20
1.266779993624299
 10
6.24406076992897
 20
1.291879993624296
 97
        1
330
F93E
 92
        6
 72
     0
 73
     1
 93
       20
 10
6.338280769928969
 20
1.564511993624299
 10
6.453115769928965
 20
1.564511993624298
 10
6.491841769928971
 20
1.562189993624299
 10
6.523629769928968
 20
1.555223993624298
 10
6.54842276992897
 20
1.543610993624298
 10
6.566135769928967
 20
1.527302993624298
 10
6.576743769928969
 20
1.506460993624297
 10
6.580272769928968
 20
1.4810279936243
 10
6.578235769928968
 20
1.460458993624303
 10
6.572106769928968
 20
1.442293993624299
 10
6.561859769928966
 20
1.426535993624296
 10
6.547960769928969
 20
1.413848993624298
 10
6.53088276992897
 20
1.404673993624299
 10
6.510595769928968
 20
1.399039993624299
 10
6.578780769928969
 20
1.260314993624299
 10
6.514205769928969
 20
1.260314993624299
 10
6.452371769928968
 20
1.389956993624299
 10
6.395886769928968
 20
1.389956993624299
 10
6.395886769928969
 20
1.260314993624299
 10
6.338280769928968
 20
1.260314993624299
 97
        1
330
F970
 92
        6
 72
     0
 73
     1
 93
       15
 10
6.395886769928967
 20
1.426409993624298
 10
6.395886769928967
 20
1.527310993624299
 10
6.442914769928971
 20
1.527310993624299
 10
6.467797769928967
 20
1.525937993624298
 10
6.487704769928972
 20
1.521799993624298
 10
6.502634769928967
 20
1.514870993624299
 10
6.512916769928968
 20
1.504953993624299
 10
6.519105769928968
 20
1.491608993624299
 10
6.521174769928967
 20
1.4748079936243
 10
6.519220769928971
 20
1.459223993624302
 10
6.513340769928966
 20
1.446846993624297
 10
6.503504769928968
 20
1.437732993624299
 10
6.489063769928968
 20
1.431423993624298
 10
6.469342769928966
 20
1.427658993624298
 10
6.44428476992897
 20
1.426409993624298
 97
        1
330
F986
 75
     0
 76
     1
 47
0.003856
 98
        4
 10
6.226813
 20
1.289633
 10
6.226813
 20
1.289633
 10
6.226813
 20
1.289633
 10
6.226813
 20
1.289633
  0
LWPOLYLINE
  5
F90C
102
{ACAD_REACTORS
330
F90B
102
}
330
F62B
100
AcDbEntity
  8
WARSTWA_1
  6
CONTINUOUS
 62
    20
100
AcDbPolyline
 90
       48
 70
     1
 43
0.003
 10
6.445777
 20
1.675741
 10
6.481654
 20
1.673455
 10
6.5164
 20
1.66658
 10
6.550041
 20
1.655087
 10
6.581812
 20
1.639374
 10
6.610957
 20
1.619624
 10
6.637505
 20
1.595867
 10
6.660568
 20
1.569403
 10
6.679759
 20
1.540506
 10
6.695108
 20
1.50915
 10
6.706219
 20
1.476147
 10
6.712905
 20
1.442121
 10
6.715139
 20
1.407126
 10
6.712905
 20
1.371174
 10
6.706219
 20
1.336744
 10
6.695108
 20
1.303863
 10
6.679675
 20
1.272882
 10
6.660234
 20
1.24439
 10
6.636757
 20
1.218386
 10
6.609547
 20
1.194742
 10
6.579904
 20
1.175052
 10
6.547801
 20
1.159288
 10
6.514299
 20
1.147763
 10
6.480273
 20
1.140829
 10
6.445777
 20
1.138512
 10
6.411018
 20
1.140829
 10
6.377144
 20
1.147763
 10
6.344127
 20
1.159288
 10
6.312645
 20
1.175131
 10
6.283375
 20
1.195037
 10
6.256289
 20
1.219008
 10
6.232986
 20
1.245523
 10
6.21361
 20
1.274361
 10
6.198187
 20
1.305603
 10
6.186901
 20
1.338532
 10
6.180151
 20
1.372373
 10
6.177907
 20
1.407126
 10
6.180266
 20
1.442259
 10
6.187325
 20
1.476754
 10
6.199057
 20
1.510642
 10
6.215106
 20
1.542856
 10
6.235138
 20
1.572526
 10
6.259151
 20
1.599599
 10
6.285108
 20
1.62258
 10
6.313443
 20
1.641524
 10
6.344127
 20
1.656457
 10
6.376646
 20
1.667152
 10
6.410521
 20
1.673589
  0
LWPOLYLINE
  5
F93E
102
{ACAD_REACTORS
330
F90B
102
}
330
F62B
100
AcDbEntity
  8
WARSTWA_1
  6
CONTINUOUS
 62
    20
100
AcDbPolyline
 90
       48
 70
     1
 43
0.003
 10
6.679435
 20
1.405012
 10
6.677563
 20
1.436821
 10
6.671931
 20
1.467302
 10
6.662513
 20
1.496457
 10
6.649486
 20
1.523732
 10
6.633031
 20
1.548768
 10
6.61312
 20
1.571481
 10
6.589521
 20
1.592128
 10
6.564016
 20
1.609265
 10
6.536604
 20
1.622863
 10
6.507609
 20
1.632817
 10
6.477591
 20
1.638789
 10
6.446525
 20
1.64078
 10
6.41554
 20
1.638872
 10
6.385771
 20
1.633149
 10
6.35719
 20
1.623611
 10
6.33045
 20
1.610593
 10
6.306006
 20
1.594203
 10
6.283911
 20
1.574469
 10
6.262885
 20
1.550777
 10
6.245341
 20
1.524957
 10
6.231281
 20
1.496953
 10
6.221034
 20
1.467638
 10
6.214905
 20
1.437686
 10
6.212868
 20
1.407126
 10
6.214821
 20
1.377105
 10
6.220701
 20
1.347775
 10
6.230537
 20
1.319166
 10
6.244061
 20
1.29188
 10
6.261014
 20
1.26678
 10
6.281423
 20
1.24389
 10
6.304398
 20
1.223403
 10
6.329529
 20
1.206234
 10
6.356816
 20
1.192382
 10
6.385521
 20
1.18231
 10
6.414667
 20
1.176245
 10
6.444285
 20
1.174217
 10
6.475394
 20
1.176171
 10
6.505535
 20
1.182052
 10
6.534738
 20
1.191886
 10
6.562357
 20
1.20541
 10
6.587987
 20
1.222363
 10
6.611627
 20
1.242772
 10
6.631818
 20
1.265458
 10
6.648583
 20
1.290217
 10
6.661891
 20
1.317048
 10
6.671636
 20
1.345467
 10
6.677485
 20
1.374769
  0
LWPOLYLINE
  5
F970
102
{ACAD_REACTORS
330
F90B
102
}
330
F62B
100
AcDbEntity
  8
WARSTWA_1
  6
CONTINUOUS
 62
    20
100
AcDbPolyline
 90
       20
 70
     1
 43
0.003
 10
6.453116
 20
1.564512
 10
6.491842
 20
1.56219
 10
6.52363
 20
1.555224
 10
6.548423
 20
1.543611
 10
6.566136
 20
1.527303
 10
6.576744
 20
1.506461
 10
6.580273
 20
1.481028
 10
6.578236
 20
1.460459
 10
6.572107
 20
1.442294
 10
6.56186
 20
1.426536
 10
6.547961
 20
1.413849
 10
6.530883
 20
1.404674
 10
6.510596
 20
1.39904
 10
6.578781
 20
1.260315
 10
6.514206
 20
1.260315
 10
6.452372
 20
1.389957
 10
6.395887
 20
1.389957
 10
6.395887
 20
1.260315
 10
6.338281
 20
1.260315
 10
6.338281
 20
1.564512
  0
LWPOLYLINE
  5
F986
102
{ACAD_REACTORS
330
F90B
102
}
330
F62B
100
AcDbEntity
  8
WARSTWA_1
  6
CONTINUOUS
 62
    20
100
AcDbPolyline
 90
       15
 70
     1
 43
0.003
 10
6.442915
 20
1.527311
 10
6.395887
 20
1.527311
 10
6.395887
 20
1.42641
 10
6.444285
 20
1.42641
 10
6.469343
 20
1.427659
 10
6.489064
 20
1.431424
 10
6.503505
 20
1.437733
 10
6.513341
 20
1.446847
 10
6.519221
 20
1.459224
 10
6.521175
 20
1.474808
 10
6.519106
 20
1.491609
 10
6.512917
 20
1.504954
 10
6.502635
 20
1.514871
 10
6.487705
 20
1.5218
 10
6.467798
 20
1.525938
  0
ENDBLK
  5
F998
330
F62B
100
AcDbEntity
  8
0
 62
     2
100
AcDbBlockEnd
  0
BLOCK
  5
10DE7
330
10A7E
100
AcDbEntity
  8
0
100
AcDbBlockBegin
  2
*D7
 70
     1
 10
0.0
 20
0.0
 30
0.0
  3
*D7
  1
*D7
  0
LINE
  5
10DE8
330
10A7E
100
AcDbEntity
  8
WY
 62
     0
100
AcDbLine
 10
642.1746074940386
 20
124.1584324699854
 30
0.0
 11
651.2452874607
 21
124.1584324699854
 31
0.0
  0
LINE
  5
10DE9
330
10A7E
100
AcDbEntity
  8
WY
 62
     0
100
AcDbLine
 10
642.4746074940385
 20
117.9584324699854
 30
0.0
 11
651.2452874607
 21
117.9584324699854
 31
0.0
  0
LINE
  5
10DEA
330
10A7E
100
AcDbEntity
  8
WY
 62
     0
100
AcDbLine
 10
649.7452874607
 20
124.1584324699854
 30
0.0
 11
649.7452874607
 21
141.6584324699854
 31
0.0
  0
LINE
  5
10DEB
330
10A7E
100
AcDbEntity
  8
WY
 62
     0
100
AcDbLine
 10
649.7452874607
 20
124.1584324699854
 30
0.0
 11
649.7452874607
 21
117.9584324699854
 31
0.0
  0
LINE
  5
10DEC
330
10A7E
100
AcDbEntity
  8
WY
 62
     0
100
AcDbLine
 10
649.7452874607
 20
127.1584324699854
 30
0.0
 11
649.7452874607
 21
130.1584324699854
 31
0.0
  0
LINE
  5
10DED
330
10A7E
100
AcDbEntity
  8
WY
 62
     0
100
AcDbLine
 10
649.7452874607
 20
114.9584324699854
 30
0.0
 11
649.7452874607
 21
111.9584324699854
 31
0.0
  0
SOLID
  5
10DEE
330
10A7E
100
AcDbEntity
  8
WY
 62
     0
100
AcDbTrace
 10
649.2452874607
 20
127.1584324699854
 30
0.0
 11
650.2452874607
 21
127.1584324699854
 31
0.0
 12
649.7452874607
 22
124.1584324699854
 32
0.0
 13
649.7452874607
 23
124.1584324699854
 33
0.0
  0
SOLID
  5
10DEF
330
10A7E
100
AcDbEntity
  8
WY
 62
     0
100
AcDbTrace
 10
650.2452874607
 20
114.9584324699854
 30
0.0
 11
649.2452874607
 21
114.9584324699854
 31
0.0
 12
649.7452874607
 22
117.9584324699854
 32
0.0
 13
649.7452874607
 23
117.9584324699854
 33
0.0
  0
MTEXT
  5
10DF0
330
10A7E
100
AcDbEntity
  8
WY
 62
     0
100
AcDbMText
 10
646.7452874607
 20
135.9084324699854
 30
0.0
 40
3.0
 41
0.0
 71
     5
 72
     1
  1
\A1;6.20
 11
0.0
 21
1.0
 31
0.0
  0
POINT
  5
10DF1
330
10A7E
100
AcDbEntity
  8
DEFPOINTS
 62
     0
100
AcDbPoint
 10
640.6746074940386
 20
124.1584324699854
 30
0.0
  0
POINT
  5
11498
330
10A7E
100
AcDbEntity
  8
DEFPOINTS
 62
     0
100
AcDbPoint
 10
640.9746074940385
 20
117.9584324699854
 30
0.0
  0
POINT
  5
114D5
330
10A7E
100
AcDbEntity
  8
DEFPOINTS
 62
     0
100
AcDbPoint
 10
649.7452874607
 20
117.9584324699854
 30
0.0
  0
ENDBLK
  5
10DF2
330
10A7E
100
AcDbEntity
  8
0
100
AcDbBlockEnd
  0
BLOCK
  5
10DFE
330
10DA2
100
AcDbEntity
  8
0
100
AcDbBlockBegin
  2
*D8
 70
     1
 10
0.0
 20
0.0
 30
0.0
  3
*D8
  1
*D8
  0
LINE
  5
10DFF
330
10DA2
100
AcDbEntity
  8
WY
 62
     0
100
AcDbLine
 10
542.4046074940386
 20
116.4584324699854
 30
0.0
 11
542.4046074940386
 21
97.69493046998542
 31
0.0
  0
LINE
  5
10E00
330
10DA2
100
AcDbEntity
  8
WY
 62
     0
100
AcDbLine
 10
640.9746074940385
 20
116.4584324699854
 30
0.0
 11
640.9746074940385
 21
97.69493046998542
 31
0.0
  0
LINE
  5
10E01
330
10DA2
100
AcDbEntity
  8
WY
 62
     0
100
AcDbLine
 10
545.4046074940386
 20
99.19493046998542
 30
0.0
 11
637.9746074940385
 21
99.19493046998542
 31
0.0
  0
SOLID
  5
10E02
330
10DA2
100
AcDbEntity
  8
WY
 62
     0
100
AcDbTrace
 10
545.4046074940386
 20
99.69493046998542
 30
0.0
 11
545.4046074940386
 21
98.69493046998542
 31
0.0
 12
542.4046074940386
 22
99.19493046998542
 32
0.0
 13
542.4046074940386
 23
99.19493046998542
 33
0.0
  0
SOLID
  5
10E03
330
10DA2
100
AcDbEntity
  8
WY
 62
     0
100
AcDbTrace
 10
637.9746074940385
 20
98.69493046998542
 30
0.0
 11
637.9746074940385
 21
99.69493046998542
 31
0.0
 12
640.9746074940385
 22
99.19493046998542
 32
0.0
 13
640.9746074940385
 23
99.19493046998542
 33
0.0
  0
MTEXT
  5
10E04
330
10DA2
100
AcDbEntity
  8
WY
 62
     0
100
AcDbMText
 10
591.6896074940386
 20
102.4449304699854
 30
0.0
 40
3.0
 41
0.0
 71
     5
 72
     1
  1
\A1;98,5%%p0.2
  0
POINT
  5
10E05
330
10DA2
100
AcDbEntity
  8
DEFPOINTS
 62
     0
100
AcDbPoint
 10
542.4046074940386
 20
117.9584324699854
 30
0.0
  0
POINT
  5
10E06
330
10DA2
100
AcDbEntity
  8
DEFPOINTS
 62
     0
100
AcDbPoint
 10
640.9746074940385
 20
117.9584324699854
 30
0.0
  0
POINT
  5
10E07
330
10DA2
100
AcDbEntity
  8
DEFPOINTS
 62
     0
100
AcDbPoint
 10
640.9746074940385
 20
99.19493046998542
 30
0.0
  0
ENDBLK
  5
10E08
330
10DA2
100
AcDbEntity
  8
0
100
AcDbBlockEnd
  0
BLOCK
  5
10F14
330
10F13
100
AcDbEntity
  8
0
100
AcDbBlockBegin
  2
A$C2E0C7790
 70
     0
 10
0.0
 20
0.0
 30
0.0
  3
A$C2E0C7790
  1
A$C2E0C7790
  0
INSERT
  5
10F15
330
10F13
100
AcDbEntity
  8
3
100
AcDbBlockReference
  2
A$C38A41158
 10
0.0000008956742477
 20
-0.0000001455197207
 30
0.0
  0
ENDBLK
  5
10F1D
330
10F13
100
AcDbEntity
  8
0
100
AcDbBlockEnd
  0
BLOCK
  5
10F17
330
10F16
100
AcDbEntity
  8
0
100
AcDbBlockBegin
  2
A$C38A41158
 70
     0
 10
0.0
 20
0.0
 30
0.0
  3
A$C38A41158
  1
A$C38A41158
  0
MTEXT
  5
10F18
330
10F16
100
AcDbEntity
  8
WY
 62
     3
100
AcDbMText
 10
19.28586260491693
 20
0.9999998348787358
 30
0.0
 40
2.0
 41
0.0
 71
     5
 72
     1
  1
MODE
  0
LINE
  5
10F19
330
10F16
100
AcDbEntity
  8
WY
 62
     3
100
AcDbLine
 10
-0.0000009915696637
 20
2.792490054669656
 30
0.0
 11
24.59037654723681
 21
2.792490054669656
 31
0.0
  0
MTEXT
  5
10F1A
330
10F16
100
AcDbEntity
  8
WY
 62
     3
100
AcDbMText
 10
5.039645969614412
 20
1.103742813103509
 30
0.0
 40
2.0
 41
0.0
 71
     5
 72
     1
  1
TIME
  0
LINE
  5
10F1B
330
10F16
100
AcDbEntity
  8
WY
 62
     3
100
AcDbLine
 10
12.22057919024951
 20
4.684845818251006
 30
0.0
 11
12.22057919024951
 21
2.792490054669656
 31
0.0
  0
ENDBLK
  5
10F1C
330
10F16
100
AcDbEntity
  8
0
100
AcDbBlockEnd
  0
BLOCK
  5
11089
330
11088
100
AcDbEntity
  8
0
100
AcDbBlockBegin
  2
A$C371C7AD0
 70
     0
 10
0.0
 20
0.0
 30
0.0
  3
A$C371C7AD0
  1
A$C371C7AD0
  0
LINE
  5
1108A
330
11088
100
AcDbEntity
  8
WY
100
AcDbLine
 10
4.527716158246434
 20
2.697963467063857
 30
0.0
 11
1.039700343397072
 21
2.697963467063857
 31
0.0
  0
ARC
  5
1108B
330
11088
100
AcDbEntity
  8
1
100
AcDbCircle
 10
6.527716158246434
 20
2.697963467063857
 30
0.0
 40
4.488015814849363
100
AcDbArc
 50
8.205279712220008
 51
171.79472028778
  0
TEXT
  5
1108C
330
11088
100
AcDbEntity
  8
1
100
AcDbText
 10
-0.0000002627262177
 20
-0.2275431172427034
 30
0.0
 40
2.464
  1
-
  7
ITALIC
100
AcDbText
  0
SOLID
  5
1108D
330
11088
100
AcDbEntity
  8
1
100
AcDbTrace
 10
1.543253965595795
 20
3.389430874074151
 30
0.0
 11
2.430501792850322
 21
3.24873947131664
 31
0.0
 12
1.748341129519275
 22
1.740032800548079
 32
0.0
 13
1.748341129519275
 23
1.740032800548079
 33
0.0
  0
LINE
  5
1108E
330
11088
100
AcDbEntity
  8
WY
100
AcDbLine
 10
6.527716158246434
 20
1.697963467063857
 30
0.0
 11
6.527716158246434
 21
3.697963467063857
 31
0.0
  0
TEXT
  5
1108F
330
11088
100
AcDbEntity
  8
1
100
AcDbText
 10
11.60484649956469
 20
0.0646427292089129
 30
0.0
 40
2.464
  1
+
  7
ITALIC
100
AcDbText
  0
SOLID
  5
11090
330
11088
100
AcDbEntity
  8
1
100
AcDbTrace
 10
11.51217835089707
 20
3.389430874074151
 30
0.0
 11
10.62493052364255
 21
3.24873947131664
 31
0.0
 12
11.30709118697359
 22
1.740032800548079
 32
0.0
 13
11.30709118697359
 23
1.740032800548079
 33
0.0
  0
LINE
  5
11091
330
11088
100
AcDbEntity
  8
WY
100
AcDbLine
 10
8.527716158246434
 20
2.697963467063857
 30
0.0
 11
12.0157319730958
 21
2.697963467063857
 31
0.0
  0
LINE
  5
11092
330
11088
100
AcDbEntity
  8
WY
100
AcDbLine
 10
5.527716158246434
 20
2.697963467063857
 30
0.0
 11
7.527716158246434
 21
2.697963467063857
 31
0.0
  0
SOLID
  5
11093
330
11088
100
AcDbEntity
  8
1
100
AcDbTrace
 10
5.991344269961317
 20
0.0215288427269229
 30
0.0
 11
6.889419581557505
 21
-0.0000004972345664
 31
0.0
 12
6.504969945643765
 22
2.704990107534798
 32
0.0
 13
6.504969945643765
 23
2.704990107534798
 33
0.0
  0
LINE
  5
11094
330
11088
100
AcDbEntity
  8
WY
100
AcDbLine
 10
6.527716158246434
 20
4.697963467063857
 30
0.0
 11
6.527716158246434
 21
8.185979281913205
 31
0.0
  0
ENDBLK
  5
11095
330
11088
100
AcDbEntity
  8
0
100
AcDbBlockEnd
  0
BLOCK
  5
11188
330
11187
100
AcDbEntity
  8
0
100
AcDbBlockBegin
  2
PŁYTKA_2
 70
     0
 10
0.0
 20
0.0
 30
0.0
  3
PŁYTKA_2
  1
PŁYTKA_2
  0
CIRCLE
  5
11189
330
11187
100
AcDbEntity
  8
WARSTWA3
100
AcDbCircle
 10
162.5128444802245
 20
305.2554149230302
 30
0.0
 40
1.999800000000018
  0
CIRCLE
  5
1118A
330
11187
100
AcDbEntity
  8
1
100
AcDbCircle
 10
172.8354733628653
 20
342.9090399372168
 30
0.0
 40
1.213342014518152
  0
LINE
  5
1118B
330
11187
100
AcDbEntity
  8
1
100
AcDbLine
 10
161.4062355234461
 20
349.0841287156265
 30
0.0
 11
181.8237114111491
 21
346.0259130602091
 31
0.0
  0
LINE
  5
1118C
330
11187
100
AcDbEntity
  8
1
100
AcDbLine
 10
181.109941340675
 20
344.0470385745601
 30
0.0
 11
159.4718854489891
 21
347.288752820853
 31
0.0
  0
ARC
  5
1118D
330
11187
100
AcDbEntity
  8
1
100
AcDbCircle
 10
159.3132472011691
 20
348.9895959018752
 30
0.0
 40
0.404
100
AcDbArc
 50
81.4681689600921
 51
171.4681689600967
  0
LINE
  5
1118E
330
11187
100
AcDbEntity
  8
1
100
AcDbLine
 10
158.7589107164446
 20
348.017614927187
 30
0.0
 11
159.475958798657
 21
347.2845887038328
 31
0.0
  0
LINE
  5
1118F
330
11187
100
AcDbEntity
  8
1
100
AcDbLine
 10
158.9137180290849
 20
349.0495328742185
 30
0.0
 11
158.7589107164446
 21
348.017614927187
 31
0.0
  0
LINE
  5
11190
330
11187
100
AcDbEntity
  8
OSIE
100
AcDbLine
 10
167.6107269305967
 20
344.6059956957421
 30
0.0
 11
168.3418154929687
 21
349.4859248646852
 31
0.0
  0
LINE
  5
11191
330
11187
100
AcDbEntity
  8
1
100
AcDbLine
 10
163.3164766937805
 20
344.339004024369
 30
0.0
 11
163.6634396559996
 21
346.658092124148
 31
0.0
  0
LINE
  5
11192
330
11187
100
AcDbEntity
  8
WY
100
AcDbLine
 10
161.7169374060174
 20
344.5783139882815
 30
0.0
 11
162.5160434286836
 21
344.4587582918947
 31
0.0
  0
LINE
  5
11193
330
11187
100
AcDbEntity
  8
WY
100
AcDbLine
 10
162.0567125691571
 20
344.118983128755
 30
0.0
 11
162.1762682655439
 21
344.9180891514213
 31
0.0
  0
LINE
  5
11194
330
11187
100
AcDbEntity
  8
1
100
AcDbLine
 10
162.2966586215463
 20
345.7184270777953
 30
0.0
 11
162.4640894932711
 21
346.8375290697465
 31
0.0
  0
CIRCLE
  5
11195
330
11187
100
AcDbEntity
  8
1
100
AcDbCircle
 10
162.1164904173505
 20
344.5185361400881
 30
0.0
 40
1.213342014518152
  0
LINE
  5
11196
330
11187
100
AcDbEntity
  8
OSIE
100
AcDbLine
 10
171.6354870864353
 20
343.0885720529359
 30
0.0
 11
171.9833002316735
 21
345.4133427457778
 31
0.0
  0
LINE
  5
11197
330
11187
100
AcDbEntity
  8
1
100
AcDbLine
 10
161.4062355234461
 20
349.0841287156265
 30
0.0
 11
159.3731841735124
 21
349.3891250739595
 31
0.0
  0
LINE
  5
11198
330
11187
100
AcDbEntity
  8
WY
100
AcDbLine
 10
172.4359203515322
 20
342.9688177854102
 30
0.0
 11
173.2350263741985
 21
342.8492620890234
 31
0.0
  0
POINT
  5
11199
330
11187
100
AcDbEntity
  8
DEFPOINTS
  6
BYBLOCK
 62
     0
100
AcDbPoint
 10
174.2024770052326
 20
345.0813276976581
 30
0.0
  0
LINE
  5
1119A
330
11187
100
AcDbEntity
  8
1
100
AcDbLine
 10
174.2024770052326
 20
345.0813276976581
 30
0.0
 11
175.8187057741814
 21
344.8395207903002
 31
0.0
  0
LINE
  5
1119B
330
11187
100
AcDbEntity
  8
OSIE
100
AcDbLine
 10
173.0150054785845
 20
344.1090262136468
 30
0.0
 11
173.1832865081035
 21
345.2338106300587
 31
0.0
  0
LINE
  5
1119C
330
11187
100
AcDbEntity
  8
WY
100
AcDbLine
 10
172.775695514672
 20
342.5094869258837
 30
0.0
 11
172.8952512110588
 21
343.3085929485499
 31
0.0
  0
LINE
  5
1119D
330
11187
100
AcDbEntity
  8
1
100
AcDbLine
 10
182.0094939108804
 20
344.5377611423679
 30
0.0
 11
181.109941340675
 21
344.0470385745601
 31
0.0
  0
ARC
  5
1119E
330
11187
100
AcDbEntity
  8
1
100
AcDbCircle
 10
181.7638661866137
 20
345.6263701349803
 30
0.0
 40
0.404
100
AcDbArc
 50
351.4909879949322
 51
81.48132612618035
  0
LINE
  5
1119F
330
11187
100
AcDbEntity
  8
1
100
AcDbLine
 10
182.1634191979468
 20
345.5665922867869
 30
0.0
 11
182.0094939108804
 21
344.5377611423679
 31
0.0
  0
ENDBLK
  5
111A0
330
11187
100
AcDbEntity
  8
0
100
AcDbBlockEnd
  0
BLOCK
  5
114A6
330
114A5
100
AcDbEntity
  8
0
100
AcDbBlockBegin
  2
*D14
 70
     1
 10
0.0
 20
0.0
 30
0.0
  3
*D14
  1
*D14
  0
LINE
  5
114A8
330
114A5
100
AcDbEntity
  8
WYMIARY
 62
     0
100
AcDbLine
 10
543.0506247950173
 20
170.7986298961757
 30
0.0
 11
528.2437418630693
 21
170.7986298961757
 31
0.0
  0
LINE
  5
114A9
330
114A5
100
AcDbEntity
  8
WYMIARY
 62
     0
100
AcDbLine
 10
596.3904094288171
 20
256.2875638587477
 30
0.0
 11
528.2437418630693
 21
256.2875638587477
 31
0.0
  0
LINE
  5
114AA
330
114A5
100
AcDbEntity
  8
WYMIARY
 62
     0
100
AcDbLine
 10
529.7437418630693
 20
173.7986298961757
 30
0.0
 11
529.7437418630693
 21
253.2875638587477
 31
0.0
  0
SOLID
  5
114AB
330
114A5
100
AcDbEntity
  8
WYMIARY
 62
     0
100
AcDbTrace
 10
529.2437418630693
 20
173.7986298961757
 30
0.0
 11
530.2437418630693
 21
173.7986298961757
 31
0.0
 12
529.7437418630693
 22
170.7986298961757
 32
0.0
 13
529.7437418630693
 23
170.7986298961757
 33
0.0
  0
SOLID
  5
114AC
330
114A5
100
AcDbEntity
  8
WYMIARY
 62
     0
100
AcDbTrace
 10
530.2437418630693
 20
253.2875638587477
 30
0.0
 11
529.2437418630693
 21
253.2875638587477
 31
0.0
 12
529.7437418630693
 22
256.2875638587477
 32
0.0
 13
529.7437418630693
 23
256.2875638587477
 33
0.0
  0
MTEXT
  5
114AD
330
114A5
100
AcDbEntity
  8
WYMIARY
 62
     0
100
AcDbMText
 10
527.4937418630693
 20
213.5430968774617
 30
0.0
 40
3.0
 41
0.0
 71
     5
 72
     1
  1
\A1;85.5
 11
0.0
 21
1.0
 31
0.0
  0
POINT
  5
114AE
330
114A5
100
AcDbEntity
  8
DEFPOINTS
 62
     0
100
AcDbPoint
 10
544.5506247950173
 20
170.7986298961757
 30
0.0
  0
POINT
  5
114AF
330
114A5
100
AcDbEntity
  8
DEFPOINTS
 62
     0
100
AcDbPoint
 10
597.8904094288171
 20
256.2875638587477
 30
0.0
  0
POINT
  5
114B0
330
114A5
100
AcDbEntity
  8
DEFPOINTS
 62
     0
100
AcDbPoint
 10
529.7437418630693
 20
256.2875638587477
 30
0.0
  0
ENDBLK
  5
114A7
330
114A5
100
AcDbEntity
  8
0
100
AcDbBlockEnd
  0
BLOCK
  5
114B5
330
114B4
100
AcDbEntity
  8
0
100
AcDbBlockBegin
  2
*D15
 70
     1
 10
0.0
 20
0.0
 30
0.0
  3
*D15
  1
*D15
  0
LINE
  5
114B7
330
114B4
100
AcDbEntity
  8
WYMIARY
 62
     0
100
AcDbLine
 10
542.6435903557169
 20
171.13787068155
 30
0.0
 11
542.6435903557169
 21
162.1380640028672
 31
0.0
  0
LINE
  5
114B8
330
114B4
100
AcDbEntity
  8
WYMIARY
 62
     0
100
AcDbLine
 10
567.6835903557169
 20
173.7763630953473
 30
0.0
 11
567.6835903557169
 21
162.1380640028672
 31
0.0
  0
LINE
  5
114B9
330
114B4
100
AcDbEntity
  8
WYMIARY
 62
     0
100
AcDbLine
 10
545.6435903557169
 20
163.6380640028672
 30
0.0
 11
564.6835903557169
 21
163.6380640028672
 31
0.0
  0
SOLID
  5
114BA
330
114B4
100
AcDbEntity
  8
WYMIARY
 62
     0
100
AcDbTrace
 10
545.6435903557169
 20
164.1380640028672
 30
0.0
 11
545.6435903557169
 21
163.1380640028672
 31
0.0
 12
542.6435903557169
 22
163.6380640028672
 32
0.0
 13
542.6435903557169
 23
163.6380640028672
 33
0.0
  0
SOLID
  5
114BB
330
114B4
100
AcDbEntity
  8
WYMIARY
 62
     0
100
AcDbTrace
 10
564.6835903557169
 20
163.1380640028672
 30
0.0
 11
564.6835903557169
 21
164.1380640028672
 31
0.0
 12
567.6835903557169
 22
163.6380640028672
 32
0.0
 13
567.6835903557169
 23
163.6380640028672
 33
0.0
  0
MTEXT
  5
114BC
330
114B4
100
AcDbEntity
  8
WYMIARY
 62
     0
100
AcDbMText
 10
555.1635903557169
 20
165.8880640028672
 30
0.0
 40
3.0
 41
0.0
 71
     5
 72
     1
  1
\A1;25
  0
POINT
  5
114BD
330
114B4
100
AcDbEntity
  8
DEFPOINTS
 62
     0
100
AcDbPoint
 10
542.6435903557169
 20
172.63787068155
 30
0.0
  0
POINT
  5
114BE
330
114B4
100
AcDbEntity
  8
DEFPOINTS
 62
     0
100
AcDbPoint
 10
567.6835903557169
 20
175.2763630953473
 30
0.0
  0
POINT
  5
114BF
330
114B4
100
AcDbEntity
  8
DEFPOINTS
 62
     0
100
AcDbPoint
 10
567.6835903557169
 20
163.6380640028672
 30
0.0
  0
ENDBLK
  5
114B6
330
114B4
100
AcDbEntity
  8
0
100
AcDbBlockEnd
  0
BLOCK
  5
114C4
330
114C3
100
AcDbEntity
  8
0
100
AcDbBlockBegin
  2
*D16
 70
     1
 10
0.0
 20
0.0
 30
0.0
  3
*D16
  1
*D16
  0
LINE
  5
114C6
330
114C3
100
AcDbEntity
  8
WYMIARY
 62
     0
100
AcDbLine
 10
567.6835903557169
 20
173.7763630953473
 30
0.0
 11
567.6835903557169
 21
162.1380640028672
 31
0.0
  0
LINE
  5
114C7
330
114C3
100
AcDbEntity
  8
WYMIARY
 62
     0
100
AcDbLine
 10
602.414607062398
 20
174.0987515082501
 30
0.0
 11
602.414607062398
 21
162.1380640028672
 31
0.0
  0
LINE
  5
114C8
330
114C3
100
AcDbEntity
  8
WYMIARY
 62
     0
100
AcDbLine
 10
570.6835903557169
 20
163.6380640028672
 30
0.0
 11
599.414607062398
 21
163.6380640028672
 31
0.0
  0
SOLID
  5
114C9
330
114C3
100
AcDbEntity
  8
WYMIARY
 62
     0
100
AcDbTrace
 10
570.6835903557169
 20
164.1380640028672
 30
0.0
 11
570.6835903557169
 21
163.1380640028672
 31
0.0
 12
567.6835903557169
 22
163.6380640028672
 32
0.0
 13
567.6835903557169
 23
163.6380640028672
 33
0.0
  0
SOLID
  5
114CA
330
114C3
100
AcDbEntity
  8
WYMIARY
 62
     0
100
AcDbTrace
 10
599.414607062398
 20
163.1380640028672
 30
0.0
 11
599.414607062398
 21
164.1380640028672
 31
0.0
 12
602.414607062398
 22
163.6380640028672
 32
0.0
 13
602.414607062398
 23
163.6380640028672
 33
0.0
  0
MTEXT
  5
114CB
330
114C3
100
AcDbEntity
  8
WYMIARY
 62
     0
100
AcDbMText
 10
585.0490987090575
 20
165.8880640028672
 30
0.0
 40
3.0
 41
0.0
 71
     5
 72
     1
  1
\A1;34.7
  0
POINT
  5
114CC
330
114C3
100
AcDbEntity
  8
DEFPOINTS
 62
     0
100
AcDbPoint
 10
567.6835903557169
 20
175.2763630953473
 30
0.0
  0
POINT
  5
114CD
330
114C3
100
AcDbEntity
  8
DEFPOINTS
 62
     0
100
AcDbPoint
 10
602.414607062398
 20
175.5987515082501
 30
0.0
  0
POINT
  5
114CE
330
114C3
100
AcDbEntity
  8
DEFPOINTS
 62
     0
100
AcDbPoint
 10
602.414607062398
 20
163.6380640028672
 30
0.0
  0
ENDBLK
  5
114C5
330
114C3
100
AcDbEntity
  8
0
100
AcDbBlockEnd
  0
ENDSEC
  0
SECTION
  2
ENTITIES
  0
LINE
  5
2D2D
330
18
100
AcDbEntity
  8
WYMIARY
 62
     6
100
AcDbLine
 10
486.041244
 20
0.0
 30
0.0
 11
486.041244
 21
297.0
 31
0.0
  0
LINE
  5
2D2E
330
18
100
AcDbEntity
  8
WYMIARY
 62
     6
100
AcDbLine
 10
497.671651
 20
292.0
 30
0.0
 11
497.671651
 21
5.0
 31
0.0
  0
LINE
  5
2D34
330
18
100
AcDbEntity
  8
2
100
AcDbLine
 10
682.671651
 20
5.0
 30
0.0
 11
682.671651
 21
292.0
 31
0.0
  0
LINE
  5
2D35
330
18
100
AcDbEntity
  8
2
100
AcDbLine
 10
687.671651
 20
0.0
 30
0.0
 11
687.671651
 21
297.0
 31
0.0
  0
LINE
  5
2D36
330
18
100
AcDbEntity
  8
WY
  6
CONTINUOUS
 62
     3
100
AcDbLine
 10
682.671651
 20
19.689837
 30
0.0
 11
497.671651
 21
19.689837
 31
0.0
  0
LINE
  5
2D38
330
18
100
AcDbEntity
  8
2
100
AcDbLine
 10
497.671651
 20
5.0
 30
0.0
 11
682.671651
 21
5.0
 31
0.0
  0
LINE
  5
2D39
330
18
100
AcDbEntity
  8
2
 62
     6
100
AcDbLine
 10
497.671651
 20
0.0
 30
0.0
 11
687.671651
 21
0.0
 31
0.0
  0
LINE
  5
2D3A
330
18
100
AcDbEntity
  8
0
100
AcDbLine
 10
529.697667
 20
11.742481
 30
0.0
 11
528.795256
 21
11.742481
 31
0.0
  0
ELLIPSE
  5
2D3B
330
18
100
AcDbEntity
  8
0
100
AcDbEllipse
 10
529.697667
 20
11.742481
 30
0.0
 11
-1.203215696869327
 21
1.967000000000000E-13
 31
0.0
210
0.0
220
0.0
230
1.0
 40
0.958812
 41
-1.570796326794739
 42
0.0000000000001705
  0
TEXT
  5
2D3D
330
18
100
AcDbEntity
  8
1
100
AcDbText
 10
515.607578
 20
8.797457
 30
0.0
 40
5.0
  1
A4
 51
15.0
  7
ITALIC
100
AcDbText
  0
LINE
  5
2D40
330
18
100
AcDbEntity
  8
WYMIARY
 62
     6
100
AcDbLine
 10
497.671651
 20
0.0
 30
0.0
 11
486.041244
 21
0.0
 31
0.0
  0
TEXT
  5
2D42
330
18
100
AcDbEntity
  8
WY
100
AcDbText
 10
502.936765
 20
16.373844
 30
0.0
 40
2.0
  1
Skala
 51
15.0
  7
ITALIC
100
AcDbText
  0
TEXT
  5
2D43
330
18
100
AcDbEntity
  8
WY
100
AcDbText
 10
515.042219
 20
16.329369
 30
0.0
 40
2.0
  1
Format
 51
15.0
  7
ITALIC
100
AcDbText
  0
LINE
  5
2D44
330
18
100
AcDbEntity
  8
0
100
AcDbLine
 10
528.494452
 20
11.742481
 30
0.0
 11
528.795256
 21
11.742481
 31
0.0
  0
LINE
  5
2D45
330
18
100
AcDbEntity
  8
0
100
AcDbLine
 10
559.88722
 20
17.211264
 30
0.0
 11
559.88722
 21
9.015264
 31
0.0
  0
LINE
  5
2D46
330
18
100
AcDbEntity
  8
0
100
AcDbLine
 10
550.89322
 20
9.438264
 30
0.0
 11
550.89322
 21
7.416264
 31
0.0
  0
ARC
  5
2D47
330
18
100
AcDbEntity
  8
0
100
AcDbCircle
 10
551.5428
 20
9.724764
 30
0.0
 40
0.709955
100
AcDbArc
 50
203.80008
 51
272.051918
  0
LINE
  5
2D48
330
18
100
AcDbEntity
  8
0
100
AcDbLine
 10
549.34822
 20
7.416264
 30
0.0
 11
549.34822
 21
15.612264
 31
0.0
  0
ARC
  5
2D49
330
18
100
AcDbEntity
  8
0
100
AcDbCircle
 10
551.982126
 20
10.136416
 30
0.0
 40
1.128907
100
AcDbArc
 50
276.719576
 51
2.175194
  0
ARC
  5
2D4A
330
18
100
AcDbEntity
  8
0
100
AcDbCircle
 10
555.243059
 20
10.503572
 30
0.0
 40
1.488419
100
AcDbArc
 50
191.634268
 51
270.699113
  0
ARC
  5
2D4B
330
18
100
AcDbEntity
  8
0
100
AcDbCircle
 10
556.209381
 20
10.503572
 30
0.0
 40
1.488419
100
AcDbArc
 50
269.300887
 51
348.365732
  0
LINE
  5
2D4C
330
18
100
AcDbEntity
  8
0
100
AcDbLine
 10
558.34222
 20
9.015264
 30
0.0
 11
558.34222
 21
17.211264
 31
0.0
  0
ARC
  5
2D4D
330
18
100
AcDbEntity
  8
0
100
AcDbCircle
 10
545.056591
 20
10.472364
 30
0.0
 40
1.425319
100
AcDbArc
 50
269.703671
 51
350.465171
  0
ARC
  5
2D4E
330
18
100
AcDbEntity
  8
0
100
AcDbCircle
 10
544.201848
 20
10.472364
 30
0.0
 40
1.425319
100
AcDbArc
 50
189.534829
 51
270.2963290000001
  0
LINE
  5
2D4F
330
18
100
AcDbEntity
  8
0
100
AcDbLine
 10
547.14922
 20
9.015264
 30
0.0
 11
547.14922
 21
17.211264
 31
0.0
  0
LINE
  5
2D50
330
18
100
AcDbEntity
  8
0
100
AcDbLine
 10
548.69422
 20
17.211264
 30
0.0
 11
548.69422
 21
9.015264
 31
0.0
  0
LINE
  5
2D51
330
18
100
AcDbEntity
  8
0
100
AcDbLine
 10
539.892236
 20
14.361264
 30
0.0
 11
539.903809
 21
9.015264
 31
0.0
  0
LINE
  5
2D52
330
18
100
AcDbEntity
  8
0
100
AcDbLine
 10
538.361694
 20
9.015264
 30
0.0
 11
538.361694
 21
15.60367
 31
0.0
  0
LINE
  5
2D53
330
18
100
AcDbEntity
  8
0
100
AcDbLine
 10
529.697667
 20
9.895061
 30
0.0
 11
529.697667
 21
8.185369
 31
0.0
  0
LINE
  5
2D54
330
18
100
AcDbEntity
  8
0
100
AcDbLine
 10
535.613478
 20
8.185369
 30
0.0
 11
535.613478
 21
11.742481
 31
0.0
  0
LINE
  5
2D55
330
18
100
AcDbEntity
  8
1
100
AcDbLine
 10
563.469863
 20
5.0
 30
0.0
 11
563.469863
 21
19.689837
 31
0.0
  0
LINE
  5
2D56
330
18
100
AcDbEntity
  8
0
100
AcDbLine
 10
530.499811
 20
7.416263
 30
0.0
 11
534.811334
 21
7.416263
 31
0.0
  0
ELLIPSE
  5
2D57
330
18
100
AcDbEntity
  8
0
100
AcDbEllipse
 10
530.499811
 20
8.185369
 30
0.0
 11
-0.8021437979128705
 21
1.540000000000000E-14
 31
0.0
210
0.0
220
0.0
230
1.0
 40
0.958812
 41
0.00000000000002
 42
1.570796326794914
  0
ELLIPSE
  5
2D58
330
18
100
AcDbEntity
  8
0
100
AcDbEllipse
 10
534.811334
 20
8.185369
 30
0.0
 11
0.8021437979128704
 21
1.602000000000000E-13
 31
0.0
210
0.0
220
0.0
230
1.0
 40
0.958812
 41
4.712388980384497
 42
6.283185307179378
  0
LINE
  5
2D59
330
18
100
AcDbEntity
  8
0
100
AcDbLine
 10
539.892236
 20
9.015264
 30
0.0
 11
539.903809
 21
9.022759
 31
0.0
  0
LINE
  5
2D5A
330
18
100
AcDbEntity
  8
0
100
AcDbLine
 10
538.361694
 20
9.015264
 30
0.0
 11
539.903809
 21
9.015264
 31
0.0
  0
LINE
  5
2D5B
330
18
100
AcDbEntity
  8
0
100
AcDbLine
 10
544.194477
 20
9.047064
 30
0.0
 11
545.04922
 21
9.047064
 31
0.0
  0
LINE
  5
2D5C
330
18
100
AcDbEntity
  8
0
100
AcDbLine
 10
550.89322
 20
7.416264
 30
0.0
 11
549.34822
 21
7.416264
 31
0.0
  0
LINE
  5
2D5D
330
18
100
AcDbEntity
  8
0
100
AcDbLine
 10
548.69422
 20
9.015264
 30
0.0
 11
547.14922
 21
9.015264
 31
0.0
  0
LINE
  5
2D5E
330
18
100
AcDbEntity
  8
0
100
AcDbLine
 10
551.576266
 20
9.015264
 30
0.0
 11
552.11422
 21
9.015264
 31
0.0
  0
LINE
  5
2D5F
330
18
100
AcDbEntity
  8
0
100
AcDbLine
 10
555.26122
 20
9.015264
 30
0.0
 11
556.19122
 21
9.015264
 31
0.0
  0
LINE
  5
2D60
330
18
100
AcDbEntity
  8
0
100
AcDbLine
 10
559.88722
 20
9.015264
 30
0.0
 11
558.34222
 21
9.015264
 31
0.0
  0
ARC
  5
2D61
330
18
100
AcDbEntity
  8
0
100
AcDbCircle
 10
545.056591
 20
14.17837
 30
0.0
 40
1.425319
100
AcDbArc
 50
9.534829000000002
 51
90.296329
  0
LINE
  5
2D62
330
18
100
AcDbEntity
  8
0
100
AcDbLine
 10
546.46222
 20
11.81167
 30
0.0
 11
544.33822
 21
11.81167
 31
0.0
  0
LINE
  5
2D63
330
18
100
AcDbEntity
  8
0
100
AcDbLine
 10
545.01322
 20
11.13667
 30
0.0
 11
546.46222
 21
11.13667
 31
0.0
  0
LINE
  5
2D64
330
18
100
AcDbEntity
  8
0
100
AcDbLine
 10
529.697667
 20
13.461283
 30
0.0
 11
529.697667
 21
16.260974
 31
0.0
  0
ELLIPSE
  5
2D65
330
18
100
AcDbEntity
  8
0
100
AcDbEllipse
 10
532.630506
 20
15.17942
 30
0.0
 11
2.983077570132104
 21
2.996000000000000E-13
 31
0.0
210
0.0
220
0.0
230
1.0
 40
0.9588119999999999
 41
-1.562393163247347
 42
0.0084031635475457
  0
ELLIPSE
  5
2D66
330
18
100
AcDbEntity
  8
0
100
AcDbEllipse
 10
532.58733
 20
15.509539
 30
0.0
 11
-4.072692107280919
 21
9.250000000000000E-14
 31
0.0
210
0.0
220
0.0
230
1.0
 40
0.958812
 41
1.587553347046634
 42
2.408388587343224
  0
LINE
  5
2D67
330
18
100
AcDbEntity
  8
0
100
AcDbLine
 10
529.697667
 20
11.742481
 30
0.0
 11
529.697667
 21
11.034514
 31
0.0
  0
LINE
  5
2D68
330
18
100
AcDbEntity
  8
0
100
AcDbLine
 10
529.697667
 20
13.461283
 30
0.0
 11
529.697667
 21
12.896138
 31
0.0
  0
ELLIPSE
  5
2D69
330
18
100
AcDbEntity
  8
0
100
AcDbEllipse
 10
532.249598
 20
9.872487
 30
0.0
 11
2.960559210508897
 21
0.3570763225581005
 31
0.0
210
0.0
220
0.0
230
1.0
 40
0.820999
 41
1.335209029023201
 42
2.503032872947537
  0
ELLIPSE
  5
2D6A
330
18
100
AcDbEntity
  8
0
100
AcDbEllipse
 10
532.480104
 20
8.937306
 30
0.0
 11
3.015746449176212
 21
0.7746519372140013
 31
0.0
210
0.0
220
0.0
230
1.0
 40
0.846775
 41
1.29973646820557
 42
2.479974117225238
  0
LINE
  5
2D6B
330
18
100
AcDbEntity
  8
0
100
AcDbLine
 10
536.816694
 20
12.896138
 30
0.0
 11
536.51589
 21
12.896138
 31
0.0
  0
LINE
  5
2D6C
330
18
100
AcDbEntity
  8
0
100
AcDbLine
 10
535.613478
 20
12.896138
 30
0.0
 11
536.51589
 21
12.896138
 31
0.0
  0
ELLIPSE
  5
2D6D
330
18
100
AcDbEntity
  8
0
100
AcDbEllipse
 10
535.613478
 20
12.896138
 30
0.0
 11
1.203215696869352
 21
8.930000000000000E-14
 31
0.0
210
0.0
220
0.0
230
1.0
 40
0.9588119999999999
 41
4.712388980384611
 42
6.283185307179508
  0
LINE
  5
2D6E
330
18
100
AcDbEntity
  8
0
100
AcDbLine
 10
530.499811
 20
17.030079
 30
0.0
 11
534.811334
 21
17.030079
 31
0.0
  0
ELLIPSE
  5
2D6F
330
18
100
AcDbEntity
  8
0
100
AcDbEllipse
 10
530.499811
 20
16.260974
 30
0.0
 11
0.8021437979128704
 21
3.800000000000000E-14
 31
0.0
210
0.0
220
0.0
230
1.0
 40
0.958812
 41
1.570796326794851
 42
3.141592653589743
  0
LINE
  5
2D70
330
18
100
AcDbEntity
  8
0
100
AcDbLine
 10
535.613478
 20
15.155385
 30
0.0
 11
535.613478
 21
16.260974
 31
0.0
  0
ELLIPSE
  5
2D71
330
18
100
AcDbEntity
  8
0
100
AcDbEllipse
 10
534.811334
 20
16.260974
 30
0.0
 11
-0.8021437979128705
 21
3.800000000000000E-14
 31
0.0
210
0.0
220
0.0
230
1.0
 40
0.958812
 41
3.141592653589842
 42
4.712388980384734
  0
ARC
  5
2D72
330
18
100
AcDbEntity
  8
0
100
AcDbCircle
 10
540.798894
 20
14.34127
 30
0.0
 40
1.377457
100
AcDbArc
 50
16.265061
 51
130.527299
  0
ARC
  5
2D73
330
18
100
AcDbEntity
  8
0
100
AcDbCircle
 10
544.201848
 20
14.17837
 30
0.0
 40
1.425319
100
AcDbArc
 50
89.703671
 51
170.465171
  0
LINE
  5
2D74
330
18
100
AcDbEntity
  8
0
100
AcDbLine
 10
540.911147
 20
12.93607
 30
0.0
 11
542.12122
 21
12.93607
 31
0.0
  0
LINE
  5
2D75
330
18
100
AcDbEntity
  8
0
100
AcDbLine
 10
540.578809
 20
12.93607
 30
0.0
 11
542.12122
 21
12.93607
 31
0.0
  0
ARC
  5
2D76
330
18
100
AcDbEntity
  8
0
100
AcDbCircle
 10
540.229736
 20
14.361264
 30
0.0
 40
0.3375
100
AcDbArc
 50
360.0
 51
180.0
  0
LINE
  5
2D77
330
18
100
AcDbEntity
  8
0
100
AcDbLine
 10
540.567236
 20
14.361264
 30
0.0
 11
540.578809
 21
12.93607
 31
0.0
  0
ARC
  5
2D78
330
18
100
AcDbEntity
  8
0
100
AcDbCircle
 10
544.67572
 20
14.361264
 30
0.0
 40
0.3375
100
AcDbArc
 50
360.0
 51
180.0
  0
LINE
  5
2D79
330
18
100
AcDbEntity
  8
0
100
AcDbLine
 10
544.33822
 20
11.81167
 30
0.0
 11
544.33822
 21
10.236264
 31
0.0
  0
LINE
  5
2D7A
330
18
100
AcDbEntity
  8
0
100
AcDbLine
 10
544.33822
 20
12.71167
 30
0.0
 11
545.01322
 21
12.71167
 31
0.0
  0
LINE
  5
2D7B
330
18
100
AcDbEntity
  8
0
100
AcDbLine
 10
545.01322
 20
11.13667
 30
0.0
 11
545.01322
 21
10.252764
 31
0.0
  0
LINE
  5
2D7C
330
18
100
AcDbEntity
  8
0
100
AcDbLine
 10
544.33822
 20
11.81167
 30
0.0
 11
544.33822
 21
10.252764
 31
0.0
  0
ARC
  5
2D7D
330
18
100
AcDbEntity
  8
0
100
AcDbCircle
 10
544.67572
 20
10.252764
 30
0.0
 40
0.3375
100
AcDbArc
 50
180.0
 51
0.0
  0
LINE
  5
2D7E
330
18
100
AcDbEntity
  8
0
100
AcDbLine
 10
545.01322
 20
14.361264
 30
0.0
 11
545.01322
 21
12.71167
 31
0.0
  0
LINE
  5
2D7F
330
18
100
AcDbEntity
  8
0
100
AcDbLine
 10
544.33822
 20
14.361264
 30
0.0
 11
544.33822
 21
12.71167
 31
0.0
  0
LINE
  5
2D80
330
18
100
AcDbEntity
  8
0
100
AcDbLine
 10
542.12122
 20
12.93607
 30
0.0
 11
542.12122
 21
14.72707
 31
0.0
  0
LINE
  5
2D81
330
18
100
AcDbEntity
  8
0
100
AcDbLine
 10
542.79622
 20
10.236264
 30
0.0
 11
542.79622
 21
14.41447
 31
0.0
  0
LINE
  5
2D82
330
18
100
AcDbEntity
  8
0
100
AcDbLine
 10
539.903809
 20
15.60367
 30
0.0
 11
539.903809
 21
15.38827
 31
0.0
  0
LINE
  5
2D83
330
18
100
AcDbEntity
  8
0
100
AcDbLine
 10
538.361694
 20
15.60367
 30
0.0
 11
539.903809
 21
15.60367
 31
0.0
  0
LINE
  5
2D84
330
18
100
AcDbEntity
  8
0
100
AcDbLine
 10
544.194477
 20
15.60367
 30
0.0
 11
545.04922
 21
15.60367
 31
0.0
  0
ARC
  5
2D85
330
18
100
AcDbEntity
  8
0
100
AcDbCircle
 10
555.243059
 20
14.124104
 30
0.0
 40
1.488419
100
AcDbArc
 50
89.300887
 51
168.365732
  0
ARC
  5
2D86
330
18
100
AcDbEntity
  8
0
100
AcDbCircle
 10
551.752247
 20
14.207365
 30
0.0
 40
1.409039
100
AcDbArc
 50
15.47255
 51
127.56454
  0
LINE
  5
2D87
330
18
100
AcDbEntity
  8
0
100
AcDbLine
 10
546.46222
 20
11.13667
 30
0.0
 11
546.46222
 21
10.236264
 31
0.0
  0
LINE
  5
2D88
330
18
100
AcDbEntity
  8
0
100
AcDbLine
 10
546.46222
 20
11.81167
 30
0.0
 11
546.46222
 21
14.41447
 31
0.0
  0
LINE
  5
2D89
330
18
100
AcDbEntity
  8
0
100
AcDbLine
 10
553.11022
 20
14.583264
 30
0.0
 11
553.11022
 21
10.179264
 31
0.0
  0
LINE
  5
2D8A
330
18
100
AcDbEntity
  8
0
100
AcDbLine
 10
551.56822
 20
14.361264
 30
0.0
 11
551.56822
 21
10.252764
 31
0.0
  0
LINE
  5
2D8B
330
18
100
AcDbEntity
  8
0
100
AcDbLine
 10
550.89322
 20
14.361264
 30
0.0
 11
550.89322
 21
10.252764
 31
0.0
  0
ARC
  5
2D8C
330
18
100
AcDbEntity
  8
0
100
AcDbCircle
 10
551.23072
 20
10.252764
 30
0.0
 40
0.3375
100
AcDbArc
 50
180.0
 51
0.0
  0
ARC
  5
2D8D
330
18
100
AcDbEntity
  8
0
100
AcDbCircle
 10
551.23072
 20
14.361264
 30
0.0
 40
0.3375
100
AcDbArc
 50
360.0
 51
180.0
  0
LINE
  5
2D8E
330
18
100
AcDbEntity
  8
0
100
AcDbLine
 10
549.34822
 20
15.612264
 30
0.0
 11
550.89322
 21
15.612264
 31
0.0
  0
LINE
  5
2D8F
330
18
100
AcDbEntity
  8
0
100
AcDbLine
 10
547.14922
 20
17.211264
 30
0.0
 11
548.69422
 21
17.211264
 31
0.0
  0
LINE
  5
2D90
330
18
100
AcDbEntity
  8
0
100
AcDbLine
 10
550.89322
 20
15.612264
 30
0.0
 11
550.89322
 21
15.324264
 31
0.0
  0
ARC
  5
2D91
330
18
100
AcDbEntity
  8
0
100
AcDbCircle
 10
556.209381
 20
14.124104
 30
0.0
 40
1.488419
100
AcDbArc
 50
11.634268
 51
90.699113
  0
LINE
  5
2D92
330
18
100
AcDbEntity
  8
0
100
AcDbLine
 10
557.66722
 20
14.424264
 30
0.0
 11
557.66722
 21
10.203412
 31
0.0
  0
ARC
  5
2D93
330
18
100
AcDbEntity
  8
0
100
AcDbCircle
 10
555.72622
 20
14.361264
 30
0.0
 40
0.3375
100
AcDbArc
 50
360.0
 51
180.0
  0
ARC
  5
2D94
330
18
100
AcDbEntity
  8
0
100
AcDbCircle
 10
555.72622
 20
10.252764
 30
0.0
 40
0.3375
100
AcDbArc
 50
180.0
 51
0.0
  0
LINE
  5
2D95
330
18
100
AcDbEntity
  8
0
100
AcDbLine
 10
555.38872
 20
14.361264
 30
0.0
 11
555.38872
 21
10.252764
 31
0.0
  0
LINE
  5
2D96
330
18
100
AcDbEntity
  8
0
100
AcDbLine
 10
556.06372
 20
14.361264
 30
0.0
 11
556.06372
 21
10.252764
 31
0.0
  0
LINE
  5
2D97
330
18
100
AcDbEntity
  8
0
100
AcDbLine
 10
553.78522
 20
10.203412
 30
0.0
 11
553.78522
 21
14.424264
 31
0.0
  0
LINE
  5
2D98
330
18
100
AcDbEntity
  8
0
100
AcDbLine
 10
555.26122
 20
15.612412
 30
0.0
 11
556.19122
 21
15.612412
 31
0.0
  0
LINE
  5
2D99
330
18
100
AcDbEntity
  8
0
100
AcDbLine
 10
558.34222
 20
17.211264
 30
0.0
 11
559.88722
 21
17.211264
 31
0.0
  0
TEXT
  5
2D9A
330
18
100
AcDbEntity
  8
WY
100
AcDbText
 10
564.417407
 20
11.60401
 30
0.0
 40
2.0
  1
12-05-2016
 41
1.0
 51
15.0
  7
ITALIC
100
AcDbText
  0
TEXT
  5
2D9B
330
18
100
AcDbEntity
  8
WY
100
AcDbText
 10
568.848776
 20
16.149239
 30
0.0
 40
2.0
  1
Data
 51
15.0
  7
ITALIC
100
AcDbText
  0
LINE
  5
2D9E
330
18
100
AcDbEntity
  8
1
100
AcDbLine
 10
627.394234
 20
5.0
 30
0.0
 11
627.394234
 21
19.689837
 31
0.0
  0
TEXT
  5
2D9F
330
18
100
AcDbEntity
  8
WY
100
AcDbText
 10
629.585432
 20
16.599248
 30
0.0
 40
2.0
  1
Product type
 51
15.0
  7
ITALIC
100
AcDbText
  0
LINE
  5
2DF2
330
18
100
AcDbEntity
  8
2
100
AcDbLine
 10
682.671651
 20
292.0
 30
0.0
 11
497.671651
 21
292.0
 31
0.0
  0
LINE
  5
2DF3
330
18
100
AcDbEntity
  8
2
100
AcDbLine
 10
687.671651
 20
297.0
 30
0.0
 11
497.671651
 21
297.0
 31
0.0
  0
LINE
  5
2E74
330
18
100
AcDbEntity
  8
WYMIARY
 62
     6
100
AcDbLine
 10
497.671651
 20
297.0
 30
0.0
 11
486.041244
 21
297.0
 31
0.0
  0
MTEXT
  5
31F2
330
18
100
AcDbEntity
  8
WYMIARY
100
AcDbMText
 10
780.543201
 20
224.476865
 30
0.0
 40
3.5
 41
15.6
 71
     1
 72
     5
  1

  7
ITALIC
  0
TEXT
  5
478E
330
18
100
AcDbEntity
  8
1
100
AcDbText
 10
500.301985
 20
8.797457
 30
0.0
 40
5.0
  1
1:1
 51
15.0
  7
ITALIC
100
AcDbText
  0
LINE
  5
482F
330
18
100
AcDbEntity
  8
WYMIARY
 62
     6
100
AcDbLine
 10
687.671651
 20
0.0
 30
0.0
 11
687.671651
 21
297.0
 31
0.0
  0
LINE
  5
4AD7
330
18
100
AcDbEntity
  8
WYMIARY
 62
     3
100
AcDbLine
 10
512.671651
 20
19.689837
 30
0.0
 11
512.671651
 21
5.0
 31
0.0
  0
LINE
  5
4AD9
330
18
100
AcDbEntity
  8
WYMIARY
 62
     3
100
AcDbLine
 10
527.671651
 20
19.689837
 30
0.0
 11
527.671651
 21
5.0
 31
0.0
  0
LINE
  5
4ADA
330
18
100
AcDbEntity
  8
WYMIARY
 62
     3
100
AcDbLine
 10
586.373187
 20
19.689837
 30
0.0
 11
586.373187
 21
5.0
 31
0.0
  0
TEXT
  5
4ADB
330
18
100
AcDbEntity
  8
WY
100
AcDbText
 10
587.562196
 20
16.599248
 30
0.0
 40
2.0
  1
Draw. No.
 51
15.0
  7
ITALIC
100
AcDbText
  0
TEXT
  5
4ADF
330
18
100
AcDbEntity
  8
1
100
AcDbText
 10
590.351044
 20
9.064009
 30
0.0
 40
3.9
  1
PIR6WT-1Z-01A
 41
0.7
 51
15.0
  7
ITALIC
100
AcDbText
  0
LINE
  5
4AE9
330
18
100
AcDbEntity
  8
WYMIARY
 62
     6
100
AcDbLine
 10
687.671651
 20
0.0
 30
0.0
 11
687.671651
 21
297.0
 31
0.0
  0
LINE
  5
6488
330
18
100
AcDbEntity
  8
WYMIARY
 62
     6
100
AcDbLine
 10
687.671651
 20
0.0
 30
0.0
 11
687.671651
 21
297.0
 31
0.0
  0
LINE
  5
648E
330
18
100
AcDbEntity
  8
2
100
AcDbLine
 10
687.671651
 20
0.0
 30
0.0
 11
687.671651
 21
297.0
 31
0.0
  0
LINE
  5
6CB6
330
18
100
AcDbEntity
  8
WYMIARY
 62
     6
100
AcDbLine
 10
687.671651
 20
0.0
 30
0.0
 11
687.671651
 21
297.0
 31
0.0
  0
LINE
  5
6CB8
330
18
100
AcDbEntity
  8
2
100
AcDbLine
 10
687.671651
 20
0.0
 30
0.0
 11
687.671651
 21
297.0
 31
0.0
  0
TEXT
  5
A05E
330
18
100
AcDbEntity
  8
1
100
AcDbText
 10
633.357809
 20
9.064009
 30
0.0
 40
5.0
  1
PIR6WT-1Z
 41
0.8
 51
15.0
  7
ITALIC
100
AcDbText
  0
TEXT
  5
CC21
330
18
100
AcDbEntity
  8
1
100
AcDbText
 10
563.32533
 20
274.964408
 30
0.0
 40
5.0
  1
PIR6WT-1Z
 41
0.8
 51
15.0
  7
ITALIC
100
AcDbText
  0
TEXT
  5
ED98
330
18
100
AcDbEntity
  8
1
100
AcDbText
 10
550.910293
 20
-37.047746
 30
0.0
 40
5.0
  1

 41
0.8
 51
15.0
  7
ITALIC
100
AcDbText
  0
LINE
  5
ED9A
330
18
100
AcDbEntity
  8
2
100
AcDbLine
 10
687.671651
 20
0.0
 30
0.0
 11
497.671651
 21
0.0
 31
0.0
  0
LINE
  5
ED9C
330
18
100
AcDbEntity
  8
WYMIARY
 62
     6
100
AcDbLine
 10
497.671651
 20
0.0
 30
0.0
 11
486.041244
 21
0.0
 31
0.0
  0
DIMENSION
  5
1024A
330
18
100
AcDbEntity
  8
WY
100
AcDbDimension
  2
*D7
 10
649.7452874607
 20
117.9584324699854
 30
0.0
 11
649.7452874607
 21
135.9084324699854
 31
0.0
 70
   160
  3
STANDARD
100
AcDbAlignedDimension
 13
640.6746074940386
 23
124.1584324699854
 33
0.0
 14
640.9746074940385
 24
117.9584324699854
 34
0.0
 50
90.0
100
AcDbRotatedDimension
1001
ACAD
1000
DSTYLE
1002
{
1070
   172
1070
     1
1070
   174
1070
     1
1070
    41
1040
3.0
1070
   140
1040
3.0
1002
}
  0
LINE
  5
106B5
330
18
100
AcDbEntity
  8
1
  6
CONTINUOUS
 62
     3
100
AcDbLine
 10
595.7661664940385
 20
118.0584324699854
 30
0.0
 11
607.4023044940386
 21
118.0584324699854
 31
0.0
  0
LINE
  5
106B6
330
18
100
AcDbEntity
  8
1
  6
CONTINUOUS
 62
     3
100
AcDbLine
 10
595.7661664940385
 20
124.0584324699854
 30
0.0
 11
607.4023044940386
 21
124.0584324699854
 31
0.0
  0
LINE
  5
106B7
330
18
100
AcDbEntity
  8
1
  6
CONTINUOUS
 62
     3
100
AcDbLine
 10
597.3891064940386
 20
124.1584324699854
 30
0.0
 11
640.6746074940386
 21
124.1584324699854
 31
0.0
  0
LINE
  5
106B8
330
18
100
AcDbEntity
  8
1
  6
CONTINUOUS
 62
     3
100
AcDbLine
 10
542.4046074940386
 20
117.9584324699854
 30
0.0
 11
640.9746074940385
 21
117.9584324699854
 31
0.0
  0
CIRCLE
  5
10706
330
18
100
AcDbEntity
  8
1
  6
CONTINUOUS
 62
     3
100
AcDbCircle
 10
566.2774974940386
 20
121.0584324699854
 30
0.0
 40
1.5
  0
LINE
  5
10707
330
18
100
AcDbEntity
  8
1
  6
CONTINUOUS
 62
     3
100
AcDbLine
 10
543.0106254940385
 20
124.1584324699854
 30
0.0
 11
571.2774974940386
 21
124.1584324699854
 31
0.0
  0
ARC
  5
10708
330
18
100
AcDbEntity
  8
1
  6
CONTINUOUS
 62
     3
100
AcDbCircle
 10
549.3997644940385
 20
121.0584324699854
 30
0.0
 40
1.95
100
AcDbArc
 50
180.0
 51
0.0
  0
ARC
  5
10709
330
18
100
AcDbEntity
  8
1
  6
CONTINUOUS
 62
     3
100
AcDbCircle
 10
549.3997644940385
 20
121.0584324699854
 30
0.0
 40
1.95
100
AcDbArc
 50
0.0
 51
180.0
  0
LINE
  5
1070B
330
18
100
AcDbEntity
  8
1
  6
CONTINUOUS
 62
     3
100
AcDbLine
 10
542.7106254940386
 20
123.8584324699854
 30
0.0
 11
542.7106254940386
 21
117.9584324699854
 31
0.0
  0
LINE
  5
1070C
330
18
100
AcDbEntity
  8
1
  6
CONTINUOUS
 62
     3
100
AcDbLine
 10
545.9497644940386
 20
118.9584324699854
 30
0.0
 11
545.9497644940386
 21
121.0584324699854
 31
0.0
  0
POINT
  5
1070D
330
18
100
AcDbEntity
  8
DEFPOINTS
  6
BYBLOCK
 62
     0
100
AcDbPoint
 10
542.1761564940385
 20
117.9584324699854
 30
0.0
  0
LINE
  5
1070E
330
18
100
AcDbEntity
  8
1
  6
CONTINUOUS
 62
     3
100
AcDbLine
 10
542.7106254940386
 20
118.9584324699854
 30
0.0
 11
545.9497644940386
 21
118.9584324699854
 31
0.0
  0
LINE
  5
1070F
330
18
100
AcDbEntity
  8
1
  6
CONTINUOUS
 62
     3
100
AcDbLine
 10
545.9497644940386
 20
121.0584324699854
 30
0.0
 11
547.4497644940386
 21
121.0584324699854
 31
0.0
  0
TEXT
  5
10710
330
18
100
AcDbEntity
  8
WY
  6
CONTINUOUS
 62
     3
100
AcDbText
 10
543.9350204940386
 20
122.5301494699854
 30
0.0
 40
1.4
  1
18
 50
270.0
  7
ITALIC
100
AcDbText
  0
LINE
  5
10711
330
18
100
AcDbEntity
  8
1
  6
CONTINUOUS
 62
     3
100
AcDbLine
 10
542.4046074940386
 20
123.1584324699854
 30
0.0
 11
542.7106254940386
 21
123.1584324699854
 31
0.0
  0
POINT
  5
10712
330
18
100
AcDbEntity
  8
DEFPOINTS
  6
BYBLOCK
 62
     0
100
AcDbPoint
 10
543.0106254940385
 20
124.1584324699854
 30
0.0
  0
ARC
  5
10713
330
18
100
AcDbEntity
  8
1
  6
CONTINUOUS
 62
     3
100
AcDbCircle
 10
543.0106254940385
 20
123.8584324699854
 30
0.0
 40
0.3
100
AcDbArc
 50
90.0
 51
180.0
  0
LINE
  5
10714
330
18
100
AcDbEntity
  8
1
  6
CONTINUOUS
 62
     3
100
AcDbLine
 10
562.6774974940386
 20
124.1584324699854
 30
0.0
 11
562.6774974940386
 21
117.9584324699854
 31
0.0
  0
LINE
  5
10715
330
18
100
AcDbEntity
  8
1
  6
CONTINUOUS
 62
     3
100
AcDbLine
 10
552.6783584940385
 20
124.1584324699854
 30
0.0
 11
552.6783584940385
 21
117.9584324699854
 31
0.0
  0
LINE
  5
10716
330
18
100
AcDbEntity
  8
WYMSKALA1
100
AcDbLine
 10
549.3997644940385
 20
120.0584324699854
 30
0.0
 11
549.3997644940385
 21
122.0584324699854
 31
0.0
  0
LINE
  5
10717
330
18
100
AcDbEntity
  8
1
  6
CONTINUOUS
 62
     3
100
AcDbLine
 10
558.2771864940386
 20
122.6330074699854
 30
0.0
 11
561.0020724940385
 21
119.9081214699854
 31
0.0
  0
LINE
  5
10718
330
18
100
AcDbEntity
  8
1
  6
CONTINUOUS
 62
     3
100
AcDbLine
 10
557.8529224940386
 20
122.2087424699854
 30
0.0
 11
560.5778084940385
 21
119.4838574699854
 31
0.0
  0
ARC
  5
10719
330
18
100
AcDbEntity
  8
1
  6
CONTINUOUS
 62
     3
100
AcDbCircle
 10
559.4274974940386
 20
121.0584324699854
 30
0.0
 40
1.95
100
AcDbArc
 50
180.0
 51
0.0
  0
LINE
  5
1071A
330
18
100
AcDbEntity
  8
1
  6
CONTINUOUS
 62
     3
100
AcDbLine
 10
555.9774974940386
 20
118.9584324699854
 30
0.0
 11
555.9774974940386
 21
121.0584324699854
 31
0.0
  0
LINE
  5
1071B
330
18
100
AcDbEntity
  8
WYMSKALA1
100
AcDbLine
 10
559.4274974940386
 20
120.0584324699854
 30
0.0
 11
559.4274974940386
 21
122.0584324699854
 31
0.0
  0
LINE
  5
1071C
330
18
100
AcDbEntity
  8
1
  6
CONTINUOUS
 62
     3
100
AcDbLine
 10
548.2494534940386
 20
122.6330074699854
 30
0.0
 11
550.9743384940385
 21
119.9081214699854
 31
0.0
  0
LINE
  5
1071D
330
18
100
AcDbEntity
  8
1
  6
CONTINUOUS
 62
     3
100
AcDbLine
 10
547.8251894940386
 20
122.2087424699854
 30
0.0
 11
550.5500744940385
 21
119.4838574699854
 31
0.0
  0
LINE
  5
1071E
330
18
100
AcDbEntity
  8
1
  6
CONTINUOUS
 62
     3
100
AcDbLine
 10
552.6783584940385
 20
118.9584324699854
 30
0.0
 11
555.9774974940386
 21
118.9584324699854
 31
0.0
  0
LINE
  5
1071F
330
18
100
AcDbEntity
  8
1
  6
CONTINUOUS
 62
     3
100
AcDbLine
 10
555.9774974940386
 20
121.0584324699854
 30
0.0
 11
557.4774974940386
 21
121.0584324699854
 31
0.0
  0
TEXT
  5
10720
330
18
100
AcDbEntity
  8
WY
  6
CONTINUOUS
 62
     3
100
AcDbText
 10
553.8587134940386
 20
122.3554564699854
 30
0.0
 40
1.4
  1
17
 50
270.0
  7
ITALIC
100
AcDbText
  0
LINE
  5
10721
330
18
100
AcDbEntity
  8
1
  6
CONTINUOUS
 62
     3
100
AcDbLine
 10
551.3497644940386
 20
121.0584324699854
 30
0.0
 11
552.6783584940385
 21
121.0584324699854
 31
0.0
  0
LINE
  5
10722
330
18
100
AcDbEntity
  8
WYMSKALA1
100
AcDbLine
 10
548.3997644940385
 20
121.0584324699854
 30
0.0
 11
550.3997644940385
 21
121.0584324699854
 31
0.0
  0
LINE
  5
10723
330
18
100
AcDbEntity
  8
WYMSKALA1
100
AcDbLine
 10
558.4274974940386
 20
121.0584324699854
 30
0.0
 11
560.4274974940386
 21
121.0584324699854
 31
0.0
  0
LINE
  5
10724
330
18
100
AcDbEntity
  8
1
  6
CONTINUOUS
 62
     3
100
AcDbLine
 10
561.3774974940386
 20
121.0584324699854
 30
0.0
 11
562.6774974940386
 21
121.0584324699854
 31
0.0
  0
ARC
  5
10725
330
18
100
AcDbEntity
  8
1
  6
CONTINUOUS
 62
     3
100
AcDbCircle
 10
559.4274974940386
 20
121.0584324699854
 30
0.0
 40
1.95
100
AcDbArc
 50
0.0
 51
180.0
  0
LINE
  5
10726
330
18
100
AcDbEntity
  8
WYMIARY
 62
     3
100
AcDbLine
 10
570.4094194940386
 20
118.5584324699854
 30
0.0
 11
598.4210324940386
 21
118.5584324699854
 31
0.0
  0
LINE
  5
10727
330
18
100
AcDbEntity
  8
WYMIARY
 62
     3
100
AcDbLine
 10
598.4210324940386
 20
123.5584324699854
 30
0.0
 11
570.4094194940386
 21
123.5584324699854
 31
0.0
  0
LINE
  5
10728
330
18
100
AcDbEntity
  8
1
  6
CONTINUOUS
 62
     3
100
AcDbLine
 10
571.2774974940386
 20
124.1584324699854
 30
0.0
 11
597.3891064940386
 21
124.1584324699854
 31
0.0
  0
LINE
  5
10729
330
18
100
AcDbEntity
  8
WYMIARY
 62
     3
100
AcDbLine
 10
570.4094194940386
 20
123.5584324699854
 30
0.0
 11
570.4094194940386
 21
118.5584324699854
 31
0.0
  0
LINE
  5
1072A
330
18
100
AcDbEntity
  8
1
  6
CONTINUOUS
 62
     3
100
AcDbLine
 10
570.1774974940386
 20
123.5584324699854
 30
0.0
 11
570.1774974940386
 21
118.5584324699854
 31
0.0
  0
LINE
  5
1072B
330
18
100
AcDbEntity
  8
WYMSKALA1
100
AcDbLine
 10
566.2774974940386
 20
120.0584324699854
 30
0.0
 11
566.2774974940386
 21
122.0584324699854
 31
0.0
  0
ARC
  5
1072C
330
18
100
AcDbEntity
  8
1
  6
CONTINUOUS
 62
     3
100
AcDbCircle
 10
571.2774974940386
 20
118.1584324699854
 30
0.0
 40
0.2
100
AcDbArc
 50
270.0
 51
0.0
  0
LINE
  5
1072D
330
18
100
AcDbEntity
  8
1
  6
CONTINUOUS
 62
     3
100
AcDbLine
 10
571.4774974940386
 20
118.5584324699854
 30
0.0
 11
570.1774974940386
 21
118.5584324699854
 31
0.0
  0
POINT
  5
1072E
330
18
100
AcDbEntity
  8
DEFPOINTS
  6
BYBLOCK
 62
     0
100
AcDbPoint
 10
570.1774974940386
 20
118.5584324699854
 30
0.0
  0
LINE
  5
1072F
330
18
100
AcDbEntity
  8
1
  6
CONTINUOUS
 62
     3
100
AcDbLine
 10
571.4774974940386
 20
118.1584324699854
 30
0.0
 11
571.4774974940386
 21
118.5584324699854
 31
0.0
  0
LINE
  5
10730
330
18
100
AcDbEntity
  8
1
  6
CONTINUOUS
 62
     3
100
AcDbLine
 10
571.4774974940386
 20
123.9584324699854
 30
0.0
 11
571.4774974940386
 21
123.5584324699854
 31
0.0
  0
LINE
  5
10731
330
18
100
AcDbEntity
  8
1
  6
CONTINUOUS
 62
     3
100
AcDbLine
 10
571.4774974940386
 20
123.5584324699854
 30
0.0
 11
570.1774974940386
 21
123.5584324699854
 31
0.0
  0
LINE
  5
10732
330
18
100
AcDbEntity
  8
1
  6
CONTINUOUS
 62
     3
100
AcDbLine
 10
570.1769924940386
 20
122.0000584699854
 30
0.0
 11
570.4094194940386
 21
122.0000584699854
 31
0.0
  0
LINE
  5
10733
330
18
100
AcDbEntity
  8
1
  6
CONTINUOUS
 62
     3
100
AcDbLine
 10
570.1769924940386
 20
122.7101154699854
 30
0.0
 11
570.4094194940386
 21
122.7101154699854
 31
0.0
  0
LINE
  5
10734
330
18
100
AcDbEntity
  8
1
  6
CONTINUOUS
 62
     3
100
AcDbLine
 10
570.1769924940386
 20
121.6911224699854
 30
0.0
 11
570.4094194940386
 21
121.6911224699854
 31
0.0
  0
LINE
  5
10735
330
18
100
AcDbEntity
  8
1
  6
CONTINUOUS
 62
     3
100
AcDbLine
 10
570.1769924940386
 20
123.0190514699854
 30
0.0
 11
570.4094194940386
 21
123.0190514699854
 31
0.0
  0
POINT
  5
10736
330
18
100
AcDbEntity
  8
DEFPOINTS
  6
BYBLOCK
 62
     0
100
AcDbPoint
 10
570.1774974940386
 20
123.5584324699854
 30
0.0
  0
LINE
  5
10737
330
18
100
AcDbEntity
  8
1
  6
CONTINUOUS
 62
     3
100
AcDbLine
 10
570.1769924940386
 20
122.3550874699854
 30
0.0
 11
570.1769924940386
 21
121.6911224699854
 31
0.0
  0
LINE
  5
10738
330
18
100
AcDbEntity
  8
1
  6
CONTINUOUS
 62
     3
100
AcDbLine
 10
570.1769924940386
 20
122.3550874699854
 30
0.0
 11
570.1769924940386
 21
123.0190514699854
 31
0.0
  0
POINT
  5
10739
330
18
100
AcDbEntity
  8
DEFPOINTS
  6
BYBLOCK
 62
     0
100
AcDbPoint
 10
571.0225534940386
 20
124.1584324699854
 30
0.0
  0
ARC
  5
1073A
330
18
100
AcDbEntity
  8
1
  6
CONTINUOUS
 62
     3
100
AcDbCircle
 10
571.2774974940386
 20
123.9584324699854
 30
0.0
 40
0.2
100
AcDbArc
 50
0.0
 51
90.0
  0
LINE
  5
1073B
330
18
100
AcDbEntity
  8
WYMSKALA1
100
AcDbLine
 10
565.2774974940386
 20
121.0584324699854
 30
0.0
 11
567.2774974940386
 21
121.0584324699854
 31
0.0
  0
POINT
  5
1073C
330
18
100
AcDbEntity
  8
DEFPOINTS
  6
BYBLOCK
 62
     0
100
AcDbPoint
 10
580.3016984940386
 20
123.5584324699854
 30
0.0
  0
POINT
  5
1073D
330
18
100
AcDbEntity
  8
DEFPOINTS
  6
BYBLOCK
 62
     0
100
AcDbPoint
 10
574.8025534940385
 20
124.1584324699854
 30
0.0
  0
POINT
  5
1073E
330
18
100
AcDbEntity
  8
DEFPOINTS
  6
BYBLOCK
 62
     0
100
AcDbPoint
 10
574.8025534940385
 20
124.8084324699854
 30
0.0
  0
LINE
  5
1073F
330
18
100
AcDbEntity
  8
WYMIARY
 62
     3
100
AcDbLine
 10
598.4210324940386
 20
123.5584324699854
 30
0.0
 11
598.4210324940386
 21
118.5584324699854
 31
0.0
  0
LINE
  5
10740
330
18
100
AcDbEntity
  8
1
  6
CONTINUOUS
 62
     3
100
AcDbLine
 10
599.2439884940386
 20
124.0584324699854
 30
0.0
 11
599.2439884940386
 21
118.0584324699854
 31
0.0
  0
LINE
  5
10741
330
18
100
AcDbEntity
  8
3
100
AcDbLine
 10
598.6801824940386
 20
123.5584324699854
 30
0.0
 11
598.6801824940386
 21
118.5584324699854
 31
0.0
  0
LINE
  5
10742
330
18
100
AcDbEntity
  8
1
  6
CONTINUOUS
 62
     3
100
AcDbLine
 10
599.5459694940386
 20
124.0584324699854
 30
0.0
 11
599.5459694940386
 21
118.0584324699854
 31
0.0
  0
LINE
  5
10743
330
18
100
AcDbEntity
  8
1
  6
CONTINUOUS
 62
     3
100
AcDbLine
 10
584.7843364940386
 20
118.1765934699854
 30
0.0
 11
595.7661664940385
 21
118.1765934699854
 31
0.0
  0
LINE
  5
10744
330
18
100
AcDbEntity
  8
1
  6
CONTINUOUS
 62
     3
100
AcDbLine
 10
584.7843364940386
 20
117.9584324699854
 30
0.0
 11
584.7843364940386
 21
118.5584324699854
 31
0.0
  0
LINE
  5
10745
330
18
100
AcDbEntity
  8
1
  6
CONTINUOUS
 62
     3
100
AcDbLine
 10
587.4628934940386
 20
118.5584324699854
 30
0.0
 11
587.4628934940386
 21
118.1765934699854
 31
0.0
  0
LINE
  5
10746
330
18
100
AcDbEntity
  8
1
  6
CONTINUOUS
 62
     3
100
AcDbLine
 10
595.7661664940385
 20
118.5584324699854
 30
0.0
 11
595.7661664940385
 21
118.0584324699854
 31
0.0
  0
LINE
  5
10747
330
18
100
AcDbEntity
  8
1
  6
CONTINUOUS
 62
     3
100
AcDbLine
 10
596.0813384940386
 20
118.5584324699854
 30
0.0
 11
596.0813384940386
 21
118.0584324699854
 31
0.0
  0
LINE
  5
10748
330
18
100
AcDbEntity
  8
1
  6
CONTINUOUS
 62
     3
100
AcDbLine
 10
597.7971384940386
 20
118.5584324699854
 30
0.0
 11
597.7971384940386
 21
118.0584324699854
 31
0.0
  0
LINE
  5
10749
330
18
100
AcDbEntity
  8
1
  6
CONTINUOUS
 62
     3
100
AcDbLine
 10
597.8904104940386
 20
118.5584324699854
 30
0.0
 11
597.8904104940386
 21
118.0584324699854
 31
0.0
  0
LINE
  5
1074A
330
18
100
AcDbEntity
  8
1
  6
CONTINUOUS
 62
     3
100
AcDbLine
 10
598.1927674940385
 20
118.5584324699854
 30
0.0
 11
598.1927674940385
 21
118.0584324699854
 31
0.0
  0
ARC
  5
1074B
330
18
100
AcDbEntity
  8
3
100
AcDbCircle
 10
597.5801824940386
 20
118.1584324699854
 30
0.0
 40
0.2
100
AcDbArc
 50
180.0
 51
270.0
  0
LINE
  5
1074C
330
18
100
AcDbEntity
  8
3
100
AcDbLine
 10
597.3801824940385
 20
118.5584324699854
 30
0.0
 11
598.6801824940386
 21
118.5584324699854
 31
0.0
  0
LINE
  5
1074D
330
18
100
AcDbEntity
  8
3
100
AcDbLine
 10
597.3801824940385
 20
118.1584324699854
 30
0.0
 11
597.3801824940385
 21
118.5584324699854
 31
0.0
  0
POINT
  5
1074E
330
18
100
AcDbEntity
  8
DEFPOINTS
  6
BYBLOCK
 62
     0
100
AcDbPoint
 10
586.1448254940386
 20
124.1584324699854
 30
0.0
  0
POINT
  5
1074F
330
18
100
AcDbEntity
  8
DEFPOINTS
  6
BYBLOCK
 62
     0
100
AcDbPoint
 10
591.1704974940386
 20
124.0584324699854
 30
0.0
  0
POINT
  5
10750
330
18
100
AcDbEntity
  8
DEFPOINTS
  6
BYBLOCK
 62
     0
100
AcDbPoint
 10
591.1704974940386
 20
124.1584324699854
 30
0.0
  0
LINE
  5
10751
330
18
100
AcDbEntity
  8
3
100
AcDbLine
 10
597.3801824940385
 20
123.9584324699854
 30
0.0
 11
597.3801824940385
 21
123.5584324699854
 31
0.0
  0
LINE
  5
10752
330
18
100
AcDbEntity
  8
3
100
AcDbLine
 10
597.3801824940385
 20
123.5584324699854
 30
0.0
 11
598.6801824940386
 21
123.5584324699854
 31
0.0
  0
ARC
  5
10753
330
18
100
AcDbEntity
  8
3
100
AcDbCircle
 10
597.5801824940386
 20
123.9584324699854
 30
0.0
 40
0.2
100
AcDbArc
 50
90.0
 51
180.0
  0
POINT
  5
10754
330
18
100
AcDbEntity
  8
DEFPOINTS
  6
BYBLOCK
 62
     0
100
AcDbPoint
 10
596.2454234940386
 20
124.8084324699854
 30
0.0
  0
POINT
  5
10755
330
18
100
AcDbEntity
  8
DEFPOINTS
  6
BYBLOCK
 62
     0
100
AcDbPoint
 10
596.2454234940386
 20
124.0584324699854
 30
0.0
  0
LINE
  5
10756
330
18
100
AcDbEntity
  8
1
  6
CONTINUOUS
 62
     3
100
AcDbLine
 10
597.7971384940386
 20
124.0584324699854
 30
0.0
 11
597.7971384940386
 21
123.5584324699854
 31
0.0
  0
LINE
  5
10757
330
18
100
AcDbEntity
  8
1
  6
CONTINUOUS
 62
     3
100
AcDbLine
 10
598.1927674940385
 20
124.0584324699854
 30
0.0
 11
598.1927674940385
 21
123.5584324699854
 31
0.0
  0
LINE
  5
10758
330
18
100
AcDbEntity
  8
1
  6
CONTINUOUS
 62
     3
100
AcDbLine
 10
597.8904104940386
 20
124.0584324699854
 30
0.0
 11
597.8904104940386
 21
123.5584324699854
 31
0.0
  0
LINE
  5
10759
330
18
100
AcDbEntity
  8
1
  6
CONTINUOUS
 62
     3
100
AcDbLine
 10
596.0813384940386
 20
124.0584324699854
 30
0.0
 11
596.0813384940386
 21
123.5584324699854
 31
0.0
  0
LINE
  5
1075A
330
18
100
AcDbEntity
  8
1
  6
CONTINUOUS
 62
     3
100
AcDbLine
 10
595.7661664940385
 20
124.0584324699854
 30
0.0
 11
595.7661664940385
 21
123.5584324699854
 31
0.0
  0
LINE
  5
10856
330
18
100
AcDbEntity
  8
WYMSKALA1
100
AcDbLine
 10
633.2254684940386
 20
121.0584324699854
 30
0.0
 11
635.2254684940386
 21
121.0584324699854
 31
0.0
  0
LINE
  5
10857
330
18
100
AcDbEntity
  8
1
  6
CONTINUOUS
 62
     3
100
AcDbLine
 10
632.6508944940385
 20
122.2087424699854
 30
0.0
 11
635.3757794940386
 21
119.4838574699854
 31
0.0
  0
LINE
  5
10858
330
18
100
AcDbEntity
  8
1
  6
CONTINUOUS
 62
     3
100
AcDbLine
 10
633.0751584940386
 20
122.6330074699854
 30
0.0
 11
635.8000434940386
 21
119.9081214699854
 31
0.0
  0
ARC
  5
10859
330
18
100
AcDbEntity
  8
1
  6
CONTINUOUS
 62
     3
100
AcDbCircle
 10
634.2254684940386
 20
121.0584324699854
 30
0.0
 40
1.95
100
AcDbArc
 50
180.0
 51
0.0
  0
ARC
  5
1085A
330
18
100
AcDbEntity
  8
1
  6
CONTINUOUS
 62
     3
100
AcDbCircle
 10
634.2254684940386
 20
121.0584324699854
 30
0.0
 40
1.95
100
AcDbArc
 50
0.0
 51
180.0
  0
LINE
  5
1085B
330
18
100
AcDbEntity
  8
1
  6
CONTINUOUS
 62
     3
100
AcDbLine
 10
614.3184684940386
 20
118.9584324699854
 30
0.0
 11
619.0969684940386
 21
118.9584324699854
 31
0.0
  0
LINE
  5
1085C
330
18
100
AcDbEntity
  8
1
  6
CONTINUOUS
 62
     3
100
AcDbLine
 10
607.4023044940386
 20
124.0584324699854
 30
0.0
 11
607.4023044940386
 21
118.0584324699854
 31
0.0
  0
LINE
  5
1085D
330
18
100
AcDbEntity
  8
1
  6
CONTINUOUS
 62
     3
100
AcDbLine
 10
606.0661324940386
 20
124.0584324699854
 30
0.0
 11
606.0661324940386
 21
118.0584324699854
 31
0.0
  0
LINE
  5
1085E
330
18
100
AcDbEntity
  8
1
  6
CONTINUOUS
 62
     3
100
AcDbLine
 10
605.7291554940385
 20
124.0584324699854
 30
0.0
 11
605.7291554940385
 21
118.0584324699854
 31
0.0
  0
ARC
  5
1085F
330
18
100
AcDbEntity
  8
1
  6
CONTINUOUS
 62
     3
100
AcDbCircle
 10
610.8684684940386
 20
121.0584324699854
 30
0.0
 40
1.95
100
AcDbArc
 50
180.0
 51
0.0
  0
LINE
  5
10860
330
18
100
AcDbEntity
  8
1
  6
CONTINUOUS
 62
     3
100
AcDbLine
 10
609.2938934940386
 20
122.2087424699854
 30
0.0
 11
612.0187784940385
 21
119.4838574699854
 31
0.0
  0
LINE
  5
10861
330
18
100
AcDbEntity
  8
1
  6
CONTINUOUS
 62
     3
100
AcDbLine
 10
609.7181574940386
 20
122.6330074699854
 30
0.0
 11
612.4430434940385
 21
119.9081214699854
 31
0.0
  0
LINE
  5
10862
330
18
100
AcDbEntity
  8
WYMSKALA1
100
AcDbLine
 10
610.8684684940386
 20
120.0584324699854
 30
0.0
 11
610.8684684940386
 21
122.0584324699854
 31
0.0
  0
LINE
  5
10863
330
18
100
AcDbEntity
  8
1
  6
CONTINUOUS
 62
     3
100
AcDbLine
 10
614.3184684940386
 20
121.0584324699854
 30
0.0
 11
614.3184684940386
 21
118.9584324699854
 31
0.0
  0
LINE
  5
10864
330
18
100
AcDbEntity
  8
1
  6
CONTINUOUS
 62
     3
100
AcDbLine
 10
609.4184684940386
 20
121.0584324699854
 30
0.0
 11
607.4291064940386
 21
121.0584324699854
 31
0.0
  0
TEXT
  5
10865
330
18
100
AcDbEntity
  8
WY
  6
CONTINUOUS
 62
     3
100
AcDbText
 10
615.4374594940385
 20
122.1694264699854
 30
0.0
 40
1.4
  1
A1
 50
270.0
  7
ITALIC
100
AcDbText
  0
LINE
  5
10866
330
18
100
AcDbEntity
  8
WYMSKALA1
100
AcDbLine
 10
609.8684684940386
 20
121.0584324699854
 30
0.0
 11
611.8684684940386
 21
121.0584324699854
 31
0.0
  0
LINE
  5
10867
330
18
100
AcDbEntity
  8
1
  6
CONTINUOUS
 62
     3
100
AcDbLine
 10
612.3184684940386
 20
121.0584324699854
 30
0.0
 11
614.3184684940386
 21
121.0584324699854
 31
0.0
  0
ARC
  5
10868
330
18
100
AcDbEntity
  8
1
  6
CONTINUOUS
 62
     3
100
AcDbCircle
 10
610.8684684940386
 20
121.0584324699854
 30
0.0
 40
1.95
100
AcDbArc
 50
0.0
 51
180.0
  0
ARC
  5
10869
330
18
100
AcDbEntity
  8
1
  6
CONTINUOUS
 62
     3
100
AcDbCircle
 10
622.5469684940385
 20
121.0584324699854
 30
0.0
 40
1.95
100
AcDbArc
 50
180.0
 51
0.0
  0
LINE
  5
1086A
330
18
100
AcDbEntity
  8
1
  6
CONTINUOUS
 62
     3
100
AcDbLine
 10
619.0969684940386
 20
121.0584324699854
 30
0.0
 11
619.0969684940386
 21
118.9584324699854
 31
0.0
  0
LINE
  5
1086B
330
18
100
AcDbEntity
  8
WYMSKALA1
100
AcDbLine
 10
622.5469684940385
 20
120.0584324699854
 30
0.0
 11
622.5469684940385
 21
122.0584324699854
 31
0.0
  0
LINE
  5
1086C
330
18
100
AcDbEntity
  8
1
  6
CONTINUOUS
 62
     3
100
AcDbLine
 10
620.9723934940386
 20
122.2087424699854
 30
0.0
 11
623.6972794940386
 21
119.4838574699854
 31
0.0
  0
LINE
  5
1086D
330
18
100
AcDbEntity
  8
1
  6
CONTINUOUS
 62
     3
100
AcDbLine
 10
621.3966574940385
 20
122.6330074699854
 30
0.0
 11
624.1215434940386
 21
119.9081214699854
 31
0.0
  0
LINE
  5
1086E
330
18
100
AcDbEntity
  8
1
  6
CONTINUOUS
 62
     3
100
AcDbLine
 10
629.2961074940386
 20
124.1584324699854
 30
0.0
 11
629.2961074940386
 21
118.9584324699854
 31
0.0
  0
TEXT
  5
1086F
330
18
100
AcDbEntity
  8
WY
  6
CONTINUOUS
 62
     3
100
AcDbText
 10
627.0337214940386
 20
122.0691514699854
 30
0.0
 40
1.4
  1
A2
 50
270.0
  7
ITALIC
100
AcDbText
  0
LINE
  5
10870
330
18
100
AcDbEntity
  8
1
  6
CONTINUOUS
 62
     3
100
AcDbLine
 10
625.9969684940386
 20
121.0584324699854
 30
0.0
 11
625.9969684940386
 21
118.9584324699854
 31
0.0
  0
LINE
  5
10871
330
18
100
AcDbEntity
  8
1
  6
CONTINUOUS
 62
     3
100
AcDbLine
 10
630.7754684940386
 20
121.0584324699854
 30
0.0
 11
630.7754684940386
 21
118.9584324699854
 31
0.0
  0
LINE
  5
10872
330
18
100
AcDbEntity
  8
WY
100
AcDbLine
 10
634.2254684940386
 20
121.0584324699854
 30
0.0
 11
634.2254684940386
 21
119.1084324699854
 31
0.0
  0
LINE
  5
10873
330
18
100
AcDbEntity
  8
WYMSKALA1
100
AcDbLine
 10
634.2254684940386
 20
120.0584324699854
 30
0.0
 11
634.2254684940386
 21
123.0084324699854
 31
0.0
  0
LINE
  5
10874
330
18
100
AcDbEntity
  8
1
  6
CONTINUOUS
 62
     3
100
AcDbLine
 10
617.6176074940386
 20
124.1584324699854
 30
0.0
 11
617.6176074940386
 21
118.9584324699854
 31
0.0
  0
LINE
  5
10875
330
18
100
AcDbEntity
  8
1
  6
CONTINUOUS
 62
     3
100
AcDbLine
 10
625.9969684940386
 20
118.9584324699854
 30
0.0
 11
630.7754684940386
 21
118.9584324699854
 31
0.0
  0
LINE
  5
10876
330
18
100
AcDbEntity
  8
1
  6
CONTINUOUS
 62
     3
100
AcDbLine
 10
623.9969684940386
 20
121.0584324699854
 30
0.0
 11
625.9969684940386
 21
121.0584324699854
 31
0.0
  0
ARC
  5
10877
330
18
100
AcDbEntity
  8
1
  6
CONTINUOUS
 62
     3
100
AcDbCircle
 10
622.5469684940385
 20
121.0584324699854
 30
0.0
 40
1.95
100
AcDbArc
 50
0.0
 51
180.0
  0
LINE
  5
10878
330
18
100
AcDbEntity
  8
1
  6
CONTINUOUS
 62
     3
100
AcDbLine
 10
621.0969684940386
 20
121.0584324699854
 30
0.0
 11
619.0969684940386
 21
121.0584324699854
 31
0.0
  0
LINE
  5
10879
330
18
100
AcDbEntity
  8
WYMSKALA1
100
AcDbLine
 10
621.5469684940385
 20
121.0584324699854
 30
0.0
 11
623.5469684940385
 21
121.0584324699854
 31
0.0
  0
LINE
  5
1087A
330
18
100
AcDbEntity
  8
1
  6
CONTINUOUS
 62
     3
100
AcDbLine
 10
632.7754684940386
 20
121.0584324699854
 30
0.0
 11
630.7754684940386
 21
121.0584324699854
 31
0.0
  0
LINE
  5
1087B
330
18
100
AcDbEntity
  8
1
  6
CONTINUOUS
 62
     3
100
AcDbLine
 10
640.9746074940385
 20
123.8584324699854
 30
0.0
 11
640.9746074940385
 21
117.9584324699854
 31
0.0
  0
LINE
  5
1087C
330
18
100
AcDbEntity
  8
1
  6
CONTINUOUS
 62
     3
100
AcDbLine
 10
637.6754684940386
 20
121.0584324699854
 30
0.0
 11
637.6754684940386
 21
118.9584324699854
 31
0.0
  0
LINE
  5
1087D
330
18
100
AcDbEntity
  8
1
  6
CONTINUOUS
 62
     3
100
AcDbLine
 10
637.6754684940386
 20
118.9584324699854
 30
0.0
 11
640.9746074940385
 21
118.9584324699854
 31
0.0
  0
TEXT
  5
1087E
330
18
100
AcDbEntity
  8
WY
  6
CONTINUOUS
 62
     3
100
AcDbText
 10
638.6962454940386
 20
123.5658884699854
 30
0.0
 40
1.4
  1
(A3)
 50
270.0
  7
ITALIC
100
AcDbText
  0
ARC
  5
1087F
330
18
100
AcDbEntity
  8
1
  6
CONTINUOUS
 62
     3
100
AcDbCircle
 10
640.6746074940386
 20
123.8584324699854
 30
0.0
 40
0.3
100
AcDbArc
 50
0.0
 51
90.0
  0
LINE
  5
10880
330
18
100
AcDbEntity
  8
1
  6
CONTINUOUS
 62
     3
100
AcDbLine
 10
635.6754684940386
 20
121.0584324699854
 30
0.0
 11
637.6754684940386
 21
121.0584324699854
 31
0.0
  0
LINE
  5
10D95
330
18
100
AcDbEntity
  8
WYMIARY
 62
     3
100
AcDbLine
 10
640.9746074940385
 20
117.9584324699854
 30
0.0
 11
542.4046074940386
 21
117.9584324699854
 31
0.0
  0
LINE
  5
10D96
330
18
100
AcDbEntity
  8
WYMIARY
 62
     3
100
AcDbLine
 10
542.4046074940386
 20
117.9584324699854
 30
0.0
 11
542.4046074940386
 21
123.1584324699854
 31
0.0
  0
DIMENSION
  5
10DAE
330
18
100
AcDbEntity
  8
WY
100
AcDbDimension
  2
*D8
 10
640.9746074940385
 20
99.19493046998542
 30
0.0
 11
591.6896074940386
 21
102.4449304699854
 31
0.0
 70
    32
  1
98,5%%p0.2
  3
STANDARD
100
AcDbAlignedDimension
 13
542.4046074940386
 23
117.9584324699854
 33
0.0
 14
640.9746074940385
 24
117.9584324699854
 34
0.0
100
AcDbRotatedDimension
1001
ACAD
1000
DSTYLE
1002
{
1070
    41
1040
3.0
1070
   140
1040
3.0
1070
   271
1070
     1
1002
}
  0
LINE
  5
111A6
330
18
100
AcDbEntity
  8
1
100
AcDbLine
 10
598.6891081986654
 20
251.2609468856094
 30
0.0
 11
596.0813385762808
 21
251.2609468856094
 31
0.0
  0
LINE
  5
111A7
330
18
100
AcDbEntity
  8
1
100
AcDbLine
 10
598.6891081986654
 20
251.2609468856094
 30
0.0
 11
596.0813385762808
 21
251.2609468856094
 31
0.0
  0
LINE
  5
111A8
330
18
100
AcDbEntity
  8
1
100
AcDbLine
 10
598.6891081986654
 20
251.2609468856094
 30
0.0
 11
596.0813385762808
 21
251.2609468856094
 31
0.0
  0
LINE
  5
111A9
330
18
100
AcDbEntity
  8
1
100
AcDbLine
 10
598.6891081986654
 20
251.2609468856094
 30
0.0
 11
596.0813385762808
 21
251.2609468856094
 31
0.0
  0
LINE
  5
111AA
330
18
100
AcDbEntity
  8
1
100
AcDbLine
 10
598.6891081986654
 20
251.2609468856094
 30
0.0
 11
596.0813385762808
 21
251.2609468856094
 31
0.0
  0
LINE
  5
111AB
330
18
100
AcDbEntity
  8
1
100
AcDbLine
 10
598.6891081986654
 20
251.2609468856094
 30
0.0
 11
596.0813385762808
 21
251.2609468856094
 31
0.0
  0
LINE
  5
111AC
330
18
100
AcDbEntity
  8
1
  6
CONTINUOUS
 62
     3
100
AcDbLine
 10
585.4468081787923
 20
235.7523444234099
 30
0.0
 11
597.1891081986654
 21
235.7523444234099
 31
0.0
  0
LINE
  5
111AD
330
18
100
AcDbEntity
  8
1
  6
CONTINUOUS
 62
     3
100
AcDbLine
 10
597.1891073353844
 20
235.75234442341
 30
0.0
 11
585.2613771546653
 21
235.7523444234099
 31
0.0
  0
LINE
  5
111AE
330
18
100
AcDbEntity
  8
1
  6
CONTINUOUS
 62
     3
100
AcDbLine
 10
597.1891073353844
 20
235.7517567911279
 30
0.0
 11
585.2613771546653
 21
235.7517567911279
 31
0.0
  0
LINE
  5
111AF
330
18
100
AcDbEntity
  8
WARSTWA3
100
AcDbLine
 10
570.3447751469939
 20
235.7517567911279
 30
0.0
 11
598.2977945360119
 21
235.7517567911279
 31
0.0
  0
LINE
  5
111B0
330
18
100
AcDbEntity
  8
WARSTWA3
100
AcDbLine
 10
597.1891073353844
 20
250.7548114954097
 30
0.0
 11
571.4774986606653
 21
250.7548114954097
 31
0.0
  0
LINE
  5
111B1
330
18
100
AcDbEntity
  8
WARSTWA3
100
AcDbLine
 10
594.4885521144247
 20
236.2586168143337
 30
0.0
 11
597.1891073353844
 21
236.2586168143337
 31
0.0
  0
LINE
  5
111B2
330
18
100
AcDbEntity
  8
WARSTWA3
100
AcDbLine
 10
573.6184121597823
 20
236.2595666124805
 30
0.0
 11
593.2720874922705
 21
236.2586168143337
 31
0.0
  0
LINE
  5
111B3
330
18
100
AcDbEntity
  8
1
  6
CONTINUOUS
 62
     3
100
AcDbLine
 10
571.4774986606653
 20
235.75234442341
 30
0.0
 11
585.4468081787923
 21
235.7523444234099
 31
0.0
  0
LINE
  5
111B4
330
18
100
AcDbEntity
  8
1
  6
CONTINUOUS
 62
     3
100
AcDbLine
 10
585.2613771546653
 20
235.7517567911279
 30
0.0
 11
571.4774977973843
 21
235.7517567911279
 31
0.0
  0
LINE
  5
111B5
330
18
100
AcDbEntity
  8
1
  6
CONTINUOUS
 62
     3
100
AcDbLine
 10
571.4774986606653
 20
235.75234442341
 30
0.0
 11
571.4774986606653
 21
250.8523444234099
 31
0.0
  0
LINE
  5
111B6
330
18
100
AcDbEntity
  8
1
  6
CONTINUOUS
 62
     3
100
AcDbLine
 10
571.4774977973843
 20
235.7517567911279
 30
0.0
 11
571.4774977973843
 21
251.051756791128
 31
0.0
  0
LINE
  5
111B7
330
18
100
AcDbEntity
  8
1
  6
CONTINUOUS
 62
     3
100
AcDbLine
 10
571.4774986606653
 20
235.75234442341
 30
0.0
 11
571.4774986606653
 21
250.8523444234099
 31
0.0
  0
LINE
  5
111B8
330
18
100
AcDbEntity
  8
3
100
AcDbLine
 10
570.1774986606654
 20
235.75234442341
 30
0.0
 11
570.1774986606654
 21
251.0523444234099
 31
0.0
  0
LINE
  5
111B9
330
18
100
AcDbEntity
  8
3
100
AcDbLine
 10
570.3447751469939
 20
250.2548114954097
 30
0.0
 11
570.3447751469939
 21
235.7517567911279
 31
0.0
  0
LINE
  5
111BA
330
18
100
AcDbEntity
  8
WARSTWA3
100
AcDbLine
 10
571.4774986606653
 20
236.2586168143337
 30
0.0
 11
572.6699272191504
 21
236.2586168143337
 31
0.0
  0
LINE
  5
111BB
330
18
100
AcDbEntity
  8
WARSTWA3
100
AcDbLine
 10
571.4633164223426
 20
236.2586168143337
 30
0.0
 11
571.4633164223426
 21
235.7517567911279
 31
0.0
  0
LINE
  5
111BC
330
18
100
AcDbEntity
  8
3
100
AcDbLine
 10
571.4774977973843
 20
235.75234442341
 30
0.0
 11
570.1774986606654
 21
235.75234442341
 31
0.0
  0
LINE
  5
111BD
330
18
100
AcDbEntity
  8
3
100
AcDbLine
 10
570.3447751469939
 20
236.2586168143337
 30
0.0
 11
571.4774986606653
 21
236.2586168143337
 31
0.0
  0
LINE
  5
111BE
330
18
100
AcDbEntity
  8
WARSTWA3
100
AcDbLine
 10
573.6184121597823
 20
235.7929696838912
 30
0.0
 11
573.6184121597823
 21
236.2595666124805
 31
0.0
  0
LINE
  5
111BF
330
18
100
AcDbEntity
  8
WARSTWA3
100
AcDbLine
 10
572.6699272191504
 20
235.7929696838912
 30
0.0
 11
572.6699272191504
 21
236.2586168143337
 31
0.0
  0
LINE
  5
111C0
330
18
100
AcDbEntity
  8
WARSTWA3
100
AcDbLine
 10
575.2685975356484
 20
235.751756791128
 30
0.0
 11
575.2685993994955
 21
236.2594749694857
 31
0.0
  0
LINE
  5
111C1
330
18
100
AcDbEntity
  8
WARSTWA3
100
AcDbLine
 10
574.863111193041
 20
236.2594943915016
 30
0.0
 11
574.8631093283282
 21
235.751756791128
 31
0.0
  0
ARC
  5
111C2
330
18
100
AcDbEntity
  8
3
100
AcDbCircle
 10
570.8447751469939
 20
250.2548114954097
 30
0.0
 40
0.5
100
AcDbArc
 50
90.0
 51
180.0
  0
LINE
  5
111C3
330
18
100
AcDbEntity
  8
1
  6
CONTINUOUS
 62
     3
100
AcDbLine
 10
570.1774986606654
 20
251.0523444234099
 30
0.0
 11
571.2774986606654
 21
251.0523444234099
 31
0.0
  0
LINE
  5
111C4
330
18
100
AcDbEntity
  8
3
100
AcDbLine
 10
571.4774986606653
 20
250.7548114954097
 30
0.0
 11
570.8447751469939
 21
250.7548114954097
 31
0.0
  0
LINE
  5
111C5
330
18
100
AcDbEntity
  8
WARSTWA3
100
AcDbLine
 10
585.8315694498064
 20
235.7517567911279
 30
0.0
 11
585.8320723140537
 21
236.2586168143337
 31
0.0
  0
LINE
  5
111C6
330
18
100
AcDbEntity
  8
WARSTWA3
100
AcDbLine
 10
586.845313984049
 20
235.7517567911279
 30
0.0
 11
586.8457922424528
 21
236.2586168143337
 31
0.0
  0
LINE
  5
111C7
330
18
100
AcDbEntity
  8
WARSTWA3
100
AcDbLine
 10
591.87246418279
 20
235.7517567911279
 30
0.0
 11
591.87246418279
 21
236.2586168143337
 31
0.0
  0
LINE
  5
111C8
330
18
100
AcDbEntity
  8
WARSTWA3
100
AcDbLine
 10
590.8587441363784
 20
235.7517567911279
 30
0.0
 11
590.8587441363784
 21
236.2586168143337
 31
0.0
  0
LINE
  5
111C9
330
18
100
AcDbEntity
  8
WARSTWA3
100
AcDbLine
 10
593.2720874922705
 20
236.2586168143337
 30
0.0
 11
593.2720874922705
 21
235.7517567911279
 31
0.0
  0
LINE
  5
111CA
330
18
100
AcDbEntity
  8
WARSTWA3
100
AcDbLine
 10
595.8029381951836
 20
235.7517567911279
 30
0.0
 11
595.8029381951836
 21
236.2586168143337
 31
0.0
  0
LINE
  5
111CB
330
18
100
AcDbEntity
  8
WARSTWA3
100
AcDbLine
 10
594.4885521144247
 20
235.7517567911279
 30
0.0
 11
594.4885521144247
 21
236.2586168143337
 31
0.0
  0
LINE
  5
111CC
330
18
100
AcDbEntity
  8
1
  6
CONTINUOUS
 62
     3
100
AcDbLine
 10
597.1891081986654
 20
250.85234442341
 30
0.0
 11
597.1891081986654
 21
235.75234442341
 31
0.0
  0
LINE
  5
111CD
330
18
100
AcDbEntity
  8
1
  6
CONTINUOUS
 62
     3
100
AcDbLine
 10
597.1891073353844
 20
250.85234442341
 30
0.0
 11
597.1891073353844
 21
235.75234442341
 31
0.0
  0
LINE
  5
111CE
330
18
100
AcDbEntity
  8
1
  6
CONTINUOUS
 62
     3
100
AcDbLine
 10
597.1891073353844
 20
250.851756791128
 30
0.0
 11
597.1891073353844
 21
235.7517567911279
 31
0.0
  0
LINE
  5
111CF
330
18
100
AcDbEntity
  8
1
  6
CONTINUOUS
 62
     3
100
AcDbLine
 10
597.1891081986654
 20
250.85234442341
 30
0.0
 11
597.1891081986654
 21
235.75234442341
 31
0.0
  0
LINE
  5
111D0
330
18
100
AcDbEntity
  8
3
100
AcDbLine
 10
598.6891081986654
 20
251.05234442341
 30
0.0
 11
598.6891081986654
 21
235.7517567911279
 31
0.0
  0
LINE
  5
111D1
330
18
100
AcDbEntity
  8
3
100
AcDbLine
 10
598.2977945360119
 20
235.7517567911279
 30
0.0
 11
598.2977945360119
 21
250.2548114954097
 31
0.0
  0
LINE
  5
111D2
330
18
100
AcDbEntity
  8
3
100
AcDbLine
 10
597.1891073353844
 20
235.7517567911279
 30
0.0
 11
598.6891081986654
 21
235.7517567911279
 31
0.0
  0
LINE
  5
111D3
330
18
100
AcDbEntity
  8
WARSTWA3
100
AcDbLine
 10
596.8166582415952
 20
235.7517567911279
 30
0.0
 11
596.8166582415952
 21
236.2586168143337
 31
0.0
  0
LINE
  5
111D4
330
18
100
AcDbEntity
  8
3
100
AcDbLine
 10
597.1891073353844
 20
236.2586168143337
 30
0.0
 11
598.2977945360119
 21
236.2586168143337
 31
0.0
  0
LINE
  5
111D5
330
18
100
AcDbEntity
  8
1
  6
CONTINUOUS
 62
     3
100
AcDbLine
 10
597.3891081986653
 20
251.05234442341
 30
0.0
 11
598.6891081986654
 21
251.05234442341
 31
0.0
  0
LINE
  5
111D6
330
18
100
AcDbEntity
  8
1
  6
CONTINUOUS
 62
     3
100
AcDbLine
 10
597.3891073353843
 20
251.05234442341
 30
0.0
 11
598.6891073353844
 21
251.05234442341
 31
0.0
  0
LINE
  5
111D7
330
18
100
AcDbEntity
  8
1
  6
CONTINUOUS
 62
     3
100
AcDbLine
 10
597.3891073353843
 20
251.0517567911281
 30
0.0
 11
598.6891073353844
 21
251.051756791128
 31
0.0
  0
LINE
  5
111D8
330
18
100
AcDbEntity
  8
1
  6
CONTINUOUS
 62
     3
100
AcDbLine
 10
597.3891081986653
 20
251.05234442341
 30
0.0
 11
598.6891081986654
 21
251.05234442341
 31
0.0
  0
ARC
  5
111D9
330
18
100
AcDbEntity
  8
3
100
AcDbCircle
 10
597.7977945360119
 20
250.2548114954097
 30
0.0
 40
0.5
100
AcDbArc
 50
0.0
 51
90.0
  0
ARC
  5
111DA
330
18
100
AcDbEntity
  8
1
  6
CONTINUOUS
 62
     3
100
AcDbCircle
 10
597.3891081986653
 20
250.85234442341
 30
0.0
 40
0.2
100
AcDbArc
 50
90.0
 51
180.0
  0
ARC
  5
111DB
330
18
100
AcDbEntity
  8
1
  6
CONTINUOUS
 62
     3
100
AcDbCircle
 10
597.3891073353843
 20
250.85234442341
 30
0.0
 40
0.2
100
AcDbArc
 50
90.0
 51
180.0
  0
ARC
  5
111DC
330
18
100
AcDbEntity
  8
1
  6
CONTINUOUS
 62
     3
100
AcDbCircle
 10
597.3891073353843
 20
250.851756791128
 30
0.0
 40
0.2
100
AcDbArc
 50
90.0
 51
180.0
  0
LINE
  5
111DD
330
18
100
AcDbEntity
  8
3
100
AcDbLine
 10
597.7977945360119
 20
250.7548114954097
 30
0.0
 11
597.1891073353844
 21
250.7548114954097
 31
0.0
  0
POINT
  5
111DE
330
18
100
AcDbEntity
  8
1
  6
CONTINUOUS
 62
     3
100
AcDbPoint
 10
598.6891073353845
 20
251.05234442341
 30
0.0
  0
POINT
  5
111DF
330
18
100
AcDbEntity
  8
1
  6
CONTINUOUS
 62
     3
100
AcDbPoint
 10
598.6891073353845
 20
251.051756791128
 30
0.0
  0
LINE
  5
111E0
330
18
100
AcDbEntity
  8
1
100
AcDbLine
 10
598.6891081986654
 20
251.05234442341
 30
0.0
 11
598.6891081986654
 21
251.2609468856094
 31
0.0
  0
LINE
  5
111E1
330
18
100
AcDbEntity
  8
1
  6
CONTINUOUS
100
AcDbLine
 10
544.5506247950173
 20
170.7986298961757
 30
0.0
 11
548.0761556385872
 21
170.7986298961758
 31
0.0
  0
LINE
  5
111E2
330
18
100
AcDbEntity
  8
1
  6
CONTINUOUS
 62
     3
100
AcDbLine
 10
544.9506247950172
 20
172.3986298961758
 30
0.0
 11
546.0897005413444
 21
172.3986298961758
 31
0.0
  0
ARC
  5
111E3
330
18
100
AcDbEntity
  8
1
  6
CONTINUOUS
 62
     3
100
AcDbCircle
 10
543.9506247950172
 20
175.9763630953472
 30
0.0
 40
0.4999999999999929
100
AcDbArc
 50
0.0
 51
90.0
  0
LINE
  5
111E4
330
18
100
AcDbEntity
  8
1
  6
CONTINUOUS
 62
     3
100
AcDbLine
 10
542.6506247950173
 20
176.4763630953472
 30
0.0
 11
543.9506247950172
 21
176.4763630953472
 31
0.0
  0
ARC
  5
111E5
102
{ACAD_REACTORS
102
}
330
18
100
AcDbEntity
  8
1
  6
CONTINUOUS
100
AcDbCircle
 10
544.4840361480428
 20
172.63787068155
 30
0.0
 40
1.84044579232589
100
AcDbArc
 50
174.9889436887707
 51
272.0734548824569
  0
LINE
  5
111E6
330
18
100
AcDbEntity
  8
1
  6
CONTINUOUS
 62
     3
100
AcDbLine
 10
544.4506247950172
 20
175.9763630953472
 30
0.0
 11
544.4506247950172
 21
174.6986298961758
 31
0.0
  0
ARC
  5
111E7
330
18
100
AcDbEntity
  8
1
  6
CONTINUOUS
 62
     3
100
AcDbCircle
 10
547.8137696273006
 20
174.3986298961758
 30
0.0
 40
0.5
100
AcDbArc
 50
189.9999999999943
 51
270.0
  0
LINE
  5
111E8
330
18
100
AcDbEntity
  8
1
  6
CONTINUOUS
 62
     3
100
AcDbLine
 10
546.9447647271663
 20
176.2763630953473
 30
0.0
 11
545.8829114837224
 21
176.2763630953473
 31
0.0
  0
LINE
  5
111E9
330
18
100
AcDbEntity
  8
1
  6
CONTINUOUS
 62
     3
100
AcDbLine
 10
548.5761556385872
 20
171.7986298961758
 30
0.0
 11
548.5761556385872
 21
171.2986298961758
 31
0.0
  0
ARC
  5
111EA
330
18
100
AcDbEntity
  8
1
  6
CONTINUOUS
100
AcDbCircle
 10
548.0761556385872
 20
171.2986298961758
 30
0.0
 40
0.5
100
AcDbArc
 50
270.0
 51
0.0
  0
ARC
  5
111EB
330
18
100
AcDbEntity
  8
1
  6
CONTINUOUS
 62
     3
100
AcDbCircle
 10
549.0761556385872
 20
171.7986298961758
 30
0.0
 40
0.5
100
AcDbArc
 50
90.0
 51
180.0
  0
ARC
  5
111EC
330
18
100
AcDbEntity
  8
1
  6
CONTINUOUS
 62
     3
100
AcDbCircle
 10
546.0897005413444
 20
172.8986298961758
 30
0.0
 40
0.5
100
AcDbArc
 50
270.0
 51
11.99999999999979
  0
LINE
  5
111ED
330
18
100
AcDbEntity
  8
1
  6
CONTINUOUS
 62
     3
100
AcDbLine
 10
542.6506247950173
 20
176.4763630953472
 30
0.0
 11
542.6506247950173
 21
172.7986298961757
 31
0.0
  0
LINE
  5
111EE
330
18
100
AcDbEntity
  8
1
  6
CONTINUOUS
 62
     3
100
AcDbLine
 10
544.7506247950172
 20
174.2550533429506
 30
0.0
 11
545.9420849878013
 21
174.2550533429507
 31
0.0
  0
LINE
  5
111EF
330
18
100
AcDbEntity
  8
1
  6
CONTINUOUS
 62
     3
100
AcDbLine
 10
544.4506247950172
 20
174.8986298961758
 30
0.0
 11
544.4506247950172
 21
174.5550533429507
 31
0.0
  0
LINE
  5
111F0
330
18
100
AcDbEntity
  8
1
  6
CONTINUOUS
 62
     3
100
AcDbLine
 10
546.1536612183712
 20
175.0025857415847
 30
0.0
 11
546.5787743417113
 21
173.0025857415847
 31
0.0
  0
ARC
  5
111F1
330
18
100
AcDbEntity
  8
1
  6
CONTINUOUS
 62
     3
100
AcDbCircle
 10
544.9506247950171
 20
172.8986298961758
 30
0.0
 40
0.5
100
AcDbArc
 50
180.0
 51
270.000000000013
  0
ARC
  5
111F2
330
18
100
AcDbEntity
  8
1
  6
CONTINUOUS
 62
     3
100
AcDbCircle
 10
545.9420849878013
 20
174.5550533429507
 30
0.0
 40
0.3
100
AcDbArc
 50
270.0
 51
11.99999999999538
  0
ARC
  5
111F3
330
18
100
AcDbEntity
  8
1
  6
CONTINUOUS
 62
     3
100
AcDbCircle
 10
544.7506247950172
 20
174.5550533429507
 30
0.0
 40
0.3
100
AcDbArc
 50
180.0
 51
270.0
  0
LINE
  5
111F4
330
18
100
AcDbEntity
  8
1
  6
CONTINUOUS
 62
     3
100
AcDbLine
 10
544.4506247950171
 20
172.8986298961758
 30
0.0
 11
544.4506247950172
 21
174.5550533429507
 31
0.0
  0
LINE
  5
111F5
330
18
100
AcDbEntity
  8
1
  6
CONTINUOUS
 62
     3
100
AcDbLine
 10
542.6506247950173
 20
176.4763630953472
 30
0.0
 11
543.9506247950172
 21
176.4763630953472
 31
0.0
  0
LINE
  5
111F6
330
18
100
AcDbEntity
  8
1
  6
CONTINUOUS
 62
     3
100
AcDbLine
 10
542.6506247950173
 20
176.4763630953472
 30
0.0
 11
542.6506247950173
 21
172.7986298961757
 31
0.0
  0
LINE
  5
111F7
330
18
100
AcDbEntity
  8
1
  6
CONTINUOUS
 62
     3
100
AcDbLine
 10
547.3227083442179
 20
174.3045086113505
 30
0.0
 11
546.9064309028279
 21
176.4763630953473
 31
0.0
  0
LINE
  5
111F8
330
18
100
AcDbEntity
  8
1
  6
CONTINUOUS
 62
     3
100
AcDbLine
 10
545.8404001713883
 20
176.4763630953473
 30
0.0
 11
546.2355292680214
 21
174.617426850196
 31
0.0
  0
LINE
  5
111F9
330
18
100
AcDbEntity
  8
1
  6
CONTINUOUS
 62
     3
100
AcDbLine
 10
549.0761556385872
 20
172.2986298961758
 30
0.0
 11
566.0835903557168
 21
172.2986298961758
 31
0.0
  0
LINE
  5
111FA
330
18
100
AcDbEntity
  8
1
  6
CONTINUOUS
 62
     3
100
AcDbLine
 10
547.8137696273006
 20
173.8986298961758
 30
0.0
 11
565.1234325173739
 21
173.8986298961758
 31
0.0
  0
ARC
  5
111FB
330
18
100
AcDbEntity
  8
1
  6
CONTINUOUS
 62
     3
100
AcDbCircle
 10
566.547173274987
 20
172.9986298961757
 30
0.0
 40
1.0
100
AcDbArc
 50
270.0
 51
329.9999999999995
  0
ARC
  5
111FC
330
18
100
AcDbEntity
  8
1
  6
CONTINUOUS
 62
     3
100
AcDbCircle
 10
565.1234325173739
 20
175.0986298961758
 30
0.0
 40
1.2
100
AcDbArc
 50
270.0
 51
2.659322948171427
  0
LINE
  5
111FD
330
18
100
AcDbEntity
  8
1
  6
CONTINUOUS
 62
     3
100
AcDbLine
 10
566.0835903557168
 20
171.9986298961757
 30
0.0
 11
566.0835903557168
 21
172.2986298961758
 31
0.0
  0
LINE
  5
111FE
330
18
100
AcDbEntity
  8
1
  6
CONTINUOUS
 62
     3
100
AcDbLine
 10
566.0835903557168
 20
171.9986298961757
 30
0.0
 11
566.547173274987
 21
171.9986298961757
 31
0.0
  0
LINE
  5
111FF
102
{ACAD_REACTORS
102
}
330
18
100
AcDbEntity
  8
1
  6
CONTINUOUS
 62
     3
100
AcDbLine
 10
567.6835903557169
 20
175.2763630953473
 30
0.0
 11
568.6835903557169
 21
174.6990128261576
 31
0.0
  0
LINE
  5
11200
330
18
100
AcDbEntity
  8
1
  6
CONTINUOUS
 62
     3
100
AcDbLine
 10
568.6835903557169
 20
174.6990128261576
 30
0.0
 11
567.4131986787716
 21
172.4986298961757
 31
0.0
  0
LINE
  5
11201
330
18
100
AcDbEntity
  8
1
  6
CONTINUOUS
 62
     3
100
AcDbLine
 10
567.6835903557169
 20
176.2763630953472
 30
0.0
 11
566.2700237046797
 21
176.2763630953472
 31
0.0
  0
LINE
  5
11202
330
18
100
AcDbEntity
  8
1
  6
CONTINUOUS
 62
     3
100
AcDbLine
 10
567.6835903557169
 20
175.2763630953472
 30
0.0
 11
567.6835903557169
 21
176.4769507276293
 31
0.0
  0
LINE
  5
11203
330
18
100
AcDbEntity
  8
1
  6
CONTINUOUS
 62
     3
100
AcDbLine
 10
566.2607069509066
 20
176.4769507276293
 30
0.0
 11
566.3221401970284
 21
175.1543066304297
 31
0.0
  0
LINE
  5
11204
330
18
100
AcDbEntity
  8
1
  6
CONTINUOUS
 62
     3
100
AcDbLine
 10
564.6700237046797
 20
175.849360326536
 30
0.0
 11
564.6700237046797
 21
176.2763630953473
 31
0.0
  0
LINE
  5
11205
330
18
100
AcDbEntity
  8
1
  6
CONTINUOUS
 62
     3
100
AcDbLine
 10
564.1084985082198
 20
176.4763630953473
 30
0.0
 11
564.4700237046798
 21
176.4763630953472
 31
0.0
  0
LINE
  5
11206
330
18
100
AcDbEntity
  8
1
  6
CONTINUOUS
 62
     3
100
AcDbLine
 10
561.2437016090973
 20
176.4763630953472
 30
0.0
 11
562.09648831255
 21
174.7560833102726
 31
0.0
  0
LINE
  5
11207
330
18
100
AcDbEntity
  8
1
  6
CONTINUOUS
 62
     3
100
AcDbLine
 10
563.4700237046798
 20
174.649360326536
 30
0.0
 11
562.2734046719886
 21
174.6493603265361
 31
0.0
  0
ARC
  5
11208
330
18
100
AcDbEntity
  8
1
  6
CONTINUOUS
 62
     3
100
AcDbCircle
 10
563.4700237046798
 20
175.849360326536
 30
0.0
 40
1.2
100
AcDbArc
 50
270.0
 51
0.0
  0
ARC
  5
11209
330
18
100
AcDbEntity
  8
1
  6
CONTINUOUS
 62
     3
100
AcDbCircle
 10
564.4700237046798
 20
176.2763630953473
 30
0.0
 40
0.2
100
AcDbArc
 50
0.0
 51
90.0
  0
ARC
  5
1120A
330
18
100
AcDbEntity
  8
1
  6
CONTINUOUS
 62
     3
100
AcDbCircle
 10
562.2734046719886
 20
174.849360326536
 30
0.0
 40
0.2
100
AcDbArc
 50
207.7998990195627
 51
270.0
  0
LINE
  5
1120B
330
18
100
AcDbEntity
  8
1
  6
CONTINUOUS
 62
     3
100
AcDbLine
 10
640.9746070623979
 20
176.4769507276292
 30
0.0
 11
640.974607062398
 21
176.8769507276291
 31
0.0
  0
LINE
  5
1120C
330
18
100
AcDbEntity
  8
1
  6
CONTINUOUS
 62
     3
100
AcDbLine
 10
640.9746070623979
 20
176.4763630953472
 30
0.0
 11
640.974607062398
 21
176.8763630953471
 31
0.0
  0
LINE
  5
1120D
102
{ACAD_REACTORS
102
}
330
18
100
AcDbEntity
  8
1
  6
CONTINUOUS
 62
     3
100
AcDbLine
 10
600.414607062398
 20
174.8708110397177
 30
0.0
 11
602.414607062398
 21
175.5987515082501
 31
0.0
  0
LINE
  5
1120E
330
18
100
AcDbEntity
  8
1
  6
CONTINUOUS
 62
     3
100
AcDbLine
 10
602.414607062398
 20
175.5987515082501
 30
0.0
 11
602.414607062398
 21
176.4763630953473
 31
0.0
  0
LINE
  5
1120F
330
18
100
AcDbEntity
  8
1
  6
CONTINUOUS
 62
     3
100
AcDbLine
 10
604.2146070623979
 20
174.8986298961757
 30
0.0
 11
604.2146070623979
 21
176.4763630953473
 31
0.0
  0
ARC
  5
11210
330
18
100
AcDbEntity
  8
1
  6
CONTINUOUS
 62
     3
100
AcDbCircle
 10
605.2146070623979
 20
174.8986298961757
 30
0.0
 40
1.0
100
AcDbArc
 50
180.0
 51
270.0
  0
LINE
  5
11211
330
18
100
AcDbEntity
  8
1
  6
CONTINUOUS
 62
     3
100
AcDbLine
 10
600.414607062398
 20
174.8708110397177
 30
0.0
 11
600.414607062398
 21
173.0986298961757
 31
0.0
  0
ARC
  5
11212
330
18
100
AcDbEntity
  8
1
  6
CONTINUOUS
 62
     3
100
AcDbCircle
 10
601.214607062398
 20
173.0986298961757
 30
0.0
 40
0.8
100
AcDbArc
 50
180.0
 51
270.0
  0
LINE
  5
11213
330
18
100
AcDbEntity
  8
1
  6
CONTINUOUS
 62
     3
100
AcDbLine
 10
605.2146070623979
 20
173.8986298961757
 30
0.0
 11
614.2540304181285
 21
173.8986298961757
 31
0.0
  0
LINE
  5
11214
330
18
100
AcDbEntity
  8
1
  6
CONTINUOUS
 62
     3
100
AcDbLine
 10
601.214607062398
 20
172.2986298961757
 30
0.0
 11
638.3082111170435
 21
172.2986298961757
 31
0.0
  0
LINE
  5
11215
330
18
100
AcDbEntity
  8
1
  6
CONTINUOUS
 62
     3
100
AcDbLine
 10
614.2540304181285
 20
174.8708110397177
 30
0.0
 11
614.2540304181285
 21
173.8986298961757
 31
0.0
  0
ARC
  5
11216
330
18
100
AcDbEntity
  8
1
  6
CONTINUOUS
 62
     3
100
AcDbCircle
 10
619.0540304181285
 20
174.8986298961757
 30
0.0
 40
1.0
100
AcDbArc
 50
180.0
 51
270.0
  0
LINE
  5
11217
330
18
100
AcDbEntity
  8
1
  6
CONTINUOUS
 62
     3
100
AcDbLine
 10
618.0540304181285
 20
174.8986298961757
 30
0.0
 11
618.0540304181285
 21
176.4763630953473
 31
0.0
  0
LINE
  5
11218
330
18
100
AcDbEntity
  8
1
  6
CONTINUOUS
 62
     3
100
AcDbLine
 10
616.2540304181285
 20
175.5987515082501
 30
0.0
 11
616.2540304181285
 21
176.4763630953473
 31
0.0
  0
LINE
  5
11219
330
18
100
AcDbEntity
  8
1
  6
CONTINUOUS
 62
     3
100
AcDbLine
 10
614.2540304181285
 20
174.8708110397177
 30
0.0
 11
616.2540304181285
 21
175.5987515082501
 31
0.0
  0
LINE
  5
1121A
330
18
100
AcDbEntity
  8
1
  6
CONTINUOUS
 62
     3
100
AcDbLine
 10
619.0540304181285
 20
173.8986298961757
 30
0.0
 11
638.3082111170435
 21
173.8986298961757
 31
0.0
  0
ARC
  5
1121B
330
18
100
AcDbEntity
  8
1
  6
CONTINUOUS
 62
     3
100
AcDbCircle
 10
638.3082111170435
 20
174.8986298961757
 30
0.0
 40
1.0
100
AcDbArc
 50
270.0
 51
0.0
  0
ARC
  5
1121C
330
18
100
AcDbEntity
  8
1
  6
CONTINUOUS
 62
     3
100
AcDbCircle
 10
638.2590841135383
 20
175.0137084397251
 30
0.0
 40
2.715522962546203
100
AcDbArc
 50
271.0366045744143
 51
0.0057525284299234
  0
LINE
  5
1121D
330
18
100
AcDbEntity
  8
1
  6
CONTINUOUS
 62
     3
100
AcDbLine
 10
639.3082111170435
 20
176.4763630953471
 30
0.0
 11
639.3082111170435
 21
174.8986298961757
 31
0.0
  0
LINE
  5
1121E
330
18
100
AcDbEntity
  8
1
  6
CONTINUOUS
 62
     3
100
AcDbLine
 10
640.974607062398
 20
176.2763630953472
 30
0.0
 11
640.974607062398
 21
174.8986298961757
 31
0.0
  0
LINE
  5
1121F
330
18
100
AcDbEntity
  8
1
  6
CONTINUOUS
 62
     3
100
AcDbLine
 10
640.974607062398
 20
176.2763630953472
 30
0.0
 11
640.974607062398
 21
176.8763630953471
 31
0.0
  0
LINE
  5
11222
330
18
100
AcDbEntity
  8
1
  6
CONTINUOUS
 62
     3
100
AcDbLine
 10
628.6961068656334
 20
219.4303573073985
 30
0.0
 11
617.6176066688683
 21
219.4303573073992
 31
0.0
  0
LINE
  5
11223
330
18
100
AcDbEntity
  8
1
  6
CONTINUOUS
 62
     3
100
AcDbLine
 10
628.6961068656334
 20
219.4309449396805
 30
0.0
 11
617.6176066688683
 21
219.4309449396812
 31
0.0
  0
LINE
  5
11224
330
18
100
AcDbEntity
  8
1
  6
CONTINUOUS
 62
     3
100
AcDbLine
 10
628.6961077289143
 20
219.4309449396805
 30
0.0
 11
617.6176075321493
 21
219.4309449396812
 31
0.0
  0
LINE
  5
11226
330
18
100
AcDbEntity
  8
0
  6
CENTER
100
AcDbLine
 10
594.0613762913842
 20
195.2824186262046
 30
0.0
 11
594.0613762913842
 21
185.7670677068657
 31
0.0
  0
LINE
  5
1122C
330
18
100
AcDbEntity
  8
1
  6
CONTINUOUS
 62
     3
100
AcDbLine
 10
543.0694761515448
 20
189.512535670181
 30
0.0
 11
545.8404001713883
 21
176.4763630953473
 31
0.0
  0
LINE
  5
11231
330
18
100
AcDbEntity
  8
1
  6
CONTINUOUS
 62
     3
100
AcDbLine
 10
640.9746070623979
 20
176.4769507276292
 30
0.0
 11
545.8404001713883
 21
176.4763630953473
 31
0.0
  0
LINE
  5
1123F
330
18
100
AcDbEntity
  8
1
  6
CONTINUOUS
 62
     3
100
AcDbLine
 10
616.2540304181285
 20
176.2763630953473
 30
0.0
 11
618.0540304181285
 21
176.2763630953473
 31
0.0
  0
LINE
  5
11240
330
18
100
AcDbEntity
  8
1
  6
CONTINUOUS
 62
     3
100
AcDbLine
 39
3.0
 10
571.4774969341032
 20
251.2511691588459
 30
0.0
 11
562.6774969341033
 21
251.2511691588459
 31
0.0
  0
LINE
  5
11241
330
18
100
AcDbEntity
  8
1
  6
CONTINUOUS
 62
     3
100
AcDbLine
 10
564.8774970251923
 20
251.2513415309693
 30
0.0
 11
562.6774969341033
 21
251.2511691588459
 31
0.0
  0
LINE
  5
11242
330
18
100
AcDbEntity
  8
1
  6
CONTINUOUS
 62
     3
100
AcDbLine
 10
570.1774977973843
 20
251.2517567911279
 30
0.0
 11
562.6774969341033
 21
251.2511691588459
 31
0.0
  0
LINE
  5
11245
330
18
100
AcDbEntity
  8
1
  6
CONTINUOUS
 62
     3
100
AcDbLine
 10
552.6783581042696
 20
234.4535946553834
 30
0.0
 11
552.6783581042696
 21
230.3535946553833
 31
0.0
  0
LINE
  5
11246
330
18
100
AcDbEntity
  8
1
  6
CONTINUOUS
 62
     3
100
AcDbLine
 10
552.6783581042696
 20
230.5035946553834
 30
0.0
 11
552.6783581042693
 21
234.3035946553834
 31
0.0
  0
LINE
  5
11247
330
18
100
AcDbEntity
  8
1
  6
CONTINUOUS
 62
     3
100
AcDbLine
 10
552.6783589675506
 20
234.4541822876653
 30
0.0
 11
552.6783589675506
 21
230.3541822876654
 31
0.0
  0
LINE
  5
11249
330
18
100
AcDbEntity
  8
1
  6
CONTINUOUS
 62
     3
100
AcDbLine
 10
542.6506247950172
 20
194.9933335547429
 30
0.0
 11
542.6506247950172
 21
210.4192179194751
 31
0.0
  0
LINE
  5
1124A
330
18
100
AcDbEntity
  8
1
  6
CONTINUOUS
 62
     3
100
AcDbLine
 10
547.6606247950175
 20
194.392745922461
 30
0.0
 11
543.8606247950175
 21
194.3927459224607
 31
0.0
  0
LINE
  5
1124B
330
18
100
AcDbEntity
  8
1
  6
CONTINUOUS
 62
     3
100
AcDbLine
 10
547.6606247950175
 20
194.392745922461
 30
0.0
 11
543.8606247950174
 21
194.3927459224607
 31
0.0
  0
LINE
  5
1124C
330
18
100
AcDbEntity
  8
1
  6
CONTINUOUS
 62
     3
100
AcDbLine
 10
544.8606247950174
 20
195.4927459224609
 30
0.0
 11
546.6606247950174
 21
195.4927459224609
 31
0.0
  0
LINE
  5
1124D
330
18
100
AcDbEntity
  8
1
  6
CONTINUOUS
 62
     3
100
AcDbLine
 10
544.8606247950173
 20
195.8427459224609
 30
0.0
 11
546.6606247950175
 21
195.8427459224609
 31
0.0
  0
LINE
  5
1124E
330
18
100
AcDbEntity
  8
1
  6
CONTINUOUS
 62
     3
100
AcDbLine
 10
543.7106247950175
 20
194.3927459224609
 30
0.0
 11
547.8106247950175
 21
194.3927459224609
 31
0.0
  0
LINE
  5
1124F
330
18
100
AcDbEntity
  8
1
  6
CONTINUOUS
 62
     3
100
AcDbLine
 10
543.7106247950175
 20
194.392745922461
 30
0.0
 11
547.8106247950175
 21
194.392745922461
 31
0.0
  0
LINE
  5
11250
330
18
100
AcDbEntity
  8
1
  6
CONTINUOUS
 62
     3
100
AcDbLine
 10
543.7106256582985
 20
194.3933335547429
 30
0.0
 11
547.8106256582985
 21
194.3933335547429
 31
0.0
  0
LINE
  5
11251
330
18
100
AcDbEntity
  8
1
  6
CONTINUOUS
 62
     3
100
AcDbLine
 10
547.8106247950174
 20
190.7204473609987
 30
0.0
 11
544.0476237522786
 21
190.7204473609987
 31
0.0
  0
LINE
  5
11252
330
18
100
AcDbEntity
  8
1
  6
CONTINUOUS
 62
     3
100
AcDbLine
 10
547.8106247950174
 20
190.7204473609987
 30
0.0
 11
544.0476237522786
 21
190.7204473609987
 31
0.0
  0
LINE
  5
11253
330
18
100
AcDbEntity
  8
1
  6
CONTINUOUS
 62
     3
100
AcDbLine
 10
547.8106256582984
 20
190.7210349932807
 30
0.0
 11
544.0476246155596
 21
190.7210349932807
 31
0.0
  0
ARC
  5
11254
330
18
100
AcDbEntity
  8
1
  6
CONTINUOUS
 62
     3
100
AcDbCircle
 10
544.0476237522786
 20
189.7204473609987
 30
0.0
 40
1.0
100
AcDbArc
 50
90.0
 51
191.9999999999982
  0
ARC
  5
11255
330
18
100
AcDbEntity
  8
1
  6
CONTINUOUS
 62
     3
100
AcDbCircle
 10
544.0476246155596
 20
189.7210349932807
 30
0.0
 40
1.0
100
AcDbArc
 50
90.0
 51
191.9999999999998
  0
LINE
  5
11256
330
18
100
AcDbEntity
  8
1
  6
CONTINUOUS
 62
     3
100
AcDbLine
 10
544.8606247950174
 20
194.3927459224608
 30
0.0
 11
544.8606247950174
 21
195.6427459224609
 31
0.0
  0
ARC
  5
11257
330
18
100
AcDbEntity
  8
1
  6
CONTINUOUS
 62
     3
100
AcDbCircle
 10
543.3585638476364
 20
195.1090665815983
 30
0.0
 40
0.7173366265070847
100
AcDbArc
 50
189.2845160822579
 51
266.1681805093855
  0
LINE
  5
11258
330
18
100
AcDbEntity
  8
1
  6
CONTINUOUS
 62
     3
100
AcDbLine
 10
543.7106247950175
 20
194.3927459224609
 30
0.0
 11
543.3106247950175
 21
194.3927459224609
 31
0.0
  0
LINE
  5
11259
330
18
100
AcDbEntity
  8
1
  6
CONTINUOUS
 62
     3
100
AcDbLine
 10
543.7106256582985
 20
194.3933335547429
 30
0.0
 11
543.3106256582985
 21
194.3933335547429
 31
0.0
  0
LINE
  5
1125A
330
18
100
AcDbEntity
  8
1
  6
CONTINUOUS
 62
     3
100
AcDbLine
 10
544.8606247950174
 20
195.4927459224609
 30
0.0
 11
544.8606247950173
 21
195.8427459224609
 31
0.0
  0
LINE
  5
1125C
330
18
100
AcDbEntity
  8
1
  6
CONTINUOUS
 62
     3
100
AcDbLine
 10
547.8106247950174
 20
190.7204473609987
 30
0.0
 11
547.8106247950176
 21
194.3927459224609
 31
0.0
  0
LINE
  5
1125D
330
18
100
AcDbEntity
  8
1
  6
CONTINUOUS
 62
     3
100
AcDbLine
 10
547.8106256582984
 20
190.7210349932807
 30
0.0
 11
547.8106256582985
 21
194.3933335547429
 31
0.0
  0
LINE
  5
1125E
330
18
100
AcDbEntity
  8
1
  6
CONTINUOUS
 62
     3
100
AcDbLine
 10
546.6606247950175
 20
194.3927459224609
 30
0.0
 11
546.6606247950175
 21
195.6427459224609
 31
0.0
  0
LINE
  5
1125F
330
18
100
AcDbEntity
  8
1
  6
CONTINUOUS
 62
     3
100
AcDbLine
 10
546.6606247950175
 20
195.4927459224609
 30
0.0
 11
546.6606247950175
 21
195.8427459224609
 31
0.0
  0
LINE
  5
11263
330
18
100
AcDbEntity
  8
1
  6
CONTINUOUS
 62
     3
100
AcDbLine
 10
543.3106256582982
 20
216.0167924229369
 30
0.0
 11
552.6783589675506
 21
216.0167924229375
 31
0.0
  0
LINE
  5
11264
330
18
100
AcDbEntity
  8
1
  6
CONTINUOUS
 62
     3
100
AcDbLine
 10
542.650624795017
 20
215.4167924229367
 30
0.0
 11
542.6506247950173
 21
214.5192179194751
 31
0.0
  0
LINE
  5
11265
330
18
100
AcDbEntity
  8
1
  6
CONTINUOUS
 62
     3
100
AcDbLine
 10
542.6506247950173
 20
214.5192179194751
 30
0.0
 11
542.6506247950172
 21
210.4192179194751
 31
0.0
  0
ARC
  5
11266
330
18
100
AcDbEntity
  8
1
  6
CONTINUOUS
 62
     3
100
AcDbCircle
 10
543.3585638476363
 20
215.3010593960815
 30
0.0
 40
0.7173366265070852
100
AcDbArc
 50
93.83181949062367
 51
170.7154839177534
  0
LINE
  5
11267
330
18
100
AcDbEntity
  8
1
  6
CONTINUOUS
 62
     3
100
AcDbLine
 10
552.6783581042695
 20
216.0162047906555
 30
0.0
 11
552.6783581042696
 21
230.3535946553833
 31
0.0
  0
LINE
  5
11268
330
18
100
AcDbEntity
  8
1
  6
CONTINUOUS
 62
     3
100
AcDbLine
 10
552.6783589675506
 20
216.0167924229375
 30
0.0
 11
552.6783589675506
 21
230.3541822876654
 31
0.0
  0
LINE
  5
11273
330
18
100
AcDbEntity
  8
1
  6
CONTINUOUS
 62
     3
100
AcDbLine
 10
562.6774969341033
 20
235.9517567911277
 30
0.0
 11
562.6774969341033
 21
251.2511691588459
 31
0.0
  0
LINE
  5
11274
330
18
100
AcDbEntity
  8
1
  6
CONTINUOUS
 62
     3
100
AcDbLine
 10
562.677677736524
 20
235.9511691730118
 30
0.0
 11
562.677677736524
 21
251.251169173012
 31
0.0
  0
LINE
  5
11275
330
18
100
AcDbEntity
  8
1
  6
CONTINUOUS
 62
     3
100
AcDbLine
 10
562.6774969341033
 20
235.9511691588457
 30
0.0
 11
562.6774969341033
 21
251.2511691588459
 31
0.0
  0
LINE
  5
11276
330
18
100
AcDbEntity
  8
1
  6
CONTINUOUS
 62
     3
100
AcDbLine
 10
562.6774969341033
 20
235.9517567911277
 30
0.0
 11
562.6774969341033
 21
251.2511691588459
 31
0.0
  0
LINE
  5
11277
330
18
100
AcDbEntity
  8
1
  6
CONTINUOUS
 62
     3
100
AcDbLine
 10
553.2783589675505
 20
235.9511691588452
 30
0.0
 11
562.6774969341033
 21
235.9511691588457
 31
0.0
  0
LINE
  5
11278
330
18
100
AcDbEntity
  8
1
  6
CONTINUOUS
 62
     3
100
AcDbLine
 10
553.2783581042695
 20
235.9511691588452
 30
0.0
 11
562.6774969341033
 21
235.9511691588457
 31
0.0
  0
LINE
  5
11279
330
18
100
AcDbEntity
  8
1
  6
CONTINUOUS
 62
     3
100
AcDbLine
 10
553.2783589675505
 20
235.9517567911272
 30
0.0
 11
562.6774969341033
 21
235.9517567911277
 31
0.0
  0
ARC
  5
1127A
330
18
100
AcDbEntity
  8
1
  6
CONTINUOUS
 62
     3
100
AcDbCircle
 10
553.2783581042695
 20
235.3511691588452
 30
0.0
 40
0.6
100
AcDbArc
 50
90.0
 51
180.0000000000163
  0
ARC
  5
1127B
330
18
100
AcDbEntity
  8
1
  6
CONTINUOUS
 62
     3
100
AcDbCircle
 10
553.2783589675505
 20
235.3517567911272
 30
0.0
 40
0.6
100
AcDbArc
 50
90.0
 51
180.0000000000163
  0
LINE
  5
1127C
330
18
100
AcDbEntity
  8
1
  6
CONTINUOUS
 62
     3
100
AcDbLine
 10
552.6783581042695
 20
235.351169158845
 30
0.0
 11
552.6783581042697
 21
234.4535946553834
 31
0.0
  0
LINE
  5
1127D
330
18
100
AcDbEntity
  8
1
  6
CONTINUOUS
 62
     3
100
AcDbLine
 10
552.6783589675506
 20
235.3517567911271
 30
0.0
 11
552.6783589675507
 21
234.4541822876653
 31
0.0
  0
LINE
  5
11286
330
18
100
AcDbEntity
  8
1
  6
CONTINUOUS
 62
     3
100
AcDbLine
 10
617.6176066688683
 20
219.4309449396812
 30
0.0
 11
617.6176066688682
 21
234.3041822876655
 31
0.0
  0
LINE
  5
11287
330
18
100
AcDbEntity
  8
WY
100
AcDbLine
 10
599.9532247319113
 20
187.1842928612158
 30
0.0
 11
588.1626000452758
 21
187.1900972644112
 31
0.0
  0
LINE
  5
11289
330
18
100
AcDbEntity
  8
0
  6
BYBLOCK
 62
     0
100
AcDbLine
 10
595.7313769003947
 20
192.4264142532663
 30
0.0
 11
594.9313763967355
 21
192.4264142532663
 31
0.0
  0
LINE
  5
1128A
330
18
100
AcDbEntity
  8
0
  6
BYBLOCK
 62
     0
100
AcDbLine
 10
595.7313769003947
 20
191.1801276971416
 30
0.0
 11
594.9313763967355
 21
191.1801276971416
 31
0.0
  0
LINE
  5
1128B
330
18
100
AcDbEntity
  8
0
  6
BYBLOCK
 62
     0
100
AcDbLine
 10
594.9313763967355
 20
192.1801278610544
 30
0.0
 11
595.7313769003947
 21
192.1801278610544
 31
0.0
  0
LINE
  5
1128C
330
18
100
AcDbEntity
  8
0
  6
BYBLOCK
 62
     0
100
AcDbLine
 10
594.9313763967355
 20
189.0264153723435
 30
0.0
 11
595.7313769003947
 21
189.0264153723435
 31
0.0
  0
LINE
  5
1128D
330
18
100
AcDbEntity
  8
0
  6
BYBLOCK
 62
     0
100
AcDbLine
 10
594.9313763967355
 20
189.9264147748069
 30
0.0
 11
595.7313769003947
 21
189.9264147748069
 31
0.0
  0
LINE
  5
1128E
330
18
100
AcDbEntity
  8
0
100
AcDbLine
 10
587.7613759339426
 20
186.9264162288166
 30
0.0
 11
600.3613766488259
 21
186.9264162288166
 31
0.0
  0
LINE
  5
1128F
330
18
100
AcDbEntity
  8
0
100
AcDbLine
 10
587.7613759339426
 20
186.9264162288166
 30
0.0
 11
600.3613766488259
 21
186.9264162288166
 31
0.0
  0
LINE
  5
11290
330
18
100
AcDbEntity
  8
WY
100
AcDbLine
 10
599.956688634702
 20
194.2206024321553
 30
0.0
 11
588.1660639480665
 21
194.2264068353506
 31
0.0
  0
LINE
  5
11291
330
18
100
AcDbEntity
  8
WY
 62
     3
100
AcDbLine
 10
600.3613766488259
 20
194.5264144943214
 30
0.0
 11
587.7613759339426
 21
194.5264144943214
 31
0.0
  0
LINE
  5
11292
330
18
100
AcDbEntity
  8
0
  6
CONTINUOUS
 62
     7
100
AcDbLine
 10
600.3613766488259
 20
194.5264144943215
 30
0.0
 11
587.7613759339426
 21
194.5264144943215
 31
0.0
  0
LINE
  5
11293
330
18
100
AcDbEntity
  8
0
100
AcDbLine
 10
586.8987933008768
 20
190.7264144302464
 30
0.0
 11
600.7764870110016
 21
190.7264144302464
 31
0.0
  0
LINE
  5
11294
330
18
100
AcDbEntity
  8
0
  6
CENTER
100
AcDbLine
 10
586.9272598592453
 20
190.7264144302464
 30
0.0
 11
601.4286994545427
 21
190.7264144302464
 31
0.0
  0
LINE
  5
112BE
330
18
100
AcDbEntity
  8
0
  6
BYBLOCK
 62
     0
100
AcDbLine
 10
594.9313763967355
 20
192.4264142532663
 30
0.0
 11
594.9313763967355
 21
189.0264153723435
 31
0.0
  0
LINE
  5
112BF
330
18
100
AcDbEntity
  8
0
  6
BYBLOCK
 62
     0
100
AcDbLine
 10
593.191376186033
 20
189.0264153723435
 30
0.0
 11
593.191376186033
 21
192.4264142532663
 31
0.0
  0
LINE
  5
112C0
330
18
100
AcDbEntity
  8
0
  6
BYBLOCK
 62
     0
100
AcDbLine
 10
589.0822710907657
 20
191.853628518136
 30
0.0
 11
589.0822710907657
 21
192.1485001464204
 31
0.0
  0
LINE
  5
112C1
330
18
100
AcDbEntity
  8
0
  6
BYBLOCK
 62
     0
100
AcDbLine
 10
589.1720147310396
 20
192.1485001464204
 30
0.0
 11
589.1720147310396
 21
191.853628518136
 31
0.0
  0
LINE
  5
112C2
330
18
100
AcDbEntity
  8
WY
100
AcDbLine
 10
588.1660639480665
 20
187.2264237215818
 30
0.0
 11
588.169509966881
 21
194.226405138911
 31
0.0
  0
LINE
  5
112C3
330
18
100
AcDbEntity
  8
WY
 62
     3
100
AcDbLine
 10
587.7613759339426
 20
194.5264144943214
 30
0.0
 11
587.7613759339426
 21
186.9264162288166
 31
0.0
  0
LINE
  5
112C4
330
18
100
AcDbEntity
  8
0
  6
CONTINUOUS
 62
     7
100
AcDbLine
 10
587.7613759339426
 20
194.5264144943215
 30
0.0
 11
587.7613759339426
 21
186.9264162288166
 31
0.0
  0
LINE
  5
112C5
330
18
100
AcDbEntity
  8
0
  6
BYBLOCK
 62
     0
100
AcDbLine
 10
590.651376402994
 20
189.0264153723435
 30
0.0
 11
590.651376402994
 21
192.4264142532663
 31
0.0
  0
LINE
  5
112C6
330
18
100
AcDbEntity
  8
0
  6
BYBLOCK
 62
     0
100
AcDbLine
 10
589.8513768306573
 20
192.4264142532663
 30
0.0
 11
589.8513768306573
 21
189.0264153723435
 31
0.0
  0
LINE
  5
112C7
330
18
100
AcDbEntity
  8
0
  6
BYBLOCK
 62
     0
100
AcDbLine
 10
592.3913766136964
 20
192.4264142532663
 30
0.0
 11
592.3913766136964
 21
189.0264153723435
 31
0.0
  0
LINE
  5
112C8
330
18
100
AcDbEntity
  8
0
  6
BYBLOCK
 62
     0
100
AcDbLine
 10
589.8513768306573
 20
189.0264153723435
 30
0.0
 11
590.651376402994
 21
189.0264153723435
 31
0.0
  0
LINE
  5
112C9
330
18
100
AcDbEntity
  8
0
  6
BYBLOCK
 62
     0
100
AcDbLine
 10
589.1720147310396
 20
191.853628518136
 30
0.0
 11
589.0822710907657
 21
191.853628518136
 31
0.0
  0
LINE
  5
112CA
330
18
100
AcDbEntity
  8
0
  6
BYBLOCK
 62
     0
100
AcDbLine
 10
589.2864137394924
 20
189.3597487603144
 30
0.0
 11
588.9017980052729
 21
189.3597487603144
 31
0.0
  0
LINE
  5
112CB
330
18
100
AcDbEntity
  8
0
  6
BYBLOCK
 62
     0
100
AcDbLine
 10
589.2864137394924
 20
189.4623125214891
 30
0.0
 11
589.2864137394924
 21
189.3597487603144
 31
0.0
  0
LINE
  5
112CC
330
18
100
AcDbEntity
  8
0
  6
BYBLOCK
 62
     0
100
AcDbLine
 10
588.9017980052729
 20
189.4623125214891
 30
0.0
 11
589.2864137394924
 21
189.4623125214891
 31
0.0
  0
LINE
  5
112CD
330
18
100
AcDbEntity
  8
0
  6
BYBLOCK
 62
     0
100
AcDbLine
 10
588.9017980052729
 20
189.3597487603144
 30
0.0
 11
588.9017980052729
 21
189.4623125214891
 31
0.0
  0
LINE
  5
112CE
330
18
100
AcDbEntity
  8
0
  6
BYBLOCK
 62
     0
100
AcDbLine
 10
590.651376402994
 20
191.2077674885111
 30
0.0
 11
589.8513768306573
 21
191.2077674885111
 31
0.0
  0
LINE
  5
112CF
330
18
100
AcDbEntity
  8
0
  6
BYBLOCK
 62
     0
100
AcDbLine
 10
589.8513768306573
 20
189.9264147748069
 30
0.0
 11
590.651376402994
 21
189.9264147748069
 31
0.0
  0
LINE
  5
112D0
330
18
100
AcDbEntity
  8
0
  6
BYBLOCK
 62
     0
100
AcDbLine
 10
592.3913766136964
 20
189.0264153723435
 30
0.0
 11
593.191376186033
 21
189.0264153723435
 31
0.0
  0
LINE
  5
112D1
330
18
100
AcDbEntity
  8
0
  6
BYBLOCK
 62
     0
100
AcDbLine
 10
593.191376186033
 20
189.2088987176137
 30
0.0
 11
592.3913766136964
 21
189.2088987176137
 31
0.0
  0
LINE
  5
112D2
330
18
100
AcDbEntity
  8
0
  6
BYBLOCK
 62
     0
100
AcDbLine
 10
592.7915452288031
 20
190.7264144302464
 30
0.0
 11
595.3577363981586
 21
190.7264144302464
 31
0.0
  0
LINE
  5
112D3
330
18
100
AcDbEntity
  8
0
  6
BYBLOCK
 62
     0
100
AcDbLine
 10
592.3913766136964
 20
190.2088988815264
 30
0.0
 11
593.191376186033
 21
190.2088988815264
 31
0.0
  0
LINE
  5
112D4
330
18
100
AcDbEntity
  8
0
  6
BYBLOCK
 62
     0
100
AcDbLine
 10
593.191376186033
 20
191.5264157821254
 30
0.0
 11
592.3913766136964
 21
191.5264157821254
 31
0.0
  0
LINE
  5
112D5
330
18
100
AcDbEntity
  8
0
  6
BYBLOCK
 62
     0
100
AcDbLine
 10
594.0613762913842
 20
189.3397513003729
 30
0.0
 11
594.0613762913842
 21
192.0698408605805
 31
0.0
  0
LINE
  5
112D6
330
18
100
AcDbEntity
  8
0
  6
BYBLOCK
 62
     0
100
AcDbLine
 10
589.4668868249853
 20
192.1485001464204
 30
0.0
 11
589.1720147310396
 21
192.1485001464204
 31
0.0
  0
LINE
  5
112D7
330
18
100
AcDbEntity
  8
0
  6
BYBLOCK
 62
     0
100
AcDbLine
 10
589.1720147310396
 20
192.2382423897104
 30
0.0
 11
589.4668868249853
 21
192.2382423897104
 31
0.0
  0
LINE
  5
112D8
330
18
100
AcDbEntity
  8
0
  6
BYBLOCK
 62
     0
100
AcDbLine
 10
588.7873994624813
 20
192.1485001464204
 30
0.0
 11
588.7873994624813
 21
192.2382423897104
 31
0.0
  0
LINE
  5
112D9
330
18
100
AcDbEntity
  8
0
  6
BYBLOCK
 62
     0
100
AcDbLine
 10
589.0822710907657
 20
192.1485001464204
 30
0.0
 11
588.7873994624813
 21
192.1485001464204
 31
0.0
  0
LINE
  5
112DA
330
18
100
AcDbEntity
  8
0
  6
BYBLOCK
 62
     0
100
AcDbLine
 10
589.1720147310396
 20
192.5331140179948
 30
0.0
 11
589.1720147310396
 21
192.2382423897104
 31
0.0
  0
LINE
  5
112DB
330
18
100
AcDbEntity
  8
0
  6
BYBLOCK
 62
     0
100
AcDbLine
 10
589.0822710907657
 20
192.5331140179948
 30
0.0
 11
589.1720147310396
 21
192.5331140179948
 31
0.0
  0
LINE
  5
112DC
330
18
100
AcDbEntity
  8
0
  6
BYBLOCK
 62
     0
100
AcDbLine
 10
589.0822710907657
 20
192.2382423897104
 30
0.0
 11
589.0822710907657
 21
192.5331140179948
 31
0.0
  0
LINE
  5
112DD
330
18
100
AcDbEntity
  8
0
  6
BYBLOCK
 62
     0
100
AcDbLine
 10
588.7873994624813
 20
192.2382423897104
 30
0.0
 11
589.0822710907657
 21
192.2382423897104
 31
0.0
  0
LINE
  5
112DE
330
18
100
AcDbEntity
  8
0
  6
BYBLOCK
 62
     0
100
AcDbLine
 10
589.4668868249853
 20
192.2382423897104
 30
0.0
 11
589.4668868249853
 21
192.1485001464204
 31
0.0
  0
LINE
  5
112DF
330
18
100
AcDbEntity
  8
0
  6
BYBLOCK
 62
     0
100
AcDbLine
 10
590.651376402994
 20
192.4264142532663
 30
0.0
 11
589.8513768306573
 21
192.4264142532663
 31
0.0
  0
LINE
  5
112E0
330
18
100
AcDbEntity
  8
0
  6
BYBLOCK
 62
     0
100
AcDbLine
 10
589.8513768306573
 20
192.2077676524238
 30
0.0
 11
590.651376402994
 21
192.2077676524238
 31
0.0
  0
MTEXT
  5
112E1
330
18
100
AcDbEntity
  8
0
  6
BYBLOCK
 62
     0
100
AcDbMText
 10
590.0631643641946
 20
193.4611516789792
 30
0.0
 40
1.0
 41
0.0
 71
     5
 72
     1
  1
1
  0
MTEXT
  5
112E2
330
18
100
AcDbEntity
  8
0
  6
BYBLOCK
 62
     0
100
AcDbMText
 10
592.6667841595322
 20
193.4611516789792
 30
0.0
 40
1.0
 41
0.0
 71
     5
 72
     1
  1
2
  0
LINE
  5
112E3
330
18
100
AcDbEntity
  8
0
  6
BYBLOCK
 62
     0
100
AcDbLine
 10
593.191376186033
 20
192.4264142532663
 30
0.0
 11
592.3913766136964
 21
192.4264142532663
 31
0.0
  0
MTEXT
  5
112E4
330
18
100
AcDbEntity
  8
0
  6
BYBLOCK
 62
     0
100
AcDbMText
 10
595.2361468586937
 20
193.4611516789792
 30
0.0
 40
1.0
 41
0.0
 71
     5
 72
     1
  1
3
  0
LINE
  5
11351
330
18
100
AcDbEntity
  8
WY
100
AcDbLine
 10
599.956688634702
 20
187.2322281247771
 30
0.0
 11
599.960128938622
 21
194.2206007385291
 31
0.0
  0
LINE
  5
11352
330
18
100
AcDbEntity
  8
0
100
AcDbLine
 10
600.3613766488259
 20
186.9264162288166
 30
0.0
 11
600.3613766488259
 21
194.5264144943214
 31
0.0
  0
LINE
  5
11353
330
18
100
AcDbEntity
  8
0
100
AcDbLine
 10
600.3613766488259
 20
186.9264162288166
 30
0.0
 11
600.3613766488259
 21
194.5264144943215
 31
0.0
  0
LINE
  5
11354
330
18
100
AcDbEntity
  8
0
  6
BYBLOCK
 62
     0
100
AcDbLine
 10
597.4713761797746
 20
192.4264142532663
 30
0.0
 11
597.4713761797746
 21
189.0264153723435
 31
0.0
  0
LINE
  5
11355
330
18
100
AcDbEntity
  8
0
  6
BYBLOCK
 62
     0
100
AcDbLine
 10
595.7313769003947
 20
189.0264153723435
 30
0.0
 11
595.7313769003947
 21
192.4264142532663
 31
0.0
  0
LINE
  5
11356
330
18
100
AcDbEntity
  8
0
  6
BYBLOCK
 62
     0
100
AcDbLine
 10
598.2713766834338
 20
189.0264153723435
 30
0.0
 11
598.2713766834338
 21
192.4264142532663
 31
0.0
  0
LINE
  5
11357
330
18
100
AcDbEntity
  8
0
  6
BYBLOCK
 62
     0
100
AcDbLine
 10
597.4713761797746
 20
189.0264153723435
 30
0.0
 11
598.2713766834338
 21
189.0264153723435
 31
0.0
  0
LINE
  5
11358
330
18
100
AcDbEntity
  8
0
  6
BYBLOCK
 62
     0
100
AcDbLine
 10
597.4713761797746
 20
191.2264144291
 30
0.0
 11
598.2713766834338
 21
191.2264144291
 31
0.0
  0
LINE
  5
11359
330
18
100
AcDbEntity
  8
0
  6
BYBLOCK
 62
     0
100
AcDbLine
 10
598.2713766834338
 20
191.9764159490184
 30
0.0
 11
597.4713761797746
 21
191.9764159490184
 31
0.0
  0
LINE
  5
1135A
330
18
100
AcDbEntity
  8
0
  6
BYBLOCK
 62
     0
100
AcDbLine
 10
598.2713766834338
 20
190.2264151965098
 30
0.0
 11
597.4713761797746
 21
190.2264151965098
 31
0.0
  0
LINE
  5
1135B
330
18
100
AcDbEntity
  8
0
  6
BYBLOCK
 62
     0
100
AcDbLine
 10
597.4713761797746
 20
189.4764146079139
 30
0.0
 11
598.2713766834338
 21
189.4764146079139
 31
0.0
  0
LINE
  5
1135C
330
18
100
AcDbEntity
  8
0
  6
BYBLOCK
 62
     0
100
AcDbLine
 10
598.2713766834338
 20
192.4264142532663
 30
0.0
 11
597.4713761797746
 21
192.4264142532663
 31
0.0
  0
MTEXT
  5
1135D
330
18
100
AcDbEntity
  8
0
  6
BYBLOCK
 62
     0
100
AcDbMText
 10
597.7027351737136
 20
193.4611516789792
 30
0.0
 40
1.0
 41
0.0
 71
     5
 72
     1
  1
4
  0
LINE
  5
11376
330
18
100
AcDbEntity
  8
1
  6
CONTINUOUS
 62
     3
100
AcDbLine
 10
617.6176066688683
 20
219.4303573073992
 30
0.0
 11
617.6176066688683
 21
230.5035946553834
 31
0.0
  0
LINE
  5
11377
330
18
100
AcDbEntity
  8
1
  6
CONTINUOUS
 62
     3
100
AcDbLine
 10
617.6176075321493
 20
219.4309449396812
 30
0.0
 11
617.6176075321493
 21
230.3541822876655
 31
0.0
  0
LINE
  5
11382
330
18
100
AcDbEntity
  8
WARSTWA3
100
AcDbLine
 10
570.3447742837129
 20
235.9511691588459
 30
0.0
 11
598.2977936727308
 21
235.9511691588459
 31
0.0
  0
LINE
  5
11383
330
18
100
AcDbEntity
  8
1
  6
CONTINUOUS
 62
     3
100
AcDbLine
 10
597.1891064721033
 20
235.951169158846
 30
0.0
 11
585.2613762913842
 21
235.9511691588459
 31
0.0
  0
LINE
  5
11384
330
18
100
AcDbEntity
  8
1
  6
CONTINUOUS
 62
     3
100
AcDbLine
 10
597.1891064721033
 20
235.9517567911279
 30
0.0
 11
585.2613762913842
 21
235.9517567911279
 31
0.0
  0
LINE
  5
11385
330
18
100
AcDbEntity
  8
1
  6
CONTINUOUS
 62
     3
100
AcDbLine
 10
585.4468073155113
 20
235.9517567911279
 30
0.0
 11
597.1891073353843
 21
235.9517567911279
 31
0.0
  0
LINE
  5
11386
330
18
100
AcDbEntity
  8
1
  6
CONTINUOUS
 62
     3
100
AcDbLine
 10
585.2613762913842
 20
235.9511691588459
 30
0.0
 11
571.4774969341032
 21
235.9511691588459
 31
0.0
  0
LINE
  5
11387
330
18
100
AcDbEntity
  8
1
  6
CONTINUOUS
 62
     3
100
AcDbLine
 10
571.4774977973843
 20
235.9517567911279
 30
0.0
 11
585.4468073155111
 21
235.9517567911279
 31
0.0
  0
LINE
  5
11389
330
18
100
AcDbEntity
  8
3
100
AcDbLine
 10
570.1774977973843
 20
235.9517567911279
 30
0.0
 11
570.1774977973843
 21
251.2517567911279
 31
0.0
  0
LINE
  5
1138A
330
18
100
AcDbEntity
  8
1
  6
CONTINUOUS
 62
     3
100
AcDbLine
 10
571.4774977973843
 20
235.9517567911279
 30
0.0
 11
571.4774977973843
 21
251.051756791128
 31
0.0
  0
LINE
  5
1138B
330
18
100
AcDbEntity
  8
1
  6
CONTINUOUS
 62
     3
100
AcDbLine
 10
571.4774969341032
 20
235.951169158846
 30
0.0
 11
571.4774969341032
 21
251.2511691588459
 31
0.0
  0
LINE
  5
1138C
330
18
100
AcDbEntity
  8
1
  6
CONTINUOUS
 62
     3
100
AcDbLine
 10
571.4774977973843
 20
235.9517567911279
 30
0.0
 11
571.4774977973843
 21
251.051756791128
 31
0.0
  0
LINE
  5
11391
330
18
100
AcDbEntity
  8
1
  6
CONTINUOUS
 62
     3
100
AcDbLine
 10
570.1774977973843
 20
251.2517567911279
 30
0.0
 11
567.8774973657438
 21
251.2513415309693
 31
0.0
  0
LINE
  5
11392
330
18
100
AcDbEntity
  8
1
100
AcDbLine
 10
598.2860385508732
 20
255.8723921937425
 30
0.0
 11
598.1927671881863
 21
256.2875638587477
 31
0.0
  0
LINE
  5
11393
330
18
100
AcDbEntity
  8
1
100
AcDbLine
 10
598.1927671881863
 20
256.2875638587477
 30
0.0
 11
598.2860385508732
 21
255.8723921937425
 31
0.0
  0
LINE
  5
11394
330
18
100
AcDbEntity
  8
1
100
AcDbLine
 10
597.8904094288171
 20
256.2875638587477
 30
0.0
 11
597.7971380661304
 21
255.8723921937425
 31
0.0
  0
LINE
  5
11395
330
18
100
AcDbEntity
  8
1
100
AcDbLine
 10
597.7971380661304
 20
255.8723921937425
 30
0.0
 11
597.8904094288171
 21
256.2875638587477
 31
0.0
  0
ARC
  5
11396
330
18
100
AcDbEntity
  8
1
100
AcDbCircle
 10
596.4813377129997
 20
255.4723921937425
 30
0.0
 40
0.4
100
AcDbArc
 50
90.0
 51
180.0
  0
LINE
  5
11397
330
18
100
AcDbEntity
  8
1
  6
CONTINUOUS
 62
     3
100
AcDbLine
 10
617.0176066688686
 20
235.9511691588453
 30
0.0
 11
607.4291064721033
 21
235.9511691588459
 31
0.0
  0
LINE
  5
11398
330
18
100
AcDbEntity
  8
1
  6
CONTINUOUS
 62
     3
100
AcDbLine
 10
617.0176066688686
 20
235.9517567911273
 30
0.0
 11
607.4291064721033
 21
235.9517567911279
 31
0.0
  0
LINE
  5
11399
330
18
100
AcDbEntity
  8
1
  6
CONTINUOUS
 62
     3
100
AcDbLine
 10
617.0176075321494
 20
235.9517567911273
 30
0.0
 11
607.4291073353843
 21
235.9517567911279
 31
0.0
  0
LINE
  5
1139A
330
18
100
AcDbEntity
  8
3
100
AcDbLine
 10
598.6891073353843
 20
251.251756791128
 30
0.0
 11
598.6891073353843
 21
235.951169158846
 31
0.0
  0
LINE
  5
1139B
330
18
100
AcDbEntity
  8
1
  6
CONTINUOUS
 62
     3
100
AcDbLine
 10
597.1891073353843
 20
251.051756791128
 30
0.0
 11
597.1891073353843
 21
235.9517567911279
 31
0.0
  0
LINE
  5
1139C
330
18
100
AcDbEntity
  8
1
  6
CONTINUOUS
 62
     3
100
AcDbLine
 10
597.1891064721033
 20
251.051169158846
 30
0.0
 11
597.1891064721033
 21
235.951169158846
 31
0.0
  0
LINE
  5
1139D
330
18
100
AcDbEntity
  8
1
  6
CONTINUOUS
 62
     3
100
AcDbLine
 10
597.1891064721033
 20
251.051756791128
 30
0.0
 11
597.1891064721033
 21
235.9517567911279
 31
0.0
  0
LINE
  5
1139E
330
18
100
AcDbEntity
  8
1
  6
CONTINUOUS
 62
     3
100
AcDbLine
 10
597.1891073353843
 20
251.051756791128
 30
0.0
 11
597.1891073353843
 21
235.9517567911279
 31
0.0
  0
LINE
  5
1139F
330
18
100
AcDbEntity
  8
1
  6
CONTINUOUS
 62
     3
100
AcDbLine
 10
607.4291064721033
 20
249.532635926977
 30
0.0
 11
607.4291064721033
 21
235.9511691588459
 31
0.0
  0
LINE
  5
113A0
330
18
100
AcDbEntity
  8
1
  6
CONTINUOUS
 62
     3
100
AcDbLine
 10
607.4291064721033
 20
249.5332235592589
 30
0.0
 11
607.4291064721033
 21
235.9517567911279
 31
0.0
  0
LINE
  5
113A1
330
18
100
AcDbEntity
  8
1
  6
CONTINUOUS
 62
     3
100
AcDbLine
 10
607.4291073353843
 20
249.533223559259
 30
0.0
 11
607.4291073353843
 21
235.9517567911279
 31
0.0
  0
ARC
  5
113B1
330
18
100
AcDbEntity
  8
1
100
AcDbCircle
 10
599.5618644866936
 20
234.6371253667488
 30
0.0
 40
17.15651535589976
100
AcDbArc
 50
67.31851545899005
 51
80.64655439081605
  0
ARC
  5
113B2
330
18
100
AcDbEntity
  8
1
100
AcDbCircle
 10
599.8820180127258
 20
233.8308816980421
 30
0.0
 40
17.42135557525718
100
AcDbArc
 50
65.07366128736666
 51
90.6344651507749
  0
ARC
  5
113B3
330
18
100
AcDbEntity
  8
1
100
AcDbCircle
 10
599.8820180127258
 20
233.8314693303241
 30
0.0
 40
17.42135557525718
100
AcDbArc
 50
65.07366128736666
 51
90.6344651507749
  0
ARC
  5
113B4
330
18
100
AcDbEntity
  8
1
100
AcDbCircle
 10
599.8820188760068
 20
233.8314693303241
 30
0.0
 40
17.42135557525718
100
AcDbArc
 50
64.32861401250483
 51
90.6344651507749
  0
ARC
  5
113B5
330
18
100
AcDbEntity
  8
1
100
AcDbCircle
 10
599.9317876601629
 20
235.6732974482014
 30
0.0
 40
17.15651535589976
100
AcDbArc
 50
70.3487678927082
 51
90.11194729060742
  0
LINE
  5
113B6
330
18
100
AcDbEntity
  8
1
100
AcDbLine
 10
599.8892266172265
 20
252.8296272774559
 30
0.0
 11
599.2620157744793
 21
252.8296272774559
 31
0.0
  0
LINE
  5
113B7
330
18
100
AcDbEntity
  8
1
100
AcDbLine
 10
599.8891073353843
 20
251.4603592533273
 30
0.0
 11
598.6891073353843
 21
251.4603592533273
 31
0.0
  0
LINE
  5
113B8
330
18
100
AcDbEntity
  8
1
100
AcDbLine
 10
599.8891073353843
 20
251.4603592533273
 30
0.0
 11
598.6891073353843
 21
251.4603592533273
 31
0.0
  0
LINE
  5
113B9
330
18
100
AcDbEntity
  8
1
100
AcDbLine
 10
599.8891073353843
 20
251.4603592533273
 30
0.0
 11
598.6891073353843
 21
251.4603592533273
 31
0.0
  0
LINE
  5
113BA
330
18
100
AcDbEntity
  8
1
100
AcDbLine
 10
599.2761426377974
 20
253.7789055175065
 30
0.0
 11
599.2620157744793
 21
252.8296272774559
 31
0.0
  0
LINE
  5
113BB
330
18
100
AcDbEntity
  8
1
100
AcDbLine
 10
595.7661660479947
 20
253.3152232426532
 30
0.0
 11
595.7661660479947
 21
253.012865483284
 31
0.0
  0
LINE
  5
113BC
330
18
100
AcDbEntity
  8
1
100
AcDbLine
 10
595.7661660479947
 20
253.3152232426532
 30
0.0
 11
595.7661660479947
 21
253.012865483284
 31
0.0
  0
LINE
  5
113BD
330
18
100
AcDbEntity
  8
1
100
AcDbLine
 10
595.7661660479947
 20
253.3152232426532
 30
0.0
 11
595.7661660479947
 21
253.012865483284
 31
0.0
  0
LINE
  5
113BE
330
18
100
AcDbEntity
  8
1
  6
CONTINUOUS
 62
     3
100
AcDbLine
 10
597.3891073353843
 20
251.251756791128
 30
0.0
 11
598.6891073353843
 21
251.251756791128
 31
0.0
  0
LINE
  5
113BF
330
18
100
AcDbEntity
  8
1
  6
CONTINUOUS
 62
     3
100
AcDbLine
 10
597.3891064721032
 20
251.251169158846
 30
0.0
 11
598.6891064721033
 21
251.251169158846
 31
0.0
  0
LINE
  5
113C0
330
18
100
AcDbEntity
  8
1
  6
CONTINUOUS
 62
     3
100
AcDbLine
 10
597.3891064721032
 20
251.251756791128
 30
0.0
 11
598.6891064721033
 21
251.251756791128
 31
0.0
  0
LINE
  5
113C1
330
18
100
AcDbEntity
  8
1
  6
CONTINUOUS
 62
     3
100
AcDbLine
 10
597.3891073353843
 20
251.251756791128
 30
0.0
 11
598.6891073353843
 21
251.251756791128
 31
0.0
  0
LINE
  5
113C2
330
18
100
AcDbEntity
  8
1
100
AcDbLine
 10
598.6891073353843
 20
251.4603592533273
 30
0.0
 11
596.0813377129997
 21
251.4603592533273
 31
0.0
  0
LINE
  5
113C3
330
18
100
AcDbEntity
  8
1
100
AcDbLine
 10
598.6891073353843
 20
251.4603592533273
 30
0.0
 11
596.0813377129997
 21
251.4603592533273
 31
0.0
  0
LINE
  5
113C4
330
18
100
AcDbEntity
  8
1
100
AcDbLine
 10
598.6891073353843
 20
251.4603592533273
 30
0.0
 11
596.0813377129997
 21
251.4603592533273
 31
0.0
  0
LINE
  5
113C5
330
18
100
AcDbEntity
  8
1
100
AcDbLine
 10
598.6891073353843
 20
251.4603592533273
 30
0.0
 11
596.0813377129997
 21
251.4603592533273
 31
0.0
  0
LINE
  5
113C6
330
18
100
AcDbEntity
  8
1
100
AcDbLine
 10
598.6891073353843
 20
251.4603592533273
 30
0.0
 11
596.0813377129997
 21
251.4603592533273
 31
0.0
  0
LINE
  5
113C7
330
18
100
AcDbEntity
  8
1
100
AcDbLine
 10
598.6891073353843
 20
251.4603592533273
 30
0.0
 11
596.0813377129997
 21
251.4603592533273
 31
0.0
  0
ARC
  5
113C8
330
18
100
AcDbEntity
  8
1
  6
CONTINUOUS
 62
     3
100
AcDbCircle
 10
597.3891064721032
 20
251.051169158846
 30
0.0
 40
0.2
100
AcDbArc
 50
90.0
 51
180.0
  0
ARC
  5
113C9
330
18
100
AcDbEntity
  8
1
  6
CONTINUOUS
 62
     3
100
AcDbCircle
 10
597.3891064721032
 20
251.051756791128
 30
0.0
 40
0.2
100
AcDbArc
 50
90.0
 51
180.0
  0
ARC
  5
113CA
330
18
100
AcDbEntity
  8
1
  6
CONTINUOUS
 62
     3
100
AcDbCircle
 10
597.3891073353843
 20
251.051756791128
 30
0.0
 40
0.2
100
AcDbArc
 50
90.0
 51
180.0
  0
LINE
  5
113CB
330
18
100
AcDbEntity
  8
1
100
AcDbLine
 10
595.7661660479947
 20
253.012865483284
 30
0.0
 11
596.0813377129998
 21
252.9195941205973
 31
0.0
  0
LINE
  5
113CC
330
18
100
AcDbEntity
  8
1
100
AcDbLine
 10
596.0813377129998
 20
252.9195941205973
 30
0.0
 11
595.7661660479947
 21
253.012865483284
 31
0.0
  0
LINE
  5
113CD
330
18
100
AcDbEntity
  8
1
100
AcDbLine
 10
595.7661660479947
 20
253.012865483284
 30
0.0
 11
596.0813377129998
 21
252.9195941205973
 31
0.0
  0
LINE
  5
113CE
330
18
100
AcDbEntity
  8
1
100
AcDbLine
 10
596.0813377129998
 20
252.9195941205973
 30
0.0
 11
595.7661660479947
 21
253.012865483284
 31
0.0
  0
LINE
  5
113CF
330
18
100
AcDbEntity
  8
1
100
AcDbLine
 10
596.0813377129998
 20
252.9195941205973
 30
0.0
 11
595.7661660479947
 21
253.0128654832841
 31
0.0
  0
LINE
  5
113D0
330
18
100
AcDbEntity
  8
1
100
AcDbLine
 10
595.7661660479947
 20
253.0128654832841
 30
0.0
 11
596.0813377129998
 21
252.9195941205973
 31
0.0
  0
LINE
  5
113D1
330
18
100
AcDbEntity
  8
1
100
AcDbLine
 10
596.0813377129998
 20
252.9195941205973
 30
0.0
 11
595.7661660479947
 21
253.0128654832841
 31
0.0
  0
LINE
  5
113D2
330
18
100
AcDbEntity
  8
1
100
AcDbLine
 10
595.7661660479947
 20
253.0128654832841
 30
0.0
 11
596.0813377129998
 21
252.9195941205973
 31
0.0
  0
LINE
  5
113D3
330
18
100
AcDbEntity
  8
1
100
AcDbLine
 10
596.0813377129998
 20
252.9195941205973
 30
0.0
 11
595.7661660479947
 21
253.012865483284
 31
0.0
  0
LINE
  5
113D4
330
18
100
AcDbEntity
  8
1
100
AcDbLine
 10
595.7661660479947
 20
253.012865483284
 30
0.0
 11
596.0813377129998
 21
252.9195941205973
 31
0.0
  0
LINE
  5
113D5
330
18
100
AcDbEntity
  8
1
100
AcDbLine
 10
596.0813377129998
 20
252.9195941205973
 30
0.0
 11
595.7661660479947
 21
253.012865483284
 31
0.0
  0
LINE
  5
113D6
330
18
100
AcDbEntity
  8
1
100
AcDbLine
 10
595.7661660479947
 20
253.012865483284
 30
0.0
 11
596.0813377129998
 21
252.9195941205973
 31
0.0
  0
LINE
  5
113D7
330
18
100
AcDbEntity
  8
1
100
AcDbLine
 10
596.0813377129997
 20
251.4603592533273
 30
0.0
 11
596.0813377129997
 21
252.9195941205973
 31
0.0
  0
LINE
  5
113D8
330
18
100
AcDbEntity
  8
1
100
AcDbLine
 10
596.0813377129997
 20
251.4603592533273
 30
0.0
 11
596.0813377129997
 21
252.9195941205973
 31
0.0
  0
LINE
  5
113D9
330
18
100
AcDbEntity
  8
1
100
AcDbLine
 10
596.0813377129997
 20
251.4603592533273
 30
0.0
 11
596.0813377129997
 21
252.9195941205973
 31
0.0
  0
LINE
  5
113DA
330
18
100
AcDbEntity
  8
1
100
AcDbLine
 10
598.6891073353843
 20
251.251756791128
 30
0.0
 11
598.6891073353843
 21
251.4603592533273
 31
0.0
  0
POINT
  5
113DB
330
18
100
AcDbEntity
  8
1
  6
CONTINUOUS
 62
     3
100
AcDbPoint
 10
598.6891064721034
 20
251.251169158846
 30
0.0
  0
POINT
  5
113DC
330
18
100
AcDbEntity
  8
1
  6
CONTINUOUS
 62
     3
100
AcDbPoint
 10
598.6891064721034
 20
251.251756791128
 30
0.0
  0
LINE
  5
113DD
330
18
100
AcDbEntity
  8
1
  6
CONTINUOUS
 62
     3
100
AcDbLine
 10
598.6891064721033
 20
251.251169158846
 30
0.0
 11
599.6891064721032
 21
251.2511691588459
 31
0.0
  0
LINE
  5
113DE
330
18
100
AcDbEntity
  8
1
  6
CONTINUOUS
 62
     3
100
AcDbLine
 10
598.6891064721033
 20
251.251756791128
 30
0.0
 11
599.6891064721032
 21
251.2517567911279
 31
0.0
  0
LINE
  5
113DF
330
18
100
AcDbEntity
  8
1
  6
CONTINUOUS
 62
     3
100
AcDbLine
 10
598.6891073353843
 20
251.251756791128
 30
0.0
 11
599.6891073353842
 21
251.2517567911279
 31
0.0
  0
LINE
  5
113E0
330
18
100
AcDbEntity
  8
1
100
AcDbLine
 10
597.7971380661304
 20
255.8723921937425
 30
0.0
 11
596.4813377129997
 21
255.8723921937425
 31
0.0
  0
LINE
  5
113E1
330
18
100
AcDbEntity
  8
1
100
AcDbLine
 10
596.0813377129997
 20
254.9910110935639
 30
0.0
 11
596.0813377129997
 21
254.9910110935639
 31
0.0
  0
LINE
  5
113E2
330
18
100
AcDbEntity
  8
1
100
AcDbLine
 10
596.0813377129997
 20
254.9910110935639
 30
0.0
 11
596.0813377129997
 21
254.9910110935639
 31
0.0
  0
LINE
  5
113E3
330
18
100
AcDbEntity
  8
1
100
AcDbLine
 10
596.0813377129997
 20
255.1690965985347
 30
0.0
 11
596.0813377129997
 21
254.9910110935639
 31
0.0
  0
LINE
  5
113E4
330
18
100
AcDbEntity
  8
1
100
AcDbLine
 10
596.0813377129997
 20
254.9910110935639
 30
0.0
 11
596.0813377129997
 21
254.9910110935639
 31
0.0
  0
LINE
  5
113E5
330
18
100
AcDbEntity
  8
1
100
AcDbLine
 10
596.0813377129997
 20
254.9910110935639
 30
0.0
 11
596.0813377129997
 21
254.9910110935639
 31
0.0
  0
LINE
  5
113E6
330
18
100
AcDbEntity
  8
1
100
AcDbLine
 10
596.0813377129997
 20
255.4723921937425
 30
0.0
 11
596.0813377129997
 21
254.9910110935639
 31
0.0
  0
LINE
  5
113E7
330
18
100
AcDbEntity
  8
1
100
AcDbLine
 10
596.0813377129997
 20
254.991011093564
 30
0.0
 11
596.0813377129997
 21
254.991011093564
 31
0.0
  0
LINE
  5
113E8
330
18
100
AcDbEntity
  8
1
100
AcDbLine
 10
596.0813377129997
 20
254.9910110935639
 30
0.0
 11
596.0813377129997
 21
254.9910110935639
 31
0.0
  0
LINE
  5
113E9
330
18
100
AcDbEntity
  8
1
100
AcDbLine
 10
596.0813377129997
 20
254.9910110935639
 30
0.0
 11
595.7661660479946
 21
254.8977397308771
 31
0.0
  0
LINE
  5
113EA
330
18
100
AcDbEntity
  8
1
100
AcDbLine
 10
595.7661660479946
 20
254.8977397308771
 30
0.0
 11
596.0813377129997
 21
254.9910110935639
 31
0.0
  0
LINE
  5
113EB
330
18
100
AcDbEntity
  8
1
100
AcDbLine
 10
595.7661660479946
 20
254.8977397308772
 30
0.0
 11
596.0813377129997
 21
254.9910110935639
 31
0.0
  0
LINE
  5
113EC
330
18
100
AcDbEntity
  8
1
100
AcDbLine
 10
596.0813377129997
 20
254.9910110935639
 30
0.0
 11
595.7661660479946
 21
254.8977397308772
 31
0.0
  0
LINE
  5
113ED
330
18
100
AcDbEntity
  8
1
100
AcDbLine
 10
595.7661660479946
 20
254.8977397308771
 30
0.0
 11
596.0813377129997
 21
254.991011093564
 31
0.0
  0
LINE
  5
113EE
330
18
100
AcDbEntity
  8
1
100
AcDbLine
 10
596.0813377129997
 20
254.991011093564
 30
0.0
 11
595.7661660479946
 21
254.8977397308771
 31
0.0
  0
LINE
  5
113EF
330
18
100
AcDbEntity
  8
1
100
AcDbLine
 10
596.0813377129997
 20
254.5021106088212
 30
0.0
 11
596.0813377129997
 21
254.199752849452
 31
0.0
  0
LINE
  5
113F0
330
18
100
AcDbEntity
  8
1
100
AcDbLine
 10
596.0813377129997
 20
254.5021106088212
 30
0.0
 11
596.0813377129997
 21
254.199752849452
 31
0.0
  0
LINE
  5
113F1
330
18
100
AcDbEntity
  8
1
100
AcDbLine
 10
596.0813377129997
 20
254.5021106088212
 30
0.0
 11
596.0813377129997
 21
254.199752849452
 31
0.0
  0
LINE
  5
113F2
330
18
100
AcDbEntity
  8
1
100
AcDbLine
 10
596.0813377129997
 20
253.7108523647092
 30
0.0
 11
596.0813377129997
 21
253.40849460534
 31
0.0
  0
LINE
  5
113F3
330
18
100
AcDbEntity
  8
1
100
AcDbLine
 10
596.0813377129997
 20
253.7108523647092
 30
0.0
 11
596.0813377129997
 21
253.40849460534
 31
0.0
  0
LINE
  5
113F4
330
18
100
AcDbEntity
  8
1
100
AcDbLine
 10
596.0813377129997
 20
253.7108523647092
 30
0.0
 11
596.0813377129997
 21
253.40849460534
 31
0.0
  0
LINE
  5
113F5
330
18
100
AcDbEntity
  8
1
100
AcDbLine
 10
595.7661660479946
 20
254.1064814867652
 30
0.0
 11
595.7661660479946
 21
253.804123727396
 31
0.0
  0
LINE
  5
113F6
330
18
100
AcDbEntity
  8
1
100
AcDbLine
 10
595.7661660479946
 20
254.1064814867652
 30
0.0
 11
595.7661660479947
 21
253.804123727396
 31
0.0
  0
LINE
  5
113F7
330
18
100
AcDbEntity
  8
1
100
AcDbLine
 10
595.7661660479946
 20
254.1064814867652
 30
0.0
 11
595.7661660479947
 21
253.804123727396
 31
0.0
  0
LINE
  5
113F8
330
18
100
AcDbEntity
  8
1
100
AcDbLine
 10
596.0813377129997
 20
253.7108523647092
 30
0.0
 11
595.7661660479946
 21
253.804123727396
 31
0.0
  0
LINE
  5
113F9
330
18
100
AcDbEntity
  8
1
100
AcDbLine
 10
595.7661660479946
 20
253.804123727396
 30
0.0
 11
596.0813377129997
 21
253.7108523647092
 31
0.0
  0
LINE
  5
113FA
330
18
100
AcDbEntity
  8
1
100
AcDbLine
 10
596.0813377129997
 20
253.40849460534
 30
0.0
 11
595.7661660479946
 21
253.3152232426532
 31
0.0
  0
LINE
  5
113FB
330
18
100
AcDbEntity
  8
1
100
AcDbLine
 10
595.7661660479946
 20
253.3152232426532
 30
0.0
 11
596.0813377129997
 21
253.40849460534
 31
0.0
  0
LINE
  5
113FC
330
18
100
AcDbEntity
  8
1
100
AcDbLine
 10
596.0813377129997
 20
253.40849460534
 30
0.0
 11
595.7661660479946
 21
253.3152232426532
 31
0.0
  0
LINE
  5
113FD
330
18
100
AcDbEntity
  8
1
100
AcDbLine
 10
595.7661660479946
 20
253.3152232426532
 30
0.0
 11
596.0813377129997
 21
253.40849460534
 31
0.0
  0
LINE
  5
113FE
330
18
100
AcDbEntity
  8
1
100
AcDbLine
 10
596.0813377129997
 20
253.7108523647092
 30
0.0
 11
595.7661660479946
 21
253.804123727396
 31
0.0
  0
LINE
  5
113FF
330
18
100
AcDbEntity
  8
1
100
AcDbLine
 10
595.7661660479946
 20
253.804123727396
 30
0.0
 11
596.0813377129997
 21
253.7108523647092
 31
0.0
  0
LINE
  5
11400
330
18
100
AcDbEntity
  8
1
100
AcDbLine
 10
595.7661660479947
 20
253.804123727396
 30
0.0
 11
596.0813377129997
 21
253.7108523647092
 31
0.0
  0
LINE
  5
11401
330
18
100
AcDbEntity
  8
1
100
AcDbLine
 10
596.0813377129997
 20
253.7108523647092
 30
0.0
 11
595.7661660479947
 21
253.804123727396
 31
0.0
  0
LINE
  5
11402
330
18
100
AcDbEntity
  8
1
100
AcDbLine
 10
595.7661660479947
 20
253.804123727396
 30
0.0
 11
596.0813377129997
 21
253.7108523647092
 31
0.0
  0
LINE
  5
11403
330
18
100
AcDbEntity
  8
1
100
AcDbLine
 10
596.0813377129997
 20
253.7108523647092
 30
0.0
 11
595.7661660479947
 21
253.804123727396
 31
0.0
  0
LINE
  5
11404
330
18
100
AcDbEntity
  8
1
100
AcDbLine
 10
595.7661660479947
 20
253.3152232426532
 30
0.0
 11
596.0813377129997
 21
253.40849460534
 31
0.0
  0
LINE
  5
11405
330
18
100
AcDbEntity
  8
1
100
AcDbLine
 10
596.0813377129997
 20
253.40849460534
 30
0.0
 11
595.7661660479947
 21
253.3152232426532
 31
0.0
  0
LINE
  5
11406
330
18
100
AcDbEntity
  8
1
100
AcDbLine
 10
595.7661660479947
 20
253.3152232426532
 30
0.0
 11
596.0813377129997
 21
253.40849460534
 31
0.0
  0
LINE
  5
11407
330
18
100
AcDbEntity
  8
1
100
AcDbLine
 10
596.0813377129997
 20
253.40849460534
 30
0.0
 11
595.7661660479947
 21
253.3152232426532
 31
0.0
  0
LINE
  5
11408
330
18
100
AcDbEntity
  8
1
100
AcDbLine
 10
595.7661660479947
 20
253.804123727396
 30
0.0
 11
596.0813377129997
 21
253.7108523647092
 31
0.0
  0
LINE
  5
11409
330
18
100
AcDbEntity
  8
1
100
AcDbLine
 10
596.0813377129997
 20
253.7108523647092
 30
0.0
 11
595.7661660479947
 21
253.804123727396
 31
0.0
  0
LINE
  5
1140A
330
18
100
AcDbEntity
  8
1
100
AcDbLine
 10
595.7661660479947
 20
253.804123727396
 30
0.0
 11
596.0813377129997
 21
253.7108523647092
 31
0.0
  0
LINE
  5
1140B
330
18
100
AcDbEntity
  8
1
100
AcDbLine
 10
596.0813377129997
 20
253.7108523647092
 30
0.0
 11
595.7661660479947
 21
253.804123727396
 31
0.0
  0
LINE
  5
1140C
330
18
100
AcDbEntity
  8
1
100
AcDbLine
 10
595.7661660479947
 20
253.3152232426532
 30
0.0
 11
596.0813377129997
 21
253.40849460534
 31
0.0
  0
LINE
  5
1140D
330
18
100
AcDbEntity
  8
1
100
AcDbLine
 10
596.0813377129997
 20
253.40849460534
 30
0.0
 11
595.7661660479947
 21
253.3152232426532
 31
0.0
  0
LINE
  5
1140E
330
18
100
AcDbEntity
  8
1
100
AcDbLine
 10
595.7661660479947
 20
253.3152232426532
 30
0.0
 11
596.0813377129997
 21
253.40849460534
 31
0.0
  0
LINE
  5
1140F
330
18
100
AcDbEntity
  8
1
100
AcDbLine
 10
596.0813377129997
 20
253.40849460534
 30
0.0
 11
595.7661660479947
 21
253.3152232426532
 31
0.0
  0
LINE
  5
11410
330
18
100
AcDbEntity
  8
1
100
AcDbLine
 10
595.7661660479946
 20
254.1064814867652
 30
0.0
 11
596.0813377129997
 21
254.199752849452
 31
0.0
  0
LINE
  5
11411
330
18
100
AcDbEntity
  8
1
100
AcDbLine
 10
596.0813377129997
 20
254.199752849452
 30
0.0
 11
595.7661660479946
 21
254.1064814867652
 31
0.0
  0
LINE
  5
11412
330
18
100
AcDbEntity
  8
1
100
AcDbLine
 10
595.7661660479946
 20
254.1064814867652
 30
0.0
 11
596.0813377129997
 21
254.199752849452
 31
0.0
  0
LINE
  5
11413
330
18
100
AcDbEntity
  8
1
100
AcDbLine
 10
596.0813377129997
 20
254.199752849452
 30
0.0
 11
595.7661660479946
 21
254.1064814867652
 31
0.0
  0
LINE
  5
11414
330
18
100
AcDbEntity
  8
1
100
AcDbLine
 10
596.0813377129997
 20
254.199752849452
 30
0.0
 11
595.7661660479946
 21
254.1064814867652
 31
0.0
  0
LINE
  5
11415
330
18
100
AcDbEntity
  8
1
100
AcDbLine
 10
595.7661660479946
 20
254.1064814867652
 30
0.0
 11
596.0813377129997
 21
254.199752849452
 31
0.0
  0
LINE
  5
11416
330
18
100
AcDbEntity
  8
1
100
AcDbLine
 10
596.0813377129997
 20
254.199752849452
 30
0.0
 11
595.7661660479946
 21
254.1064814867652
 31
0.0
  0
LINE
  5
11417
330
18
100
AcDbEntity
  8
1
100
AcDbLine
 10
595.7661660479946
 20
254.1064814867652
 30
0.0
 11
596.0813377129997
 21
254.199752849452
 31
0.0
  0
LINE
  5
11418
330
18
100
AcDbEntity
  8
1
100
AcDbLine
 10
596.0813377129997
 20
254.199752849452
 30
0.0
 11
595.7661660479946
 21
254.1064814867652
 31
0.0
  0
LINE
  5
11419
330
18
100
AcDbEntity
  8
1
100
AcDbLine
 10
595.7661660479946
 20
254.1064814867652
 30
0.0
 11
596.0813377129997
 21
254.199752849452
 31
0.0
  0
LINE
  5
1141A
330
18
100
AcDbEntity
  8
1
100
AcDbLine
 10
596.0813377129997
 20
254.199752849452
 30
0.0
 11
595.7661660479946
 21
254.1064814867652
 31
0.0
  0
LINE
  5
1141B
330
18
100
AcDbEntity
  8
1
100
AcDbLine
 10
595.7661660479946
 20
254.1064814867652
 30
0.0
 11
596.0813377129997
 21
254.199752849452
 31
0.0
  0
LINE
  5
1141C
330
18
100
AcDbEntity
  8
1
100
AcDbLine
 10
595.7661660479946
 20
254.5953819715079
 30
0.0
 11
596.0813377129997
 21
254.5021106088212
 31
0.0
  0
LINE
  5
1141D
330
18
100
AcDbEntity
  8
1
100
AcDbLine
 10
596.0813377129997
 20
254.5021106088212
 30
0.0
 11
595.7661660479946
 21
254.5953819715079
 31
0.0
  0
LINE
  5
1141E
330
18
100
AcDbEntity
  8
1
100
AcDbLine
 10
596.0813377129997
 20
254.5021106088212
 30
0.0
 11
595.7661660479946
 21
254.5953819715079
 31
0.0
  0
LINE
  5
1141F
330
18
100
AcDbEntity
  8
1
100
AcDbLine
 10
595.7661660479946
 20
254.5953819715079
 30
0.0
 11
596.0813377129997
 21
254.5021106088212
 31
0.0
  0
LINE
  5
11420
330
18
100
AcDbEntity
  8
1
100
AcDbLine
 10
596.0813377129997
 20
254.5021106088212
 30
0.0
 11
595.7661660479946
 21
254.595381971508
 31
0.0
  0
LINE
  5
11421
330
18
100
AcDbEntity
  8
1
100
AcDbLine
 10
595.7661660479946
 20
254.595381971508
 30
0.0
 11
596.0813377129997
 21
254.5021106088212
 31
0.0
  0
LINE
  5
11422
330
18
100
AcDbEntity
  8
1
100
AcDbLine
 10
595.7661660479946
 20
254.8977397308771
 30
0.0
 11
595.7661660479946
 21
254.5953819715079
 31
0.0
  0
LINE
  5
11423
330
18
100
AcDbEntity
  8
1
100
AcDbLine
 10
595.7661660479946
 20
254.8977397308772
 30
0.0
 11
595.7661660479946
 21
254.5953819715079
 31
0.0
  0
LINE
  5
11424
330
18
100
AcDbEntity
  8
1
100
AcDbLine
 10
595.7661660479946
 20
254.8977397308771
 30
0.0
 11
595.7661660479946
 21
254.5953819715079
 31
0.0
  0
LINE
  5
11425
330
18
100
AcDbEntity
  8
1
100
AcDbLine
 10
598.2860385508732
 20
255.8723921937425
 30
0.0
 11
598.1357176110769
 21
254.8703796082593
 31
0.0
  0
LINE
  5
11426
330
18
100
AcDbEntity
  8
1
100
AcDbLine
 10
599.5459685380922
 20
253.9479122215669
 30
0.0
 11
599.2761426377974
 21
253.7789055175065
 31
0.0
  0
LINE
  5
11427
330
18
100
AcDbEntity
  8
1
100
AcDbLine
 10
599.2439880073817
 20
254.7041179764848
 30
0.0
 11
599.5459685380922
 21
253.9479122215669
 31
0.0
  0
LINE
  5
11428
330
18
100
AcDbEntity
  8
1
100
AcDbLine
 10
599.2439880073817
 20
254.7041179764848
 30
0.0
 11
598.1357176110769
 21
254.8703796082593
 31
0.0
  0
ARC
  5
11429
330
18
100
AcDbEntity
  8
1
100
AcDbCircle
 10
600.0413754129522
 20
236.2119828281978
 30
0.0
 40
15.24913666965756
100
AcDbArc
 50
82.04532064944053
 51
90.57212833582017
  0
LINE
  5
1142A
330
18
100
AcDbEntity
  8
1
100
AcDbLine
 10
602.151699789928
 20
251.3143899275257
 30
0.0
 11
602.1852015336199
 21
251.0999081632127
 31
0.0
  0
ARC
  5
1142B
330
18
100
AcDbEntity
  8
1
100
AcDbCircle
 10
602.3563259642879
 20
251.3566765588606
 30
0.0
 40
0.2089498275252573
100
AcDbArc
 50
91.67591903948444
 51
191.6759918358121
  0
ARC
  5
1142C
330
18
100
AcDbEntity
  8
1
100
AcDbCircle
 10
606.6503474939889
 20
250.5544239729209
 30
0.0
 40
0.4808022909300121
100
AcDbArc
 50
190.471215111058
 51
335.6506795444285
  0
ARC
  5
1142D
330
18
100
AcDbEntity
  8
1
100
AcDbCircle
 10
599.8820180127258
 20
233.8308816980421
 30
0.0
 40
17.42135557525718
100
AcDbArc
 50
64.32861401250483
 51
65.07366128736625
  0
ARC
  5
1142E
330
18
100
AcDbEntity
  8
1
100
AcDbCircle
 10
599.8820180127258
 20
233.8314693303241
 30
0.0
 40
17.42135557525718
100
AcDbArc
 50
64.32861401250483
 51
65.07366128736625
  0
LINE
  5
1142F
330
18
100
AcDbEntity
  8
1
100
AcDbLine
 10
607.2243092284909
 20
249.6300587652747
 30
0.0
 11
607.2458801660301
 21
249.9461723692685
 31
0.0
  0
LINE
  5
11430
330
18
100
AcDbEntity
  8
1
100
AcDbLine
 10
607.1505333508483
 20
249.9665899204525
 30
0.0
 11
606.9724757749424
 21
249.7447077930493
 31
0.0
  0
LINE
  5
11431
330
18
100
AcDbEntity
  8
1
100
AcDbLine
 10
607.2458801660301
 20
249.9461723692685
 30
0.0
 11
607.1505333508483
 21
249.9665899204525
 31
0.0
  0
LINE
  5
11432
330
18
100
AcDbEntity
  8
1
100
AcDbLine
 10
605.7291544182056
 20
253.0062944000215
 30
0.0
 11
606.0661315944175
 21
253.6820258929933
 31
0.0
  0
LINE
  5
11433
330
18
100
AcDbEntity
  8
1
100
AcDbLine
 10
607.4023041164774
 20
251.4107017339504
 30
0.0
 11
607.4023041164774
 21
253.4821187069171
 31
0.0
  0
LINE
  5
11434
330
18
100
AcDbEntity
  8
1
100
AcDbLine
 10
605.7291544182056
 20
253.0062944000215
 30
0.0
 11
605.8943562141492
 21
252.8047032797682
 31
0.0
  0
LINE
  5
11435
330
18
100
AcDbEntity
  8
1
100
AcDbLine
 10
605.8943562141492
 20
252.8047032797682
 30
0.0
 11
605.7014173020975
 21
251.8305680392428
 31
0.0
  0
LINE
  5
11436
330
18
100
AcDbEntity
  8
1
100
AcDbLine
 10
607.4023041164774
 20
252.6908604628051
 30
0.0
 11
607.4023041164774
 21
253.0085476488778
 31
0.0
  0
LINE
  5
11437
330
18
100
AcDbEntity
  8
1
100
AcDbLine
 10
607.4023041164774
 20
252.9932182221743
 30
0.0
 11
607.4023041164774
 21
252.6908604628051
 31
0.0
  0
LINE
  5
11438
330
18
100
AcDbEntity
  8
1
100
AcDbLine
 10
607.4023041164772
 20
252.2019599780623
 30
0.0
 11
607.4023041164772
 21
251.8996022186931
 31
0.0
  0
LINE
  5
11439
330
18
100
AcDbEntity
  8
1
100
AcDbLine
 10
607.4023041164774
 20
250.7246429806572
 30
0.0
 11
607.4023041164774
 21
251.7327067544293
 31
0.0
  0
LINE
  5
1143A
330
18
100
AcDbEntity
  8
1
100
AcDbLine
 10
607.4023041164774
 20
250.7246429806572
 30
0.0
 11
607.4023041164774
 21
251.7327067544293
 31
0.0
  0
LINE
  5
1143B
330
18
100
AcDbEntity
  8
1
100
AcDbLine
 10
607.4023041164774
 20
250.7246429806572
 30
0.0
 11
607.4023041164772
 21
251.4107017339504
 31
0.0
  0
LINE
  5
1143C
330
18
100
AcDbEntity
  8
1
100
AcDbLine
 10
607.4023041164774
 20
250.7246429806572
 30
0.0
 11
607.4023041164774
 21
251.4107017339504
 31
0.0
  0
LINE
  5
1143D
330
18
100
AcDbEntity
  8
1
100
AcDbLine
 10
607.4023041164774
 20
250.3561897913254
 30
0.0
 11
607.4023041164774
 21
251.4107017339504
 31
0.0
  0
LINE
  5
1143E
330
18
100
AcDbEntity
  8
1
100
AcDbLine
 10
607.0883817988221
 20
250.3561897913254
 30
0.0
 11
607.4023041164774
 21
250.3561897913254
 31
0.0
  0
LINE
  5
1143F
330
18
100
AcDbEntity
  8
1
100
AcDbLine
 10
606.0661315944175
 20
253.6820258929933
 30
0.0
 11
607.4023041164774
 21
253.4821187069171
 31
0.0
  0
ARC
  5
11441
330
18
100
AcDbEntity
  8
1
  6
CONTINUOUS
 62
     3
100
AcDbCircle
 10
617.0176066688684
 20
235.3511691588453
 30
0.0
 40
0.6
100
AcDbArc
 50
359.9999999999891
 51
90.0
  0
ARC
  5
11442
330
18
100
AcDbEntity
  8
1
  6
CONTINUOUS
 62
     3
100
AcDbCircle
 10
617.0176066688684
 20
235.3517567911273
 30
0.0
 40
0.6
100
AcDbArc
 50
359.9999999999837
 51
90.0
  0
ARC
  5
11443
330
18
100
AcDbEntity
  8
1
  6
CONTINUOUS
 62
     3
100
AcDbCircle
 10
617.0176075321494
 20
235.3517567911273
 30
0.0
 40
0.6
100
AcDbArc
 50
359.9999999999837
 51
90.0
  0
LINE
  5
11444
330
18
100
AcDbEntity
  8
1
  6
CONTINUOUS
 62
     3
100
AcDbLine
 10
617.6176066688685
 20
235.3511691588452
 30
0.0
 11
617.6176066688682
 21
234.3035946553834
 31
0.0
  0
LINE
  5
11445
330
18
100
AcDbEntity
  8
1
  6
CONTINUOUS
 62
     3
100
AcDbLine
 10
617.6176066688685
 20
235.3517567911271
 30
0.0
 11
617.6176066688682
 21
234.3041822876655
 31
0.0
  0
LINE
  5
11446
330
18
100
AcDbEntity
  8
1
  6
CONTINUOUS
 62
     3
100
AcDbLine
 10
617.6176075321495
 20
235.3517567911271
 30
0.0
 11
617.6176075321492
 21
234.4541822876654
 31
0.0
  0
LINE
  5
11447
102
{ACAD_REACTORS
102
}
330
18
100
AcDbEntity
  8
1
100
AcDbLine
 10
598.1927671881863
 20
256.2875638587477
 30
0.0
 11
597.8904094288171
 21
256.2875638587477
 31
0.0
  0
LINE
  5
11448
330
18
100
AcDbEntity
  8
1
  6
CONTINUOUS
 62
     3
100
AcDbLine
 10
639.7246070623981
 20
181.5248941606216
 30
0.0
 11
635.9246070623982
 21
181.5248941606212
 31
0.0
  0
LINE
  5
11449
330
18
100
AcDbEntity
  8
1
  6
CONTINUOUS
 62
     3
100
AcDbLine
 10
639.7246070623981
 20
181.5248941606214
 30
0.0
 11
635.9246070623981
 21
181.5248941606211
 31
0.0
  0
LINE
  5
1144A
330
18
100
AcDbEntity
  8
1
  6
CONTINUOUS
 62
     3
100
AcDbLine
 10
639.7246070623981
 20
181.5254817929036
 30
0.0
 11
635.9246070623982
 21
181.5254817929032
 31
0.0
  0
LINE
  5
1144B
330
18
100
AcDbEntity
  8
1
  6
CONTINUOUS
 62
     3
100
AcDbLine
 10
639.7246070623981
 20
181.5254817929034
 30
0.0
 11
635.9246070623981
 21
181.5254817929031
 31
0.0
  0
LINE
  5
1144C
330
18
100
AcDbEntity
  8
1
  6
CONTINUOUS
 62
     3
100
AcDbLine
 10
639.874607062398
 20
181.5248941606215
 30
0.0
 11
635.7746070623981
 21
181.5248941606215
 31
0.0
  0
LINE
  5
1144D
330
18
100
AcDbEntity
  8
1
  6
CONTINUOUS
 62
     3
100
AcDbLine
 10
635.7746070623981
 20
181.5248941606214
 30
0.0
 11
639.8746070623981
 21
181.5248941606214
 31
0.0
  0
LINE
  5
1144E
330
18
100
AcDbEntity
  8
1
  6
CONTINUOUS
 62
     3
100
AcDbLine
 10
639.874607062398
 20
181.5254817929035
 30
0.0
 11
635.7746070623981
 21
181.5254817929035
 31
0.0
  0
LINE
  5
1144F
330
18
100
AcDbEntity
  8
1
  6
CONTINUOUS
 62
     3
100
AcDbLine
 10
635.7746070623981
 20
181.5254817929034
 30
0.0
 11
639.8746070623981
 21
181.5254817929034
 31
0.0
  0
LINE
  5
11450
330
18
100
AcDbEntity
  8
1
  6
CONTINUOUS
 62
     3
100
AcDbLine
 10
635.7746070623981
 20
177.8763630953472
 30
0.0
 11
639.974607062398
 21
177.8763630953471
 31
0.0
  0
LINE
  5
11451
330
18
100
AcDbEntity
  8
1
  6
CONTINUOUS
 62
     3
100
AcDbLine
 10
635.7746070623981
 20
177.8769507276292
 30
0.0
 11
639.974607062398
 21
177.8769507276291
 31
0.0
  0
LINE
  5
11452
330
18
100
AcDbEntity
  8
1
  6
CONTINUOUS
 62
     3
100
AcDbLine
 10
635.774607925679
 20
177.8769507276292
 30
0.0
 11
639.974607925679
 21
177.8769507276291
 31
0.0
  0
LINE
  5
11454
330
18
100
AcDbEntity
  8
1
  6
CONTINUOUS
 62
     3
100
AcDbLine
 10
635.7746070623981
 20
177.8763630953472
 30
0.0
 11
635.7746070623981
 21
181.5248941606215
 31
0.0
  0
LINE
  5
11455
330
18
100
AcDbEntity
  8
1
  6
CONTINUOUS
 62
     3
100
AcDbLine
 10
635.7746070623981
 20
177.8769507276292
 30
0.0
 11
635.7746070623981
 21
181.5254817929035
 31
0.0
  0
LINE
  5
11456
330
18
100
AcDbEntity
  8
1
  6
CONTINUOUS
 62
     3
100
AcDbLine
 10
629.2961068656332
 20
202.9098585288116
 30
0.0
 11
629.2961068656332
 21
213.8327828039367
 31
0.0
  0
LINE
  5
11457
330
18
100
AcDbEntity
  8
1
  6
CONTINUOUS
 62
     3
100
AcDbLine
 10
629.2961077289142
 20
202.9104461610936
 30
0.0
 11
629.2961077289142
 21
213.8333704362187
 31
0.0
  0
LINE
  5
11458
330
18
100
AcDbEntity
  8
1
  6
CONTINUOUS
 62
     3
100
AcDbLine
 10
629.2961068656332
 20
202.9104461610936
 30
0.0
 11
629.2961077289141
 21
217.9333704362187
 31
0.0
  0
LINE
  5
1145B
330
18
100
AcDbEntity
  8
1
  6
CONTINUOUS
 62
     3
100
AcDbLine
 10
640.3746070623981
 20
202.9098585288108
 30
0.0
 11
629.2961068656332
 21
202.9098585288116
 31
0.0
  0
LINE
  5
1145C
330
18
100
AcDbEntity
  8
1
  6
CONTINUOUS
 62
     3
100
AcDbLine
 10
640.3746070623981
 20
202.9104461610929
 30
0.0
 11
629.2961068656332
 21
202.9104461610936
 31
0.0
  0
LINE
  5
1145D
330
18
100
AcDbEntity
  8
1
  6
CONTINUOUS
 62
     3
100
AcDbLine
 10
640.3746079256791
 20
202.9104461610929
 30
0.0
 11
629.2961077289142
 21
202.9104461610936
 31
0.0
  0
LINE
  5
1145F
330
18
100
AcDbEntity
  8
1
  6
CONTINUOUS
 62
     3
100
AcDbLine
 10
629.2961068656332
 20
213.8327828039367
 30
0.0
 11
629.2961068656331
 21
217.9327828039367
 31
0.0
  0
LINE
  5
11460
330
18
100
AcDbEntity
  8
1
  6
CONTINUOUS
 62
     3
100
AcDbLine
 10
629.2961068656334
 20
217.9327828039367
 30
0.0
 11
629.2961068656334
 21
213.8327828039367
 31
0.0
  0
LINE
  5
11461
330
18
100
AcDbEntity
  8
1
  6
CONTINUOUS
 62
     3
100
AcDbLine
 10
629.2961068656333
 20
218.8303573073984
 30
0.0
 11
629.2961068656331
 21
217.9327828039367
 31
0.0
  0
LINE
  5
11462
330
18
100
AcDbEntity
  8
1
  6
CONTINUOUS
 62
     3
100
AcDbLine
 10
629.2961068656333
 20
218.8309449396804
 30
0.0
 11
629.2961068656331
 21
217.9333704362187
 31
0.0
  0
LINE
  5
11463
330
18
100
AcDbEntity
  8
1
  6
CONTINUOUS
 62
     3
100
AcDbLine
 10
629.2961077289143
 20
218.8309449396804
 30
0.0
 11
629.2961077289141
 21
217.9333704362187
 31
0.0
  0
ARC
  5
11464
330
18
100
AcDbEntity
  8
1
  6
CONTINUOUS
 62
     3
100
AcDbCircle
 10
628.6961068656333
 20
218.8303573073985
 30
0.0
 40
0.6
100
AcDbArc
 50
359.9999999999891
 51
90.0
  0
ARC
  5
11465
330
18
100
AcDbEntity
  8
1
  6
CONTINUOUS
 62
     3
100
AcDbCircle
 10
628.6961068656333
 20
218.8309449396805
 30
0.0
 40
0.6
100
AcDbArc
 50
359.9999999999837
 51
90.0
  0
ARC
  5
11466
330
18
100
AcDbEntity
  8
1
  6
CONTINUOUS
 62
     3
100
AcDbCircle
 10
628.6961077289143
 20
218.8309449396805
 30
0.0
 40
0.6
100
AcDbArc
 50
359.9999999999837
 51
90.0
  0
LINE
  5
11467
330
18
100
AcDbEntity
  8
1
  6
CONTINUOUS
 62
     3
100
AcDbLine
 10
640.974607062398
 20
182.1248941606215
 30
0.0
 11
640.974607062398
 21
197.3122840253491
 31
0.0
  0
LINE
  5
11468
330
18
100
AcDbEntity
  8
1
  6
CONTINUOUS
 62
     3
100
AcDbLine
 10
640.974607925679
 20
182.1254817929035
 30
0.0
 11
640.9746070623979
 21
201.4128716576311
 31
0.0
  0
ARC
  5
11469
330
18
100
AcDbEntity
  8
1
  6
CONTINUOUS
 62
     3
100
AcDbCircle
 10
639.974607062398
 20
176.8763630953471
 30
0.0
 40
1.0
100
AcDbArc
 50
0.0
 51
90.0
  0
ARC
  5
1146A
330
18
100
AcDbEntity
  8
1
  6
CONTINUOUS
 62
     3
100
AcDbCircle
 10
639.974607062398
 20
176.8769507276291
 30
0.0
 40
1.0
100
AcDbArc
 50
0.0
 51
90.0
  0
ARC
  5
1146B
330
18
100
AcDbEntity
  8
1
  6
CONTINUOUS
 62
     3
100
AcDbCircle
 10
639.974607925679
 20
176.8769507276291
 30
0.0
 40
1.0
100
AcDbArc
 50
0.0
 51
90.0
  0
LINE
  5
1146C
330
18
100
AcDbEntity
  8
1
  6
CONTINUOUS
 62
     3
100
AcDbLine
 10
639.3082119803245
 20
176.2769507276292
 30
0.0
 11
640.974607062398
 21
176.2763630953472
 31
0.0
  0
LINE
  5
1146D
330
18
100
AcDbEntity
  8
1
  6
CONTINUOUS
 62
     3
100
AcDbLine
 10
640.9746070623979
 20
176.4763630953472
 30
0.0
 11
640.974607062398
 21
176.8763630953471
 31
0.0
  0
LINE
  5
1146E
330
18
100
AcDbEntity
  8
1
  6
CONTINUOUS
 62
     3
100
AcDbLine
 10
640.9746070623979
 20
176.4769507276292
 30
0.0
 11
640.974607062398
 21
176.8769507276291
 31
0.0
  0
ARC
  5
1146F
330
18
100
AcDbEntity
  8
1
  6
CONTINUOUS
 62
     3
100
AcDbCircle
 10
640.374607062398
 20
182.1248941606215
 30
0.0
 40
0.6
100
AcDbArc
 50
270.0
 51
0.0
  0
ARC
  5
11470
330
18
100
AcDbEntity
  8
1
  6
CONTINUOUS
 62
     3
100
AcDbCircle
 10
640.374607062398
 20
182.1254817929035
 30
0.0
 40
0.6
100
AcDbArc
 50
270.0
 51
0.0
  0
ARC
  5
11471
330
18
100
AcDbEntity
  8
1
  6
CONTINUOUS
 62
     3
100
AcDbCircle
 10
640.374607925679
 20
182.1254817929035
 30
0.0
 40
0.6
100
AcDbArc
 50
270.0
 51
0.0
  0
LINE
  5
11472
330
18
100
AcDbEntity
  8
1
  6
CONTINUOUS
 62
     3
100
AcDbLine
 10
639.874607062398
 20
181.5248941606215
 30
0.0
 11
640.374607062398
 21
181.5248941606215
 31
0.0
  0
LINE
  5
11473
330
18
100
AcDbEntity
  8
1
  6
CONTINUOUS
 62
     3
100
AcDbLine
 10
639.874607062398
 20
181.5254817929035
 30
0.0
 11
640.374607062398
 21
181.5254817929035
 31
0.0
  0
LINE
  5
11474
330
18
100
AcDbEntity
  8
1
  6
CONTINUOUS
 62
     3
100
AcDbLine
 10
639.874607925679
 20
181.5254817929035
 30
0.0
 11
640.374607925679
 21
181.5254817929035
 31
0.0
  0
LINE
  5
11475
330
18
100
AcDbEntity
  8
1
  6
CONTINUOUS
 62
     3
100
AcDbLine
 10
640.974607062398
 20
197.4622840253491
 30
0.0
 11
640.9746070623984
 21
201.2622840253491
 31
0.0
  0
LINE
  5
11476
330
18
100
AcDbEntity
  8
1
  6
CONTINUOUS
 62
     3
100
AcDbLine
 10
640.974607062398
 20
197.3122840253491
 30
0.0
 11
640.9746070623979
 21
201.4122840253491
 31
0.0
  0
LINE
  5
11477
330
18
100
AcDbEntity
  8
1
  6
CONTINUOUS
 62
     3
100
AcDbLine
 10
640.974607062398
 20
201.412284025349
 30
0.0
 11
640.974607062398
 21
197.3122840253491
 31
0.0
  0
LINE
  5
11478
330
18
100
AcDbEntity
  8
1
  6
CONTINUOUS
 62
     3
100
AcDbLine
 10
640.974607062398
 20
197.4622840253491
 30
0.0
 11
640.9746070623984
 21
201.2622840253491
 31
0.0
  0
ARC
  5
11479
330
18
100
AcDbEntity
  8
1
  6
CONTINUOUS
 62
     3
100
AcDbCircle
 10
640.374607062398
 20
202.3098585288109
 30
0.0
 40
0.6
100
AcDbArc
 50
359.9999999999837
 51
89.99999999998914
  0
ARC
  5
1147A
330
18
100
AcDbEntity
  8
1
  6
CONTINUOUS
 62
     3
100
AcDbCircle
 10
640.374607062398
 20
202.3104461610929
 30
0.0
 40
0.6
100
AcDbArc
 50
359.9999999999837
 51
89.99999999998914
  0
ARC
  5
1147B
330
18
100
AcDbEntity
  8
1
  6
CONTINUOUS
 62
     3
100
AcDbCircle
 10
640.3746079256791
 20
202.3104461610929
 30
0.0
 40
0.6
100
AcDbArc
 50
359.9999999999837
 51
90.0
  0
LINE
  5
1147C
330
18
100
AcDbEntity
  8
1
  6
CONTINUOUS
 62
     3
100
AcDbLine
 10
640.974607062398
 20
202.3098585288107
 30
0.0
 11
640.9746070623979
 21
201.4122840253491
 31
0.0
  0
LINE
  5
1147D
330
18
100
AcDbEntity
  8
1
  6
CONTINUOUS
 62
     3
100
AcDbLine
 10
640.974607062398
 20
202.3104461610927
 30
0.0
 11
640.9746070623979
 21
201.4128716576311
 31
0.0
  0
LINE
  5
1147E
330
18
100
AcDbEntity
  8
1
  6
CONTINUOUS
 62
     3
100
AcDbLine
 10
640.974607925679
 20
202.3104461610927
 30
0.0
 11
640.9746079256789
 21
201.4128716576311
 31
0.0
  0
LINE
  5
1147F
330
18
100
AcDbEntity
  8
1
  6
CONTINUOUS
 62
     3
100
AcDbLine
 10
602.414607062398
 20
176.2763630953473
 30
0.0
 11
604.2146070623979
 21
176.2763630953473
 31
0.0
  0
CIRCLE
  5
11482
330
18
100
AcDbEntity
  8
1
100
AcDbCircle
 10
605.2504209134237
 20
252.6779816659393
 30
0.0
 40
0.6066710072590762
  0
LINE
  5
11483
330
18
100
AcDbEntity
  8
1
100
AcDbLine
 10
599.5358019937141
 20
255.7655260551441
 30
0.0
 11
609.7445399375656
 21
254.2364182274354
 31
0.0
  0
LINE
  5
11484
330
18
100
AcDbEntity
  8
1
100
AcDbLine
 10
609.3876549023286
 20
253.246980984611
 30
0.0
 11
598.5686269564856
 21
254.8678381077574
 31
0.0
  0
ARC
  5
11485
330
18
100
AcDbEntity
  8
1
100
AcDbCircle
 10
598.4893078325756
 20
255.7182596482685
 30
0.0
 40
0.202
100
AcDbArc
 50
81.46816896011323
 51
171.4681689600949
  0
LINE
  5
11486
330
18
100
AcDbEntity
  8
1
100
AcDbLine
 10
598.2121395902134
 20
255.2322691609244
 30
0.0
 11
598.5706636313196
 21
254.8657560492473
 31
0.0
  0
LINE
  5
11487
330
18
100
AcDbEntity
  8
1
100
AcDbLine
 10
598.2895432465334
 20
255.7482281344401
 30
0.0
 11
598.2121395902134
 21
255.2322691609244
 31
0.0
  0
LINE
  5
11488
330
18
100
AcDbEntity
  8
OSIE
100
AcDbLine
 10
602.6380476972894
 20
253.5264595452019
 30
0.0
 11
603.0035919784754
 21
255.9664241296735
 31
0.0
  0
LINE
  5
11489
330
18
100
AcDbEntity
  8
1
100
AcDbLine
 10
600.4909225788813
 20
253.3929637095154
 30
0.0
 11
600.6644040599908
 21
254.5525077594049
 31
0.0
  0
LINE
  5
1148A
330
18
100
AcDbEntity
  8
WY
100
AcDbLine
 10
599.6911529349998
 20
253.5126186914717
 30
0.0
 11
600.0907059463328
 21
253.4528408432782
 31
0.0
  0
LINE
  5
1148B
330
18
100
AcDbEntity
  8
WY
100
AcDbLine
 10
599.8610405165696
 20
253.2829532617084
 30
0.0
 11
599.920818364763
 21
253.6825062730415
 31
0.0
  0
LINE
  5
1148C
330
18
100
AcDbEntity
  8
1
100
AcDbLine
 10
599.9810135427642
 20
254.0826752362286
 30
0.0
 11
600.0647289786266
 21
254.6422262322041
 31
0.0
  0
CIRCLE
  5
1148D
330
18
100
AcDbEntity
  8
1
100
AcDbCircle
 10
599.8909294406662
 20
253.4827297673749
 30
0.0
 40
0.6066710072590762
  0
LINE
  5
1148E
330
18
100
AcDbEntity
  8
OSIE
100
AcDbLine
 10
604.6504277752088
 20
252.7677477237989
 30
0.0
 11
604.8243343478277
 21
253.9301330702198
 31
0.0
  0
LINE
  5
1148F
330
18
100
AcDbEntity
  8
1
100
AcDbLine
 10
599.5358019937141
 20
255.7655260551441
 30
0.0
 11
598.5192763187473
 21
255.9180242343106
 31
0.0
  0
LINE
  5
11490
330
18
100
AcDbEntity
  8
WY
100
AcDbLine
 10
605.0506444077572
 20
252.707870590036
 30
0.0
 11
605.4501974190903
 21
252.6480927418426
 31
0.0
  0
POINT
  5
11491
330
18
100
AcDbEntity
  8
DEFPOINTS
  6
BYBLOCK
 62
     0
100
AcDbPoint
 10
605.9339227346073
 20
253.76412554616
 30
0.0
  0
LINE
  5
11492
330
18
100
AcDbEntity
  8
1
100
AcDbLine
 10
605.9339227346073
 20
253.76412554616
 30
0.0
 11
606.7420371190817
 21
253.643222092481
 31
0.0
  0
LINE
  5
11493
330
18
100
AcDbEntity
  8
OSIE
100
AcDbLine
 10
605.3401869712833
 20
253.2779748041543
 30
0.0
 11
605.4243274860428
 21
253.8403670123602
 31
0.0
  0
LINE
  5
11494
330
18
100
AcDbEntity
  8
WY
100
AcDbLine
 10
605.220531989327
 20
252.4782051602727
 30
0.0
 11
605.2803098375205
 21
252.8777581716059
 31
0.0
  0
LINE
  5
11495
330
18
100
AcDbEntity
  8
1
100
AcDbLine
 10
609.8374311874312
 20
253.4923422685148
 30
0.0
 11
609.3876549023286
 21
253.246980984611
 31
0.0
  0
ARC
  5
11496
330
18
100
AcDbEntity
  8
1
100
AcDbCircle
 10
609.7146173252979
 20
254.0366467648211
 30
0.0
 40
0.202
100
AcDbArc
 50
351.4909879949333
 51
81.48132612618433
  0
LINE
  5
11497
330
18
100
AcDbEntity
  8
1
100
AcDbLine
 10
609.9143938309644
 20
254.0067578407243
 30
0.0
 11
609.8374311874312
 21
253.4923422685148
 31
0.0
  0
DIMENSION
  5
114A2
102
{ACAD_REACTORS
102
}
102
{ACAD_XDICTIONARY
360
114A3
102
}
330
18
100
AcDbEntity
  8
WYMIARY
100
AcDbDimension
  2
*D14
 10
529.7437418630693
 20
256.2875638587477
 30
0.0
 11
527.4937418630693
 21
213.5430968774617
 31
0.0
 70
    32
  3
STANDARD
100
AcDbAlignedDimension
 13
544.5506247950173
 23
170.7986298961757
 33
0.0
 14
597.8904094288171
 24
256.2875638587477
 34
0.0
 50
90.0
100
AcDbRotatedDimension
1001
ACAD
1000
DSTYLE
1002
{
1070
   287
1070
     5
1070
   271
1070
     1
1070
    41
1040
3.0
1070
   147
1040
0.75
1070
   279
1070
     2
1070
   140
1040
3.0
1002
}
  0
DIMENSION
  5
114B1
102
{ACAD_REACTORS
102
}
102
{ACAD_XDICTIONARY
360
114B2
102
}
330
18
100
AcDbEntity
  8
WYMIARY
100
AcDbDimension
  2
*D15
 10
567.6835903557169
 20
163.6380640028672
 30
0.0
 11
555.1635903557169
 21
165.8880640028672
 31
0.0
 70
    32
  3
STANDARD
100
AcDbAlignedDimension
 13
542.6435903557169
 23
172.63787068155
 33
0.0
 14
567.6835903557169
 24
175.2763630953473
 34
0.0
100
AcDbRotatedDimension
1001
ACAD
1000
DSTYLE
1002
{
1070
   287
1070
     5
1070
    78
1070
     8
1070
   271
1070
     1
1070
    41
1040
3.0
1070
   147
1040
0.75
1070
   279
1070
     2
1070
   140
1040
3.0
1002
}
  0
DIMENSION
  5
114C0
102
{ACAD_REACTORS
102
}
102
{ACAD_XDICTIONARY
360
114C1
102
}
330
18
100
AcDbEntity
  8
WYMIARY
100
AcDbDimension
  2
*D16
 10
602.414607062398
 20
163.6380640028672
 30
0.0
 11
585.0490987090575
 21
165.8880640028672
 31
0.0
 70
    32
  3
STANDARD
100
AcDbAlignedDimension
 13
567.6835903557169
 23
175.2763630953473
 33
0.0
 14
602.414607062398
 24
175.5987515082501
 34
0.0
100
AcDbRotatedDimension
1001
ACAD
1000
DSTYLE
1002
{
1070
   287
1070
     5
1070
   271
1070
     1
1070
    41
1040
3.0
1070
   147
1040
0.75
1070
   279
1070
     2
1070
   140
1040
3.0
1002
}
  0
ENDSEC
  0
SECTION
  2
OBJECTS
  0
DICTIONARY
  5
C
330
0
100
AcDbDictionary
  3
ACAD_DETAILVIEWSTYLE
350
114D3
  3
ACAD_GROUP
350
D
  3
ACAD_IMAGE_VARS
350
10E65
  3
ACAD_MLINESTYLE
350
E
  3
ACAD_SCALELIST
350
10E1D
  3
ACAD_SECTIONVIEWSTYLE
350
114D4
  3
ACDBVARIABLEDICTIONARY
350
C1B
  3
APPDATA
350
10E63
  3
DIMOFFSETDICTIONARY
350
1149D
  3
DWGPROPS
350
114DA
  0
DICTIONARY
  5
111A1
330
2
100
AcDbDictionary
280
     1
  3
ACAD_LAYERSTATES
360
111A2
  0
DICTIONARY
  5
114A3
330
114A2
100
AcDbDictionary
280
     1
  0
DICTIONARY
  5
114B2
330
114B1
100
AcDbDictionary
280
     1
  0
DICTIONARY
  5
114C1
330
114C0
100
AcDbDictionary
280
     1
  0
DICTIONARY
  5
114D3
102
{ACAD_REACTORS
330
C
102
}
330
C
100
AcDbDictionary
  0
DICTIONARY
  5
D
102
{ACAD_REACTORS
330
C
102
}
330
C
100
AcDbDictionary
  0
RASTERVARIABLES
  5
10E65
102
{ACAD_REACTORS
330
C
102
}
330
C
100
AcDbRasterVariables
 90
        0
 70
     1
 71
     1
 72
     0
  0
DICTIONARY
  5
E
102
{ACAD_REACTORS
330
C
102
}
330
C
100
AcDbDictionary
  3
STANDARD
350
1B
  0
DICTIONARY
  5
10E1D
102
{ACAD_REACTORS
330
C
102
}
330
C
100
AcDbDictionary
  0
DICTIONARY
  5
114D4
102
{ACAD_REACTORS
330
C
102
}
330
C
100
AcDbDictionary
  0
DICTIONARY
  5
C1B
102
{ACAD_REACTORS
330
C
102
}
330
C
100
AcDbDictionary
  3
HPTRANSPARENCY
350
1149C
  3
SORTENTS
350
C1C
  0
DICTIONARY
  5
10E63
102
{ACAD_REACTORS
330
C
102
}
330
C
100
AcDbDictionary
  0
DICTIONARY
  5
1149D
102
{ACAD_REACTORS
330
C
102
}
330
C
100
AcDbDictionary
  3
DIMRAILANGLE
350
114A0
  3
DIMRAILFIRSTOFFSET
350
1149E
  3
DIMRAILOFFSET
350
1149F
  3
DIMRAILSENABLED
350
114A1
  0
XRECORD
  5
114DA
102
{ACAD_REACTORS
330
C
102
}
330
C
100
AcDbXrecord
  1
DWGPROPS COOKIE
  2

  3

  4

  6

  7

  8
pikusl
  9

300
=
301
=
302
=
303
=
304
=
305
=
306
=
307
=
308
=
309
=
 40
0.0
 41
2448721.315803356
 42
2457521.298073889
  1

 90
        0
  0
DICTIONARY
  5
111A2
102
{ACAD_REACTORS
330
111A1
102
}
330
111A1
100
AcDbDictionary
  0
MLINESTYLE
  5
1B
102
{ACAD_REACTORS
330
E
102
}
330
E
100
AcDbMlineStyle
  2
STANDARD
 70
     0
  3

 62
     0
 51
90.0
 52
90.0
 71
     2
 49
0.5
 62
   256
  6
BYLAYER
 49
-0.5
 62
   256
  6
BYLAYER
  0
DICTIONARYVAR
  5
1149C
102
{ACAD_REACTORS
330
C1B
102
}
330
C1B
100
DictionaryVariables
280
     0
  1
ByLayer
  0
DICTIONARYVAR
  5
C1C
102
{ACAD_REACTORS
330
C1B
102
}
330
C1B
100
DictionaryVariables
280
     0
  1
96
  0
DICTIONARYVAR
  5
114A0
102
{ACAD_REACTORS
330
1149D
102
}
330
1149D
100
DictionaryVariables
280
     0
  1
0.261799
  0
DICTIONARYVAR
  5
1149E
102
{ACAD_REACTORS
330
1149D
102
}
330
1149D
100
DictionaryVariables
280
     0
  1
0.400000
  0
DICTIONARYVAR
  5
1149F
102
{ACAD_REACTORS
330
1149D
102
}
330
1149D
100
DictionaryVariables
280
     0
  1
0.250000
  0
DICTIONARYVAR
  5
114A1
102
{ACAD_REACTORS
330
1149D
102
}
330
1149D
100
DictionaryVariables
280
     0
  1
1
  0
ENDSEC
  0
EOF
