  0
SECTION
  2
HEADER
  9
$ACADVER
  1
AC1014
  9
$ACADMAINTVER
 70
     9
  9
$DWGCODEPAGE
  3
ANSI_1250
  9
$INSBASE
 10
0.0
 20
0.0
 30
0.0
  9
$EXTMIN
 10
486.4399922538362
 20
5.438438760343104
 30
0.0
  9
$EXTMAX
 10
688.0703992538363
 20
302.4384387603432
 30
0.0
  9
$LIMMIN
 10
0.0
 20
0.0
  9
$LIMMAX
 10
210.0
 20
297.0
  9
$ORTHOMODE
 70
     0
  9
$REGENMODE
 70
     1
  9
$FILLMODE
 70
     1
  9
$QTEXTMODE
 70
     0
  9
$MIRRTEXT
 70
     1
  9
$DRAGMODE
 70
     2
  9
$LTSCALE
 40
1.0
  9
$OSMODE
 70
  9143
  9
$ATTMODE
 70
     1
  9
$TEXTSIZE
 40
2.5
  9
$TRACEWID
 40
1.0
  9
$TEXTSTYLE
  7
STANDARD
  9
$CLAYER
  8
WY
  9
$CELTYPE
  6
BYLAYER
  9
$CECOLOR
 62
   256
  9
$CELTSCALE
 40
1.0
  9
$DELOBJ
 70
     1
  9
$DISPSILH
 70
     0
  9
$DIMSCALE
 40
1.0
  9
$DIMASZ
 40
1.2
  9
$DIMEXO
 40
1.0
  9
$DIMDLI
 40
3.75
  9
$DIMRND
 40
0.0
  9
$DIMDLE
 40
0.0
  9
$DIMEXE
 40
1.0
  9
$DIMTP
 40
0.0
  9
$DIMTM
 40
0.0
  9
$DIMTXT
 40
1.2
  9
$DIMCEN
 40
2.5
  9
$DIMTSZ
 40
0.0
  9
$DIMTOL
 70
     0
  9
$DIMLIM
 70
     0
  9
$DIMTIH
 70
     0
  9
$DIMTOH
 70
     1
  9
$DIMSE1
 70
     0
  9
$DIMSE2
 70
     0
  9
$DIMTAD
 70
     3
  9
$DIMZIN
 70
     8
  9
$DIMBLK
  1

  9
$DIMASO
 70
     1
  9
$DIMSHO
 70
     1
  9
$DIMPOST
  1

  9
$DIMAPOST
  1

  9
$DIMALT
 70
     0
  9
$DIMALTD
 70
     3
  9
$DIMALTF
 40
0.0393700787401575
  9
$DIMLFAC
 40
1.0
  9
$DIMTOFL
 70
     1
  9
$DIMTVP
 40
0.0
  9
$DIMTIX
 70
     1
  9
$DIMSOXD
 70
     0
  9
$DIMSAH
 70
     0
  9
$DIMBLK1
  1

  9
$DIMBLK2
  1

  9
$DIMSTYLE
  2
ISO-25
  9
$DIMCLRD
 70
     0
  9
$DIMCLRE
 70
     0
  9
$DIMCLRT
 70
     0
  9
$DIMTFAC
 40
1.0
  9
$DIMGAP
 40
1.0
  9
$DIMJUST
 70
     0
  9
$DIMSD1
 70
     0
  9
$DIMSD2
 70
     0
  9
$DIMTOLJ
 70
     0
  9
$DIMTZIN
 70
     8
  9
$DIMALTZ
 70
     0
  9
$DIMALTTZ
 70
     0
  9
$DIMFIT
 70
     5
  9
$DIMUPT
 70
     0
  9
$DIMUNIT
 70
     2
  9
$DIMDEC
 70
     2
  9
$DIMTDEC
 70
     2
  9
$DIMALTU
 70
     2
  9
$DIMALTTD
 70
     3
  9
$DIMTXSTY
  7
STANDARD
  9
$DIMAUNIT
 70
     0
  9
$LUNITS
 70
     2
  9
$LUPREC
 70
     2
  9
$SKETCHINC
 40
1.0
  9
$FILLETRAD
 40
10.0
  9
$AUNITS
 70
     0
  9
$AUPREC
 70
     2
  9
$MENU
  1
.
  9
$ELEVATION
 40
0.0
  9
$PELEVATION
 40
0.0
  9
$THICKNESS
 40
0.0
  9
$LIMCHECK
 70
     0
  9
$CHAMFERA
 40
0.0
  9
$CHAMFERB
 40
0.0
  9
$CHAMFERC
 40
0.0
  9
$CHAMFERD
 40
0.0
  9
$SKPOLY
 70
     0
  9
$TDCREATE
 40
2457520.476818843
  9
$TDUPDATE
 40
2457521.352460637
  9
$TDINDWG
 40
0.0152917245
  9
$TDUSRTIMER
 40
2457521.269032349
  9
$USRTIMER
 70
     1
  9
$ANGBASE
 50
0.0
  9
$ANGDIR
 70
     0
  9
$PDMODE
 70
     0
  9
$PDSIZE
 40
-1.0
  9
$PLINEWID
 40
0.0
  9
$COORDS
 70
     1
  9
$SPLFRAME
 70
     0
  9
$SPLINETYPE
 70
     6
  9
$SPLINESEGS
 70
     8
  9
$ATTDIA
 70
     0
  9
$ATTREQ
 70
     1
  9
$HANDLING
 70
     1
  9
$HANDSEED
  5
11ED
  9
$SURFTAB1
 70
     6
  9
$SURFTAB2
 70
     6
  9
$SURFTYPE
 70
     6
  9
$SURFU
 70
     6
  9
$SURFV
 70
     6
  9
$UCSNAME
  2

  9
$UCSORG
 10
0.0
 20
0.0
 30
0.0
  9
$UCSXDIR
 10
1.0
 20
0.0
 30
0.0
  9
$UCSYDIR
 10
0.0
 20
1.0
 30
0.0
  9
$PUCSNAME
  2

  9
$PUCSORG
 10
0.0
 20
0.0
 30
0.0
  9
$PUCSXDIR
 10
1.0
 20
0.0
 30
0.0
  9
$PUCSYDIR
 10
0.0
 20
1.0
 30
0.0
  9
$USERI1
 70
     0
  9
$USERI2
 70
     0
  9
$USERI3
 70
     0
  9
$USERI4
 70
     0
  9
$USERI5
 70
     0
  9
$USERR1
 40
0.0
  9
$USERR2
 40
0.0
  9
$USERR3
 40
0.0
  9
$USERR4
 40
0.0
  9
$USERR5
 40
0.0
  9
$WORLDVIEW
 70
     1
  9
$SHADEDGE
 70
     3
  9
$SHADEDIF
 70
    70
  9
$TILEMODE
 70
     1
  9
$MAXACTVP
 70
    64
  9
$PINSBASE
 10
0.0
 20
0.0
 30
0.0
  9
$PLIMCHECK
 70
     0
  9
$PEXTMIN
 10
1.000000000000000E+20
 20
1.000000000000000E+20
 30
1.000000000000000E+20
  9
$PEXTMAX
 10
-1.000000000000000E+20
 20
-1.000000000000000E+20
 30
-1.000000000000000E+20
  9
$PLIMMIN
 10
0.0
 20
0.0
  9
$PLIMMAX
 10
0.0
 20
0.0
  9
$UNITMODE
 70
     0
  9
$VISRETAIN
 70
     1
  9
$PLINEGEN
 70
     0
  9
$PSLTSCALE
 70
     1
  9
$TREEDEPTH
 70
  3020
  9
$PICKSTYLE
 70
     1
  9
$CMLSTYLE
  2
STANDARD
  9
$CMLJUST
 70
     0
  9
$CMLSCALE
 40
20.0
  9
$PROXYGRAPHICS
 70
     1
  9
$MEASUREMENT
 70
     1
  0
ENDSEC
  0
SECTION
  2
CLASSES
  0
CLASS
  1
ACDBDICTIONARYWDFLT
  2
AcDbDictionaryWithDefault
  3
ObjectDBX Classes
 90
        0
280
     0
281
     0
  0
CLASS
  1
VISUALSTYLE
  2
AcDbVisualStyle
  3
ObjectDBX Classes
 90
     4095
280
     0
281
     0
  0
CLASS
  1
MATERIAL
  2
AcDbMaterial
  3
ObjectDBX Classes
 90
     1153
280
     0
281
     0
  0
CLASS
  1
SCALE
  2
AcDbScale
  3
ObjectDBX Classes
 90
     1153
280
     0
281
     0
  0
CLASS
  1
TABLESTYLE
  2
AcDbTableStyle
  3
ObjectDBX Classes
 90
     4095
280
     0
281
     0
  0
CLASS
  1
MLEADERSTYLE
  2
AcDbMLeaderStyle
  3
ACDB_MLEADERSTYLE_CLASS
 90
     4095
280
     0
281
     0
  0
CLASS
  1
SUN
  2
AcDbSun
  3
SCENEOE
 90
     1153
280
     0
281
     0
  0
CLASS
  1
ACDBPLACEHOLDER
  2
AcDbPlaceHolder
  3
ObjectDBX Classes
 90
        0
280
     0
281
     0
  0
CLASS
  1
LAYOUT
  2
AcDbLayout
  3
ObjectDBX Classes
 90
        0
280
     0
281
     0
  0
CLASS
  1
RASTERVARIABLES
  2
AcDbRasterVariables
  3
ISM
 90
        0
280
     0
281
     0
  0
CLASS
  1
DICTIONARYVAR
  2
AcDbDictionaryVar
  3
ObjectDBX Classes
 90
        0
280
     0
281
     0
  0
CLASS
  1
DIMASSOC
  2
AcDbDimAssoc
  3
"AcDbDimAssoc|Product Desc:     AcDim ARX App For Dimension|Company:          Autodesk, Inc.|WEB Address:      www.autodesk.com"
 90
        0
280
     0
281
     0
  0
CLASS
  1
XRECORD
  2
AcDbXrecord
  3
ObjectDBX Classes
 90
        0
280
     0
281
     0
  0
CLASS
  1
LWPOLYLINE
  2
AcDbPolyline
  3
ObjectDBX Classes
 90
        0
280
     0
281
     1
  0
CLASS
  1
HATCH
  2
AcDbHatch
  3
ObjectDBX Classes
 90
        0
280
     0
281
     1
  0
ENDSEC
  0
SECTION
  2
TABLES
  0
TABLE
  2
VPORT
  5
8
330
0
100
AcDbSymbolTable
 70
     1
  0
VPORT
  5
29
330
8
100
AcDbSymbolTableRecord
100
AcDbViewportTableRecord
  2
*ACTIVE
 70
     0
 10
0.0
 20
0.0
 11
1.0
 21
1.0
 12
592.8098973871158
 22
-130.8806156478587
 13
0.0
 23
0.0
 14
10.0
 24
10.0
 15
10.0
 25
10.0
 16
0.0
 26
0.0
 36
1.0
 17
-5.554701633279592
 27
284.8190544082019
 37
-3.521061681231025
 40
302.94
 41
2.811127379209371
 42
50.0
 43
0.0
 44
0.0
 50
0.0
 51
0.0
 71
    16
 72
  2000
 73
     1
 74
     3
 75
     0
 76
     0
 77
     0
 78
     0
  0
ENDTAB
  0
TABLE
  2
LTYPE
  5
5
330
0
100
AcDbSymbolTable
 70
     6
  0
LTYPE
  5
14
330
5
100
AcDbSymbolTableRecord
100
AcDbLinetypeTableRecord
  2
BYBLOCK
 70
     0
  3

 72
    65
 73
     0
 40
0.0
  0
LTYPE
  5
15
330
5
100
AcDbSymbolTableRecord
100
AcDbLinetypeTableRecord
  2
BYLAYER
 70
     0
  3

 72
    65
 73
     0
 40
0.0
  0
LTYPE
  5
16
330
5
100
AcDbSymbolTableRecord
100
AcDbLinetypeTableRecord
  2
CONTINUOUS
 70
     0
  3
Solid line
 72
    65
 73
     0
 40
0.0
  0
LTYPE
  5
6E
330
5
100
AcDbSymbolTableRecord
100
AcDbLinetypeTableRecord
  2
HIDDEN
 70
     0
  3
Hidden __ __ __ __ __ __ __ __ __ __ __ __ __ __
 72
    65
 73
     2
 40
1.905
 49
1.27
 74
     0
 49
-0.635
 74
     0
  0
LTYPE
  5
6F
330
5
100
AcDbSymbolTableRecord
100
AcDbLinetypeTableRecord
  2
PHANTOM
 70
     0
  3
Phantom ______  __  __  ______  __  __  ______
 72
    65
 73
     6
 40
12.7
 49
6.35
 74
     0
 49
-1.27
 74
     0
 49
1.27
 74
     0
 49
-1.27
 74
     0
 49
1.27
 74
     0
 49
-1.27
 74
     0
  0
LTYPE
  5
70
330
5
100
AcDbSymbolTableRecord
100
AcDbLinetypeTableRecord
  2
CENTER
 70
     0
  3
Center ____ _ ____ _ ____ _ ____ _ ____ _ ____
 72
    65
 73
     4
 40
10.16
 49
6.35
 74
     0
 49
-1.27
 74
     0
 49
1.27
 74
     0
 49
-1.27
 74
     0
  0
LTYPE
  5
71
330
5
100
AcDbSymbolTableRecord
100
AcDbLinetypeTableRecord
  2
CENTERX2
 70
     0
  3
Center (2x) ________  __  ________  __  _____
 72
    65
 73
     4
 40
20.32
 49
12.7
 74
     0
 49
-2.54
 74
     0
 49
2.54
 74
     0
 49
-2.54
 74
     0
  0
LTYPE
  5
72
330
5
100
AcDbSymbolTableRecord
100
AcDbLinetypeTableRecord
  2
DOT2
 70
     0
  3
Dot (.5x) ........................................
 72
    65
 73
     2
 40
0.635
 49
0.0
 74
     0
 49
-0.635
 74
     0
  0
ENDTAB
  0
TABLE
  2
LAYER
  5
2
102
{ACAD_XDICTIONARY
360
81B
102
}
330
0
100
AcDbSymbolTable
 70
     8
  0
LAYER
  5
10
330
2
100
AcDbSymbolTableRecord
100
AcDbLayerTableRecord
  2
0
 70
     0
 62
     7
  6
CONTINUOUS
  0
LAYER
  5
73
330
2
100
AcDbSymbolTableRecord
100
AcDbLayerTableRecord
  2
FORMAT
 70
     0
 62
     7
  6
CONTINUOUS
  0
LAYER
  5
516
330
2
100
AcDbSymbolTableRecord
100
AcDbLayerTableRecord
  2
DEFPOINTS
 70
     0
 62
     7
  6
CONTINUOUS
  0
LAYER
  5
517
330
2
100
AcDbSymbolTableRecord
100
AcDbLayerTableRecord
  2
1
 70
     0
 62
     3
  6
CONTINUOUS
  0
LAYER
  5
519
330
2
100
AcDbSymbolTableRecord
100
AcDbLayerTableRecord
  2
2
 70
     0
 62
     6
  6
CONTINUOUS
  0
LAYER
  5
51A
330
2
100
AcDbSymbolTableRecord
100
AcDbLayerTableRecord
  2
WY
 70
     0
 62
     1
  6
CONTINUOUS
  0
LAYER
  5
51B
330
2
100
AcDbSymbolTableRecord
100
AcDbLayerTableRecord
  2
WYMIARY
 70
     0
 62
     1
  6
CONTINUOUS
  0
LAYER
  5
827
330
2
100
AcDbSymbolTableRecord
100
AcDbLayerTableRecord
  2
OŚ
 70
     0
 62
     2
  6
CENTER
1001
ACAECLAYERSTANDARD
1000

1000

  0
ENDTAB
  0
TABLE
  2
STYLE
  5
3
330
0
100
AcDbSymbolTable
 70
     5
  0
STYLE
  5
11
330
3
100
AcDbSymbolTableRecord
100
AcDbTextStyleTableRecord
  2
STANDARD
 70
     0
 40
0.0
 41
1.0
 50
0.0
 71
     0
 42
2.5
  3
txt
  4

  0
STYLE
  5
125
330
3
100
AcDbSymbolTableRecord
100
AcDbTextStyleTableRecord
  2
SLDTEXTSTYLE0
 70
     0
 40
0.0
 41
0.75
 50
0.0
 71
     0
 42
2.5
  3
TXT
  4

  0
STYLE
  5
127
330
3
100
AcDbSymbolTableRecord
100
AcDbTextStyleTableRecord
  2
SLDTEXTSTYLE1
 70
     0
 40
0.0
 41
0.75
 50
0.0
 71
     0
 42
2.5
  3
TXT
  4
bigfont
  0
STYLE
  5
146
330
3
100
AcDbSymbolTableRecord
100
AcDbTextStyleTableRecord
  2
SLDTEXTSTYLE2
 70
     0
 40
0.0
 41
0.605
 50
0.0
 71
     0
 42
2.5
  3
TXT
  4

  0
STYLE
  5
51E
330
3
100
AcDbSymbolTableRecord
100
AcDbTextStyleTableRecord
  2
ITALIC
 70
     0
 40
0.0
 41
1.0
 50
15.0
 71
     0
 42
2.5
  3
simplex
  4

  0
ENDTAB
  0
TABLE
  2
VIEW
  5
6
330
0
100
AcDbSymbolTable
 70
     0
  0
ENDTAB
  0
TABLE
  2
UCS
  5
7
330
0
100
AcDbSymbolTable
 70
     0
  0
ENDTAB
  0
TABLE
  2
APPID
  5
9
330
0
100
AcDbSymbolTable
 70
     2
  0
APPID
  5
12
330
9
100
AcDbSymbolTableRecord
100
AcDbRegAppTableRecord
  2
ACAD
 70
     0
  0
APPID
  5
828
330
9
100
AcDbSymbolTableRecord
100
AcDbRegAppTableRecord
  2
ACAECLAYERSTANDARD
 70
     0
  0
ENDTAB
  0
TABLE
  2
DIMSTYLE
  5
A
330
0
100
AcDbSymbolTable
 70
     2
  0
DIMSTYLE
105
27
102
{ACAD_REACTORS
330
D6A
330
D84
330
D93
330
DA5
330
DB4
330
DC5
330
DE4
330
E02
330
E11
330
E22
330
E34
330
10F0
330
10F7
330
10FA
330
10FC
330
1100
330
1102
330
1105
330
1108
330
110B
330
110E
102
}
330
A
100
AcDbSymbolTableRecord
100
AcDbDimStyleTableRecord
  2
ISO-25
 70
     0
  3

  4

  5

  6

  7

 40
1.0
 41
2.5
 42
0.625
 43
3.75
 44
1.25
 45
0.0
 46
0.0
 47
0.0
 48
0.0
140
2.5
141
2.5
142
0.0
143
0.03937007874016
144
1.0
145
0.0
146
1.0
147
0.625
 71
     0
 72
     0
 73
     0
 74
     0
 75
     0
 76
     0
 77
     1
 78
     8
170
     0
171
     3
172
     1
173
     0
174
     0
175
     0
176
     0
177
     0
178
     0
270
     2
271
     2
272
     2
273
     2
274
     3
340
11
275
     0
280
     0
281
     0
282
     0
283
     0
284
     8
285
     0
286
     0
287
     3
288
     0
  0
DIMSTYLE
105
51C
330
A
100
AcDbSymbolTableRecord
100
AcDbDimStyleTableRecord
  2
STANDARD
 70
     0
  3

  4

  5

  6

  7

 40
1.0
 41
3.5
 42
1.5
 43
7.0
 44
1.5
 45
0.0
 46
0.0
 47
0.1
 48
0.0
140
3.6
141
-1.0
142
0.0
143
25.4
144
1.0
145
0.0
146
1.0
147
1.5
 71
     0
 72
     0
 73
     0
 74
     0
 75
     0
 76
     0
 77
     1
 78
     0
170
     0
171
     2
172
     0
173
     0
174
     0
175
     0
176
     0
177
     0
178
     0
270
     2
271
     2
272
     4
273
     2
274
     2
340
11
275
     0
280
     0
281
     0
282
     0
283
     1
284
     0
285
     0
286
     0
287
     3
288
     0
  0
ENDTAB
  0
TABLE
  2
BLOCK_RECORD
  5
1
330
0
100
AcDbSymbolTable
 70
    61
  0
BLOCK_RECORD
  5
1F
330
1
100
AcDbSymbolTableRecord
100
AcDbBlockTableRecord
  2
*MODEL_SPACE
  0
BLOCK_RECORD
  5
1B
330
1
100
AcDbSymbolTableRecord
100
AcDbBlockTableRecord
  2
*PAPER_SPACE
  0
BLOCK_RECORD
  5
23
330
1
100
AcDbSymbolTableRecord
100
AcDbBlockTableRecord
  2
*PAPER_SPACE0
  0
BLOCK_RECORD
  5
14E
330
1
100
AcDbSymbolTableRecord
100
AcDbBlockTableRecord
  2
SW_NOTE_0
  0
BLOCK_RECORD
  5
D6D
330
1
100
AcDbSymbolTableRecord
100
AcDbBlockTableRecord
  2
*D26
  0
BLOCK_RECORD
  5
D87
330
1
100
AcDbSymbolTableRecord
100
AcDbBlockTableRecord
  2
*D27
  0
BLOCK_RECORD
  5
D96
330
1
100
AcDbSymbolTableRecord
100
AcDbBlockTableRecord
  2
*D28
  0
BLOCK_RECORD
  5
DA8
330
1
100
AcDbSymbolTableRecord
100
AcDbBlockTableRecord
  2
*D29
  0
BLOCK_RECORD
  5
DB7
330
1
100
AcDbSymbolTableRecord
100
AcDbBlockTableRecord
  2
*D30
  0
BLOCK_RECORD
  5
DC8
330
1
100
AcDbSymbolTableRecord
100
AcDbBlockTableRecord
  2
*D31
  0
BLOCK_RECORD
  5
DE7
330
1
100
AcDbSymbolTableRecord
100
AcDbBlockTableRecord
  2
*D32
  0
BLOCK_RECORD
  5
E05
330
1
100
AcDbSymbolTableRecord
100
AcDbBlockTableRecord
  2
*D34
  0
BLOCK_RECORD
  5
E14
330
1
100
AcDbSymbolTableRecord
100
AcDbBlockTableRecord
  2
*D35
  0
BLOCK_RECORD
  5
E25
330
1
100
AcDbSymbolTableRecord
100
AcDbBlockTableRecord
  2
*D36
  0
BLOCK_RECORD
  5
E37
330
1
100
AcDbSymbolTableRecord
100
AcDbBlockTableRecord
  2
*D37
  0
BLOCK_RECORD
  5
1111
330
1
100
AcDbSymbolTableRecord
100
AcDbBlockTableRecord
  2
*D50
  0
BLOCK_RECORD
  5
111D
330
1
100
AcDbSymbolTableRecord
100
AcDbBlockTableRecord
  2
*D51
  0
BLOCK_RECORD
  5
1129
330
1
100
AcDbSymbolTableRecord
100
AcDbBlockTableRecord
  2
*D52
  0
BLOCK_RECORD
  5
1138
330
1
100
AcDbSymbolTableRecord
100
AcDbBlockTableRecord
  2
*D53
  0
BLOCK_RECORD
  5
1152
330
1
100
AcDbSymbolTableRecord
100
AcDbBlockTableRecord
  2
*D55
  0
BLOCK_RECORD
  5
1160
330
1
100
AcDbSymbolTableRecord
100
AcDbBlockTableRecord
  2
*D56
  0
BLOCK_RECORD
  5
116C
330
1
100
AcDbSymbolTableRecord
100
AcDbBlockTableRecord
  2
*D57
  0
BLOCK_RECORD
  5
1178
330
1
100
AcDbSymbolTableRecord
100
AcDbBlockTableRecord
  2
*D58
  0
BLOCK_RECORD
  5
1186
330
1
100
AcDbSymbolTableRecord
100
AcDbBlockTableRecord
  2
*D59
  0
BLOCK_RECORD
  5
1195
330
1
100
AcDbSymbolTableRecord
100
AcDbBlockTableRecord
  2
*D60
  0
ENDTAB
  0
ENDSEC
  0
SECTION
  2
BLOCKS
  0
BLOCK
  5
20
330
1F
100
AcDbEntity
  8
0
100
AcDbBlockBegin
  2
*MODEL_SPACE
 70
     0
 10
0.0
 20
0.0
 30
0.0
  3
*MODEL_SPACE
  1

  0
ENDBLK
  5
21
330
1F
100
AcDbEntity
  8
0
100
AcDbBlockEnd
  0
BLOCK
  5
1C
330
1B
100
AcDbEntity
 67
     1
  8
0
100
AcDbBlockBegin
  2
*PAPER_SPACE
 70
     0
 10
0.0
 20
0.0
 30
0.0
  3
*PAPER_SPACE
  1

  0
ENDBLK
  5
1D
330
1B
100
AcDbEntity
 67
     1
  8
0
100
AcDbBlockEnd
  0
BLOCK
  5
24
330
23
100
AcDbEntity
  8
0
100
AcDbBlockBegin
  2
*PAPER_SPACE0
 70
     0
 10
0.0
 20
0.0
 30
0.0
  3
*PAPER_SPACE0
  1
*PAPER_SPACE0
  0
ENDBLK
  5
25
330
23
100
AcDbEntity
  8
0
100
AcDbBlockEnd
  0
BLOCK
  5
14F
330
14E
100
AcDbEntity
  8
0
100
AcDbBlockBegin
  2
SW_NOTE_0
 70
     0
 10
0.0
 20
0.0
 30
0.0
  3
SW_NOTE_0
  1
SW_NOTE_0
  0
MTEXT
  5
151
330
14E
100
AcDbEntity
  8
0
  6
CONTINUOUS
 62
     0
100
AcDbMText
 10
0.0
 20
3.867203219315898
 30
0.0
 40
3.0
 41
0.0
 71
     1
 72
     1
  1
%%p
  7
SLDTEXTSTYLE2
  0
MTEXT
  5
152
330
14E
100
AcDbEntity
  8
0
  6
CONTINUOUS
 62
     0
100
AcDbMText
 10
2.762499963864684
 20
3.867203219315898
 30
0.0
 40
3.0
 41
0.0
 71
     1
 72
     1
  1
0,03
  7
SLDTEXTSTYLE2
  0
ENDBLK
  5
150
330
14E
100
AcDbEntity
  8
0
100
AcDbBlockEnd
  0
BLOCK
  5
D6E
330
D6D
100
AcDbEntity
  8
0
100
AcDbBlockBegin
  2
*D26
 70
     1
 10
0.0
 20
0.0
 30
0.0
  3
*D26
  1
*D26
  0
LINE
  5
D70
330
D6D
100
AcDbEntity
  8
WY
 62
     0
100
AcDbLine
 10
582.0497789103956
 20
249.4014635713952
 30
0.0
 11
582.0497789103956
 21
254.3893155685107
 31
0.0
  0
LINE
  5
D71
330
D6D
100
AcDbEntity
  8
WY
 62
     0
100
AcDbLine
 10
553.5857407735889
 20
249.4014635713952
 30
0.0
 11
553.5857407735889
 21
254.3893155685107
 31
0.0
  0
LINE
  5
D72
330
D6D
100
AcDbEntity
  8
WY
 62
     0
100
AcDbLine
 10
580.8497789103956
 20
253.3893155685107
 30
0.0
 11
554.7857407735889
 21
253.3893155685107
 31
0.0
  0
SOLID
  5
D73
330
D6D
100
AcDbEntity
  8
WY
 62
     0
100
AcDbTrace
 10
580.8497789103956
 20
253.1893155685107
 30
0.0
 11
580.8497789103956
 21
253.5893155685107
 31
0.0
 12
582.0497789103956
 22
253.3893155685107
 32
0.0
 13
582.0497789103956
 23
253.3893155685107
 33
0.0
  0
SOLID
  5
D74
330
D6D
100
AcDbEntity
  8
WY
 62
     0
100
AcDbTrace
 10
554.7857407735889
 20
253.5893155685107
 30
0.0
 11
554.7857407735889
 21
253.1893155685107
 31
0.0
 12
553.5857407735889
 22
253.3893155685107
 32
0.0
 13
553.5857407735889
 23
253.3893155685107
 33
0.0
  0
MTEXT
  5
D75
330
D6D
100
AcDbEntity
  8
WY
 62
     0
100
AcDbMText
 10
568.5303688902308
 20
254.9893155685107
 30
0.0
 40
1.2
 41
0.0
 71
     5
 72
     1
  1
28.5
  0
POINT
  5
D76
330
D6D
100
AcDbEntity
  8
DEFPOINTS
 62
     0
100
AcDbPoint
 10
582.0497789103956
 20
248.4014635713952
 30
0.0
  0
POINT
  5
D77
330
D6D
100
AcDbEntity
  8
DEFPOINTS
 62
     0
100
AcDbPoint
 10
553.5857407735889
 20
248.4014635713952
 30
0.0
  0
POINT
  5
D78
330
D6D
100
AcDbEntity
  8
DEFPOINTS
 62
     0
100
AcDbPoint
 10
553.5857407735889
 20
253.3893155685107
 30
0.0
  0
ENDBLK
  5
D6F
330
D6D
100
AcDbEntity
  8
0
100
AcDbBlockEnd
  0
BLOCK
  5
D88
330
D87
100
AcDbEntity
  8
0
100
AcDbBlockBegin
  2
*D27
 70
     1
 10
0.0
 20
0.0
 30
0.0
  3
*D27
  1
*D27
  0
LINE
  5
D8A
330
D87
100
AcDbEntity
  8
WY
 62
     0
100
AcDbLine
 10
582.2715979097786
 20
239.979441647208
 30
0.0
 11
589.49290841915
 21
239.979441647208
 31
0.0
  0
LINE
  5
D8B
330
D87
100
AcDbEntity
  8
WY
 62
     0
100
AcDbLine
 10
582.2715979097785
 20
247.479441647208
 30
0.0
 11
589.49290841915
 21
247.479441647208
 31
0.0
  0
LINE
  5
D8C
330
D87
100
AcDbEntity
  8
WY
 62
     0
100
AcDbLine
 10
588.49290841915
 20
241.179441647208
 30
0.0
 11
588.49290841915
 21
246.279441647208
 31
0.0
  0
SOLID
  5
D8D
330
D87
100
AcDbEntity
  8
WY
 62
     0
100
AcDbTrace
 10
588.29290841915
 20
241.179441647208
 30
0.0
 11
588.6929084191501
 21
241.179441647208
 31
0.0
 12
588.49290841915
 22
239.979441647208
 32
0.0
 13
588.49290841915
 23
239.979441647208
 33
0.0
  0
SOLID
  5
D8E
330
D87
100
AcDbEntity
  8
WY
 62
     0
100
AcDbTrace
 10
588.6929084191501
 20
246.279441647208
 30
0.0
 11
588.29290841915
 21
246.279441647208
 31
0.0
 12
588.49290841915
 22
247.479441647208
 32
0.0
 13
588.49290841915
 23
247.479441647208
 33
0.0
  0
MTEXT
  5
D8F
330
D87
100
AcDbEntity
  8
WY
 62
     0
100
AcDbMText
 10
586.89290841915
 20
243.729441647208
 30
0.0
 40
1.2
 41
0.0
 71
     5
 72
     1
  1
7.5
 11
0.0
 21
1.0
 31
0.0
  0
POINT
  5
D90
330
D87
100
AcDbEntity
  8
DEFPOINTS
 62
     0
100
AcDbPoint
 10
581.2715979097786
 20
239.979441647208
 30
0.0
  0
POINT
  5
D91
330
D87
100
AcDbEntity
  8
DEFPOINTS
 62
     0
100
AcDbPoint
 10
581.2715979097785
 20
247.479441647208
 30
0.0
  0
POINT
  5
D92
330
D87
100
AcDbEntity
  8
DEFPOINTS
 62
     0
100
AcDbPoint
 10
588.49290841915
 20
247.479441647208
 30
0.0
  0
ENDBLK
  5
D89
330
D87
100
AcDbEntity
  8
0
100
AcDbBlockEnd
  0
BLOCK
  5
D97
330
D96
100
AcDbEntity
  8
0
100
AcDbBlockBegin
  2
*D28
 70
     1
 10
0.0
 20
0.0
 30
0.0
  3
*D28
  1
*D28
  0
LINE
  5
D99
330
D96
100
AcDbEntity
  8
WY
 62
     0
100
AcDbLine
 10
582.0497789103955
 20
238.0574197230209
 30
0.0
 11
582.0497789103955
 21
231.5904565449437
 31
0.0
  0
LINE
  5
D9A
330
D96
100
AcDbEntity
  8
WY
 62
     0
100
AcDbLine
 10
580.1497789103956
 20
237.9742790394989
 30
0.0
 11
580.1497789103956
 21
231.5904565449437
 31
0.0
  0
LINE
  5
D9B
330
D96
100
AcDbEntity
  8
WY
 62
     0
100
AcDbLine
 10
582.0497789103955
 20
232.5904565449437
 30
0.0
 11
589.2997789103956
 21
232.5904565449437
 31
0.0
  0
LINE
  5
D9C
330
D96
100
AcDbEntity
  8
WY
 62
     0
100
AcDbLine
 10
582.0497789103955
 20
232.5904565449437
 30
0.0
 11
580.1497789103956
 21
232.5904565449437
 31
0.0
  0
LINE
  5
D9D
330
D96
100
AcDbEntity
  8
WY
 62
     0
100
AcDbLine
 10
583.2497789103955
 20
232.5904565449437
 30
0.0
 11
584.4497789103956
 21
232.5904565449437
 31
0.0
  0
LINE
  5
D9E
330
D96
100
AcDbEntity
  8
WY
 62
     0
100
AcDbLine
 10
578.9497789103956
 20
232.5904565449437
 30
0.0
 11
577.7497789103955
 21
232.5904565449437
 31
0.0
  0
SOLID
  5
D9F
330
D96
100
AcDbEntity
  8
WY
 62
     0
100
AcDbTrace
 10
583.2497789103955
 20
232.7904565449437
 30
0.0
 11
583.2497789103955
 21
232.3904565449437
 31
0.0
 12
582.0497789103955
 22
232.5904565449437
 32
0.0
 13
582.0497789103955
 23
232.5904565449437
 33
0.0
  0
SOLID
  5
DA0
330
D96
100
AcDbEntity
  8
WY
 62
     0
100
AcDbTrace
 10
578.9497789103956
 20
232.3904565449437
 30
0.0
 11
578.9497789103956
 21
232.7904565449437
 31
0.0
 12
580.1497789103956
 22
232.5904565449437
 32
0.0
 13
580.1497789103956
 23
232.5904565449437
 33
0.0
  0
MTEXT
  5
DA1
330
D96
100
AcDbEntity
  8
WY
 62
     0
100
AcDbMText
 10
587.2997789103956
 20
234.1904565449437
 30
0.0
 40
1.2
 41
0.0
 71
     5
 72
     1
  1
1.9
  0
POINT
  5
DA2
330
D96
100
AcDbEntity
  8
DEFPOINTS
 62
     0
100
AcDbPoint
 10
582.0497789103955
 20
239.0574197230209
 30
0.0
  0
POINT
  5
DA3
330
D96
100
AcDbEntity
  8
DEFPOINTS
 62
     0
100
AcDbPoint
 10
580.1497789103956
 20
238.9742790394989
 30
0.0
  0
POINT
  5
DA4
330
D96
100
AcDbEntity
  8
DEFPOINTS
 62
     0
100
AcDbPoint
 10
580.1497789103956
 20
232.5904565449437
 30
0.0
  0
ENDBLK
  5
D98
330
D96
100
AcDbEntity
  8
0
100
AcDbBlockEnd
  0
BLOCK
  5
DA9
330
DA8
100
AcDbEntity
  8
0
100
AcDbBlockBegin
  2
*D29
 70
     1
 10
0.0
 20
0.0
 30
0.0
  3
*D29
  1
*D29
  0
LINE
  5
DAB
330
DA8
100
AcDbEntity
  8
WY
 62
     0
100
AcDbLine
 10
580.1497789103956
 20
237.9742790394989
 30
0.0
 11
580.1497789103956
 21
231.5904565449437
 31
0.0
  0
LINE
  5
DAC
330
DA8
100
AcDbEntity
  8
WY
 62
     0
100
AcDbLine
 10
561.2497789103955
 20
245.4742790394989
 30
0.0
 11
561.2497789103955
 21
231.5904565449437
 31
0.0
  0
LINE
  5
DAD
330
DA8
100
AcDbEntity
  8
WY
 62
     0
100
AcDbLine
 10
578.9497789103956
 20
232.5904565449437
 30
0.0
 11
562.4497789103956
 21
232.5904565449437
 31
0.0
  0
SOLID
  5
DAE
330
DA8
100
AcDbEntity
  8
WY
 62
     0
100
AcDbTrace
 10
578.9497789103956
 20
232.3904565449437
 30
0.0
 11
578.9497789103956
 21
232.7904565449437
 31
0.0
 12
580.1497789103956
 22
232.5904565449437
 32
0.0
 13
580.1497789103956
 23
232.5904565449437
 33
0.0
  0
SOLID
  5
DAF
330
DA8
100
AcDbEntity
  8
WY
 62
     0
100
AcDbTrace
 10
562.4497789103956
 20
232.7904565449437
 30
0.0
 11
562.4497789103956
 21
232.3904565449437
 31
0.0
 12
561.2497789103955
 22
232.5904565449437
 32
0.0
 13
561.2497789103955
 23
232.5904565449437
 33
0.0
  0
MTEXT
  5
DB0
330
DA8
100
AcDbEntity
  8
WY
 62
     0
100
AcDbMText
 10
570.6997789103956
 20
234.1904565449437
 30
0.0
 40
1.2
 41
0.0
 71
     5
 72
     1
  1
18.9
  0
POINT
  5
DB1
330
DA8
100
AcDbEntity
  8
DEFPOINTS
 62
     0
100
AcDbPoint
 10
580.1497789103956
 20
238.9742790394989
 30
0.0
  0
POINT
  5
DB2
330
DA8
100
AcDbEntity
  8
DEFPOINTS
 62
     0
100
AcDbPoint
 10
561.2497789103955
 20
246.4742790394989
 30
0.0
  0
POINT
  5
DB3
330
DA8
100
AcDbEntity
  8
DEFPOINTS
 62
     0
100
AcDbPoint
 10
561.2497789103955
 20
232.5904565449437
 30
0.0
  0
ENDBLK
  5
DAA
330
DA8
100
AcDbEntity
  8
0
100
AcDbBlockEnd
  0
BLOCK
  5
DB8
330
DB7
100
AcDbEntity
  8
0
100
AcDbBlockBegin
  2
*D30
 70
     1
 10
0.0
 20
0.0
 30
0.0
  3
*D30
  1
*D30
  0
LINE
  5
DBA
330
DB7
100
AcDbEntity
  8
WY
 62
     0
100
AcDbLine
 10
561.2497789103955
 20
245.4742790394989
 30
0.0
 11
561.2497789103955
 21
231.5904565449437
 31
0.0
  0
LINE
  5
DBB
330
DB7
100
AcDbEntity
  8
WY
 62
     0
100
AcDbLine
 10
558.0497789103955
 20
238.2012920709016
 30
0.0
 11
558.0497789103955
 21
231.5904565449437
 31
0.0
  0
LINE
  5
DBC
330
DB7
100
AcDbEntity
  8
WY
 62
     0
100
AcDbLine
 10
561.2497789103955
 20
232.5904565449437
 30
0.0
 11
558.0497789103955
 21
232.5904565449437
 31
0.0
  0
LINE
  5
DBD
330
DB7
100
AcDbEntity
  8
WY
 62
     0
100
AcDbLine
 10
562.4497789103956
 20
232.5904565449437
 30
0.0
 11
563.6497789103956
 21
232.5904565449437
 31
0.0
  0
LINE
  5
DBE
330
DB7
100
AcDbEntity
  8
WY
 62
     0
100
AcDbLine
 10
556.8497789103955
 20
232.5904565449437
 30
0.0
 11
555.6497789103954
 21
232.5904565449437
 31
0.0
  0
SOLID
  5
DBF
330
DB7
100
AcDbEntity
  8
WY
 62
     0
100
AcDbTrace
 10
562.4497789103956
 20
232.7904565449437
 30
0.0
 11
562.4497789103956
 21
232.3904565449437
 31
0.0
 12
561.2497789103955
 22
232.5904565449437
 32
0.0
 13
561.2497789103955
 23
232.5904565449437
 33
0.0
  0
SOLID
  5
DC0
330
DB7
100
AcDbEntity
  8
WY
 62
     0
100
AcDbTrace
 10
556.8497789103955
 20
232.3904565449437
 30
0.0
 11
556.8497789103955
 21
232.7904565449437
 31
0.0
 12
558.0497789103955
 22
232.5904565449437
 32
0.0
 13
558.0497789103955
 23
232.5904565449437
 33
0.0
  0
MTEXT
  5
DC1
330
DB7
100
AcDbEntity
  8
WY
 62
     0
100
AcDbMText
 10
559.6162996884758
 20
234.1904565449437
 30
0.0
 40
1.2
 41
0.0
 71
     5
 72
     1
  1
3.2
  0
POINT
  5
DC2
330
DB7
100
AcDbEntity
  8
DEFPOINTS
 62
     0
100
AcDbPoint
 10
561.2497789103955
 20
246.4742790394989
 30
0.0
  0
POINT
  5
DC3
330
DB7
100
AcDbEntity
  8
DEFPOINTS
 62
     0
100
AcDbPoint
 10
558.0497789103955
 20
239.2012920709016
 30
0.0
  0
POINT
  5
DC4
330
DB7
100
AcDbEntity
  8
DEFPOINTS
 62
     0
100
AcDbPoint
 10
558.0497789103955
 20
232.5904565449437
 30
0.0
  0
ENDBLK
  5
DB9
330
DB7
100
AcDbEntity
  8
0
100
AcDbBlockEnd
  0
BLOCK
  5
DC9
330
DC8
100
AcDbEntity
  8
0
100
AcDbBlockBegin
  2
*D31
 70
     1
 10
0.0
 20
0.0
 30
0.0
  3
*D31
  1
*D31
  0
LINE
  5
DCB
330
DC8
100
AcDbEntity
  8
WY
 62
     0
100
AcDbLine
 10
554.8497789103956
 20
245.4742790394989
 30
0.0
 11
554.8497789103956
 21
231.5904565449437
 31
0.0
  0
LINE
  5
DCC
330
DC8
100
AcDbEntity
  8
WY
 62
     0
100
AcDbLine
 10
558.0497789103955
 20
238.2012920709016
 30
0.0
 11
558.0497789103955
 21
231.5904565449437
 31
0.0
  0
LINE
  5
DCD
330
DC8
100
AcDbEntity
  8
WY
 62
     0
100
AcDbLine
 10
554.8497789103956
 20
232.5904565449437
 30
0.0
 11
558.0497789103955
 21
232.5904565449437
 31
0.0
  0
LINE
  5
DCE
330
DC8
100
AcDbEntity
  8
WY
 62
     0
100
AcDbLine
 10
553.6497789103955
 20
232.5904565449437
 30
0.0
 11
552.4497789103955
 21
232.5904565449437
 31
0.0
  0
LINE
  5
DCF
330
DC8
100
AcDbEntity
  8
WY
 62
     0
100
AcDbLine
 10
559.2497789103955
 20
232.5904565449437
 30
0.0
 11
560.4497789103956
 21
232.5904565449437
 31
0.0
  0
SOLID
  5
DD0
330
DC8
100
AcDbEntity
  8
WY
 62
     0
100
AcDbTrace
 10
553.6497789103955
 20
232.3904565449437
 30
0.0
 11
553.6497789103955
 21
232.7904565449437
 31
0.0
 12
554.8497789103956
 22
232.5904565449437
 32
0.0
 13
554.8497789103956
 23
232.5904565449437
 33
0.0
  0
SOLID
  5
DD1
330
DC8
100
AcDbEntity
  8
WY
 62
     0
100
AcDbTrace
 10
559.2497789103955
 20
232.7904565449437
 30
0.0
 11
559.2497789103955
 21
232.3904565449437
 31
0.0
 12
558.0497789103955
 22
232.5904565449437
 32
0.0
 13
558.0497789103955
 23
232.5904565449437
 33
0.0
  0
MTEXT
  5
DD2
330
DC8
100
AcDbEntity
  8
WY
 62
     0
100
AcDbMText
 10
556.4607279720093
 20
234.1904565449437
 30
0.0
 40
1.2
 41
0.0
 71
     5
 72
     1
  1
3.2
  0
POINT
  5
DD3
330
DC8
100
AcDbEntity
  8
DEFPOINTS
 62
     0
100
AcDbPoint
 10
554.8497789103956
 20
246.4742790394989
 30
0.0
  0
POINT
  5
DD4
330
DC8
100
AcDbEntity
  8
DEFPOINTS
 62
     0
100
AcDbPoint
 10
558.0497789103955
 20
239.2012920709016
 30
0.0
  0
POINT
  5
DD5
330
DC8
100
AcDbEntity
  8
DEFPOINTS
 62
     0
100
AcDbPoint
 10
558.0497789103955
 20
232.5904565449437
 30
0.0
  0
ENDBLK
  5
DCA
330
DC8
100
AcDbEntity
  8
0
100
AcDbBlockEnd
  0
BLOCK
  5
DE8
330
DE7
100
AcDbEntity
  8
0
100
AcDbBlockBegin
  2
*D32
 70
     1
 10
0.0
 20
0.0
 30
0.0
  3
*D32
  1
*D32
  0
LINE
  5
DEA
330
DE7
100
AcDbEntity
  8
WY
 62
     0
100
AcDbLine
 10
617.6573985869944
 20
199.3945034257436
 30
0.0
 11
617.6573985869944
 21
188.1756772136418
 31
0.0
  0
LINE
  5
DEB
330
DE7
100
AcDbEntity
  8
WY
 62
     0
100
AcDbLine
 10
627.6053637395398
 20
199.3945034257436
 30
0.0
 11
627.6053637395398
 21
188.1756772136418
 31
0.0
  0
LINE
  5
DEC
330
DE7
100
AcDbEntity
  8
WY
 62
     0
100
AcDbLine
 10
618.8573985869945
 20
189.1756772136418
 30
0.0
 11
626.4053637395398
 21
189.1756772136418
 31
0.0
  0
SOLID
  5
DED
330
DE7
100
AcDbEntity
  8
WY
 62
     0
100
AcDbTrace
 10
618.8573985869945
 20
189.3756772136418
 30
0.0
 11
618.8573985869945
 21
188.9756772136419
 31
0.0
 12
617.6573985869944
 22
189.1756772136418
 32
0.0
 13
617.6573985869944
 23
189.1756772136418
 33
0.0
  0
SOLID
  5
DEE
330
DE7
100
AcDbEntity
  8
WY
 62
     0
100
AcDbTrace
 10
626.4053637395398
 20
188.9756772136419
 30
0.0
 11
626.4053637395398
 21
189.3756772136418
 31
0.0
 12
627.6053637395398
 22
189.1756772136418
 32
0.0
 13
627.6053637395398
 23
189.1756772136418
 33
0.0
  0
MTEXT
  5
DEF
330
DE7
100
AcDbEntity
  8
WY
 62
     0
100
AcDbMText
 10
622.6313811632672
 20
190.7756772136418
 30
0.0
 40
1.2
 41
0.0
 71
     5
 72
     1
  1
10
  0
POINT
  5
DF0
330
DE7
100
AcDbEntity
  8
DEFPOINTS
 62
     0
100
AcDbPoint
 10
617.6573985869944
 20
200.3945034257436
 30
0.0
  0
POINT
  5
DF1
330
DE7
100
AcDbEntity
  8
DEFPOINTS
 62
     0
100
AcDbPoint
 10
627.6053637395398
 20
200.3945034257436
 30
0.0
  0
POINT
  5
DF2
330
DE7
100
AcDbEntity
  8
DEFPOINTS
 62
     0
100
AcDbPoint
 10
627.6053637395398
 20
189.1756772136418
 30
0.0
  0
ENDBLK
  5
DE9
330
DE7
100
AcDbEntity
  8
0
100
AcDbBlockEnd
  0
BLOCK
  5
E06
330
E05
100
AcDbEntity
  8
0
100
AcDbBlockBegin
  2
*D34
 70
     1
 10
0.0
 20
0.0
 30
0.0
  3
*D34
  1
*D34
  0
LINE
  5
E08
330
E05
100
AcDbEntity
  8
WY
 62
     0
100
AcDbLine
 10
552.6277598419923
 20
212.8445034257435
 30
0.0
 11
547.2001345117264
 21
212.8445034257435
 31
0.0
  0
LINE
  5
E09
330
E05
100
AcDbEntity
  8
WY
 62
     0
100
AcDbLine
 10
555.0509649227491
 20
200.3945034257436
 30
0.0
 11
547.2001345117264
 21
200.3945034257436
 31
0.0
  0
LINE
  5
E0A
330
E05
100
AcDbEntity
  8
WY
 62
     0
100
AcDbLine
 10
548.2001345117264
 20
211.6445034257436
 30
0.0
 11
548.2001345117264
 21
201.5945034257435
 31
0.0
  0
SOLID
  5
E0B
330
E05
100
AcDbEntity
  8
WY
 62
     0
100
AcDbTrace
 10
548.4001345117265
 20
211.6445034257436
 30
0.0
 11
548.0001345117264
 21
211.6445034257436
 31
0.0
 12
548.2001345117264
 22
212.8445034257435
 32
0.0
 13
548.2001345117264
 23
212.8445034257435
 33
0.0
  0
SOLID
  5
E0C
330
E05
100
AcDbEntity
  8
WY
 62
     0
100
AcDbTrace
 10
548.0001345117264
 20
201.5945034257435
 30
0.0
 11
548.4001345117265
 21
201.5945034257435
 31
0.0
 12
548.2001345117264
 22
200.3945034257436
 32
0.0
 13
548.2001345117264
 23
200.3945034257436
 33
0.0
  0
MTEXT
  5
E0D
330
E05
100
AcDbEntity
  8
WY
 62
     0
100
AcDbMText
 10
546.6001345117264
 20
206.6195034257435
 30
0.0
 40
1.2
 41
0.0
 71
     5
 72
     1
  1
12.5
 11
0.0
 21
1.0
 31
0.0
  0
POINT
  5
E0E
330
E05
100
AcDbEntity
  8
DEFPOINTS
 62
     0
100
AcDbPoint
 10
553.6277598419923
 20
212.8445034257435
 30
0.0
  0
POINT
  5
E0F
330
E05
100
AcDbEntity
  8
DEFPOINTS
 62
     0
100
AcDbPoint
 10
556.0509649227491
 20
200.3945034257436
 30
0.0
  0
POINT
  5
E10
330
E05
100
AcDbEntity
  8
DEFPOINTS
 62
     0
100
AcDbPoint
 10
548.2001345117264
 20
200.3945034257436
 30
0.0
  0
ENDBLK
  5
E07
330
E05
100
AcDbEntity
  8
0
100
AcDbBlockEnd
  0
BLOCK
  5
E15
330
E14
100
AcDbEntity
  8
0
100
AcDbBlockBegin
  2
*D35
 70
     1
 10
0.0
 20
0.0
 30
0.0
  3
*D35
  1
*D35
  0
LINE
  5
E17
330
E14
100
AcDbEntity
  8
WY
 62
     0
100
AcDbLine
 10
555.0509649227491
 20
200.3945034257436
 30
0.0
 11
547.2001345117264
 21
200.3945034257436
 31
0.0
  0
LINE
  5
E18
330
E14
100
AcDbEntity
  8
WY
 62
     0
100
AcDbLine
 10
553.5497789103956
 20
196.9945034257435
 30
0.0
 11
547.2001345117264
 21
196.9945034257435
 31
0.0
  0
LINE
  5
E19
330
E14
100
AcDbEntity
  8
WY
 62
     0
100
AcDbLine
 10
548.2001345117264
 20
200.3945034257436
 30
0.0
 11
548.2001345117264
 21
196.9945034257435
 31
0.0
  0
LINE
  5
E1A
330
E14
100
AcDbEntity
  8
WY
 62
     0
100
AcDbLine
 10
548.2001345117264
 20
201.5945034257435
 30
0.0
 11
548.2001345117264
 21
202.7945034257435
 31
0.0
  0
LINE
  5
E1B
330
E14
100
AcDbEntity
  8
WY
 62
     0
100
AcDbLine
 10
548.2001345117264
 20
195.7945034257436
 30
0.0
 11
548.2001345117264
 21
194.5945034257436
 31
0.0
  0
SOLID
  5
E1C
330
E14
100
AcDbEntity
  8
WY
 62
     0
100
AcDbTrace
 10
548.0001345117264
 20
201.5945034257435
 30
0.0
 11
548.4001345117265
 21
201.5945034257435
 31
0.0
 12
548.2001345117264
 22
200.3945034257436
 32
0.0
 13
548.2001345117264
 23
200.3945034257436
 33
0.0
  0
SOLID
  5
E1D
330
E14
100
AcDbEntity
  8
WY
 62
     0
100
AcDbTrace
 10
548.4001345117265
 20
195.7945034257436
 30
0.0
 11
548.0001345117264
 21
195.7945034257436
 31
0.0
 12
548.2001345117264
 22
196.9945034257435
 32
0.0
 13
548.2001345117264
 23
196.9945034257435
 33
0.0
  0
MTEXT
  5
E1E
330
E14
100
AcDbEntity
  8
WY
 62
     0
100
AcDbMText
 10
546.6001345117264
 20
198.6945034257436
 30
0.0
 40
1.2
 41
0.0
 71
     5
 72
     1
  1
3.4
 11
0.0
 21
1.0
 31
0.0
  0
POINT
  5
E1F
330
E14
100
AcDbEntity
  8
DEFPOINTS
 62
     0
100
AcDbPoint
 10
556.0509649227491
 20
200.3945034257436
 30
0.0
  0
POINT
  5
E20
330
E14
100
AcDbEntity
  8
DEFPOINTS
 62
     0
100
AcDbPoint
 10
554.5497789103956
 20
196.9945034257435
 30
0.0
  0
POINT
  5
E21
330
E14
100
AcDbEntity
  8
DEFPOINTS
 62
     0
100
AcDbPoint
 10
548.2001345117264
 20
196.9945034257435
 30
0.0
  0
ENDBLK
  5
E16
330
E14
100
AcDbEntity
  8
0
100
AcDbBlockEnd
  0
BLOCK
  5
E26
330
E25
100
AcDbEntity
  8
0
100
AcDbBlockBegin
  2
*D36
 70
     1
 10
0.0
 20
0.0
 30
0.0
  3
*D36
  1
*D36
  0
LINE
  5
E28
330
E25
100
AcDbEntity
  8
WY
 62
     0
100
AcDbLine
 10
554.5497789103956
 20
195.9945034257435
 30
0.0
 11
554.5497789103956
 21
189.492092452064
 31
0.0
  0
LINE
  5
E29
330
E25
100
AcDbEntity
  8
WY
 62
     0
100
AcDbLine
 10
555.1497789103956
 20
195.9945034257435
 30
0.0
 11
555.1497789103956
 21
189.492092452064
 31
0.0
  0
LINE
  5
E2A
330
E25
100
AcDbEntity
  8
WY
 62
     0
100
AcDbLine
 10
554.5497789103956
 20
190.492092452064
 30
0.0
 11
547.9497789103956
 21
190.492092452064
 31
0.0
  0
LINE
  5
E2B
330
E25
100
AcDbEntity
  8
WY
 62
     0
100
AcDbLine
 10
554.5497789103956
 20
190.492092452064
 30
0.0
 11
555.1497789103956
 21
190.492092452064
 31
0.0
  0
LINE
  5
E2C
330
E25
100
AcDbEntity
  8
WY
 62
     0
100
AcDbLine
 10
553.3497789103956
 20
190.492092452064
 30
0.0
 11
552.1497789103955
 21
190.492092452064
 31
0.0
  0
LINE
  5
E2D
330
E25
100
AcDbEntity
  8
WY
 62
     0
100
AcDbLine
 10
556.3497789103957
 20
190.492092452064
 30
0.0
 11
557.5497789103957
 21
190.492092452064
 31
0.0
  0
SOLID
  5
E2E
330
E25
100
AcDbEntity
  8
WY
 62
     0
100
AcDbTrace
 10
553.3497789103956
 20
190.292092452064
 30
0.0
 11
553.3497789103956
 21
190.692092452064
 31
0.0
 12
554.5497789103956
 22
190.492092452064
 32
0.0
 13
554.5497789103956
 23
190.492092452064
 33
0.0
  0
SOLID
  5
E2F
330
E25
100
AcDbEntity
  8
WY
 62
     0
100
AcDbTrace
 10
556.3497789103957
 20
190.692092452064
 30
0.0
 11
556.3497789103957
 21
190.292092452064
 31
0.0
 12
555.1497789103956
 22
190.492092452064
 32
0.0
 13
555.1497789103956
 23
190.492092452064
 33
0.0
  0
MTEXT
  5
E30
330
E25
100
AcDbEntity
  8
WY
 62
     0
100
AcDbMText
 10
550.0497789103956
 20
192.092092452064
 30
0.0
 40
1.2
 41
0.0
 71
     5
 72
     1
  1
0.6
  0
POINT
  5
E31
330
E25
100
AcDbEntity
  8
DEFPOINTS
 62
     0
100
AcDbPoint
 10
554.5497789103956
 20
196.9945034257435
 30
0.0
  0
POINT
  5
E32
330
E25
100
AcDbEntity
  8
DEFPOINTS
 62
     0
100
AcDbPoint
 10
555.1497789103956
 20
196.9945034257435
 30
0.0
  0
POINT
  5
E33
330
E25
100
AcDbEntity
  8
DEFPOINTS
 62
     0
100
AcDbPoint
 10
555.1497789103956
 20
190.492092452064
 30
0.0
  0
ENDBLK
  5
E27
330
E25
100
AcDbEntity
  8
0
100
AcDbBlockEnd
  0
BLOCK
  5
E38
330
E37
100
AcDbEntity
  8
0
100
AcDbBlockBegin
  2
*D37
 70
     1
 10
0.0
 20
0.0
 30
0.0
  3
*D37
  1
*D37
  0
LINE
  5
E3A
330
E37
100
AcDbEntity
  8
WY
 62
     0
100
AcDbLine
 10
579.6997789103956
 20
196.4695034257435
 30
0.0
 11
579.6997789103956
 21
189.492092452064
 31
0.0
  0
LINE
  5
E3B
330
E37
100
AcDbEntity
  8
WY
 62
     0
100
AcDbLine
 10
580.5997789103956
 20
196.4695034257435
 30
0.0
 11
580.5997789103956
 21
189.492092452064
 31
0.0
  0
LINE
  5
E3C
330
E37
100
AcDbEntity
  8
WY
 62
     0
100
AcDbLine
 10
579.6997789103956
 20
190.492092452064
 30
0.0
 11
573.0997789103956
 21
190.492092452064
 31
0.0
  0
LINE
  5
E3D
330
E37
100
AcDbEntity
  8
WY
 62
     0
100
AcDbLine
 10
579.6997789103956
 20
190.492092452064
 30
0.0
 11
580.5997789103956
 21
190.492092452064
 31
0.0
  0
LINE
  5
E3E
330
E37
100
AcDbEntity
  8
WY
 62
     0
100
AcDbLine
 10
578.4997789103955
 20
190.492092452064
 30
0.0
 11
577.2997789103955
 21
190.492092452064
 31
0.0
  0
LINE
  5
E3F
330
E37
100
AcDbEntity
  8
WY
 62
     0
100
AcDbLine
 10
581.7997789103956
 20
190.492092452064
 30
0.0
 11
582.9997789103957
 21
190.492092452064
 31
0.0
  0
SOLID
  5
E40
330
E37
100
AcDbEntity
  8
WY
 62
     0
100
AcDbTrace
 10
578.4997789103955
 20
190.292092452064
 30
0.0
 11
578.4997789103955
 21
190.692092452064
 31
0.0
 12
579.6997789103956
 22
190.492092452064
 32
0.0
 13
579.6997789103956
 23
190.492092452064
 33
0.0
  0
SOLID
  5
E41
330
E37
100
AcDbEntity
  8
WY
 62
     0
100
AcDbTrace
 10
581.7997789103956
 20
190.692092452064
 30
0.0
 11
581.7997789103956
 21
190.292092452064
 31
0.0
 12
580.5997789103956
 22
190.492092452064
 32
0.0
 13
580.5997789103956
 23
190.492092452064
 33
0.0
  0
MTEXT
  5
E42
330
E37
100
AcDbEntity
  8
WY
 62
     0
100
AcDbMText
 10
575.1997789103956
 20
192.092092452064
 30
0.0
 40
1.2
 41
0.0
 71
     5
 72
     1
  1
0.9
  0
POINT
  5
E43
330
E37
100
AcDbEntity
  8
DEFPOINTS
 62
     0
100
AcDbPoint
 10
579.6997789103956
 20
197.4695034257435
 30
0.0
  0
POINT
  5
E44
330
E37
100
AcDbEntity
  8
DEFPOINTS
 62
     0
100
AcDbPoint
 10
580.5997789103956
 20
197.4695034257435
 30
0.0
  0
POINT
  5
E45
330
E37
100
AcDbEntity
  8
DEFPOINTS
 62
     0
100
AcDbPoint
 10
580.5997789103956
 20
190.492092452064
 30
0.0
  0
ENDBLK
  5
E39
330
E37
100
AcDbEntity
  8
0
100
AcDbBlockEnd
  0
BLOCK
  5
1112
330
1111
100
AcDbEntity
  8
0
100
AcDbBlockBegin
  2
*D50
 70
     1
 10
0.0
 20
0.0
 30
0.0
  3
*D50
  1
*D50
  0
LINE
  5
1114
330
1111
100
AcDbEntity
  8
WY
 62
     0
100
AcDbLine
 10
579.2670350236496
 20
147.3269858501517
 30
0.0
 11
579.2670350236496
 21
152.3148378472671
 31
0.0
  0
LINE
  5
1115
330
1111
100
AcDbEntity
  8
WY
 62
     0
100
AcDbLine
 10
550.8029968868428
 20
147.3269858501517
 30
0.0
 11
550.8029968868428
 21
152.3148378472671
 31
0.0
  0
LINE
  5
1116
330
1111
100
AcDbEntity
  8
WY
 62
     0
100
AcDbLine
 10
578.0670350236495
 20
151.3148378472671
 30
0.0
 11
552.0029968868429
 21
151.3148378472671
 31
0.0
  0
SOLID
  5
1117
330
1111
100
AcDbEntity
  8
WY
 62
     0
100
AcDbTrace
 10
578.0670350236495
 20
151.1148378472672
 30
0.0
 11
578.0670350236495
 21
151.5148378472671
 31
0.0
 12
579.2670350236496
 22
151.3148378472671
 32
0.0
 13
579.2670350236496
 23
151.3148378472671
 33
0.0
  0
SOLID
  5
1118
330
1111
100
AcDbEntity
  8
WY
 62
     0
100
AcDbTrace
 10
552.0029968868429
 20
151.5148378472671
 30
0.0
 11
552.0029968868429
 21
151.1148378472672
 31
0.0
 12
550.8029968868428
 22
151.3148378472671
 32
0.0
 13
550.8029968868428
 23
151.3148378472671
 33
0.0
  0
MTEXT
  5
1119
330
1111
100
AcDbEntity
  8
WY
 62
     0
100
AcDbMText
 10
565.7476250034847
 20
152.9148378472671
 30
0.0
 40
1.2
 41
0.0
 71
     5
 72
     1
  1
28.5
  0
POINT
  5
111A
330
1111
100
AcDbEntity
  8
DEFPOINTS
 62
     0
100
AcDbPoint
 10
579.2670350236496
 20
146.3269858501517
 30
0.0
  0
POINT
  5
111B
330
1111
100
AcDbEntity
  8
DEFPOINTS
 62
     0
100
AcDbPoint
 10
550.8029968868428
 20
146.3269858501517
 30
0.0
  0
POINT
  5
111C
330
1111
100
AcDbEntity
  8
DEFPOINTS
 62
     0
100
AcDbPoint
 10
550.8029968868428
 20
151.3148378472671
 30
0.0
  0
ENDBLK
  5
1113
330
1111
100
AcDbEntity
  8
0
100
AcDbBlockEnd
  0
BLOCK
  5
111E
330
111D
100
AcDbEntity
  8
0
100
AcDbBlockBegin
  2
*D51
 70
     1
 10
0.0
 20
0.0
 30
0.0
  3
*D51
  1
*D51
  0
LINE
  5
1120
330
111D
100
AcDbEntity
  8
WY
 62
     0
100
AcDbLine
 10
579.4888540230326
 20
137.9049639259645
 30
0.0
 11
586.710164532404
 21
137.9049639259645
 31
0.0
  0
LINE
  5
1121
330
111D
100
AcDbEntity
  8
WY
 62
     0
100
AcDbLine
 10
579.4888540230324
 20
145.4049639259645
 30
0.0
 11
586.710164532404
 21
145.4049639259645
 31
0.0
  0
LINE
  5
1122
330
111D
100
AcDbEntity
  8
WY
 62
     0
100
AcDbLine
 10
585.710164532404
 20
139.1049639259645
 30
0.0
 11
585.710164532404
 21
144.2049639259645
 31
0.0
  0
SOLID
  5
1123
330
111D
100
AcDbEntity
  8
WY
 62
     0
100
AcDbTrace
 10
585.5101645324039
 20
139.1049639259645
 30
0.0
 11
585.910164532404
 21
139.1049639259645
 31
0.0
 12
585.710164532404
 22
137.9049639259645
 32
0.0
 13
585.710164532404
 23
137.9049639259645
 33
0.0
  0
SOLID
  5
1124
330
111D
100
AcDbEntity
  8
WY
 62
     0
100
AcDbTrace
 10
585.910164532404
 20
144.2049639259645
 30
0.0
 11
585.5101645324039
 21
144.2049639259645
 31
0.0
 12
585.710164532404
 22
145.4049639259645
 32
0.0
 13
585.710164532404
 23
145.4049639259645
 33
0.0
  0
MTEXT
  5
1125
330
111D
100
AcDbEntity
  8
WY
 62
     0
100
AcDbMText
 10
584.1101645324039
 20
141.6549639259645
 30
0.0
 40
1.2
 41
0.0
 71
     5
 72
     1
  1
7.5
 11
0.0
 21
1.0
 31
0.0
  0
POINT
  5
1126
330
111D
100
AcDbEntity
  8
DEFPOINTS
 62
     0
100
AcDbPoint
 10
578.4888540230326
 20
137.9049639259645
 30
0.0
  0
POINT
  5
1127
330
111D
100
AcDbEntity
  8
DEFPOINTS
 62
     0
100
AcDbPoint
 10
578.4888540230324
 20
145.4049639259645
 30
0.0
  0
POINT
  5
1128
330
111D
100
AcDbEntity
  8
DEFPOINTS
 62
     0
100
AcDbPoint
 10
585.710164532404
 20
145.4049639259645
 30
0.0
  0
ENDBLK
  5
111F
330
111D
100
AcDbEntity
  8
0
100
AcDbBlockEnd
  0
BLOCK
  5
112A
330
1129
100
AcDbEntity
  8
0
100
AcDbBlockBegin
  2
*D52
 70
     1
 10
0.0
 20
0.0
 30
0.0
  3
*D52
  1
*D52
  0
LINE
  5
112C
330
1129
100
AcDbEntity
  8
WY
 62
     0
100
AcDbLine
 10
579.2670350236494
 20
135.9829420017774
 30
0.0
 11
579.2670350236494
 21
129.5159788237002
 31
0.0
  0
LINE
  5
112D
330
1129
100
AcDbEntity
  8
WY
 62
     0
100
AcDbLine
 10
577.3670350236496
 20
135.8998013182553
 30
0.0
 11
577.3670350236496
 21
129.5159788237002
 31
0.0
  0
LINE
  5
112E
330
1129
100
AcDbEntity
  8
WY
 62
     0
100
AcDbLine
 10
579.2670350236494
 20
130.5159788237002
 30
0.0
 11
586.5170350236496
 21
130.5159788237002
 31
0.0
  0
LINE
  5
112F
330
1129
100
AcDbEntity
  8
WY
 62
     0
100
AcDbLine
 10
579.2670350236494
 20
130.5159788237002
 30
0.0
 11
577.3670350236496
 21
130.5159788237002
 31
0.0
  0
LINE
  5
1130
330
1129
100
AcDbEntity
  8
WY
 62
     0
100
AcDbLine
 10
580.4670350236495
 20
130.5159788237002
 30
0.0
 11
581.6670350236495
 21
130.5159788237002
 31
0.0
  0
LINE
  5
1131
330
1129
100
AcDbEntity
  8
WY
 62
     0
100
AcDbLine
 10
576.1670350236495
 20
130.5159788237002
 30
0.0
 11
574.9670350236495
 21
130.5159788237002
 31
0.0
  0
SOLID
  5
1132
330
1129
100
AcDbEntity
  8
WY
 62
     0
100
AcDbTrace
 10
580.4670350236495
 20
130.7159788237002
 30
0.0
 11
580.4670350236495
 21
130.3159788237002
 31
0.0
 12
579.2670350236494
 22
130.5159788237002
 32
0.0
 13
579.2670350236494
 23
130.5159788237002
 33
0.0
  0
SOLID
  5
1133
330
1129
100
AcDbEntity
  8
WY
 62
     0
100
AcDbTrace
 10
576.1670350236495
 20
130.3159788237002
 30
0.0
 11
576.1670350236495
 21
130.7159788237002
 31
0.0
 12
577.3670350236496
 22
130.5159788237002
 32
0.0
 13
577.3670350236496
 23
130.5159788237002
 33
0.0
  0
MTEXT
  5
1134
330
1129
100
AcDbEntity
  8
WY
 62
     0
100
AcDbMText
 10
584.5170350236496
 20
132.1159788237002
 30
0.0
 40
1.2
 41
0.0
 71
     5
 72
     1
  1
1.9
  0
POINT
  5
1135
330
1129
100
AcDbEntity
  8
DEFPOINTS
 62
     0
100
AcDbPoint
 10
579.2670350236494
 20
136.9829420017774
 30
0.0
  0
POINT
  5
1136
330
1129
100
AcDbEntity
  8
DEFPOINTS
 62
     0
100
AcDbPoint
 10
577.3670350236496
 20
136.8998013182553
 30
0.0
  0
POINT
  5
1137
330
1129
100
AcDbEntity
  8
DEFPOINTS
 62
     0
100
AcDbPoint
 10
577.3670350236496
 20
130.5159788237002
 30
0.0
  0
ENDBLK
  5
112B
330
1129
100
AcDbEntity
  8
0
100
AcDbBlockEnd
  0
BLOCK
  5
1139
330
1138
100
AcDbEntity
  8
0
100
AcDbBlockBegin
  2
*D53
 70
     1
 10
0.0
 20
0.0
 30
0.0
  3
*D53
  1
*D53
  0
LINE
  5
113B
330
1138
100
AcDbEntity
  8
WY
 62
     0
100
AcDbLine
 10
577.3670350236496
 20
135.8998013182553
 30
0.0
 11
577.3670350236496
 21
129.5159788237002
 31
0.0
  0
LINE
  5
113C
330
1138
100
AcDbEntity
  8
WY
 62
     0
100
AcDbLine
 10
558.4670350236495
 20
135.8998013182554
 30
0.0
 11
558.4670350236495
 21
129.5159788237002
 31
0.0
  0
LINE
  5
113D
330
1138
100
AcDbEntity
  8
WY
 62
     0
100
AcDbLine
 10
576.1670350236495
 20
130.5159788237002
 30
0.0
 11
559.6670350236495
 21
130.5159788237002
 31
0.0
  0
SOLID
  5
113E
330
1138
100
AcDbEntity
  8
WY
 62
     0
100
AcDbTrace
 10
576.1670350236495
 20
130.3159788237002
 30
0.0
 11
576.1670350236495
 21
130.7159788237002
 31
0.0
 12
577.3670350236496
 22
130.5159788237002
 32
0.0
 13
577.3670350236496
 23
130.5159788237002
 33
0.0
  0
SOLID
  5
113F
330
1138
100
AcDbEntity
  8
WY
 62
     0
100
AcDbTrace
 10
559.6670350236495
 20
130.7159788237002
 30
0.0
 11
559.6670350236495
 21
130.3159788237002
 31
0.0
 12
558.4670350236495
 22
130.5159788237002
 32
0.0
 13
558.4670350236495
 23
130.5159788237002
 33
0.0
  0
MTEXT
  5
1140
330
1138
100
AcDbEntity
  8
WY
 62
     0
100
AcDbMText
 10
567.9170350236495
 20
132.1159788237002
 30
0.0
 40
1.2
 41
0.0
 71
     5
 72
     1
  1
18.9
  0
POINT
  5
1141
330
1138
100
AcDbEntity
  8
DEFPOINTS
 62
     0
100
AcDbPoint
 10
577.3670350236496
 20
136.8998013182553
 30
0.0
  0
POINT
  5
1142
330
1138
100
AcDbEntity
  8
DEFPOINTS
 62
     0
100
AcDbPoint
 10
558.4670350236495
 20
136.8998013182554
 30
0.0
  0
POINT
  5
1143
330
1138
100
AcDbEntity
  8
DEFPOINTS
 62
     0
100
AcDbPoint
 10
558.4670350236495
 20
130.5159788237002
 30
0.0
  0
ENDBLK
  5
113A
330
1138
100
AcDbEntity
  8
0
100
AcDbBlockEnd
  0
BLOCK
  5
1153
330
1152
100
AcDbEntity
  8
0
100
AcDbBlockBegin
  2
*D55
 70
     1
 10
0.0
 20
0.0
 30
0.0
  3
*D55
  1
*D55
  0
LINE
  5
1155
330
1152
100
AcDbEntity
  8
WY
 62
     0
100
AcDbLine
 10
553.4270350236495
 20
143.3998013182553
 30
0.0
 11
553.4270350236495
 21
129.5159788237002
 31
0.0
  0
LINE
  5
1156
330
1152
100
AcDbEntity
  8
WY
 62
     0
100
AcDbLine
 10
558.4670350236495
 20
135.8998013182554
 30
0.0
 11
558.4670350236495
 21
129.5159788237002
 31
0.0
  0
LINE
  5
1157
330
1152
100
AcDbEntity
  8
WY
 62
     0
100
AcDbLine
 10
554.6270350236496
 20
130.5159788237002
 30
0.0
 11
557.2670350236494
 21
130.5159788237002
 31
0.0
  0
SOLID
  5
1158
330
1152
100
AcDbEntity
  8
WY
 62
     0
100
AcDbTrace
 10
554.6270350236496
 20
130.7159788237002
 30
0.0
 11
554.6270350236496
 21
130.3159788237002
 31
0.0
 12
553.4270350236495
 22
130.5159788237002
 32
0.0
 13
553.4270350236495
 23
130.5159788237002
 33
0.0
  0
SOLID
  5
1159
330
1152
100
AcDbEntity
  8
WY
 62
     0
100
AcDbTrace
 10
557.2670350236494
 20
130.3159788237002
 30
0.0
 11
557.2670350236494
 21
130.7159788237002
 31
0.0
 12
558.4670350236495
 22
130.5159788237002
 32
0.0
 13
558.4670350236495
 23
130.5159788237002
 33
0.0
  0
MTEXT
  5
115A
330
1152
100
AcDbEntity
  8
WY
 62
     0
100
AcDbMText
 10
555.9470350236495
 20
132.1159788237002
 30
0.0
 40
1.2
 41
0.0
 71
     5
 72
     1
  1
5.04
  0
POINT
  5
115B
330
1152
100
AcDbEntity
  8
DEFPOINTS
 62
     0
100
AcDbPoint
 10
553.4270350236495
 20
144.3998013182553
 30
0.0
  0
POINT
  5
115C
330
1152
100
AcDbEntity
  8
DEFPOINTS
 62
     0
100
AcDbPoint
 10
558.4670350236495
 20
136.8998013182554
 30
0.0
  0
POINT
  5
115D
330
1152
100
AcDbEntity
  8
DEFPOINTS
 62
     0
100
AcDbPoint
 10
558.4670350236495
 20
130.5159788237002
 30
0.0
  0
ENDBLK
  5
1154
330
1152
100
AcDbEntity
  8
0
100
AcDbBlockEnd
  0
BLOCK
  5
1161
330
1160
100
AcDbEntity
  8
0
100
AcDbBlockBegin
  2
*D56
 70
     1
 10
0.0
 20
0.0
 30
0.0
  3
*D56
  1
*D56
  0
LINE
  5
1163
330
1160
100
AcDbEntity
  8
WY
 62
     0
100
AcDbLine
 10
614.8746547002484
 20
97.32002570450001
 30
0.0
 11
614.8746547002484
 21
86.10119949239831
 31
0.0
  0
LINE
  5
1164
330
1160
100
AcDbEntity
  8
WY
 62
     0
100
AcDbLine
 10
624.8226198527938
 20
97.32002570450001
 30
0.0
 11
624.8226198527938
 21
86.10119949239831
 31
0.0
  0
LINE
  5
1165
330
1160
100
AcDbEntity
  8
WY
 62
     0
100
AcDbLine
 10
616.0746547002484
 20
87.10119949239831
 30
0.0
 11
623.6226198527937
 21
87.10119949239831
 31
0.0
  0
SOLID
  5
1166
330
1160
100
AcDbEntity
  8
WY
 62
     0
100
AcDbTrace
 10
616.0746547002484
 20
87.30119949239831
 30
0.0
 11
616.0746547002484
 21
86.9011994923983
 31
0.0
 12
614.8746547002484
 22
87.10119949239831
 32
0.0
 13
614.8746547002484
 23
87.10119949239831
 33
0.0
  0
SOLID
  5
1167
330
1160
100
AcDbEntity
  8
WY
 62
     0
100
AcDbTrace
 10
623.6226198527937
 20
86.9011994923983
 30
0.0
 11
623.6226198527937
 21
87.30119949239831
 31
0.0
 12
624.8226198527938
 22
87.10119949239831
 32
0.0
 13
624.8226198527938
 23
87.10119949239831
 33
0.0
  0
MTEXT
  5
1168
330
1160
100
AcDbEntity
  8
WY
 62
     0
100
AcDbMText
 10
619.848637276521
 20
88.7011994923983
 30
0.0
 40
1.2
 41
0.0
 71
     5
 72
     1
  1
10
  0
POINT
  5
1169
330
1160
100
AcDbEntity
  8
DEFPOINTS
 62
     0
100
AcDbPoint
 10
614.8746547002484
 20
98.32002570450001
 30
0.0
  0
POINT
  5
116A
330
1160
100
AcDbEntity
  8
DEFPOINTS
 62
     0
100
AcDbPoint
 10
624.8226198527938
 20
98.32002570450001
 30
0.0
  0
POINT
  5
116B
330
1160
100
AcDbEntity
  8
DEFPOINTS
 62
     0
100
AcDbPoint
 10
624.8226198527938
 20
87.10119949239831
 30
0.0
  0
ENDBLK
  5
1162
330
1160
100
AcDbEntity
  8
0
100
AcDbBlockEnd
  0
BLOCK
  5
116D
330
116C
100
AcDbEntity
  8
0
100
AcDbBlockBegin
  2
*D57
 70
     1
 10
0.0
 20
0.0
 30
0.0
  3
*D57
  1
*D57
  0
LINE
  5
116F
330
116C
100
AcDbEntity
  8
WY
 62
     0
100
AcDbLine
 10
549.8450159552463
 20
110.7700257045
 30
0.0
 11
544.4173906249804
 21
110.7700257045
 31
0.0
  0
LINE
  5
1170
330
116C
100
AcDbEntity
  8
WY
 62
     0
100
AcDbLine
 10
552.2682210360031
 20
98.32002570450001
 30
0.0
 11
544.4173906249804
 21
98.32002570450001
 31
0.0
  0
LINE
  5
1171
330
116C
100
AcDbEntity
  8
WY
 62
     0
100
AcDbLine
 10
545.4173906249804
 20
109.5700257045
 30
0.0
 11
545.4173906249804
 21
99.52002570450001
 31
0.0
  0
SOLID
  5
1172
330
116C
100
AcDbEntity
  8
WY
 62
     0
100
AcDbTrace
 10
545.6173906249804
 20
109.5700257045
 30
0.0
 11
545.2173906249803
 21
109.5700257045
 31
0.0
 12
545.4173906249804
 22
110.7700257045
 32
0.0
 13
545.4173906249804
 23
110.7700257045
 33
0.0
  0
SOLID
  5
1173
330
116C
100
AcDbEntity
  8
WY
 62
     0
100
AcDbTrace
 10
545.2173906249803
 20
99.52002570450001
 30
0.0
 11
545.6173906249804
 21
99.52002570450001
 31
0.0
 12
545.4173906249804
 22
98.32002570450001
 32
0.0
 13
545.4173906249804
 23
98.32002570450001
 33
0.0
  0
MTEXT
  5
1174
330
116C
100
AcDbEntity
  8
WY
 62
     0
100
AcDbMText
 10
543.8173906249804
 20
104.5450257045
 30
0.0
 40
1.2
 41
0.0
 71
     5
 72
     1
  1
12.5
 11
0.0
 21
1.0
 31
0.0
  0
POINT
  5
1175
330
116C
100
AcDbEntity
  8
DEFPOINTS
 62
     0
100
AcDbPoint
 10
550.8450159552463
 20
110.7700257045
 30
0.0
  0
POINT
  5
1176
330
116C
100
AcDbEntity
  8
DEFPOINTS
 62
     0
100
AcDbPoint
 10
553.2682210360031
 20
98.32002570450001
 30
0.0
  0
POINT
  5
1177
330
116C
100
AcDbEntity
  8
DEFPOINTS
 62
     0
100
AcDbPoint
 10
545.4173906249804
 20
98.32002570450001
 30
0.0
  0
ENDBLK
  5
116E
330
116C
100
AcDbEntity
  8
0
100
AcDbBlockEnd
  0
BLOCK
  5
1179
330
1178
100
AcDbEntity
  8
0
100
AcDbBlockBegin
  2
*D58
 70
     1
 10
0.0
 20
0.0
 30
0.0
  3
*D58
  1
*D58
  0
LINE
  5
117B
330
1178
100
AcDbEntity
  8
WY
 62
     0
100
AcDbLine
 10
552.2682210360031
 20
98.32002570450001
 30
0.0
 11
544.4173906249804
 21
98.32002570450001
 31
0.0
  0
LINE
  5
117C
330
1178
100
AcDbEntity
  8
WY
 62
     0
100
AcDbLine
 10
552.1270350236495
 20
94.9200257045
 30
0.0
 11
544.4173906249804
 21
94.9200257045
 31
0.0
  0
LINE
  5
117D
330
1178
100
AcDbEntity
  8
WY
 62
     0
100
AcDbLine
 10
545.4173906249804
 20
98.32002570450001
 30
0.0
 11
545.4173906249804
 21
94.9200257045
 31
0.0
  0
LINE
  5
117E
330
1178
100
AcDbEntity
  8
WY
 62
     0
100
AcDbLine
 10
545.4173906249804
 20
99.52002570450001
 30
0.0
 11
545.4173906249804
 21
100.7200257045
 31
0.0
  0
LINE
  5
117F
330
1178
100
AcDbEntity
  8
WY
 62
     0
100
AcDbLine
 10
545.4173906249804
 20
93.7200257045
 30
0.0
 11
545.4173906249804
 21
92.5200257045
 31
0.0
  0
SOLID
  5
1180
330
1178
100
AcDbEntity
  8
WY
 62
     0
100
AcDbTrace
 10
545.2173906249803
 20
99.52002570450001
 30
0.0
 11
545.6173906249804
 21
99.52002570450001
 31
0.0
 12
545.4173906249804
 22
98.32002570450001
 32
0.0
 13
545.4173906249804
 23
98.32002570450001
 33
0.0
  0
SOLID
  5
1181
330
1178
100
AcDbEntity
  8
WY
 62
     0
100
AcDbTrace
 10
545.6173906249804
 20
93.7200257045
 30
0.0
 11
545.2173906249803
 21
93.7200257045
 31
0.0
 12
545.4173906249804
 22
94.9200257045
 32
0.0
 13
545.4173906249804
 23
94.9200257045
 33
0.0
  0
MTEXT
  5
1182
330
1178
100
AcDbEntity
  8
WY
 62
     0
100
AcDbMText
 10
543.8173906249804
 20
96.62002570450001
 30
0.0
 40
1.2
 41
0.0
 71
     5
 72
     1
  1
3.4
 11
0.0
 21
1.0
 31
0.0
  0
POINT
  5
1183
330
1178
100
AcDbEntity
  8
DEFPOINTS
 62
     0
100
AcDbPoint
 10
553.2682210360031
 20
98.32002570450001
 30
0.0
  0
POINT
  5
1184
330
1178
100
AcDbEntity
  8
DEFPOINTS
 62
     0
100
AcDbPoint
 10
553.1270350236495
 20
94.9200257045
 30
0.0
  0
POINT
  5
1185
330
1178
100
AcDbEntity
  8
DEFPOINTS
 62
     0
100
AcDbPoint
 10
545.4173906249804
 20
94.9200257045
 30
0.0
  0
ENDBLK
  5
117A
330
1178
100
AcDbEntity
  8
0
100
AcDbBlockEnd
  0
BLOCK
  5
1187
330
1186
100
AcDbEntity
  8
0
100
AcDbBlockBegin
  2
*D59
 70
     1
 10
0.0
 20
0.0
 30
0.0
  3
*D59
  1
*D59
  0
LINE
  5
1189
330
1186
100
AcDbEntity
  8
WY
 62
     0
100
AcDbLine
 10
553.1270350236495
 20
93.9200257045
 30
0.0
 11
553.1270350236495
 21
87.41761473082047
 31
0.0
  0
LINE
  5
118A
330
1186
100
AcDbEntity
  8
WY
 62
     0
100
AcDbLine
 10
553.7270350236495
 20
93.9200257045
 30
0.0
 11
553.7270350236495
 21
87.41761473082047
 31
0.0
  0
LINE
  5
118B
330
1186
100
AcDbEntity
  8
WY
 62
     0
100
AcDbLine
 10
553.1270350236495
 20
88.41761473082047
 30
0.0
 11
546.5270350236494
 21
88.41761473082047
 31
0.0
  0
LINE
  5
118C
330
1186
100
AcDbEntity
  8
WY
 62
     0
100
AcDbLine
 10
553.1270350236495
 20
88.41761473082047
 30
0.0
 11
553.7270350236495
 21
88.41761473082047
 31
0.0
  0
LINE
  5
118D
330
1186
100
AcDbEntity
  8
WY
 62
     0
100
AcDbLine
 10
551.9270350236494
 20
88.41761473082047
 30
0.0
 11
550.7270350236494
 21
88.41761473082047
 31
0.0
  0
LINE
  5
118E
330
1186
100
AcDbEntity
  8
WY
 62
     0
100
AcDbLine
 10
554.9270350236495
 20
88.41761473082047
 30
0.0
 11
556.1270350236496
 21
88.41761473082047
 31
0.0
  0
SOLID
  5
118F
330
1186
100
AcDbEntity
  8
WY
 62
     0
100
AcDbTrace
 10
551.9270350236494
 20
88.21761473082047
 30
0.0
 11
551.9270350236494
 21
88.61761473082048
 31
0.0
 12
553.1270350236495
 22
88.41761473082047
 32
0.0
 13
553.1270350236495
 23
88.41761473082047
 33
0.0
  0
SOLID
  5
1190
330
1186
100
AcDbEntity
  8
WY
 62
     0
100
AcDbTrace
 10
554.9270350236495
 20
88.61761473082048
 30
0.0
 11
554.9270350236495
 21
88.21761473082047
 31
0.0
 12
553.7270350236495
 22
88.41761473082047
 32
0.0
 13
553.7270350236495
 23
88.41761473082047
 33
0.0
  0
MTEXT
  5
1191
330
1186
100
AcDbEntity
  8
WY
 62
     0
100
AcDbMText
 10
548.6270350236495
 20
90.01761473082047
 30
0.0
 40
1.2
 41
0.0
 71
     5
 72
     1
  1
0.6
  0
POINT
  5
1192
330
1186
100
AcDbEntity
  8
DEFPOINTS
 62
     0
100
AcDbPoint
 10
553.1270350236495
 20
94.9200257045
 30
0.0
  0
POINT
  5
1193
330
1186
100
AcDbEntity
  8
DEFPOINTS
 62
     0
100
AcDbPoint
 10
553.7270350236495
 20
94.9200257045
 30
0.0
  0
POINT
  5
1194
330
1186
100
AcDbEntity
  8
DEFPOINTS
 62
     0
100
AcDbPoint
 10
553.7270350236495
 20
88.41761473082047
 30
0.0
  0
ENDBLK
  5
1188
330
1186
100
AcDbEntity
  8
0
100
AcDbBlockEnd
  0
BLOCK
  5
1196
330
1195
100
AcDbEntity
  8
0
100
AcDbBlockBegin
  2
*D60
 70
     1
 10
0.0
 20
0.0
 30
0.0
  3
*D60
  1
*D60
  0
LINE
  5
1198
330
1195
100
AcDbEntity
  8
WY
 62
     0
100
AcDbLine
 10
576.9170350236495
 20
94.3950257045
 30
0.0
 11
576.9170350236495
 21
87.41761473082047
 31
0.0
  0
LINE
  5
1199
330
1195
100
AcDbEntity
  8
WY
 62
     0
100
AcDbLine
 10
577.8170350236495
 20
94.3950257045
 30
0.0
 11
577.8170350236495
 21
87.41761473082047
 31
0.0
  0
LINE
  5
119A
330
1195
100
AcDbEntity
  8
WY
 62
     0
100
AcDbLine
 10
576.9170350236495
 20
88.41761473082047
 30
0.0
 11
570.3170350236495
 21
88.41761473082047
 31
0.0
  0
LINE
  5
119B
330
1195
100
AcDbEntity
  8
WY
 62
     0
100
AcDbLine
 10
576.9170350236495
 20
88.41761473082047
 30
0.0
 11
577.8170350236495
 21
88.41761473082047
 31
0.0
  0
LINE
  5
119C
330
1195
100
AcDbEntity
  8
WY
 62
     0
100
AcDbLine
 10
575.7170350236495
 20
88.41761473082047
 30
0.0
 11
574.5170350236494
 21
88.41761473082047
 31
0.0
  0
LINE
  5
119D
330
1195
100
AcDbEntity
  8
WY
 62
     0
100
AcDbLine
 10
579.0170350236496
 20
88.41761473082047
 30
0.0
 11
580.2170350236496
 21
88.41761473082047
 31
0.0
  0
SOLID
  5
119E
330
1195
100
AcDbEntity
  8
WY
 62
     0
100
AcDbTrace
 10
575.7170350236495
 20
88.21761473082047
 30
0.0
 11
575.7170350236495
 21
88.61761473082048
 31
0.0
 12
576.9170350236495
 22
88.41761473082047
 32
0.0
 13
576.9170350236495
 23
88.41761473082047
 33
0.0
  0
SOLID
  5
119F
330
1195
100
AcDbEntity
  8
WY
 62
     0
100
AcDbTrace
 10
579.0170350236496
 20
88.61761473082048
 30
0.0
 11
579.0170350236496
 21
88.21761473082047
 31
0.0
 12
577.8170350236495
 22
88.41761473082047
 32
0.0
 13
577.8170350236495
 23
88.41761473082047
 33
0.0
  0
MTEXT
  5
11A0
330
1195
100
AcDbEntity
  8
WY
 62
     0
100
AcDbMText
 10
572.4170350236495
 20
90.01761473082047
 30
0.0
 40
1.2
 41
0.0
 71
     5
 72
     1
  1
0.9
  0
POINT
  5
11A1
330
1195
100
AcDbEntity
  8
DEFPOINTS
 62
     0
100
AcDbPoint
 10
576.9170350236495
 20
95.3950257045
 30
0.0
  0
POINT
  5
11A2
330
1195
100
AcDbEntity
  8
DEFPOINTS
 62
     0
100
AcDbPoint
 10
577.8170350236495
 20
95.3950257045
 30
0.0
  0
POINT
  5
11A3
330
1195
100
AcDbEntity
  8
DEFPOINTS
 62
     0
100
AcDbPoint
 10
577.8170350236495
 20
88.41761473082047
 30
0.0
  0
ENDBLK
  5
1197
330
1195
100
AcDbEntity
  8
0
100
AcDbBlockEnd
  0
ENDSEC
  0
SECTION
  2
ENTITIES
  0
LINE
  5
61E
330
1F
100
AcDbEntity
  8
WYMIARY
 62
     6
100
AcDbLine
 10
486.4399922538362
 20
5.43843876034312
 30
0.0
 11
486.4399922538362
 21
302.4384387603431
 31
0.0
  0
LINE
  5
61F
330
1F
100
AcDbEntity
  8
WYMIARY
 62
     6
100
AcDbLine
 10
498.0703992538362
 20
297.4384387603431
 30
0.0
 11
498.0703992538362
 21
10.43843876034312
 31
0.0
  0
LINE
  5
620
330
1F
100
AcDbEntity
  8
2
100
AcDbLine
 10
683.0703992538363
 20
10.43843876034312
 30
0.0
 11
683.0703992538363
 21
297.4384387603431
 31
0.0
  0
LINE
  5
621
330
1F
100
AcDbEntity
  8
2
100
AcDbLine
 10
688.0703992538363
 20
5.43843876034312
 30
0.0
 11
688.0703992538363
 21
302.4384387603431
 31
0.0
  0
LINE
  5
622
330
1F
100
AcDbEntity
  8
WY
  6
CONTINUOUS
 62
     3
100
AcDbLine
 10
683.0703992538363
 20
25.12827576034312
 30
0.0
 11
498.0703992538362
 21
25.12827576034312
 31
0.0
  0
LINE
  5
623
330
1F
100
AcDbEntity
  8
2
100
AcDbLine
 10
498.0703992538362
 20
10.43843876034312
 30
0.0
 11
683.0703992538363
 21
10.43843876034312
 31
0.0
  0
LINE
  5
624
330
1F
100
AcDbEntity
  8
2
 62
     6
100
AcDbLine
 10
498.0703992538362
 20
5.43843876034312
 30
0.0
 11
688.0703992538363
 21
5.43843876034312
 31
0.0
  0
LINE
  5
625
330
1F
100
AcDbEntity
  8
0
100
AcDbLine
 10
530.0964152538363
 20
17.18091976034312
 30
0.0
 11
529.1940042538363
 21
17.18091976034312
 31
0.0
  0
ELLIPSE
  5
626
330
1F
100
AcDbEntity
  8
0
100
AcDbEllipse
 10
530.0964152538363
 20
17.18091976034312
 30
0.0
 11
-1.203215696869327
 21
1.967000000000000E-13
 31
0.0
210
0.0
220
0.0
230
1.0
 40
0.958812
 41
-1.570796326794739
 42
0.0000000000001705
  0
TEXT
  5
627
330
1F
100
AcDbEntity
  8
1
100
AcDbText
 10
516.0063262538363
 20
14.23589576034312
 30
0.0
 40
5.0
  1
A4
 51
15.0
  7
ITALIC
100
AcDbText
  0
LINE
  5
628
330
1F
100
AcDbEntity
  8
WYMIARY
 62
     6
100
AcDbLine
 10
498.0703992538362
 20
5.43843876034312
 30
0.0
 11
486.4399922538362
 21
5.43843876034312
 31
0.0
  0
TEXT
  5
629
330
1F
100
AcDbEntity
  8
WY
100
AcDbText
 10
503.3355132538362
 20
21.81228276034312
 30
0.0
 40
2.0
  1
Skala
 51
15.0
  7
ITALIC
100
AcDbText
  0
TEXT
  5
62A
330
1F
100
AcDbEntity
  8
WY
100
AcDbText
 10
515.4409672538363
 20
21.76780776034312
 30
0.0
 40
2.0
  1
Format
 51
15.0
  7
ITALIC
100
AcDbText
  0
LINE
  5
62B
330
1F
100
AcDbEntity
  8
0
100
AcDbLine
 10
528.8932002538363
 20
17.18091976034312
 30
0.0
 11
529.1940042538363
 21
17.18091976034312
 31
0.0
  0
LINE
  5
62C
330
1F
100
AcDbEntity
  8
0
100
AcDbLine
 10
560.2859682538362
 20
22.64970276034312
 30
0.0
 11
560.2859682538362
 21
14.45370276034312
 31
0.0
  0
LINE
  5
62D
330
1F
100
AcDbEntity
  8
0
100
AcDbLine
 10
551.2919682538363
 20
14.87670276034312
 30
0.0
 11
551.2919682538363
 21
12.85470276034312
 31
0.0
  0
ARC
  5
62E
330
1F
100
AcDbEntity
  8
0
100
AcDbCircle
 10
551.9415482538363
 20
15.16320276034312
 30
0.0
 40
0.709955
100
AcDbArc
 50
203.800079999998
 51
272.0519179999911
  0
LINE
  5
62F
330
1F
100
AcDbEntity
  8
0
100
AcDbLine
 10
549.7469682538363
 20
12.85470276034312
 30
0.0
 11
549.7469682538363
 21
21.05070276034312
 31
0.0
  0
ARC
  5
630
330
1F
100
AcDbEntity
  8
0
100
AcDbCircle
 10
552.3808742538363
 20
15.57485476034312
 30
0.0
 40
1.128907
100
AcDbArc
 50
276.7195760000022
 51
2.175194000000076
  0
ARC
  5
631
330
1F
100
AcDbEntity
  8
0
100
AcDbCircle
 10
555.6418072538363
 20
15.94201076034312
 30
0.0
 40
1.488419
100
AcDbArc
 50
191.6342679999997
 51
270.6991129999946
  0
ARC
  5
632
330
1F
100
AcDbEntity
  8
0
100
AcDbCircle
 10
556.6081292538363
 20
15.94201076034312
 30
0.0
 40
1.488419
100
AcDbArc
 50
269.3008869999965
 51
348.3657319999994
  0
LINE
  5
633
330
1F
100
AcDbEntity
  8
0
100
AcDbLine
 10
558.7409682538362
 20
14.45370276034312
 30
0.0
 11
558.7409682538362
 21
22.64970276034312
 31
0.0
  0
ARC
  5
634
330
1F
100
AcDbEntity
  8
0
100
AcDbCircle
 10
545.4553392538362
 20
15.91080276034312
 30
0.0
 40
1.425319
100
AcDbArc
 50
269.7036710000015
 51
350.4651710000003
  0
ARC
  5
635
330
1F
100
AcDbEntity
  8
0
100
AcDbCircle
 10
544.6005962538363
 20
15.91080276034312
 30
0.0
 40
1.425319
100
AcDbArc
 50
189.5348289999995
 51
270.2963289999985
  0
LINE
  5
636
330
1F
100
AcDbEntity
  8
0
100
AcDbLine
 10
547.5479682538362
 20
14.45370276034312
 30
0.0
 11
547.5479682538362
 21
22.64970276034312
 31
0.0
  0
LINE
  5
637
330
1F
100
AcDbEntity
  8
0
100
AcDbLine
 10
549.0929682538363
 20
22.64970276034312
 30
0.0
 11
549.0929682538363
 21
14.45370276034312
 31
0.0
  0
LINE
  5
638
330
1F
100
AcDbEntity
  8
0
100
AcDbLine
 10
540.2909842538363
 20
19.79970276034312
 30
0.0
 11
540.3025572538363
 21
14.45370276034312
 31
0.0
  0
LINE
  5
639
330
1F
100
AcDbEntity
  8
0
100
AcDbLine
 10
538.7604422538363
 20
14.45370276034312
 30
0.0
 11
538.7604422538363
 21
21.04210876034312
 31
0.0
  0
LINE
  5
63A
330
1F
100
AcDbEntity
  8
0
100
AcDbLine
 10
530.0964152538363
 20
15.33349976034312
 30
0.0
 11
530.0964152538363
 21
13.62380776034312
 31
0.0
  0
LINE
  5
63B
330
1F
100
AcDbEntity
  8
0
100
AcDbLine
 10
536.0122262538362
 20
13.62380776034312
 30
0.0
 11
536.0122262538362
 21
17.18091976034312
 31
0.0
  0
LINE
  5
63C
330
1F
100
AcDbEntity
  8
1
100
AcDbLine
 10
563.8686112538362
 20
10.43843876034312
 30
0.0
 11
563.8686112538362
 21
25.12827576034312
 31
0.0
  0
LINE
  5
63D
330
1F
100
AcDbEntity
  8
0
100
AcDbLine
 10
530.8985592538363
 20
12.85470176034312
 30
0.0
 11
535.2100822538362
 21
12.85470176034312
 31
0.0
  0
ELLIPSE
  5
63E
330
1F
100
AcDbEntity
  8
0
100
AcDbEllipse
 10
530.8985592538363
 20
13.62380776034312
 30
0.0
 11
-0.8021437979128705
 21
1.540000000000000E-14
 31
0.0
210
0.0
220
0.0
230
1.0
 40
0.958812
 41
0.00000000000002
 42
1.570796326794914
  0
ELLIPSE
  5
63F
330
1F
100
AcDbEntity
  8
0
100
AcDbEllipse
 10
535.2100822538362
 20
13.62380776034312
 30
0.0
 11
0.8021437979128704
 21
1.602000000000000E-13
 31
0.0
210
0.0
220
0.0
230
1.0
 40
0.958812
 41
4.712388980384497
 42
6.283185307179378
  0
LINE
  5
640
330
1F
100
AcDbEntity
  8
0
100
AcDbLine
 10
540.2909842538363
 20
14.45370276034312
 30
0.0
 11
540.3025572538363
 21
14.46119776034312
 31
0.0
  0
LINE
  5
641
330
1F
100
AcDbEntity
  8
0
100
AcDbLine
 10
538.7604422538363
 20
14.45370276034312
 30
0.0
 11
540.3025572538363
 21
14.45370276034312
 31
0.0
  0
LINE
  5
642
330
1F
100
AcDbEntity
  8
0
100
AcDbLine
 10
544.5932252538362
 20
14.48550276034312
 30
0.0
 11
545.4479682538363
 21
14.48550276034312
 31
0.0
  0
LINE
  5
643
330
1F
100
AcDbEntity
  8
0
100
AcDbLine
 10
551.2919682538363
 20
12.85470276034312
 30
0.0
 11
549.7469682538363
 21
12.85470276034312
 31
0.0
  0
LINE
  5
644
330
1F
100
AcDbEntity
  8
0
100
AcDbLine
 10
549.0929682538363
 20
14.45370276034312
 30
0.0
 11
547.5479682538362
 21
14.45370276034312
 31
0.0
  0
LINE
  5
645
330
1F
100
AcDbEntity
  8
0
100
AcDbLine
 10
551.9750142538362
 20
14.45370276034312
 30
0.0
 11
552.5129682538363
 21
14.45370276034312
 31
0.0
  0
LINE
  5
646
330
1F
100
AcDbEntity
  8
0
100
AcDbLine
 10
555.6599682538363
 20
14.45370276034312
 30
0.0
 11
556.5899682538363
 21
14.45370276034312
 31
0.0
  0
LINE
  5
647
330
1F
100
AcDbEntity
  8
0
100
AcDbLine
 10
560.2859682538362
 20
14.45370276034312
 30
0.0
 11
558.7409682538362
 21
14.45370276034312
 31
0.0
  0
ARC
  5
648
330
1F
100
AcDbEntity
  8
0
100
AcDbCircle
 10
545.4553392538362
 20
19.61680876034312
 30
0.0
 40
1.425319
100
AcDbArc
 50
9.534828999999723
 51
90.29632899999848
  0
LINE
  5
649
330
1F
100
AcDbEntity
  8
0
100
AcDbLine
 10
546.8609682538363
 20
17.25010876034312
 30
0.0
 11
544.7369682538363
 21
17.25010876034312
 31
0.0
  0
LINE
  5
64A
330
1F
100
AcDbEntity
  8
0
100
AcDbLine
 10
545.4119682538362
 20
16.57510876034312
 30
0.0
 11
546.8609682538363
 21
16.57510876034312
 31
0.0
  0
LINE
  5
64B
330
1F
100
AcDbEntity
  8
0
100
AcDbLine
 10
530.0964152538363
 20
18.89972176034312
 30
0.0
 11
530.0964152538363
 21
21.69941276034312
 31
0.0
  0
ELLIPSE
  5
64C
330
1F
100
AcDbEntity
  8
0
100
AcDbEllipse
 10
533.0292542538361
 20
20.61785876034312
 30
0.0
 11
2.983077570132104
 21
2.996000000000000E-13
 31
0.0
210
0.0
220
0.0
230
1.0
 40
0.9588119999999999
 41
-1.562393163247347
 42
0.0084031635475457
  0
ELLIPSE
  5
64D
330
1F
100
AcDbEntity
  8
0
100
AcDbEllipse
 10
532.9860782538362
 20
20.94797776034312
 30
0.0
 11
-4.072692107280919
 21
9.250000000000000E-14
 31
0.0
210
0.0
220
0.0
230
1.0
 40
0.958812
 41
1.587553347046634
 42
2.408388587343224
  0
LINE
  5
64E
330
1F
100
AcDbEntity
  8
0
100
AcDbLine
 10
530.0964152538363
 20
17.18091976034312
 30
0.0
 11
530.0964152538363
 21
16.47295276034312
 31
0.0
  0
LINE
  5
64F
330
1F
100
AcDbEntity
  8
0
100
AcDbLine
 10
530.0964152538363
 20
18.89972176034312
 30
0.0
 11
530.0964152538363
 21
18.33457676034312
 31
0.0
  0
ELLIPSE
  5
650
330
1F
100
AcDbEntity
  8
0
100
AcDbEllipse
 10
532.6483462538363
 20
15.31092576034312
 30
0.0
 11
2.960559210508897
 21
0.3570763225581005
 31
0.0
210
0.0
220
0.0
230
1.0
 40
0.820999
 41
1.335209029023201
 42
2.503032872947537
  0
ELLIPSE
  5
651
330
1F
100
AcDbEntity
  8
0
100
AcDbEllipse
 10
532.8788522538362
 20
14.37574476034312
 30
0.0
 11
3.015746449176215
 21
0.7746519372140024
 31
0.0
210
0.0
220
0.0
230
1.0
 40
0.846775
 41
1.29973646820557
 42
2.479974117225238
  0
LINE
  5
652
330
1F
100
AcDbEntity
  8
0
100
AcDbLine
 10
537.2154422538363
 20
18.33457676034312
 30
0.0
 11
536.9146382538363
 21
18.33457676034312
 31
0.0
  0
LINE
  5
653
330
1F
100
AcDbEntity
  8
0
100
AcDbLine
 10
536.0122262538362
 20
18.33457676034312
 30
0.0
 11
536.9146382538363
 21
18.33457676034312
 31
0.0
  0
ELLIPSE
  5
654
330
1F
100
AcDbEntity
  8
0
100
AcDbEllipse
 10
536.0122262538362
 20
18.33457676034312
 30
0.0
 11
1.203215696869352
 21
8.930000000000000E-14
 31
0.0
210
0.0
220
0.0
230
1.0
 40
0.9588119999999999
 41
4.712388980384611
 42
6.283185307179508
  0
LINE
  5
655
330
1F
100
AcDbEntity
  8
0
100
AcDbLine
 10
530.8985592538363
 20
22.46851776034312
 30
0.0
 11
535.2100822538362
 21
22.46851776034312
 31
0.0
  0
ELLIPSE
  5
656
330
1F
100
AcDbEntity
  8
0
100
AcDbEllipse
 10
530.8985592538363
 20
21.69941276034312
 30
0.0
 11
0.8021437979128704
 21
3.800000000000000E-14
 31
0.0
210
0.0
220
0.0
230
1.0
 40
0.958812
 41
1.570796326794851
 42
3.141592653589743
  0
LINE
  5
657
330
1F
100
AcDbEntity
  8
0
100
AcDbLine
 10
536.0122262538362
 20
20.59382376034312
 30
0.0
 11
536.0122262538362
 21
21.69941276034312
 31
0.0
  0
ELLIPSE
  5
658
330
1F
100
AcDbEntity
  8
0
100
AcDbEllipse
 10
535.2100822538362
 20
21.69941276034312
 30
0.0
 11
-0.8021437979128705
 21
3.800000000000000E-14
 31
0.0
210
0.0
220
0.0
230
1.0
 40
0.958812
 41
3.141592653589842
 42
4.712388980384734
  0
ARC
  5
659
330
1F
100
AcDbEntity
  8
0
100
AcDbCircle
 10
541.1976422538362
 20
19.77970876034312
 30
0.0
 40
1.377457
100
AcDbArc
 50
16.26506099999896
 51
130.5272989999999
  0
ARC
  5
65A
330
1F
100
AcDbEntity
  8
0
100
AcDbCircle
 10
544.6005962538363
 20
19.61680876034312
 30
0.0
 40
1.425319
100
AcDbArc
 50
89.70367100000153
 51
170.4651710000003
  0
LINE
  5
65B
330
1F
100
AcDbEntity
  8
0
100
AcDbLine
 10
541.3098952538362
 20
18.37450876034312
 30
0.0
 11
542.5199682538362
 21
18.37450876034312
 31
0.0
  0
LINE
  5
65C
330
1F
100
AcDbEntity
  8
0
100
AcDbLine
 10
540.9775572538363
 20
18.37450876034312
 30
0.0
 11
542.5199682538362
 21
18.37450876034312
 31
0.0
  0
ARC
  5
65D
330
1F
100
AcDbEntity
  8
0
100
AcDbCircle
 10
540.6284842538362
 20
19.79970276034312
 30
0.0
 40
0.3375
100
AcDbArc
 50
0.0
 51
180.0
  0
LINE
  5
65E
330
1F
100
AcDbEntity
  8
0
100
AcDbLine
 10
540.9659842538363
 20
19.79970276034312
 30
0.0
 11
540.9775572538363
 21
18.37450876034312
 31
0.0
  0
ARC
  5
65F
330
1F
100
AcDbEntity
  8
0
100
AcDbCircle
 10
545.0744682538361
 20
19.79970276034312
 30
0.0
 40
0.3375
100
AcDbArc
 50
0.0
 51
180.0
  0
LINE
  5
660
330
1F
100
AcDbEntity
  8
0
100
AcDbLine
 10
544.7369682538363
 20
17.25010876034312
 30
0.0
 11
544.7369682538363
 21
15.67470276034312
 31
0.0
  0
LINE
  5
661
330
1F
100
AcDbEntity
  8
0
100
AcDbLine
 10
544.7369682538363
 20
18.15010876034312
 30
0.0
 11
545.4119682538362
 21
18.15010876034312
 31
0.0
  0
LINE
  5
662
330
1F
100
AcDbEntity
  8
0
100
AcDbLine
 10
545.4119682538362
 20
16.57510876034312
 30
0.0
 11
545.4119682538362
 21
15.69120276034312
 31
0.0
  0
LINE
  5
663
330
1F
100
AcDbEntity
  8
0
100
AcDbLine
 10
544.7369682538363
 20
17.25010876034312
 30
0.0
 11
544.7369682538363
 21
15.69120276034312
 31
0.0
  0
ARC
  5
664
330
1F
100
AcDbEntity
  8
0
100
AcDbCircle
 10
545.0744682538361
 20
15.69120276034312
 30
0.0
 40
0.3375
100
AcDbArc
 50
180.0
 51
0.0
  0
LINE
  5
665
330
1F
100
AcDbEntity
  8
0
100
AcDbLine
 10
545.4119682538362
 20
19.79970276034312
 30
0.0
 11
545.4119682538362
 21
18.15010876034312
 31
0.0
  0
LINE
  5
666
330
1F
100
AcDbEntity
  8
0
100
AcDbLine
 10
544.7369682538363
 20
19.79970276034312
 30
0.0
 11
544.7369682538363
 21
18.15010876034312
 31
0.0
  0
LINE
  5
667
330
1F
100
AcDbEntity
  8
0
100
AcDbLine
 10
542.5199682538362
 20
18.37450876034312
 30
0.0
 11
542.5199682538362
 21
20.16550876034312
 31
0.0
  0
LINE
  5
668
330
1F
100
AcDbEntity
  8
0
100
AcDbLine
 10
543.1949682538361
 20
15.67470276034312
 30
0.0
 11
543.1949682538361
 21
19.85290876034312
 31
0.0
  0
LINE
  5
669
330
1F
100
AcDbEntity
  8
0
100
AcDbLine
 10
540.3025572538363
 20
21.04210876034312
 30
0.0
 11
540.3025572538363
 21
20.82670876034312
 31
0.0
  0
LINE
  5
66A
330
1F
100
AcDbEntity
  8
0
100
AcDbLine
 10
538.7604422538363
 20
21.04210876034312
 30
0.0
 11
540.3025572538363
 21
21.04210876034312
 31
0.0
  0
LINE
  5
66B
330
1F
100
AcDbEntity
  8
0
100
AcDbLine
 10
544.5932252538362
 20
21.04210876034312
 30
0.0
 11
545.4479682538363
 21
21.04210876034312
 31
0.0
  0
ARC
  5
66C
330
1F
100
AcDbEntity
  8
0
100
AcDbCircle
 10
555.6418072538363
 20
19.56254276034312
 30
0.0
 40
1.488419
100
AcDbArc
 50
89.30088700000539
 51
168.3657320000002
  0
ARC
  5
66D
330
1F
100
AcDbEntity
  8
0
100
AcDbCircle
 10
552.1509952538363
 20
19.64580376034312
 30
0.0
 40
1.409039
100
AcDbArc
 50
15.47255000000067
 51
127.564540000003
  0
LINE
  5
66E
330
1F
100
AcDbEntity
  8
0
100
AcDbLine
 10
546.8609682538363
 20
16.57510876034312
 30
0.0
 11
546.8609682538363
 21
15.67470276034312
 31
0.0
  0
LINE
  5
66F
330
1F
100
AcDbEntity
  8
0
100
AcDbLine
 10
546.8609682538363
 20
17.25010876034312
 30
0.0
 11
546.8609682538363
 21
19.85290876034312
 31
0.0
  0
LINE
  5
670
330
1F
100
AcDbEntity
  8
0
100
AcDbLine
 10
553.5089682538362
 20
20.02170276034312
 30
0.0
 11
553.5089682538362
 21
15.61770276034312
 31
0.0
  0
LINE
  5
671
330
1F
100
AcDbEntity
  8
0
100
AcDbLine
 10
551.9669682538363
 20
19.79970276034312
 30
0.0
 11
551.9669682538363
 21
15.69120276034312
 31
0.0
  0
LINE
  5
672
330
1F
100
AcDbEntity
  8
0
100
AcDbLine
 10
551.2919682538363
 20
19.79970276034312
 30
0.0
 11
551.2919682538363
 21
15.69120276034312
 31
0.0
  0
ARC
  5
673
330
1F
100
AcDbEntity
  8
0
100
AcDbCircle
 10
551.6294682538362
 20
15.69120276034312
 30
0.0
 40
0.3375
100
AcDbArc
 50
180.0
 51
0.0
  0
ARC
  5
674
330
1F
100
AcDbEntity
  8
0
100
AcDbCircle
 10
551.6294682538362
 20
19.79970276034312
 30
0.0
 40
0.3375
100
AcDbArc
 50
0.0
 51
180.0
  0
LINE
  5
675
330
1F
100
AcDbEntity
  8
0
100
AcDbLine
 10
549.7469682538363
 20
21.05070276034312
 30
0.0
 11
551.2919682538363
 21
21.05070276034312
 31
0.0
  0
LINE
  5
676
330
1F
100
AcDbEntity
  8
0
100
AcDbLine
 10
547.5479682538362
 20
22.64970276034312
 30
0.0
 11
549.0929682538363
 21
22.64970276034312
 31
0.0
  0
LINE
  5
677
330
1F
100
AcDbEntity
  8
0
100
AcDbLine
 10
551.2919682538363
 20
21.05070276034312
 30
0.0
 11
551.2919682538363
 21
20.76270276034312
 31
0.0
  0
ARC
  5
678
330
1F
100
AcDbEntity
  8
0
100
AcDbCircle
 10
556.6081292538363
 20
19.56254276034312
 30
0.0
 40
1.488419
100
AcDbArc
 50
11.63426800000068
 51
90.69911300000334
  0
LINE
  5
679
330
1F
100
AcDbEntity
  8
0
100
AcDbLine
 10
558.0659682538362
 20
19.86270276034312
 30
0.0
 11
558.0659682538362
 21
15.64185076034312
 31
0.0
  0
ARC
  5
67A
330
1F
100
AcDbEntity
  8
0
100
AcDbCircle
 10
556.1249682538362
 20
19.79970276034312
 30
0.0
 40
0.3375
100
AcDbArc
 50
0.0
 51
180.0
  0
ARC
  5
67B
330
1F
100
AcDbEntity
  8
0
100
AcDbCircle
 10
556.1249682538362
 20
15.69120276034312
 30
0.0
 40
0.3375
100
AcDbArc
 50
180.0
 51
0.0
  0
LINE
  5
67C
330
1F
100
AcDbEntity
  8
0
100
AcDbLine
 10
555.7874682538363
 20
19.79970276034312
 30
0.0
 11
555.7874682538363
 21
15.69120276034312
 31
0.0
  0
LINE
  5
67D
330
1F
100
AcDbEntity
  8
0
100
AcDbLine
 10
556.4624682538363
 20
19.79970276034312
 30
0.0
 11
556.4624682538363
 21
15.69120276034312
 31
0.0
  0
LINE
  5
67E
330
1F
100
AcDbEntity
  8
0
100
AcDbLine
 10
554.1839682538362
 20
15.64185076034312
 30
0.0
 11
554.1839682538362
 21
19.86270276034312
 31
0.0
  0
LINE
  5
67F
330
1F
100
AcDbEntity
  8
0
100
AcDbLine
 10
555.6599682538363
 20
21.05085076034312
 30
0.0
 11
556.5899682538363
 21
21.05085076034312
 31
0.0
  0
LINE
  5
680
330
1F
100
AcDbEntity
  8
0
100
AcDbLine
 10
558.7409682538362
 20
22.64970276034312
 30
0.0
 11
560.2859682538362
 21
22.64970276034312
 31
0.0
  0
TEXT
  5
681
330
1F
100
AcDbEntity
  8
WY
100
AcDbText
 10
564.8161552538363
 20
17.04244876034312
 30
0.0
 40
1.999999999999999
  1
12-05-2016
 41
1.0
 51
15.0
  7
ITALIC
100
AcDbText
  0
TEXT
  5
682
330
1F
100
AcDbEntity
  8
WY
100
AcDbText
 10
569.2475242538362
 20
21.58767776034312
 30
0.0
 40
2.0
  1
Data
 51
15.0
  7
ITALIC
100
AcDbText
  0
TEXT
  5
683
330
1F
100
AcDbEntity
  8
1
100
AcDbText
 10
637.8215022538363
 20
14.50244776034312
 30
0.0
 40
5.0
  1
RM12
 41
0.8
 51
15.0
  7
ITALIC
100
AcDbText
  0
LINE
  5
684
330
1F
100
AcDbEntity
  8
1
100
AcDbLine
 10
627.7929822538363
 20
10.43843876034312
 30
0.0
 11
627.7929822538363
 21
25.12827576034312
 31
0.0
  0
TEXT
  5
685
330
1F
100
AcDbEntity
  8
WY
100
AcDbText
 10
629.9841802538363
 20
22.03768676034312
 30
0.0
 40
2.0
  1
Product type
 51
15.0
  7
ITALIC
100
AcDbText
  0
LINE
  5
686
330
1F
100
AcDbEntity
  8
2
100
AcDbLine
 10
683.0703992538363
 20
297.4384387603431
 30
0.0
 11
498.0703992538362
 21
297.4384387603431
 31
0.0
  0
LINE
  5
687
330
1F
100
AcDbEntity
  8
2
100
AcDbLine
 10
688.0703992538363
 20
302.4384387603431
 30
0.0
 11
498.0703992538362
 21
302.4384387603431
 31
0.0
  0
LINE
  5
688
330
1F
100
AcDbEntity
  8
WYMIARY
 62
     6
100
AcDbLine
 10
498.0703992538362
 20
302.4384387603431
 30
0.0
 11
486.4399922538362
 21
302.4384387603431
 31
0.0
  0
TEXT
  5
689
330
1F
100
AcDbEntity
  8
1
100
AcDbText
 10
500.7007332538362
 20
14.23589576034312
 30
0.0
 40
5.0
  1
1:1
 51
15.0
  7
ITALIC
100
AcDbText
  0
LINE
  5
68A
330
1F
100
AcDbEntity
  8
WYMIARY
 62
     6
100
AcDbLine
 10
688.0703992538363
 20
5.43843876034312
 30
0.0
 11
688.0703992538363
 21
302.4384387603431
 31
0.0
  0
LINE
  5
68B
330
1F
100
AcDbEntity
  8
WYMIARY
 62
     3
100
AcDbLine
 10
513.0703992538363
 20
25.12827576034312
 30
0.0
 11
513.0703992538363
 21
10.43843876034312
 31
0.0
  0
LINE
  5
68C
330
1F
100
AcDbEntity
  8
WYMIARY
 62
     3
100
AcDbLine
 10
528.0703992538363
 20
25.12827576034312
 30
0.0
 11
528.0703992538363
 21
10.43843876034312
 31
0.0
  0
LINE
  5
68D
330
1F
100
AcDbEntity
  8
WYMIARY
 62
     3
100
AcDbLine
 10
586.7719352538363
 20
25.12827576034312
 30
0.0
 11
586.7719352538363
 21
10.43843876034312
 31
0.0
  0
TEXT
  5
68E
330
1F
100
AcDbEntity
  8
WY
100
AcDbText
 10
587.9609442538363
 20
22.03768676034312
 30
0.0
 40
2.0
  1
Draw. No.
 51
15.0
  7
ITALIC
100
AcDbText
  0
TEXT
  5
68F
330
1F
100
AcDbEntity
  8
1
100
AcDbText
 10
592.3338892538363
 20
14.50244776034312
 30
0.0
 40
3.999999999999998
  1
RM12-01A
 41
0.7000000000000004
 51
15.0
  7
ITALIC
100
AcDbText
  0
LINE
  5
690
330
1F
100
AcDbEntity
  8
WYMIARY
 62
     6
100
AcDbLine
 10
688.0703992538363
 20
5.43843876034312
 30
0.0
 11
688.0703992538363
 21
302.4384387603431
 31
0.0
  0
LINE
  5
691
330
1F
100
AcDbEntity
  8
WYMIARY
 62
     6
100
AcDbLine
 10
688.0703992538363
 20
5.43843876034312
 30
0.0
 11
688.0703992538363
 21
302.4384387603431
 31
0.0
  0
LINE
  5
692
330
1F
100
AcDbEntity
  8
2
100
AcDbLine
 10
688.0703992538363
 20
5.43843876034312
 30
0.0
 11
688.0703992538363
 21
302.4384387603431
 31
0.0
  0
LINE
  5
693
330
1F
100
AcDbEntity
  8
WYMIARY
 62
     6
100
AcDbLine
 10
688.0703992538363
 20
5.43843876034312
 30
0.0
 11
688.0703992538363
 21
302.4384387603431
 31
0.0
  0
LINE
  5
694
330
1F
100
AcDbEntity
  8
2
100
AcDbLine
 10
688.0703992538363
 20
5.43843876034312
 30
0.0
 11
688.0703992538363
 21
302.4384387603431
 31
0.0
  0
LINE
  5
695
330
1F
100
AcDbEntity
  8
2
100
AcDbLine
 10
688.0703992538363
 20
5.43843876034312
 30
0.0
 11
498.0703992538362
 21
5.43843876034312
 31
0.0
  0
LINE
  5
696
330
1F
100
AcDbEntity
  8
WYMIARY
 62
     6
100
AcDbLine
 10
498.0703992538362
 20
5.43843876034312
 30
0.0
 11
486.4399922538362
 21
5.43843876034312
 31
0.0
  0
TEXT
  5
697
330
1F
100
AcDbEntity
  8
1
100
AcDbText
 10
586.0623144649636
 20
285.4890847603431
 30
0.0
 40
5.0
  1
RM12
 41
0.8
 51
15.0
  7
ITALIC
100
AcDbText
  0
TEXT
  5
698
330
1F
100
AcDbEntity
  8
1
100
AcDbText
 10
575.8072552184044
 20
268.4997080297427
 30
0.0
 40
3.999999999999996
  1
RM12 1P / 1 CO
 41
0.7000000000000006
 51
15.0
  7
ITALIC
100
AcDbText
  0
TEXT
  5
699
330
1F
100
AcDbEntity
  8
1
100
AcDbText
 10
581.751146544905
 20
167.8195362698599
 30
0.0
 40
3.999999999999996
  1
RM12 1NO/1NC
 41
0.7000000000000006
 51
15.0
  7
ITALIC
100
AcDbText
  0
LINE
  5
C80
330
1F
100
AcDbEntity
  8
1
  6
CONTINUOUS
 62
     7
100
AcDbLine
 10
561.5497789103956
 20
247.9544416472081
 30
0.0
 11
561.5497789103956
 21
247.4794416472081
 31
0.0
  0
LINE
  5
C81
330
1F
100
AcDbEntity
  8
1
  6
CONTINUOUS
 62
     7
100
AcDbLine
 10
560.9497789103956
 20
247.4794416472081
 30
0.0
 11
560.9497789103956
 21
247.9544416472081
 31
0.0
  0
LINE
  5
C82
330
1F
100
AcDbEntity
  8
1
  6
CONTINUOUS
 62
     7
100
AcDbLine
 10
560.9497789103956
 20
247.9544416472081
 30
0.0
 11
561.5497789103956
 21
247.9544416472081
 31
0.0
  0
LINE
  5
C83
330
1F
100
AcDbEntity
  8
1
  6
CONTINUOUS
 62
     7
100
AcDbLine
 10
561.5497789103956
 20
247.4794416472081
 30
0.0
 11
561.5497789103956
 21
247.0044416472081
 31
0.0
  0
LINE
  5
C84
330
1F
100
AcDbEntity
  8
1
  6
CONTINUOUS
 62
     7
100
AcDbLine
 10
561.5497789103956
 20
247.0044416472081
 30
0.0
 11
560.9497789103956
 21
247.0044416472081
 31
0.0
  0
LINE
  5
C85
330
1F
100
AcDbEntity
  8
1
  6
CONTINUOUS
 62
     7
100
AcDbLine
 10
560.9497789103956
 20
247.0044416472081
 30
0.0
 11
560.9497789103956
 21
247.4794416472081
 31
0.0
  0
LINE
  5
C86
330
1F
100
AcDbEntity
  8
1
  6
CONTINUOUS
 62
     7
100
AcDbLine
 10
558.3497789103956
 20
239.9794416472081
 30
0.0
 11
558.3497789103956
 21
239.5044416472081
 31
0.0
  0
LINE
  5
C87
330
1F
100
AcDbEntity
  8
1
  6
CONTINUOUS
 62
     7
100
AcDbLine
 10
558.3497789103956
 20
239.5044416472081
 30
0.0
 11
557.7497789103955
 21
239.5044416472081
 31
0.0
  0
LINE
  5
C88
330
1F
100
AcDbEntity
  8
1
  6
CONTINUOUS
 62
     7
100
AcDbLine
 10
557.7497789103955
 20
239.5044416472081
 30
0.0
 11
557.7497789103955
 21
239.9794416472081
 31
0.0
  0
LINE
  5
C89
330
1F
100
AcDbEntity
  8
1
  6
CONTINUOUS
 62
     7
100
AcDbLine
 10
555.1497789103956
 20
247.9544416472081
 30
0.0
 11
555.1497789103956
 21
247.4794416472081
 31
0.0
  0
LINE
  5
C8A
330
1F
100
AcDbEntity
  8
1
  6
CONTINUOUS
 62
     7
100
AcDbLine
 10
554.5497789103955
 20
247.4794416472081
 30
0.0
 11
554.5497789103955
 21
247.9544416472081
 31
0.0
  0
LINE
  5
C8B
330
1F
100
AcDbEntity
  8
1
  6
CONTINUOUS
 62
     7
100
AcDbLine
 10
554.5497789103955
 20
247.9544416472081
 30
0.0
 11
555.1497789103956
 21
247.9544416472081
 31
0.0
  0
LINE
  5
C8C
330
1F
100
AcDbEntity
  8
1
  6
CONTINUOUS
 62
     7
100
AcDbLine
 10
555.1497789103956
 20
247.4794416472081
 30
0.0
 11
555.1497789103956
 21
247.0044416472081
 31
0.0
  0
LINE
  5
C8D
330
1F
100
AcDbEntity
  8
1
  6
CONTINUOUS
 62
     7
100
AcDbLine
 10
555.1497789103956
 20
247.0044416472081
 30
0.0
 11
554.5497789103955
 21
247.0044416472081
 31
0.0
  0
LINE
  5
C8E
330
1F
100
AcDbEntity
  8
1
  6
CONTINUOUS
 62
     7
100
AcDbLine
 10
554.5497789103955
 20
247.0044416472081
 30
0.0
 11
554.5497789103955
 21
247.4794416472081
 31
0.0
  0
LINE
  5
C8F
330
1F
100
AcDbEntity
  8
1
  6
CONTINUOUS
 62
     7
100
AcDbLine
 10
558.3497789103956
 20
240.4544416472081
 30
0.0
 11
558.3497789103956
 21
239.9794416472081
 31
0.0
  0
LINE
  5
C90
330
1F
100
AcDbEntity
  8
1
  6
CONTINUOUS
 62
     7
100
AcDbLine
 10
557.7497789103955
 20
239.9794416472081
 30
0.0
 11
557.7497789103955
 21
240.4544416472081
 31
0.0
  0
LINE
  5
C91
330
1F
100
AcDbEntity
  8
1
  6
CONTINUOUS
 62
     7
100
AcDbLine
 10
557.7497789103955
 20
240.4544416472081
 30
0.0
 11
558.3497789103956
 21
240.4544416472081
 31
0.0
  0
LINE
  5
C93
330
1F
100
AcDbEntity
  8
1
  6
CONTINUOUS
 62
     7
100
AcDbLine
 10
580.1497789103956
 20
247.1794416472081
 30
0.0
 11
579.6997789103956
 21
247.1794416472081
 31
0.0
  0
LINE
  5
C94
330
1F
100
AcDbEntity
  8
1
  6
CONTINUOUS
 62
     7
100
AcDbLine
 10
579.6997789103956
 20
247.1794416472081
 30
0.0
 11
579.6997789103956
 21
247.779441647208
 31
0.0
  0
LINE
  5
C95
330
1F
100
AcDbEntity
  8
1
  6
CONTINUOUS
 62
     7
100
AcDbLine
 10
579.6997789103956
 20
247.779441647208
 30
0.0
 11
580.1497789103956
 21
247.779441647208
 31
0.0
  0
LINE
  5
C97
330
1F
100
AcDbEntity
  8
1
  6
CONTINUOUS
 62
     7
100
AcDbLine
 10
580.1497789103956
 20
239.6794416472081
 30
0.0
 11
579.6997789103956
 21
239.6794416472081
 31
0.0
  0
LINE
  5
C98
330
1F
100
AcDbEntity
  8
1
  6
CONTINUOUS
 62
     7
100
AcDbLine
 10
579.6997789103956
 20
239.6794416472081
 30
0.0
 11
579.6997789103956
 21
240.279441647208
 31
0.0
  0
LINE
  5
C99
330
1F
100
AcDbEntity
  8
1
  6
CONTINUOUS
 62
     7
100
AcDbLine
 10
579.6997789103956
 20
240.279441647208
 30
0.0
 11
580.1497789103956
 21
240.279441647208
 31
0.0
  0
LINE
  5
C9A
330
1F
100
AcDbEntity
  8
1
  6
CONTINUOUS
 62
     7
100
AcDbLine
 10
580.5997789103956
 20
240.279441647208
 30
0.0
 11
580.5997789103956
 21
239.6794416472081
 31
0.0
  0
LINE
  5
C9B
330
1F
100
AcDbEntity
  8
1
  6
CONTINUOUS
 62
     7
100
AcDbLine
 10
580.5997789103956
 20
239.6794416472081
 30
0.0
 11
580.1497789103956
 21
239.6794416472081
 31
0.0
  0
LINE
  5
C9C
330
1F
100
AcDbEntity
  8
1
  6
CONTINUOUS
 62
     7
100
AcDbLine
 10
580.1497789103956
 20
240.279441647208
 30
0.0
 11
580.5997789103956
 21
240.279441647208
 31
0.0
  0
LINE
  5
C9D
330
1F
100
AcDbEntity
  8
1
  6
CONTINUOUS
 62
     7
100
AcDbLine
 10
580.5997789103956
 20
247.779441647208
 30
0.0
 11
580.5997789103956
 21
247.1794416472081
 31
0.0
  0
LINE
  5
C9E
330
1F
100
AcDbEntity
  8
1
  6
CONTINUOUS
 62
     7
100
AcDbLine
 10
580.1497789103956
 20
247.779441647208
 30
0.0
 11
580.5997789103956
 21
247.779441647208
 31
0.0
  0
LINE
  5
C9F
330
1F
100
AcDbEntity
  8
1
  6
CONTINUOUS
 62
     7
100
AcDbLine
 10
580.5997789103956
 20
247.1794416472081
 30
0.0
 11
580.1497789103956
 21
247.1794416472081
 31
0.0
  0
ELLIPSE
  5
CA0
330
1F
100
AcDbEntity
  8
1
  6
CONTINUOUS
 62
     7
100
AcDbEllipse
 10
582.0504334130187
 20
244.3062365664512
 30
0.0
 11
-3.673940397442025E-17
 21
-0.2999999999999972
 31
0.0
210
0.0
220
0.0
230
1.0
 40
0.0043633508207109
 41
1.570796326794897
 42
2.617993877991508
  0
ELLIPSE
  5
CA1
330
1F
100
AcDbEntity
  8
1
  6
CONTINUOUS
 62
     7
100
AcDbEllipse
 10
581.612997957416
 20
244.3062365664512
 30
0.0
 11
-3.673940397442025E-17
 21
-0.2999999999999972
 31
0.0
210
0.0
220
0.0
230
1.0
 40
0.0349207694917201
 41
1.570796326794897
 42
2.617993877991513
  0
LINE
  5
CA2
330
1F
100
AcDbEntity
  8
1
  6
CONTINUOUS
 62
     7
100
AcDbLine
 10
581.6234741882635
 20
244.3062365664512
 30
0.0
 11
581.6234741882635
 21
243.152646727965
 31
0.0
  0
LINE
  5
CA3
330
1F
100
AcDbEntity
  8
1
  6
CONTINUOUS
 62
     7
100
AcDbLine
 10
582.0517424182649
 20
244.3062365664512
 30
0.0
 11
582.0517424182649
 21
243.152646727965
 31
0.0
  0
ELLIPSE
  5
CA4
330
1F
100
AcDbEntity
  8
1
  6
CONTINUOUS
 62
     7
100
AcDbEllipse
 10
581.612997957416
 20
243.152646727965
 30
0.0
 11
-3.673940397442025E-17
 21
-0.2999999999999972
 31
0.0
210
0.0
220
0.0
230
1.0
 40
0.0349207694917674
 41
0.523598775597698
 42
1.570796326794897
  0
ELLIPSE
  5
CA5
330
1F
100
AcDbEntity
  8
1
  6
CONTINUOUS
 62
     7
100
AcDbEllipse
 10
582.0504334130187
 20
243.152646727965
 30
0.0
 11
-3.673940397442025E-17
 21
-0.2999999999999972
 31
0.0
210
0.0
220
0.0
230
1.0
 40
0.0043633508207109
 41
0.5235987755982853
 42
1.570796326794897
  0
LINE
  5
CA6
330
1F
100
AcDbEntity
  8
1
  6
CONTINUOUS
 62
     7
100
AcDbLine
 10
581.6182360728397
 20
242.8928391068296
 30
0.0
 11
581.6082131897871
 21
242.7271292925051
 31
0.0
  0
LINE
  5
CA7
330
1F
100
AcDbEntity
  8
1
  6
CONTINUOUS
 62
     7
100
AcDbLine
 10
581.6082131897869
 20
244.7317540019137
 30
0.0
 11
581.6082131897871
 21
242.7271292925051
 31
0.0
  0
LINE
  5
CA8
330
1F
100
AcDbEntity
  8
1
  6
CONTINUOUS
 62
     7
100
AcDbLine
 10
581.6182360728397
 20
244.5660441875865
 30
0.0
 11
581.6082131897869
 21
244.7317540019137
 31
0.0
  0
ELLIPSE
  5
CA9
330
1F
100
AcDbEntity
  8
1
  6
CONTINUOUS
 62
     7
100
AcDbEllipse
 10
556.0509649227491
 20
248.2646797626318
 30
0.0
 11
-0.2999999999999972
 21
3.673940397442025E-17
 31
0.0
210
0.0
220
0.0
230
1.0
 40
0.0349207694917674
 41
4.71238898038469
 42
5.759586531582749
  0
ELLIPSE
  5
CAA
330
1F
100
AcDbEntity
  8
1
  6
CONTINUOUS
 62
     7
100
AcDbEllipse
 10
556.0509649227491
 20
248.7021152182345
 30
0.0
 11
-0.2999999999999972
 21
3.673940397442025E-17
 31
0.0
210
0.0
220
0.0
230
1.0
 40
0.0043633508206635
 41
4.71238898038469
 42
5.759586531578945
  0
LINE
  5
CAB
330
1F
100
AcDbEntity
  8
1
  6
CONTINUOUS
 62
     7
100
AcDbLine
 10
557.2045547612353
 20
248.2751559934794
 30
0.0
 11
556.0509649227491
 21
248.2751559934794
 31
0.0
  0
LINE
  5
CAC
330
1F
100
AcDbEntity
  8
1
  6
CONTINUOUS
 62
     7
100
AcDbLine
 10
557.2045547612353
 20
248.7034242234807
 30
0.0
 11
556.0509649227491
 21
248.7034242234807
 31
0.0
  0
ELLIPSE
  5
CAD
330
1F
100
AcDbEntity
  8
1
  6
CONTINUOUS
 62
     7
100
AcDbEllipse
 10
557.2045547612353
 20
248.2646797626318
 30
0.0
 11
-0.2999999999999972
 21
3.673940397442025E-17
 31
0.0
210
0.0
220
0.0
230
1.0
 40
0.0349207694917674
 41
3.665191429187204
 42
4.71238898038469
  0
ELLIPSE
  5
CAE
330
1F
100
AcDbEntity
  8
1
  6
CONTINUOUS
 62
     7
100
AcDbEllipse
 10
557.2045547612353
 20
248.7021152182345
 30
0.0
 11
-0.2999999999999972
 21
3.673940397442025E-17
 31
0.0
210
0.0
220
0.0
230
1.0
 40
0.0043633508206635
 41
3.66519142919518
 42
4.71238898038469
  0
LINE
  5
CAF
330
1F
100
AcDbEntity
  8
1
  6
CONTINUOUS
 62
     7
100
AcDbLine
 10
557.2045547612353
 20
239.1837273009368
 30
0.0
 11
556.0509649227491
 21
239.1837273009368
 31
0.0
  0
LINE
  5
CB0
330
1F
100
AcDbEntity
  8
1
  6
CONTINUOUS
 62
     7
100
AcDbLine
 10
557.2045547612353
 20
238.7554590709354
 30
0.0
 11
556.0509649227491
 21
238.7554590709354
 31
0.0
  0
ELLIPSE
  5
CB1
330
1F
100
AcDbEntity
  8
1
  6
CONTINUOUS
 62
     7
100
AcDbEllipse
 10
556.0509649227491
 20
239.1942035317843
 30
0.0
 11
-0.2999999999999972
 21
3.673940397442025E-17
 31
0.0
210
0.0
220
0.0
230
1.0
 40
0.0349207694917201
 41
0.5235987756000711
 42
1.570796326794897
  0
LINE
  5
CB2
330
1F
100
AcDbEntity
  8
1
  6
CONTINUOUS
 62
     7
100
AcDbLine
 10
555.6254474872892
 20
239.1989882994133
 30
0.0
 11
555.7911573016138
 21
239.1889654163605
 31
0.0
  0
LINE
  5
CB3
330
1F
100
AcDbEntity
  8
1
  6
CONTINUOUS
 62
     7
100
AcDbLine
 10
557.6300721966951
 20
239.1989882994133
 30
0.0
 11
555.6254474872892
 21
239.1989882994133
 31
0.0
  0
LINE
  5
CB4
330
1F
100
AcDbEntity
  8
1
  6
CONTINUOUS
 62
     7
100
AcDbLine
 10
557.4643623823707
 20
239.1889654163605
 30
0.0
 11
557.6300721966951
 21
239.1989882994133
 31
0.0
  0
ELLIPSE
  5
CB5
330
1F
100
AcDbEntity
  8
1
  6
CONTINUOUS
 62
     7
100
AcDbEllipse
 10
557.2045547612353
 20
239.1942035317843
 30
0.0
 11
-0.2999999999999972
 21
3.673940397442025E-17
 31
0.0
210
0.0
220
0.0
230
1.0
 40
0.0349207694917201
 41
1.570796326794897
 42
2.617993877989747
  0
ELLIPSE
  5
CB6
330
1F
100
AcDbEntity
  8
1
  6
CONTINUOUS
 62
     7
100
AcDbEllipse
 10
557.2045547612353
 20
238.7567680761816
 30
0.0
 11
-0.2999999999999972
 21
3.673940397442025E-17
 31
0.0
210
0.0
220
0.0
230
1.0
 40
0.0043633508207109
 41
1.570796326794897
 42
2.617993878000897
  0
ELLIPSE
  5
CB7
330
1F
100
AcDbEntity
  8
1
  6
CONTINUOUS
 62
     7
100
AcDbEllipse
 10
556.0509649227491
 20
238.7567680761816
 30
0.0
 11
-0.2999999999999972
 21
3.673940397442025E-17
 31
0.0
210
0.0
220
0.0
230
1.0
 40
0.0043633508207109
 41
0.5235987755889071
 42
1.570796326794897
  0
LINE
  5
CB8
330
1F
100
AcDbEntity
  8
1
  6
CONTINUOUS
 62
     7
100
AcDbLine
 10
557.4643623823707
 20
248.2699178780556
 30
0.0
 11
557.6300721966952
 21
248.2598949950029
 31
0.0
  0
LINE
  5
CB9
330
1F
100
AcDbEntity
  8
1
  6
CONTINUOUS
 62
     7
100
AcDbLine
 10
555.6254474872894
 20
248.2598949950029
 30
0.0
 11
557.6300721966952
 21
248.2598949950029
 31
0.0
  0
LINE
  5
CBA
330
1F
100
AcDbEntity
  8
1
  6
CONTINUOUS
 62
     7
100
AcDbLine
 10
555.6254474872894
 20
248.2598949950029
 30
0.0
 11
555.7911573016138
 21
248.2699178780556
 31
0.0
  0
LINE
  5
CBB
330
1F
100
AcDbEntity
  8
1
  6
CONTINUOUS
 62
     7
100
AcDbLine
 10
581.7077211608263
 20
242.7196340260728
 30
0.0
 11
582.0497789103955
 21
242.7196340260728
 31
0.0
  0
ELLIPSE
  5
CBC
330
1F
100
AcDbEntity
  8
1
  6
CONTINUOUS
 62
     7
100
AcDbEllipse
 10
581.7077211608263
 20
242.6618989991538
 30
0.0
 11
-0.1000000000000014
 21
1.224646799147371E-17
 31
0.0
210
0.0
220
0.0
230
1.0
 40
0.5773502691896144
 41
4.712388980384698
 42
6.278821984049752
  0
LINE
  5
CBD
330
1F
100
AcDbEntity
  8
1
  6
CONTINUOUS
 62
     7
100
AcDbLine
 10
581.6077221127542
 20
242.6621509149328
 30
0.0
 11
581.6082131897871
 21
242.7271292925051
 31
0.0
  0
LINE
  5
CBE
330
1F
100
AcDbEntity
  8
1
  6
CONTINUOUS
 62
     7
100
AcDbLine
 10
582.0497789103955
 20
242.7196340260728
 30
0.0
 11
582.0510879156418
 21
242.8928391068296
 31
0.0
  0
LINE
  5
CBF
330
1F
100
AcDbEntity
  8
1
  6
CONTINUOUS
 62
     7
100
AcDbLine
 10
581.6077221127542
 20
244.7967323794833
 30
0.0
 11
581.6082131897869
 21
244.7317540019137
 31
0.0
  0
ELLIPSE
  5
CC0
330
1F
100
AcDbEntity
  8
1
  6
CONTINUOUS
 62
     7
100
AcDbEllipse
 10
581.7077211608263
 20
244.7969842952623
 30
0.0
 11
-0.09999999999999432
 21
1.224646799147284E-17
 31
0.0
210
0.0
220
0.0
230
1.0
 40
0.5773502691897976
 41
0.004363323129612
 42
1.570796326794897
  0
LINE
  5
CC1
330
1F
100
AcDbEntity
  8
1
  6
CONTINUOUS
 62
     7
100
AcDbLine
 10
581.7077211608263
 20
244.7392492683434
 30
0.0
 11
582.0497789103955
 21
244.7392492683434
 31
0.0
  0
LINE
  5
CC2
330
1F
100
AcDbEntity
  8
1
  6
CONTINUOUS
 62
     7
100
AcDbLine
 10
582.0497789103955
 20
244.7392492683434
 30
0.0
 11
582.0510879156418
 21
244.5660441875865
 31
0.0
  0
LINE
  5
CC3
330
1F
100
AcDbEntity
  8
1
  6
CONTINUOUS
 62
     7
100
AcDbLine
 10
555.6179522208569
 20
248.2598383491872
 30
0.0
 11
555.6254474872894
 21
248.2598949950029
 31
0.0
  0
LINE
  5
CC4
330
1F
100
AcDbEntity
  8
1
  6
CONTINUOUS
 62
     7
100
AcDbLine
 10
555.6179522208569
 20
248.7014607156114
 30
0.0
 11
555.6179522208569
 21
248.2598383491872
 31
0.0
  0
LINE
  5
CC5
330
1F
100
AcDbEntity
  8
1
  6
CONTINUOUS
 62
     7
100
AcDbLine
 10
555.6179522208569
 20
248.7014607156114
 30
0.0
 11
555.7911573016138
 21
248.7027697208576
 31
0.0
  0
LINE
  5
CC6
330
1F
100
AcDbEntity
  8
1
  6
CONTINUOUS
 62
     7
100
AcDbLine
 10
555.6179522208569
 20
238.7574225788047
 30
0.0
 11
555.6179522208569
 21
239.1990449452289
 31
0.0
  0
LINE
  5
CC7
330
1F
100
AcDbEntity
  8
1
  6
CONTINUOUS
 62
     7
100
AcDbLine
 10
555.6179522208569
 20
239.1990449452289
 30
0.0
 11
555.6254474872892
 21
239.1989882994133
 31
0.0
  0
LINE
  5
CC8
330
1F
100
AcDbEntity
  8
1
  6
CONTINUOUS
 62
     7
100
AcDbLine
 10
555.6179522208569
 20
238.7574225788047
 30
0.0
 11
555.7911573016138
 21
238.7561135735585
 31
0.0
  0
LINE
  5
CC9
330
1F
100
AcDbEntity
  8
1
  6
CONTINUOUS
 62
     7
100
AcDbLine
 10
557.6950505742675
 20
239.1994793764461
 30
0.0
 11
557.6300721966951
 21
239.1989882994133
 31
0.0
  0
ELLIPSE
  5
CCA
330
1F
100
AcDbEntity
  8
1
  6
CONTINUOUS
 62
     7
100
AcDbEllipse
 10
557.6953024900465
 20
239.0994803283741
 30
0.0
 11
-1.224646799147284E-17
 21
-0.09999999999999432
 31
0.0
210
0.0
220
0.0
230
1.0
 40
0.5773502691897976
 41
3.145955976719921
 42
4.712388980384698
  0
LINE
  5
CCB
330
1F
100
AcDbEntity
  8
1
  6
CONTINUOUS
 62
     7
100
AcDbLine
 10
557.6375674631275
 20
238.7574225788047
 30
0.0
 11
557.6375674631275
 21
239.0994803283741
 31
0.0
  0
LINE
  5
CCC
330
1F
100
AcDbEntity
  8
1
  6
CONTINUOUS
 62
     7
100
AcDbLine
 10
557.4643623823707
 20
238.7561135735585
 30
0.0
 11
557.6375674631275
 21
238.7574225788047
 31
0.0
  0
LINE
  5
CCD
330
1F
100
AcDbEntity
  8
1
  6
CONTINUOUS
 62
     7
100
AcDbLine
 10
557.6375674631275
 20
248.7014607156114
 30
0.0
 11
557.6375674631275
 21
248.3594029660421
 31
0.0
  0
ELLIPSE
  5
CCE
330
1F
100
AcDbEntity
  8
1
  6
CONTINUOUS
 62
     7
100
AcDbEllipse
 10
557.6953024900465
 20
248.3594029660421
 30
0.0
 11
-1.224646799147284E-17
 21
-0.09999999999999432
 31
0.0
210
0.0
220
0.0
230
1.0
 40
0.5773502691897976
 41
4.712388980384698
 42
6.278821984049506
  0
LINE
  5
CCF
330
1F
100
AcDbEntity
  8
1
  6
CONTINUOUS
 62
     7
100
AcDbLine
 10
557.6950505742675
 20
248.25940391797
 30
0.0
 11
557.6300721966952
 21
248.2598949950029
 31
0.0
  0
LINE
  5
CD0
330
1F
100
AcDbEntity
  8
1
  6
CONTINUOUS
 62
     7
100
AcDbLine
 10
557.4643623823707
 20
248.7027697208576
 30
0.0
 11
557.6375674631275
 21
248.7014607156114
 31
0.0
  0
LINE
  5
CD1
330
1F
100
AcDbEntity
  8
1
  6
CONTINUOUS
 62
     7
100
AcDbLine
 10
554.8059242377673
 20
240.9794416472081
 30
0.0
 11
554.8059242377673
 21
246.479441647208
 31
0.0
  0
LINE
  5
CD2
330
1F
100
AcDbEntity
  8
1
  6
CONTINUOUS
 62
     7
100
AcDbLine
 10
555.2296102656858
 20
240.9794416472081
 30
0.0
 11
555.2296102656858
 21
246.479441647208
 31
0.0
  0
LINE
  5
CD3
330
1F
100
AcDbEntity
  8
1
  6
CONTINUOUS
 62
     7
100
AcDbLine
 10
554.8059242377673
 20
240.9794416472081
 30
0.0
 11
555.2296102656858
 21
240.9794416472081
 31
0.0
  0
LINE
  5
CD4
330
1F
100
AcDbEntity
  8
1
  6
CONTINUOUS
 62
     7
100
AcDbLine
 10
555.2296102656858
 20
246.479441647208
 30
0.0
 11
554.8059242377673
 21
246.479441647208
 31
0.0
  0
LINE
  5
CD5
330
1F
100
AcDbEntity
  8
1
  6
CONTINUOUS
 62
     7
100
AcDbLine
 10
561.1059094182987
 20
246.479441647208
 30
0.0
 11
561.1059094182987
 21
240.9794416472081
 31
0.0
  0
LINE
  5
CD6
330
1F
100
AcDbEntity
  8
1
  6
CONTINUOUS
 62
     7
100
AcDbLine
 10
555.2296102656858
 20
240.9794416472081
 30
0.0
 11
561.1059094182987
 21
240.9794416472081
 31
0.0
  0
LINE
  5
CD7
330
1F
100
AcDbEntity
  8
1
  6
CONTINUOUS
 62
     7
100
AcDbLine
 10
561.1059094182987
 20
246.479441647208
 30
0.0
 11
555.2296102656858
 21
246.479441647208
 31
0.0
  0
LINE
  5
CD8
330
1F
100
AcDbEntity
  8
1
  6
CONTINUOUS
 62
     7
100
AcDbLine
 10
555.6179522208569
 20
239.1990449452289
 30
0.0
 11
553.9277985231582
 21
239.1990449452289
 31
0.0
  0
ELLIPSE
  5
CD9
330
1F
100
AcDbEntity
  8
1
  6
CONTINUOUS
 62
     7
100
AcDbEllipse
 10
553.9277985231582
 20
239.199481280311
 30
0.0
 11
-0.1000000000000085
 21
1.224646799147458E-17
 31
0.0
210
0.0
220
0.0
230
1.0
 40
0.0043633508207104
 41
1.570796326794897
 42
3.137229330496983
  0
LINE
  5
CDA
330
1F
100
AcDbEntity
  8
1
  6
CONTINUOUS
 62
     7
100
AcDbLine
 10
554.0296102656858
 20
239.2012920709016
 30
0.0
 11
554.0277975712303
 21
239.1994793764461
 31
0.0
  0
LINE
  5
CDB
330
1F
100
AcDbEntity
  8
1
  6
CONTINUOUS
 62
     7
100
AcDbLine
 10
581.6059094182987
 20
239.2012920709016
 30
0.0
 11
554.0296102656858
 21
239.2012920709016
 31
0.0
  0
LINE
  5
CDC
330
1F
100
AcDbEntity
  8
1
  6
CONTINUOUS
 62
     7
100
AcDbLine
 10
581.6059094182987
 20
239.2012920709016
 30
0.0
 11
581.6077221127542
 21
239.1994793764461
 31
0.0
  0
LINE
  5
CDD
330
1F
100
AcDbEntity
  8
1
  6
CONTINUOUS
 62
     7
100
AcDbLine
 10
554.0296102656858
 20
248.2575912235145
 30
0.0
 11
554.0277975712303
 21
248.25940391797
 31
0.0
  0
ELLIPSE
  5
CDE
330
1F
100
AcDbEntity
  8
1
  6
CONTINUOUS
 62
     7
100
AcDbEllipse
 10
553.9277985231582
 20
248.2594020141051
 30
0.0
 11
-0.1000000000000085
 21
1.224646799147458E-17
 31
0.0
210
0.0
220
0.0
230
1.0
 40
0.0043633508205683
 41
3.145955976718514
 42
4.71238898038469
  0
LINE
  5
CDF
330
1F
100
AcDbEntity
  8
1
  6
CONTINUOUS
 62
     7
100
AcDbLine
 10
555.6179522208569
 20
248.2598383491872
 30
0.0
 11
553.9277985231582
 21
248.2598383491872
 31
0.0
  0
LINE
  5
CE0
330
1F
100
AcDbEntity
  8
1
  6
CONTINUOUS
 62
     7
100
AcDbLine
 10
581.6059094182987
 20
248.2575912235145
 30
0.0
 11
581.6077221127542
 21
248.25940391797
 31
0.0
  0
LINE
  5
CE1
330
1F
100
AcDbEntity
  8
1
  6
CONTINUOUS
 62
     7
100
AcDbLine
 10
581.6059094182987
 20
248.2575912235145
 30
0.0
 11
554.0296102656858
 21
248.2575912235145
 31
0.0
  0
LINE
  5
CE2
330
1F
100
AcDbEntity
  8
1
  6
CONTINUOUS
 62
     7
100
AcDbLine
 10
581.6059094182987
 20
248.2575912235145
 30
0.0
 11
581.6059094182987
 21
239.2012920709016
 31
0.0
  0
LINE
  5
CE3
330
1F
100
AcDbEntity
  8
1
  6
CONTINUOUS
 62
     7
100
AcDbLine
 10
581.6077221127542
 20
248.25940391797
 30
0.0
 11
581.7077211608263
 21
248.3594029660421
 31
0.0
  0
ARC
  5
CE4
330
1F
100
AcDbEntity
  8
1
  6
CONTINUOUS
 62
     7
100
AcDbCircle
 10
581.7497760545847
 20
248.4014578598004
 30
0.0
 40
0.3000028558653433
100
AcDbArc
 50
0.0010908238613105
 51
89.99890917615498
  0
LINE
  5
CE5
330
1F
100
AcDbEntity
  8
1
  6
CONTINUOUS
 62
     7
100
AcDbLine
 10
557.6375674631275
 20
248.7014607156114
 30
0.0
 11
581.7497817661794
 21
248.7014607156114
 31
0.0
  0
LINE
  5
CE6
330
1F
100
AcDbEntity
  8
1
  6
CONTINUOUS
 62
     7
100
AcDbLine
 10
582.0497789103955
 20
248.4014635713952
 30
0.0
 11
582.0497789103955
 21
244.7392492683434
 31
0.0
  0
LINE
  5
CE7
330
1F
100
AcDbEntity
  8
1
  6
CONTINUOUS
 62
     7
100
AcDbLine
 10
581.6077221127542
 20
239.1994793764461
 30
0.0
 11
581.7077211608263
 21
239.0994803283741
 31
0.0
  0
ARC
  5
CE8
330
1F
100
AcDbEntity
  8
1
  6
CONTINUOUS
 62
     7
100
AcDbCircle
 10
581.7497760545847
 20
239.0574254346157
 30
0.0
 40
0.3000028558653433
100
AcDbArc
 50
270.001090823845
 51
359.9989091761441
  0
LINE
  5
CE9
330
1F
100
AcDbEntity
  8
1
  6
CONTINUOUS
 62
     7
100
AcDbLine
 10
557.6375674631275
 20
238.7574225788047
 30
0.0
 11
581.7497817661794
 21
238.7574225788047
 31
0.0
  0
LINE
  5
CEA
330
1F
100
AcDbEntity
  8
1
  6
CONTINUOUS
 62
     7
100
AcDbLine
 10
582.0497789103955
 20
239.0574197230209
 30
0.0
 11
582.0497789103955
 21
242.7196340260728
 31
0.0
  0
ARC
  5
CEB
330
1F
100
AcDbEntity
  8
1
  6
CONTINUOUS
 62
     7
100
AcDbCircle
 10
553.8857436293998
 20
239.0574254346157
 30
0.0
 40
0.3000028558653291
100
AcDbArc
 50
180.0010908238559
 51
269.998909176155
  0
LINE
  5
CEC
330
1F
100
AcDbEntity
  8
1
  6
CONTINUOUS
 62
     7
100
AcDbLine
 10
553.5857407735889
 20
239.0574197230209
 30
0.0
 11
553.5857407735889
 21
248.4014635713952
 31
0.0
  0
ARC
  5
CED
330
1F
100
AcDbEntity
  8
1
  6
CONTINUOUS
 62
     7
100
AcDbCircle
 10
553.8857436293998
 20
248.4014578598004
 30
0.0
 40
0.3000028558653433
100
AcDbArc
 50
90.00109082384503
 51
179.9989091761387
  0
LINE
  5
CEE
330
1F
100
AcDbEntity
  8
1
  6
CONTINUOUS
 62
     7
100
AcDbLine
 10
553.8857379178052
 20
248.7014607156114
 30
0.0
 11
555.6179522208569
 21
248.7014607156114
 31
0.0
  0
LINE
  5
CEF
330
1F
100
AcDbEntity
  8
1
  6
CONTINUOUS
 62
     7
100
AcDbLine
 10
553.8857379178052
 20
238.7574225788047
 30
0.0
 11
555.6179522208569
 21
238.7574225788047
 31
0.0
  0
LINE
  5
CF0
330
1F
100
AcDbEntity
  8
1
  6
CONTINUOUS
 62
     7
100
AcDbLine
 10
579.7059094182987
 20
240.9794416472081
 30
0.0
 11
579.7059094182987
 21
246.4794416472081
 31
0.0
  0
LINE
  5
CF1
330
1F
100
AcDbEntity
  8
1
  6
CONTINUOUS
 62
     7
100
AcDbLine
 10
561.1059094182987
 20
240.9794416472081
 30
0.0
 11
579.7059094182987
 21
240.9794416472081
 31
0.0
  0
LINE
  5
CF2
330
1F
100
AcDbEntity
  8
1
  6
CONTINUOUS
 62
     7
100
AcDbLine
 10
579.7059094182987
 20
246.4794416472081
 30
0.0
 11
561.1059094182987
 21
246.4794416472081
 31
0.0
  0
LINE
  5
CF3
330
1F
100
AcDbEntity
  8
1
  6
CONTINUOUS
 62
     7
100
AcDbLine
 10
554.6296102656858
 20
240.9794416472081
 30
0.0
 11
554.6296102656858
 21
246.479441647208
 31
0.0
  0
LINE
  5
CF4
330
1F
100
AcDbEntity
  8
1
  6
CONTINUOUS
 62
     7
100
AcDbLine
 10
554.6296102656858
 20
240.9794416472081
 30
0.0
 11
554.8059242377673
 21
240.9794416472081
 31
0.0
  0
LINE
  5
CF5
330
1F
100
AcDbEntity
  8
1
  6
CONTINUOUS
 62
     7
100
AcDbLine
 10
554.8059242377673
 20
246.479441647208
 30
0.0
 11
554.6296102656858
 21
246.479441647208
 31
0.0
  0
LINE
  5
CF6
330
1F
100
AcDbEntity
  8
1
  6
CONTINUOUS
 62
     7
100
AcDbLine
 10
554.0296102656858
 20
239.2012920709016
 30
0.0
 11
554.0296102656858
 21
248.2575912235145
 31
0.0
  0
LINE
  5
CF7
330
1F
100
AcDbEntity
  8
1
  6
CONTINUOUS
 62
     7
100
AcDbLine
 10
580.0621231928129
 20
212.8445034257435
 30
0.0
 11
580.0621231928129
 21
211.8445034257435
 31
0.0
  0
LINE
  5
CF8
330
1F
100
AcDbEntity
  8
1
  6
CONTINUOUS
 62
     7
100
AcDbLine
 10
581.462123192813
 20
211.8445034257435
 30
0.0
 11
581.462123192813
 21
212.8445034257435
 31
0.0
  0
LINE
  5
CF9
330
1F
100
AcDbEntity
  8
1
  6
CONTINUOUS
 62
     7
100
AcDbLine
 10
557.4643623823707
 20
200.5445034257435
 30
0.0
 11
557.6375674631275
 21
200.8445034257435
 31
0.0
  0
LINE
  5
CFA
330
1F
100
AcDbEntity
  8
1
  6
CONTINUOUS
 62
     7
100
AcDbLine
 10
557.2045547612354
 20
200.3945034257436
 30
0.0
 11
556.0509649227491
 21
200.3945034257436
 31
0.0
  0
LINE
  5
CFB
330
1F
100
AcDbEntity
  8
1
  6
CONTINUOUS
 62
     7
100
AcDbLine
 10
555.6179522208569
 20
200.8445034257435
 30
0.0
 11
555.7911573016138
 21
200.5445034257435
 31
0.0
  0
LINE
  5
CFC
330
1F
100
AcDbEntity
  8
1
  6
CONTINUOUS
 62
     7
100
AcDbLine
 10
553.8857379178052
 20
200.8445034257435
 30
0.0
 11
555.6179522208569
 21
200.8445034257435
 31
0.0
  0
LINE
  5
CFD
330
1F
100
AcDbEntity
  8
1
  6
CONTINUOUS
 62
     7
100
AcDbLine
 10
557.6375674631275
 20
200.8445034257435
 30
0.0
 11
581.7497817661794
 21
200.8445034257435
 31
0.0
  0
ARC
  5
CFE
330
1F
100
AcDbEntity
  8
1
  6
CONTINUOUS
 62
     7
100
AcDbCircle
 10
557.2045547612354
 20
200.6945034257436
 30
0.0
 40
0.3000000000000078
100
AcDbArc
 50
270.0
 51
329.9999999999949
  0
ARC
  5
CFF
330
1F
100
AcDbEntity
  8
1
  6
CONTINUOUS
 62
     7
100
AcDbCircle
 10
556.0509649227491
 20
200.6945034257436
 30
0.0
 40
0.3000000000000016
100
AcDbArc
 50
210.0000000000051
 51
270.0
  0
LINE
  5
D00
330
1F
100
AcDbEntity
  8
1
  6
CONTINUOUS
 62
     7
100
AcDbLine
 10
553.8857379178052
 20
200.8445034257435
 30
0.0
 11
553.5857407735889
 21
200.8445034257435
 31
0.0
  0
LINE
  5
D01
330
1F
100
AcDbEntity
  8
1
  6
CONTINUOUS
 62
     7
100
AcDbLine
 10
553.5857407735889
 20
200.8445034257435
 30
0.0
 11
553.6277598419923
 21
212.8445034257435
 31
0.0
  0
LINE
  5
D02
330
1F
100
AcDbEntity
  8
1
  6
CONTINUOUS
 62
     7
100
AcDbLine
 10
582.0077598419922
 20
210.4745034257438
 30
0.0
 11
582.0497789103956
 21
200.8445034257435
 31
0.0
  0
LINE
  5
D03
330
1F
100
AcDbEntity
  8
1
  6
CONTINUOUS
 62
     7
100
AcDbLine
 10
582.0497789103956
 20
200.8445034257435
 30
0.0
 11
581.7497817661794
 21
200.8445034257435
 31
0.0
  0
LINE
  5
D04
330
1F
100
AcDbEntity
  8
1
  6
CONTINUOUS
 62
     7
100
AcDbLine
 10
582.0077598419922
 20
211.8445034257435
 30
0.0
 11
582.0077598419922
 21
210.4745034257438
 31
0.0
  0
LINE
  5
D05
330
1F
100
AcDbEntity
  8
1
  6
CONTINUOUS
 62
     7
100
AcDbLine
 10
581.7077598419922
 20
211.8445034257435
 30
0.0
 11
582.0077598419922
 21
211.8445034257435
 31
0.0
  0
LINE
  5
D06
330
1F
100
AcDbEntity
  8
1
  6
CONTINUOUS
 62
     7
100
AcDbLine
 10
579.5527419885485
 20
211.8445034257435
 30
0.0
 11
579.5527419885485
 21
212.8445034257435
 31
0.0
  0
LINE
  5
D07
330
1F
100
AcDbEntity
  8
1
  6
CONTINUOUS
 62
     7
100
AcDbLine
 10
581.7077598419922
 20
211.8445034257435
 30
0.0
 11
579.5527419885485
 21
211.8445034257435
 31
0.0
  0
LINE
  5
D08
330
1F
100
AcDbEntity
  8
1
  6
CONTINUOUS
 62
     7
100
AcDbLine
 10
553.9277598419923
 20
212.8445034257435
 30
0.0
 11
579.5527419885485
 21
212.8445034257435
 31
0.0
  0
LINE
  5
D0A
330
1F
100
AcDbEntity
  8
1
  6
CONTINUOUS
 62
     7
100
AcDbLine
 10
553.6277598419923
 20
212.8445034257435
 30
0.0
 11
553.9277598419923
 21
212.8445034257435
 31
0.0
  0
LINE
  5
D0B
330
1F
100
AcDbEntity
  8
1
  6
CONTINUOUS
 62
     7
100
AcDbLine
 10
580.0621231928129
 20
212.8445034257435
 30
0.0
 11
581.462123192813
 21
212.8445034257435
 31
0.0
  0
LINE
  5
D0C
330
1F
100
AcDbEntity
  8
1
  6
CONTINUOUS
 62
     7
100
AcDbLine
 10
555.1497789103956
 20
196.9945034257435
 30
0.0
 11
554.5497789103956
 21
196.9945034257435
 31
0.0
  0
LINE
  5
D0D
330
1F
100
AcDbEntity
  8
1
  6
CONTINUOUS
 62
     7
100
AcDbLine
 10
554.5497789103956
 20
196.9945034257435
 30
0.0
 11
554.5497789103956
 21
197.4695034257435
 31
0.0
  0
LINE
  5
D0E
330
1F
100
AcDbEntity
  8
1
  6
CONTINUOUS
 62
     7
100
AcDbLine
 10
555.1497789103956
 20
197.4695034257435
 30
0.0
 11
555.1497789103956
 21
196.9945034257435
 31
0.0
  0
LINE
  5
D0F
330
1F
100
AcDbEntity
  8
1
  6
CONTINUOUS
 62
     7
100
AcDbLine
 10
561.5497789103956
 20
197.4695034257435
 30
0.0
 11
561.5497789103956
 21
196.9945034257435
 31
0.0
  0
LINE
  5
D10
330
1F
100
AcDbEntity
  8
1
  6
CONTINUOUS
 62
     7
100
AcDbLine
 10
561.5497789103956
 20
196.9945034257435
 30
0.0
 11
560.9497789103956
 21
196.9945034257435
 31
0.0
  0
LINE
  5
D11
330
1F
100
AcDbEntity
  8
1
  6
CONTINUOUS
 62
     7
100
AcDbLine
 10
560.9497789103956
 20
196.9945034257435
 30
0.0
 11
560.9497789103956
 21
197.4695034257435
 31
0.0
  0
LINE
  5
D12
330
1F
100
AcDbEntity
  8
1
  6
CONTINUOUS
 62
     7
100
AcDbLine
 10
561.5497789103956
 20
197.4695034257435
 30
0.0
 11
561.5497789103956
 21
200.8445034257435
 31
0.0
  0
LINE
  5
D13
330
1F
100
AcDbEntity
  8
1
  6
CONTINUOUS
 62
     7
100
AcDbLine
 10
560.9497789103956
 20
197.4695034257435
 30
0.0
 11
560.9497789103956
 21
200.8445034257435
 31
0.0
  0
LINE
  5
D14
330
1F
100
AcDbEntity
  8
1
  6
CONTINUOUS
 62
     7
100
AcDbLine
 10
554.5497789103956
 20
197.4695034257435
 30
0.0
 11
554.5497789103956
 21
200.8445034257435
 31
0.0
  0
LINE
  5
D15
330
1F
100
AcDbEntity
  8
1
  6
CONTINUOUS
 62
     7
100
AcDbLine
 10
555.1497789103956
 20
197.4695034257435
 30
0.0
 11
555.1497789103956
 21
200.8445034257435
 31
0.0
  0
LINE
  5
D16
330
1F
100
AcDbEntity
  8
1
  6
CONTINUOUS
 62
     7
100
AcDbLine
 10
580.5997789103956
 20
197.4695034257435
 30
0.0
 11
580.5997789103956
 21
200.8445034257435
 31
0.0
  0
ARC
  5
D17
330
1F
100
AcDbEntity
  8
1
  6
CONTINUOUS
 62
     7
100
AcDbCircle
 10
580.1247789103955
 20
197.4695034257435
 30
0.0
 40
0.4750000000000211
100
AcDbArc
 50
273.0169613098269
 51
0.0
  0
ARC
  5
D18
330
1F
100
AcDbEntity
  8
1
  6
CONTINUOUS
 62
     7
100
AcDbCircle
 10
580.1747789103956
 20
197.4695034257435
 30
0.0
 40
0.4750000000000196
100
AcDbArc
 50
180.0
 51
266.983038690187
  0
LINE
  5
D19
330
1F
100
AcDbEntity
  8
1
  6
CONTINUOUS
 62
     7
100
AcDbLine
 10
579.6997789103956
 20
197.4695034257435
 30
0.0
 11
579.6997789103956
 21
200.8445034257435
 31
0.0
  0
LINE
  5
D1A
330
1F
100
AcDbEntity
  8
1
  6
CONTINUOUS
 62
     7
100
AcDbLine
 10
579.8527419885485
 20
212.8445034257435
 30
0.0
 11
579.5527419885485
 21
212.8445034257435
 31
0.0
  0
LINE
  5
D1B
330
1F
100
AcDbEntity
  8
1
  6
CONTINUOUS
 62
     7
100
AcDbLine
 10
560.9497789103956
 20
200.6595034257435
 30
0.0
 11
557.5307576633276
 21
200.6595034257435
 31
0.0
  0
LINE
  5
D1C
330
1F
100
AcDbEntity
  8
1
  6
CONTINUOUS
 62
     7
100
AcDbLine
 10
555.7247620206571
 20
200.6595034257435
 30
0.0
 11
555.2296102656858
 21
200.6595034257435
 31
0.0
  0
LINE
  5
D1D
330
1F
100
AcDbEntity
  8
1
  6
CONTINUOUS
 62
     7
100
AcDbLine
 10
555.2296102656858
 20
200.6595034257435
 30
0.0
 11
555.1497789103956
 21
200.7055940802101
 31
0.0
  0
LINE
  5
D1E
330
1F
100
AcDbEntity
  8
1
  6
CONTINUOUS
 62
     7
100
AcDbLine
 10
582.0077598419922
 20
212.8445034257435
 30
0.0
 11
582.0077598419922
 21
211.8445034257435
 31
0.0
  0
LINE
  5
D1F
330
1F
100
AcDbEntity
  8
1
  6
CONTINUOUS
 62
     7
100
AcDbLine
 10
582.0077598419922
 20
212.8445034257435
 30
0.0
 11
581.462123192813
 21
212.8445034257435
 31
0.0
  0
LINE
  5
D20
330
1F
100
AcDbEntity
  8
1
  6
CONTINUOUS
 62
     7
100
AcDbLine
 10
580.0621231928129
 20
212.8445034257435
 30
0.0
 11
579.8527419885485
 21
212.8445034257435
 31
0.0
  0
LINE
  5
D21
330
1F
100
AcDbEntity
  8
1
  6
CONTINUOUS
 62
     7
100
AcDbLine
 10
581.6182360728397
 20
200.5445034257435
 30
0.0
 11
581.608213189787
 21
200.8315212434711
 31
0.0
  0
LINE
  5
D22
330
1F
100
AcDbEntity
  8
1
  6
CONTINUOUS
 62
     7
100
AcDbLine
 10
581.6081565439713
 20
200.8445034257435
 30
0.0
 11
581.608213189787
 21
200.8315212434711
 31
0.0
  0
LINE
  5
D23
330
1F
100
AcDbEntity
  8
1
  6
CONTINUOUS
 62
     7
100
AcDbLine
 10
582.0497789103956
 20
200.8445034257435
 30
0.0
 11
582.0510879156418
 21
200.5445034257435
 31
0.0
  0
LINE
  5
D24
330
1F
100
AcDbEntity
  8
1
  6
CONTINUOUS
 62
     7
100
AcDbLine
 10
582.0517424182649
 20
200.3945034257436
 30
0.0
 11
581.6234741882635
 21
200.3945034257436
 31
0.0
  0
LINE
  5
D25
330
1F
100
AcDbEntity
  8
1
  6
CONTINUOUS
 62
     7
100
AcDbLine
 10
581.6234741882635
 20
200.3945034257436
 30
0.0
 11
581.6182360728397
 21
200.5445034257435
 31
0.0
  0
LINE
  5
D26
330
1F
100
AcDbEntity
  8
1
  6
CONTINUOUS
 62
     7
100
AcDbLine
 10
582.0510879156418
 20
200.5445034257435
 30
0.0
 11
582.0517424182649
 21
200.3945034257436
 31
0.0
  0
LINE
  5
D27
330
1F
100
AcDbEntity
  8
1
  6
CONTINUOUS
 62
     7
100
AcDbLine
 10
558.3497789103957
 20
197.4695034257435
 30
0.0
 11
558.3497789103957
 21
196.9945034257435
 31
0.0
  0
LINE
  5
D28
330
1F
100
AcDbEntity
  8
1
  6
CONTINUOUS
 62
     7
100
AcDbLine
 10
558.3497789103957
 20
196.9945034257435
 30
0.0
 11
557.7497789103955
 21
196.9945034257435
 31
0.0
  0
LINE
  5
D29
330
1F
100
AcDbEntity
  8
1
  6
CONTINUOUS
 62
     7
100
AcDbLine
 10
557.7497789103955
 20
196.9945034257435
 30
0.0
 11
557.7497789103955
 21
197.4695034257435
 31
0.0
  0
LINE
  5
D2A
330
1F
100
AcDbEntity
  8
1
  6
CONTINUOUS
 62
     7
100
AcDbLine
 10
558.3497789103957
 20
197.4695034257435
 30
0.0
 11
558.3497789103957
 21
200.6595034257435
 31
0.0
  0
LINE
  5
D2B
330
1F
100
AcDbEntity
  8
1
  6
CONTINUOUS
 62
     7
100
AcDbLine
 10
557.7497789103955
 20
197.4695034257435
 30
0.0
 11
557.7497789103955
 21
200.6595034257435
 31
0.0
  0
LINE
  5
D2C
330
1F
100
AcDbEntity
  8
1
  6
CONTINUOUS
 62
     7
100
AcDbLine
 10
627.561381163267
 20
210.4745034257435
 30
0.0
 11
627.6034002316704
 21
200.8445034257435
 31
0.0
  0
LINE
  5
D2D
330
1F
100
AcDbEntity
  8
1
  6
CONTINUOUS
 62
     7
100
AcDbLine
 10
627.6034002316704
 20
200.8445034257435
 30
0.0
 11
627.3034030874542
 21
200.8445034257435
 31
0.0
  0
LINE
  5
D2E
330
1F
100
AcDbEntity
  8
1
  6
CONTINUOUS
 62
     7
100
AcDbLine
 10
617.95935923908
 20
200.8445034257435
 30
0.0
 11
627.3034030874542
 21
200.8445034257435
 31
0.0
  0
LINE
  5
D2F
330
1F
100
AcDbEntity
  8
1
  6
CONTINUOUS
 62
     7
100
AcDbLine
 10
617.6593620948638
 20
200.8445034257435
 30
0.0
 11
617.7013811632671
 21
210.4745034257435
 31
0.0
  0
LINE
  5
D30
330
1F
100
AcDbEntity
  8
1
  6
CONTINUOUS
 62
     7
100
AcDbLine
 10
617.95935923908
 20
200.8445034257435
 30
0.0
 11
617.6593620948638
 21
200.8445034257435
 31
0.0
  0
LINE
  5
D31
330
1F
100
AcDbEntity
  8
1
  6
CONTINUOUS
 62
     7
100
AcDbLine
 10
618.0013811632671
 20
212.8445034257435
 30
0.0
 11
627.2613811632671
 21
212.8445034257435
 31
0.0
  0
LINE
  5
D32
330
1F
100
AcDbEntity
  8
1
  6
CONTINUOUS
 62
     7
100
AcDbLine
 10
617.7013811632671
 20
210.4745034257435
 30
0.0
 11
617.7013811632671
 21
212.8445034257435
 31
0.0
  0
LINE
  5
D33
330
1F
100
AcDbEntity
  8
1
  6
CONTINUOUS
 62
     7
100
AcDbLine
 10
617.7013811632671
 20
212.8445034257435
 30
0.0
 11
618.0013811632671
 21
212.8445034257435
 31
0.0
  0
LINE
  5
D34
330
1F
100
AcDbEntity
  8
1
  6
CONTINUOUS
 62
     7
100
AcDbLine
 10
627.561381163267
 20
212.8445034257435
 30
0.0
 11
627.561381163267
 21
210.4745034257435
 31
0.0
  0
LINE
  5
D35
330
1F
100
AcDbEntity
  8
1
  6
CONTINUOUS
 62
     7
100
AcDbLine
 10
627.2613811632671
 20
212.8445034257435
 30
0.0
 11
627.561381163267
 21
212.8445034257435
 31
0.0
  0
LINE
  5
D36
330
1F
100
AcDbEntity
  8
1
  6
CONTINUOUS
 62
     7
100
AcDbLine
 10
625.906381163267
 20
197.4695034257435
 30
0.0
 11
625.906381163267
 21
200.8445034257435
 31
0.0
  0
ARC
  5
D37
330
1F
100
AcDbEntity
  8
1
  6
CONTINUOUS
 62
     7
100
AcDbCircle
 10
626.3813811632671
 20
197.4695034257435
 30
0.0
 40
0.4750000000000085
100
AcDbArc
 50
180.0
 51
270.0000000000138
  0
ARC
  5
D38
330
1F
100
AcDbEntity
  8
1
  6
CONTINUOUS
 62
     7
100
AcDbCircle
 10
626.3813811632671
 20
197.4695034257435
 30
0.0
 40
0.4750000000000085
100
AcDbArc
 50
270.0000000000138
 51
0.0
  0
LINE
  5
D39
330
1F
100
AcDbEntity
  8
1
  6
CONTINUOUS
 62
     7
100
AcDbLine
 10
626.8563811632671
 20
197.4695034257435
 30
0.0
 11
626.8563811632671
 21
200.8445034257435
 31
0.0
  0
LINE
  5
D3A
330
1F
100
AcDbEntity
  8
1
  6
CONTINUOUS
 62
     7
100
AcDbLine
 10
619.8813811632671
 20
200.6595034257435
 30
0.0
 11
625.3813811632671
 21
200.6595034257435
 31
0.0
  0
LINE
  5
D3B
330
1F
100
AcDbEntity
  8
1
  6
CONTINUOUS
 62
     7
100
AcDbLine
 10
625.3813811632671
 20
200.6595034257435
 30
0.0
 11
625.3813811632671
 21
200.8445034257435
 31
0.0
  0
LINE
  5
D3C
330
1F
100
AcDbEntity
  8
1
  6
CONTINUOUS
 62
     7
100
AcDbLine
 10
619.8813811632671
 20
200.8445034257435
 30
0.0
 11
619.8813811632671
 21
200.6595034257435
 31
0.0
  0
LINE
  5
D3D
330
1F
100
AcDbEntity
  8
1
  6
CONTINUOUS
 62
     7
100
AcDbLine
 10
618.1009278154722
 20
200.8315212434665
 30
0.0
 11
618.0909049324196
 21
200.5445034257435
 31
0.0
  0
LINE
  5
D3E
330
1F
100
AcDbEntity
  8
1
  6
CONTINUOUS
 62
     7
100
AcDbLine
 10
618.1009844612879
 20
200.8445034257435
 30
0.0
 11
618.1009278154722
 21
200.8315212434665
 31
0.0
  0
LINE
  5
D3F
330
1F
100
AcDbEntity
  8
1
  6
CONTINUOUS
 62
     7
100
AcDbLine
 10
617.6593620948638
 20
200.8445034257435
 30
0.0
 11
617.6580530896175
 21
200.5445034257435
 31
0.0
  0
LINE
  5
D40
330
1F
100
AcDbEntity
  8
1
  6
CONTINUOUS
 62
     7
100
AcDbLine
 10
627.1618345110619
 20
200.8315212434662
 30
0.0
 11
627.1718573941146
 21
200.5445034257435
 31
0.0
  0
LINE
  5
D41
330
1F
100
AcDbEntity
  8
1
  6
CONTINUOUS
 62
     7
100
AcDbLine
 10
627.1617778652462
 20
200.8445034257435
 30
0.0
 11
627.1618345110619
 21
200.8315212434662
 31
0.0
  0
LINE
  5
D42
330
1F
100
AcDbEntity
  8
1
  6
CONTINUOUS
 62
     7
100
AcDbLine
 10
627.6034002316704
 20
200.8445034257435
 30
0.0
 11
627.6047092369167
 21
200.5445034257435
 31
0.0
  0
LINE
  5
D43
330
1F
100
AcDbEntity
  8
1
  6
CONTINUOUS
 62
     7
100
AcDbLine
 10
627.6053637395398
 20
200.3945034257436
 30
0.0
 11
627.1770955095384
 21
200.3945034257436
 31
0.0
  0
LINE
  5
D44
330
1F
100
AcDbEntity
  8
1
  6
CONTINUOUS
 62
     7
100
AcDbLine
 10
627.1770955095384
 20
200.3945034257436
 30
0.0
 11
627.1718573941146
 21
200.5445034257435
 31
0.0
  0
LINE
  5
D45
330
1F
100
AcDbEntity
  8
1
  6
CONTINUOUS
 62
     7
100
AcDbLine
 10
627.6047092369167
 20
200.5445034257435
 30
0.0
 11
627.6053637395398
 21
200.3945034257436
 31
0.0
  0
LINE
  5
D46
330
1F
100
AcDbEntity
  8
1
  6
CONTINUOUS
 62
     7
100
AcDbLine
 10
617.6573985869944
 20
200.3945034257436
 30
0.0
 11
618.0856668169959
 21
200.3945034257436
 31
0.0
  0
LINE
  5
D47
330
1F
100
AcDbEntity
  8
1
  6
CONTINUOUS
 62
     7
100
AcDbLine
 10
618.0856668169959
 20
200.3945034257436
 30
0.0
 11
618.0909049324196
 21
200.5445034257435
 31
0.0
  0
LINE
  5
D48
330
1F
100
AcDbEntity
  8
1
  6
CONTINUOUS
 62
     7
100
AcDbLine
 10
617.6580530896175
 20
200.5445034257435
 30
0.0
 11
617.6573985869944
 21
200.3945034257436
 31
0.0
  0
LINE
  5
D49
330
1F
100
AcDbEntity
  8
1
  6
CONTINUOUS
 62
     7
100
AcDbLine
 10
619.3563811632671
 20
197.4695034257435
 30
0.0
 11
619.3563811632671
 21
200.8445034257435
 31
0.0
  0
ARC
  5
D4A
330
1F
100
AcDbEntity
  8
1
  6
CONTINUOUS
 62
     7
100
AcDbCircle
 10
618.8813811632671
 20
197.4695034257435
 30
0.0
 40
0.4750000000000085
100
AcDbArc
 50
180.0
 51
270.0000000000138
  0
LINE
  5
D4B
330
1F
100
AcDbEntity
  8
1
  6
CONTINUOUS
 62
     7
100
AcDbLine
 10
618.406381163267
 20
197.4695034257435
 30
0.0
 11
618.406381163267
 21
200.8445034257435
 31
0.0
  0
ARC
  5
D4C
330
1F
100
AcDbEntity
  8
1
  6
CONTINUOUS
 62
     7
100
AcDbCircle
 10
618.8813811632671
 20
197.4695034257435
 30
0.0
 40
0.4750000000000085
100
AcDbArc
 50
270.0000000000138
 51
0.0
  0
LINE
  5
D4D
330
1F
100
AcDbEntity
  8
1
  6
CONTINUOUS
 62
     7
100
AcDbLine
 10
618.5813811632671
 20
196.9951617767183
 30
0.0
 11
618.8563811632671
 21
196.9951617767183
 31
0.0
  0
LINE
  5
D4E
330
1F
100
AcDbEntity
  8
1
  6
CONTINUOUS
 62
     7
100
AcDbLine
 10
618.906381163267
 20
196.9951617767183
 30
0.0
 11
619.1813811632671
 21
196.9951617767183
 31
0.0
  0
LINE
  5
D4F
330
1F
100
AcDbEntity
  8
1
  6
CONTINUOUS
 62
     7
100
AcDbLine
 10
618.5813811632671
 20
196.9951617767183
 30
0.0
 11
618.5813811632671
 21
197.1012304291771
 31
0.0
  0
LINE
  5
D50
330
1F
100
AcDbEntity
  8
1
  6
CONTINUOUS
 62
     7
100
AcDbLine
 10
619.1813811632671
 20
197.1012304291771
 30
0.0
 11
619.1813811632671
 21
196.9951617767183
 31
0.0
  0
LINE
  5
D51
330
1F
100
AcDbEntity
  8
1
  6
CONTINUOUS
 62
     7
100
AcDbLine
 10
626.0813811632671
 20
196.9951617767183
 30
0.0
 11
626.3563811632671
 21
196.9951617767183
 31
0.0
  0
LINE
  5
D52
330
1F
100
AcDbEntity
  8
1
  6
CONTINUOUS
 62
     7
100
AcDbLine
 10
626.406381163267
 20
196.9951617767183
 30
0.0
 11
626.6813811632671
 21
196.9951617767183
 31
0.0
  0
LINE
  5
D53
330
1F
100
AcDbEntity
  8
1
  6
CONTINUOUS
 62
     7
100
AcDbLine
 10
626.0813811632671
 20
196.9951617767183
 30
0.0
 11
626.0813811632671
 21
197.1012304291771
 31
0.0
  0
LINE
  5
D54
330
1F
100
AcDbEntity
  8
1
  6
CONTINUOUS
 62
     7
100
AcDbLine
 10
626.6813811632671
 20
197.1012304291771
 30
0.0
 11
626.6813811632671
 21
196.9951617767183
 31
0.0
  0
ARC
  5
D55
330
1F
100
AcDbEntity
  8
1
  6
CONTINUOUS
 62
     7
100
AcDbCircle
 10
622.054586244024
 20
200.6945034257436
 30
0.0
 40
0.3000000000000016
100
AcDbArc
 50
210.0000000000051
 51
270.0
  0
ARC
  5
D56
330
1F
100
AcDbEntity
  8
1
  6
CONTINUOUS
 62
     7
100
AcDbCircle
 10
623.2081760825101
 20
200.6945034257436
 30
0.0
 40
0.3000000000000016
100
AcDbArc
 50
270.0
 51
330.0000000000043
  0
LINE
  5
D57
330
1F
100
AcDbEntity
  8
1
  6
CONTINUOUS
 62
     7
100
AcDbLine
 10
623.2081760825101
 20
200.3945034257436
 30
0.0
 11
622.054586244024
 21
200.3945034257436
 31
0.0
  0
LINE
  5
D58
330
1F
100
AcDbEntity
  8
1
  6
CONTINUOUS
 62
     7
100
AcDbLine
 10
621.7947786228887
 20
200.5445034257435
 30
0.0
 11
621.7283833419318
 21
200.6595034257435
 31
0.0
  0
LINE
  5
D59
330
1F
100
AcDbEntity
  8
1
  6
CONTINUOUS
 62
     7
100
AcDbLine
 10
623.4679837036456
 20
200.5445034257435
 30
0.0
 11
623.5343789846023
 21
200.6595034257435
 31
0.0
  0
LINE
  5
D5B
330
1F
100
AcDbEntity
  8
OŚ
100
AcDbLine
 10
583.377586265664
 20
243.7294416472081
 30
0.0
 11
552.3179567904707
 21
243.7294416472081
 31
0.0
  0
LINE
  5
D5C
330
1F
100
AcDbEntity
  8
OŚ
100
AcDbLine
 10
580.1497789103956
 20
246.4742790394988
 30
0.0
 11
580.1497789103956
 21
248.4846042549172
 31
0.0
  0
LINE
  5
D5D
330
1F
100
AcDbEntity
  8
OŚ
100
AcDbLine
 10
580.1497789103956
 20
238.9742790394989
 30
0.0
 11
580.1497789103956
 21
240.9846042549172
 31
0.0
  0
LINE
  5
D5E
330
1F
100
AcDbEntity
  8
OŚ
100
AcDbLine
 10
561.2497789103955
 20
246.4742790394989
 30
0.0
 11
561.2497789103955
 21
248.4846042549172
 31
0.0
  0
LINE
  5
D5F
330
1F
100
AcDbEntity
  8
OŚ
100
AcDbLine
 10
554.8497789103956
 20
246.4742790394989
 30
0.0
 11
554.8497789103956
 21
248.4846042549172
 31
0.0
  0
LINE
  5
D60
330
1F
100
AcDbEntity
  8
OŚ
100
AcDbLine
 10
558.0497789103955
 20
238.9742790394989
 30
0.0
 11
558.0497789103955
 21
240.9846042549173
 31
0.0
  0
LINE
  5
D61
330
1F
100
AcDbEntity
  8
OŚ
100
AcDbLine
 10
622.6313811632671
 20
215.3323972285998
 30
0.0
 11
622.6313811632671
 21
194.720259324536
 31
0.0
  0
LINE
  5
D62
330
1F
100
AcDbEntity
  8
OŚ
100
AcDbLine
 10
618.8563811632671
 20
195.5965609359841
 30
0.0
 11
618.8563811632671
 21
202.3021732670659
 31
0.0
  0
LINE
  5
D63
330
1F
100
AcDbEntity
  8
OŚ
100
AcDbLine
 10
626.3563811632671
 20
195.5965609359841
 30
0.0
 11
626.3563811632671
 21
202.3021732670659
 31
0.0
  0
LINE
  5
D64
330
1F
100
AcDbEntity
  8
OŚ
100
AcDbLine
 10
554.8497789103957
 20
202.0041592815422
 30
0.0
 11
554.8497789103957
 21
195.5965609359841
 31
0.0
  0
LINE
  5
D65
330
1F
100
AcDbEntity
  8
OŚ
100
AcDbLine
 10
558.0497789103956
 20
202.0041592815422
 30
0.0
 11
558.0497789103956
 21
195.5965609359841
 31
0.0
  0
LINE
  5
D66
330
1F
100
AcDbEntity
  8
OŚ
100
AcDbLine
 10
561.2497789103955
 20
202.0041592815422
 30
0.0
 11
561.2497789103955
 21
195.5965609359841
 31
0.0
  0
LINE
  5
D67
330
1F
100
AcDbEntity
  8
OŚ
100
AcDbLine
 10
580.1497789103956
 20
202.0048176325169
 30
0.0
 11
580.1497789103956
 21
195.5972192869588
 31
0.0
  0
LINE
  5
D68
330
1F
100
AcDbEntity
  8
OŚ
100
AcDbLine
 10
580.762123192813
 20
214.3166197839419
 30
0.0
 11
580.762123192813
 21
210.3415132868408
 31
0.0
  0
DIMENSION
  5
D6A
330
1F
100
AcDbEntity
  8
WY
100
AcDbDimension
  2
*D26
 10
553.5857407735889
 20
253.3893155685107
 30
0.0
 11
568.5303688902308
 21
253.3893155685107
 31
0.0
 70
   160
 52
-270.0
  3
ISO-25
100
AcDbAlignedDimension
 13
582.0497789103956
 23
248.4014635713952
 33
0.0
 14
553.5857407735889
 24
248.4014635713952
 34
0.0
 50
180.0
100
AcDbRotatedDimension
1001
ACAD
1000
DSTYLE
1002
{
1070
   287
1070
     3
1070
   271
1070
     1
1070
   143
1040
0.0393700787401575
1070
    41
1040
1.2
1070
    44
1040
1.0
1070
    42
1040
1.0
1070
   147
1040
1.0
1070
   279
1070
     0
1070
    74
1070
     1
1070
   140
1040
1.2
1002
}
  0
LINE
  5
D7A
330
1F
100
AcDbEntity
  8
OŚ
100
AcDbLine
 10
581.2715979097786
 20
239.979441647208
 30
0.0
 11
579.0279599110128
 21
239.979441647208
 31
0.0
  0
LINE
  5
D7F
330
1F
100
AcDbEntity
  8
OŚ
100
AcDbLine
 10
581.2715979097785
 20
247.479441647208
 30
0.0
 11
579.0279599110127
 21
247.479441647208
 31
0.0
  0
LINE
  5
D80
330
1F
100
AcDbEntity
  8
OŚ
100
AcDbLine
 10
562.3715979097784
 20
247.479441647208
 30
0.0
 11
560.1279599110126
 21
247.479441647208
 31
0.0
  0
LINE
  5
D81
330
1F
100
AcDbEntity
  8
OŚ
100
AcDbLine
 10
555.9715979097784
 20
247.479441647208
 30
0.0
 11
553.7279599110126
 21
247.479441647208
 31
0.0
  0
LINE
  5
D82
330
1F
100
AcDbEntity
  8
OŚ
100
AcDbLine
 10
559.1715979097784
 20
239.9794416472081
 30
0.0
 11
556.9279599110125
 21
239.9794416472081
 31
0.0
  0
DIMENSION
  5
D84
330
1F
100
AcDbEntity
  8
WY
100
AcDbDimension
  2
*D27
 10
588.49290841915
 20
247.479441647208
 30
0.0
 11
586.89290841915
 21
243.729441647208
 31
0.0
 70
    32
  3
ISO-25
100
AcDbAlignedDimension
 13
581.2715979097786
 23
239.979441647208
 33
0.0
 14
581.2715979097785
 24
247.479441647208
 34
0.0
 50
-90.00000000000001
100
AcDbRotatedDimension
1001
ACAD
1000
DSTYLE
1002
{
1070
   287
1070
     3
1070
   143
1040
0.0393700787401575
1070
    41
1040
1.2
1070
    44
1040
1.0
1070
    42
1040
1.0
1070
   147
1040
1.0
1070
   279
1070
     0
1070
    74
1070
     1
1070
   140
1040
1.2
1002
}
  0
DIMENSION
  5
D93
330
1F
100
AcDbEntity
  8
WY
100
AcDbDimension
  2
*D28
 10
580.1497789103956
 20
232.5904565449437
 30
0.0
 11
587.2997789103956
 21
232.5904565449437
 31
0.0
 70
   160
 52
-270.0
  3
ISO-25
100
AcDbAlignedDimension
 13
582.0497789103955
 23
239.0574197230209
 33
0.0
 14
580.1497789103956
 24
238.9742790394989
 34
0.0
 50
180.0
100
AcDbRotatedDimension
1001
ACAD
1000
DSTYLE
1002
{
1070
   287
1070
     3
1070
   143
1040
0.0393700787401575
1070
    41
1040
1.2
1070
    44
1040
1.0
1070
    42
1040
1.0
1070
   147
1040
1.0
1070
   279
1070
     0
1070
    74
1070
     1
1070
   140
1040
1.2
1002
}
  0
DIMENSION
  5
DA5
330
1F
100
AcDbEntity
  8
WY
100
AcDbDimension
  2
*D29
 10
561.2497789103955
 20
232.5904565449437
 30
0.0
 11
570.6997789103956
 21
234.1904565449437
 31
0.0
 70
    32
 52
-270.0
  3
ISO-25
100
AcDbAlignedDimension
 13
580.1497789103956
 23
238.9742790394989
 33
0.0
 14
561.2497789103955
 24
246.4742790394989
 34
0.0
 50
180.0
100
AcDbRotatedDimension
1001
ACAD
1000
DSTYLE
1002
{
1070
   287
1070
     3
1070
   143
1040
0.0393700787401575
1070
    41
1040
1.2
1070
    44
1040
1.0
1070
    42
1040
1.0
1070
   147
1040
1.0
1070
   279
1070
     0
1070
    74
1070
     1
1070
   140
1040
1.2
1002
}
  0
DIMENSION
  5
DB4
330
1F
100
AcDbEntity
  8
WY
100
AcDbDimension
  2
*D30
 10
558.0497789103955
 20
232.5904565449437
 30
0.0
 11
559.6162996884758
 21
232.5904565449437
 31
0.0
 70
   160
 52
-270.0
  3
ISO-25
100
AcDbAlignedDimension
 13
561.2497789103955
 23
246.4742790394989
 33
0.0
 14
558.0497789103955
 24
239.2012920709016
 34
0.0
 50
180.0
100
AcDbRotatedDimension
1001
ACAD
1000
DSTYLE
1002
{
1070
   287
1070
     3
1070
   143
1040
0.0393700787401575
1070
    41
1040
1.2
1070
    44
1040
1.0
1070
    42
1040
1.0
1070
   147
1040
1.0
1070
   279
1070
     0
1070
    74
1070
     1
1070
   140
1040
1.2
1002
}
  0
DIMENSION
  5
DC5
330
1F
100
AcDbEntity
  8
WY
100
AcDbDimension
  2
*D31
 10
558.0497789103955
 20
232.5904565449437
 30
0.0
 11
556.4607279720093
 21
232.5904565449437
 31
0.0
 70
   160
 52
-270.0
  3
ISO-25
100
AcDbAlignedDimension
 13
554.8497789103956
 23
246.4742790394989
 33
0.0
 14
558.0497789103955
 24
239.2012920709016
 34
0.0
 50
180.0
100
AcDbRotatedDimension
1001
ACAD
1000
DSTYLE
1002
{
1070
   287
1070
     3
1070
   143
1040
0.0393700787401575
1070
    41
1040
1.2
1070
    44
1040
1.0
1070
    42
1040
1.0
1070
   147
1040
1.0
1070
   279
1070
     0
1070
    74
1070
     1
1070
   140
1040
1.2
1002
}
  0
DIMENSION
  5
DE4
330
1F
100
AcDbEntity
  8
WY
100
AcDbDimension
  2
*D32
 10
627.6053637395398
 20
189.1756772136418
 30
0.0
 11
622.6313811632672
 21
190.7756772136418
 31
0.0
 70
    32
  3
ISO-25
100
AcDbAlignedDimension
 13
617.6573985869944
 23
200.3945034257436
 33
0.0
 14
627.6053637395398
 24
200.3945034257436
 34
0.0
100
AcDbRotatedDimension
1001
ACAD
1000
DSTYLE
1002
{
1070
   287
1070
     5
1070
   271
1070
     0
1070
   143
1040
0.0393700787401575
1070
    41
1040
1.2
1070
    44
1040
1.0
1070
    42
1040
1.0
1070
   147
1040
1.0
1070
    77
1070
     3
1070
   174
1070
     1
1070
   279
1070
     2
1070
    74
1070
     1
1070
   140
1040
1.2
1002
}
  0
DIMENSION
  5
E02
330
1F
100
AcDbEntity
  8
WY
100
AcDbDimension
  2
*D34
 10
548.2001345117264
 20
200.3945034257436
 30
0.0
 11
546.6001345117264
 21
206.6195034257435
 31
0.0
 70
    32
  3
ISO-25
100
AcDbAlignedDimension
 13
553.6277598419923
 23
212.8445034257435
 33
0.0
 14
556.0509649227491
 24
200.3945034257436
 34
0.0
 50
90.0
100
AcDbRotatedDimension
1001
ACAD
1000
DSTYLE
1002
{
1070
   287
1070
     5
1070
   271
1070
     1
1070
   143
1040
0.0393700787401575
1070
    41
1040
1.2
1070
    44
1040
1.0
1070
    42
1040
1.0
1070
   147
1040
1.0
1070
    77
1070
     3
1070
   174
1070
     1
1070
   279
1070
     2
1070
    74
1070
     1
1070
   140
1040
1.2
1002
}
  0
DIMENSION
  5
E11
330
1F
100
AcDbEntity
  8
WY
100
AcDbDimension
  2
*D35
 10
548.2001345117264
 20
196.9945034257435
 30
0.0
 11
546.6001345117264
 21
198.6945034257436
 31
0.0
 70
    32
  3
ISO-25
100
AcDbAlignedDimension
 13
556.0509649227491
 23
200.3945034257436
 33
0.0
 14
554.5497789103956
 24
196.9945034257435
 34
0.0
 50
90.0
100
AcDbRotatedDimension
1001
ACAD
1000
DSTYLE
1002
{
1070
   287
1070
     5
1070
   143
1040
0.0393700787401575
1070
    41
1040
1.2
1070
    44
1040
1.0
1070
    42
1040
1.0
1070
   147
1040
1.0
1070
    77
1070
     3
1070
   174
1070
     1
1070
   279
1070
     2
1070
    74
1070
     1
1070
   140
1040
1.2
1002
}
  0
DIMENSION
  5
E22
330
1F
100
AcDbEntity
  8
WY
100
AcDbDimension
  2
*D36
 10
555.1497789103956
 20
190.492092452064
 30
0.0
 11
550.0497789103956
 21
190.492092452064
 31
0.0
 70
   160
  3
ISO-25
100
AcDbAlignedDimension
 13
554.5497789103956
 23
196.9945034257435
 33
0.0
 14
555.1497789103956
 24
196.9945034257435
 34
0.0
100
AcDbRotatedDimension
1001
ACAD
1000
DSTYLE
1002
{
1070
   287
1070
     3
1070
   143
1040
0.0393700787401575
1070
    41
1040
1.2
1070
    44
1040
1.0
1070
    42
1040
1.0
1070
   147
1040
1.0
1070
    77
1070
     3
1070
   174
1070
     1
1070
   279
1070
     0
1070
    74
1070
     0
1070
   140
1040
1.2
1002
}
  0
DIMENSION
  5
E34
330
1F
100
AcDbEntity
  8
WY
100
AcDbDimension
  2
*D37
 10
580.5997789103956
 20
190.492092452064
 30
0.0
 11
575.1997789103956
 21
190.492092452064
 31
0.0
 70
   160
  3
ISO-25
100
AcDbAlignedDimension
 13
579.6997789103956
 23
197.4695034257435
 33
0.0
 14
580.5997789103956
 24
197.4695034257435
 34
0.0
100
AcDbRotatedDimension
1001
ACAD
1000
DSTYLE
1002
{
1070
   287
1070
     3
1070
   143
1040
0.0393700787401575
1070
    41
1040
1.2
1070
    44
1040
1.0
1070
    42
1040
1.0
1070
   147
1040
1.0
1070
    77
1070
     3
1070
   174
1070
     1
1070
   279
1070
     0
1070
    74
1070
     1
1070
   140
1040
1.2
1002
}
  0
LINE
  5
100B
330
1F
100
AcDbEntity
  8
1
  6
CONTINUOUS
 62
     7
100
AcDbLine
 10
558.7670350236496
 20
138.3799639259646
 30
0.0
 11
558.7670350236496
 21
137.9049639259646
 31
0.0
  0
LINE
  5
100C
330
1F
100
AcDbEntity
  8
1
  6
CONTINUOUS
 62
     7
100
AcDbLine
 10
558.1670350236495
 20
137.9049639259646
 30
0.0
 11
558.1670350236495
 21
138.3799639259646
 31
0.0
  0
LINE
  5
100D
330
1F
100
AcDbEntity
  8
1
  6
CONTINUOUS
 62
     7
100
AcDbLine
 10
558.1670350236495
 20
138.3799639259646
 30
0.0
 11
558.7670350236496
 21
138.3799639259646
 31
0.0
  0
LINE
  5
100E
330
1F
100
AcDbEntity
  8
1
  6
CONTINUOUS
 62
     7
100
AcDbLine
 10
558.7670350236496
 20
137.9049639259646
 30
0.0
 11
558.7670350236496
 21
137.4299639259646
 31
0.0
  0
LINE
  5
100F
330
1F
100
AcDbEntity
  8
1
  6
CONTINUOUS
 62
     7
100
AcDbLine
 10
558.7670350236496
 20
137.4299639259646
 30
0.0
 11
558.1670350236495
 21
137.4299639259646
 31
0.0
  0
LINE
  5
1010
330
1F
100
AcDbEntity
  8
1
  6
CONTINUOUS
 62
     7
100
AcDbLine
 10
558.1670350236495
 20
137.4299639259646
 30
0.0
 11
558.1670350236495
 21
137.9049639259646
 31
0.0
  0
LINE
  5
1014
330
1F
100
AcDbEntity
  8
1
  6
CONTINUOUS
 62
     7
100
AcDbLine
 10
553.7270350236496
 20
145.8799639259645
 30
0.0
 11
553.7270350236496
 21
145.4049639259645
 31
0.0
  0
LINE
  5
1015
330
1F
100
AcDbEntity
  8
1
  6
CONTINUOUS
 62
     7
100
AcDbLine
 10
553.1270350236495
 20
145.4049639259645
 30
0.0
 11
553.1270350236495
 21
145.8799639259645
 31
0.0
  0
LINE
  5
1016
330
1F
100
AcDbEntity
  8
1
  6
CONTINUOUS
 62
     7
100
AcDbLine
 10
553.1270350236495
 20
145.8799639259645
 30
0.0
 11
553.7270350236496
 21
145.8799639259645
 31
0.0
  0
LINE
  5
1017
330
1F
100
AcDbEntity
  8
1
  6
CONTINUOUS
 62
     7
100
AcDbLine
 10
553.7270350236496
 20
145.4049639259645
 30
0.0
 11
553.7270350236496
 21
144.9299639259645
 31
0.0
  0
LINE
  5
1018
330
1F
100
AcDbEntity
  8
1
  6
CONTINUOUS
 62
     7
100
AcDbLine
 10
553.7270350236496
 20
144.9299639259645
 30
0.0
 11
553.1270350236495
 21
144.9299639259645
 31
0.0
  0
LINE
  5
1019
330
1F
100
AcDbEntity
  8
1
  6
CONTINUOUS
 62
     7
100
AcDbLine
 10
553.1270350236495
 20
144.9299639259645
 30
0.0
 11
553.1270350236495
 21
145.4049639259645
 31
0.0
  0
LINE
  5
101D
330
1F
100
AcDbEntity
  8
1
  6
CONTINUOUS
 62
     7
100
AcDbLine
 10
577.3670350236496
 20
145.1049639259645
 30
0.0
 11
576.9170350236495
 21
145.1049639259645
 31
0.0
  0
LINE
  5
101E
330
1F
100
AcDbEntity
  8
1
  6
CONTINUOUS
 62
     7
100
AcDbLine
 10
576.9170350236495
 20
145.1049639259645
 30
0.0
 11
576.9170350236495
 21
145.7049639259645
 31
0.0
  0
LINE
  5
101F
330
1F
100
AcDbEntity
  8
1
  6
CONTINUOUS
 62
     7
100
AcDbLine
 10
576.9170350236495
 20
145.7049639259645
 30
0.0
 11
577.3670350236496
 21
145.7049639259645
 31
0.0
  0
LINE
  5
1020
330
1F
100
AcDbEntity
  8
1
  6
CONTINUOUS
 62
     7
100
AcDbLine
 10
577.3670350236496
 20
137.6049639259645
 30
0.0
 11
576.9170350236495
 21
137.6049639259645
 31
0.0
  0
LINE
  5
1021
330
1F
100
AcDbEntity
  8
1
  6
CONTINUOUS
 62
     7
100
AcDbLine
 10
576.9170350236495
 20
137.6049639259645
 30
0.0
 11
576.9170350236495
 21
138.2049639259645
 31
0.0
  0
LINE
  5
1022
330
1F
100
AcDbEntity
  8
1
  6
CONTINUOUS
 62
     7
100
AcDbLine
 10
576.9170350236495
 20
138.2049639259645
 30
0.0
 11
577.3670350236496
 21
138.2049639259645
 31
0.0
  0
LINE
  5
1023
330
1F
100
AcDbEntity
  8
1
  6
CONTINUOUS
 62
     7
100
AcDbLine
 10
577.8170350236495
 20
138.2049639259645
 30
0.0
 11
577.8170350236495
 21
137.6049639259645
 31
0.0
  0
LINE
  5
1024
330
1F
100
AcDbEntity
  8
1
  6
CONTINUOUS
 62
     7
100
AcDbLine
 10
577.8170350236495
 20
137.6049639259645
 30
0.0
 11
577.3670350236496
 21
137.6049639259645
 31
0.0
  0
LINE
  5
1025
330
1F
100
AcDbEntity
  8
1
  6
CONTINUOUS
 62
     7
100
AcDbLine
 10
577.3670350236496
 20
138.2049639259645
 30
0.0
 11
577.8170350236495
 21
138.2049639259645
 31
0.0
  0
LINE
  5
1026
330
1F
100
AcDbEntity
  8
1
  6
CONTINUOUS
 62
     7
100
AcDbLine
 10
577.8170350236495
 20
145.7049639259645
 30
0.0
 11
577.8170350236495
 21
145.1049639259645
 31
0.0
  0
LINE
  5
1027
330
1F
100
AcDbEntity
  8
1
  6
CONTINUOUS
 62
     7
100
AcDbLine
 10
577.3670350236496
 20
145.7049639259645
 30
0.0
 11
577.8170350236495
 21
145.7049639259645
 31
0.0
  0
LINE
  5
1028
330
1F
100
AcDbEntity
  8
1
  6
CONTINUOUS
 62
     7
100
AcDbLine
 10
577.8170350236495
 20
145.1049639259645
 30
0.0
 11
577.3670350236496
 21
145.1049639259645
 31
0.0
  0
ELLIPSE
  5
1029
330
1F
100
AcDbEntity
  8
1
  6
CONTINUOUS
 62
     7
100
AcDbEllipse
 10
579.2676895262726
 20
142.2317588452076
 30
0.0
 11
-3.673940397442025E-17
 21
-0.2999999999999972
 31
0.0
210
0.0
220
0.0
230
1.0
 40
0.0043633508207109
 41
1.570796326794897
 42
2.617993877991508
  0
ELLIPSE
  5
102A
330
1F
100
AcDbEntity
  8
1
  6
CONTINUOUS
 62
     7
100
AcDbEllipse
 10
578.83025407067
 20
142.2317588452076
 30
0.0
 11
-3.673940397442025E-17
 21
-0.2999999999999972
 31
0.0
210
0.0
220
0.0
230
1.0
 40
0.0349207694917201
 41
1.570796326794897
 42
2.617993877991513
  0
LINE
  5
102B
330
1F
100
AcDbEntity
  8
1
  6
CONTINUOUS
 62
     7
100
AcDbLine
 10
578.8407303015174
 20
142.2317588452076
 30
0.0
 11
578.8407303015174
 21
141.0781690067214
 31
0.0
  0
LINE
  5
102C
330
1F
100
AcDbEntity
  8
1
  6
CONTINUOUS
 62
     7
100
AcDbLine
 10
579.2689985315188
 20
142.2317588452076
 30
0.0
 11
579.2689985315188
 21
141.0781690067214
 31
0.0
  0
ELLIPSE
  5
102D
330
1F
100
AcDbEntity
  8
1
  6
CONTINUOUS
 62
     7
100
AcDbEllipse
 10
578.83025407067
 20
141.0781690067214
 30
0.0
 11
-3.673940397442025E-17
 21
-0.2999999999999972
 31
0.0
210
0.0
220
0.0
230
1.0
 40
0.0349207694917674
 41
0.523598775597698
 42
1.570796326794897
  0
ELLIPSE
  5
102E
330
1F
100
AcDbEntity
  8
1
  6
CONTINUOUS
 62
     7
100
AcDbEllipse
 10
579.2676895262726
 20
141.0781690067214
 30
0.0
 11
-3.673940397442025E-17
 21
-0.2999999999999972
 31
0.0
210
0.0
220
0.0
230
1.0
 40
0.0043633508207109
 41
0.5235987755982853
 42
1.570796326794897
  0
LINE
  5
102F
330
1F
100
AcDbEntity
  8
1
  6
CONTINUOUS
 62
     7
100
AcDbLine
 10
578.8354921860937
 20
140.8183613855861
 30
0.0
 11
578.825469303041
 21
140.6526515712615
 31
0.0
  0
LINE
  5
1030
330
1F
100
AcDbEntity
  8
1
  6
CONTINUOUS
 62
     7
100
AcDbLine
 10
578.8254693030408
 20
142.6572762806702
 30
0.0
 11
578.825469303041
 21
140.6526515712615
 31
0.0
  0
LINE
  5
1031
330
1F
100
AcDbEntity
  8
1
  6
CONTINUOUS
 62
     7
100
AcDbLine
 10
578.8354921860937
 20
142.491566466343
 30
0.0
 11
578.8254693030408
 21
142.6572762806702
 31
0.0
  0
ELLIPSE
  5
1032
330
1F
100
AcDbEntity
  8
1
  6
CONTINUOUS
 62
     7
100
AcDbEllipse
 10
553.2682210360031
 20
146.1902020413883
 30
0.0
 11
-0.2999999999999972
 21
3.673940397442025E-17
 31
0.0
210
0.0
220
0.0
230
1.0
 40
0.0349207694917674
 41
4.71238898038469
 42
5.759586531582749
  0
ELLIPSE
  5
1033
330
1F
100
AcDbEntity
  8
1
  6
CONTINUOUS
 62
     7
100
AcDbEllipse
 10
553.2682210360031
 20
146.627637496991
 30
0.0
 11
-0.2999999999999972
 21
3.673940397442025E-17
 31
0.0
210
0.0
220
0.0
230
1.0
 40
0.0043633508206635
 41
4.71238898038469
 42
5.759586531578945
  0
LINE
  5
1034
330
1F
100
AcDbEntity
  8
1
  6
CONTINUOUS
 62
     7
100
AcDbLine
 10
554.4218108744892
 20
146.2006782722358
 30
0.0
 11
553.2682210360031
 21
146.2006782722358
 31
0.0
  0
LINE
  5
1035
330
1F
100
AcDbEntity
  8
1
  6
CONTINUOUS
 62
     7
100
AcDbLine
 10
554.4218108744892
 20
146.6289465022372
 30
0.0
 11
553.2682210360031
 21
146.6289465022372
 31
0.0
  0
ELLIPSE
  5
1036
330
1F
100
AcDbEntity
  8
1
  6
CONTINUOUS
 62
     7
100
AcDbEllipse
 10
554.4218108744892
 20
146.1902020413883
 30
0.0
 11
-0.2999999999999972
 21
3.673940397442025E-17
 31
0.0
210
0.0
220
0.0
230
1.0
 40
0.0349207694917674
 41
3.665191429187204
 42
4.71238898038469
  0
ELLIPSE
  5
1037
330
1F
100
AcDbEntity
  8
1
  6
CONTINUOUS
 62
     7
100
AcDbEllipse
 10
554.4218108744892
 20
146.627637496991
 30
0.0
 11
-0.2999999999999972
 21
3.673940397442025E-17
 31
0.0
210
0.0
220
0.0
230
1.0
 40
0.0043633508206635
 41
3.66519142919518
 42
4.71238898038469
  0
LINE
  5
1038
330
1F
100
AcDbEntity
  8
1
  6
CONTINUOUS
 62
     7
100
AcDbLine
 10
554.4218108744892
 20
137.1092495796932
 30
0.0
 11
553.2682210360031
 21
137.1092495796932
 31
0.0
  0
LINE
  5
1039
330
1F
100
AcDbEntity
  8
1
  6
CONTINUOUS
 62
     7
100
AcDbLine
 10
554.4218108744892
 20
136.6809813496918
 30
0.0
 11
553.2682210360031
 21
136.6809813496918
 31
0.0
  0
ELLIPSE
  5
103A
330
1F
100
AcDbEntity
  8
1
  6
CONTINUOUS
 62
     7
100
AcDbEllipse
 10
553.2682210360031
 20
137.1197258105408
 30
0.0
 11
-0.2999999999999972
 21
3.673940397442025E-17
 31
0.0
210
0.0
220
0.0
230
1.0
 40
0.0349207694917201
 41
0.5235987756000711
 42
1.570796326794897
  0
LINE
  5
103B
330
1F
100
AcDbEntity
  8
1
  6
CONTINUOUS
 62
     7
100
AcDbLine
 10
552.8427036005431
 20
137.1245105781697
 30
0.0
 11
553.0084134148677
 21
137.114487695117
 31
0.0
  0
LINE
  5
103C
330
1F
100
AcDbEntity
  8
1
  6
CONTINUOUS
 62
     7
100
AcDbLine
 10
554.847328309949
 20
137.1245105781697
 30
0.0
 11
552.8427036005431
 21
137.1245105781697
 31
0.0
  0
LINE
  5
103D
330
1F
100
AcDbEntity
  8
1
  6
CONTINUOUS
 62
     7
100
AcDbLine
 10
554.6816184956247
 20
137.114487695117
 30
0.0
 11
554.847328309949
 21
137.1245105781697
 31
0.0
  0
ELLIPSE
  5
103E
330
1F
100
AcDbEntity
  8
1
  6
CONTINUOUS
 62
     7
100
AcDbEllipse
 10
554.4218108744892
 20
137.1197258105408
 30
0.0
 11
-0.2999999999999972
 21
3.673940397442025E-17
 31
0.0
210
0.0
220
0.0
230
1.0
 40
0.0349207694917201
 41
1.570796326794897
 42
2.617993877989747
  0
ELLIPSE
  5
103F
330
1F
100
AcDbEntity
  8
1
  6
CONTINUOUS
 62
     7
100
AcDbEllipse
 10
554.4218108744892
 20
136.682290354938
 30
0.0
 11
-0.2999999999999972
 21
3.673940397442025E-17
 31
0.0
210
0.0
220
0.0
230
1.0
 40
0.0043633508207109
 41
1.570796326794897
 42
2.617993878000897
  0
ELLIPSE
  5
1040
330
1F
100
AcDbEntity
  8
1
  6
CONTINUOUS
 62
     7
100
AcDbEllipse
 10
553.2682210360031
 20
136.682290354938
 30
0.0
 11
-0.2999999999999972
 21
3.673940397442025E-17
 31
0.0
210
0.0
220
0.0
230
1.0
 40
0.0043633508207109
 41
0.5235987755889071
 42
1.570796326794897
  0
LINE
  5
1041
330
1F
100
AcDbEntity
  8
1
  6
CONTINUOUS
 62
     7
100
AcDbLine
 10
554.6816184956247
 20
146.1954401568121
 30
0.0
 11
554.8473283099491
 21
146.1854172737593
 31
0.0
  0
LINE
  5
1042
330
1F
100
AcDbEntity
  8
1
  6
CONTINUOUS
 62
     7
100
AcDbLine
 10
552.8427036005434
 20
146.1854172737593
 30
0.0
 11
554.8473283099491
 21
146.1854172737593
 31
0.0
  0
LINE
  5
1043
330
1F
100
AcDbEntity
  8
1
  6
CONTINUOUS
 62
     7
100
AcDbLine
 10
552.8427036005434
 20
146.1854172737593
 30
0.0
 11
553.0084134148677
 21
146.1954401568121
 31
0.0
  0
LINE
  5
1044
330
1F
100
AcDbEntity
  8
1
  6
CONTINUOUS
 62
     7
100
AcDbLine
 10
578.9249772740802
 20
140.6451563048292
 30
0.0
 11
579.2670350236494
 21
140.6451563048292
 31
0.0
  0
ELLIPSE
  5
1045
330
1F
100
AcDbEntity
  8
1
  6
CONTINUOUS
 62
     7
100
AcDbEllipse
 10
578.9249772740802
 20
140.5874212779102
 30
0.0
 11
-0.1000000000000014
 21
1.224646799147371E-17
 31
0.0
210
0.0
220
0.0
230
1.0
 40
0.5773502691896144
 41
4.712388980384698
 42
6.278821984049752
  0
LINE
  5
1046
330
1F
100
AcDbEntity
  8
1
  6
CONTINUOUS
 62
     7
100
AcDbLine
 10
578.8249782260082
 20
140.5876731936893
 30
0.0
 11
578.825469303041
 21
140.6526515712615
 31
0.0
  0
LINE
  5
1047
330
1F
100
AcDbEntity
  8
1
  6
CONTINUOUS
 62
     7
100
AcDbLine
 10
579.2670350236494
 20
140.6451563048292
 30
0.0
 11
579.2683440288957
 21
140.8183613855861
 31
0.0
  0
LINE
  5
1048
330
1F
100
AcDbEntity
  8
1
  6
CONTINUOUS
 62
     7
100
AcDbLine
 10
578.8249782260082
 20
142.7222546582398
 30
0.0
 11
578.8254693030408
 21
142.6572762806702
 31
0.0
  0
ELLIPSE
  5
1049
330
1F
100
AcDbEntity
  8
1
  6
CONTINUOUS
 62
     7
100
AcDbEllipse
 10
578.9249772740802
 20
142.7225065740188
 30
0.0
 11
-0.09999999999999432
 21
1.224646799147284E-17
 31
0.0
210
0.0
220
0.0
230
1.0
 40
0.5773502691897976
 41
0.004363323129612
 42
1.570796326794897
  0
LINE
  5
104A
330
1F
100
AcDbEntity
  8
1
  6
CONTINUOUS
 62
     7
100
AcDbLine
 10
578.9249772740802
 20
142.6647715470998
 30
0.0
 11
579.2670350236494
 21
142.6647715470998
 31
0.0
  0
LINE
  5
104B
330
1F
100
AcDbEntity
  8
1
  6
CONTINUOUS
 62
     7
100
AcDbLine
 10
579.2670350236494
 20
142.6647715470998
 30
0.0
 11
579.2683440288957
 21
142.491566466343
 31
0.0
  0
LINE
  5
104C
330
1F
100
AcDbEntity
  8
1
  6
CONTINUOUS
 62
     7
100
AcDbLine
 10
552.8352083341108
 20
146.1853606279436
 30
0.0
 11
552.8427036005434
 21
146.1854172737593
 31
0.0
  0
LINE
  5
104D
330
1F
100
AcDbEntity
  8
1
  6
CONTINUOUS
 62
     7
100
AcDbLine
 10
552.8352083341108
 20
146.6269829943679
 30
0.0
 11
552.8352083341108
 21
146.1853606279436
 31
0.0
  0
LINE
  5
104E
330
1F
100
AcDbEntity
  8
1
  6
CONTINUOUS
 62
     7
100
AcDbLine
 10
552.8352083341108
 20
146.6269829943679
 30
0.0
 11
553.0084134148677
 21
146.6282919996141
 31
0.0
  0
LINE
  5
104F
330
1F
100
AcDbEntity
  8
1
  6
CONTINUOUS
 62
     7
100
AcDbLine
 10
552.8352083341108
 20
136.6829448575612
 30
0.0
 11
552.8352083341108
 21
137.1245672239854
 31
0.0
  0
LINE
  5
1050
330
1F
100
AcDbEntity
  8
1
  6
CONTINUOUS
 62
     7
100
AcDbLine
 10
552.8352083341108
 20
137.1245672239854
 30
0.0
 11
552.8427036005431
 21
137.1245105781697
 31
0.0
  0
LINE
  5
1051
330
1F
100
AcDbEntity
  8
1
  6
CONTINUOUS
 62
     7
100
AcDbLine
 10
552.8352083341108
 20
136.6829448575612
 30
0.0
 11
553.0084134148677
 21
136.6816358523149
 31
0.0
  0
LINE
  5
1052
330
1F
100
AcDbEntity
  8
1
  6
CONTINUOUS
 62
     7
100
AcDbLine
 10
554.9123066875214
 20
137.1250016552026
 30
0.0
 11
554.847328309949
 21
137.1245105781697
 31
0.0
  0
ELLIPSE
  5
1053
330
1F
100
AcDbEntity
  8
1
  6
CONTINUOUS
 62
     7
100
AcDbEllipse
 10
554.9125586033005
 20
137.0250026071305
 30
0.0
 11
-1.224646799147284E-17
 21
-0.09999999999999432
 31
0.0
210
0.0
220
0.0
230
1.0
 40
0.5773502691897976
 41
3.145955976719921
 42
4.712388980384698
  0
LINE
  5
1054
330
1F
100
AcDbEntity
  8
1
  6
CONTINUOUS
 62
     7
100
AcDbLine
 10
554.8548235763815
 20
136.6829448575612
 30
0.0
 11
554.8548235763815
 21
137.0250026071305
 31
0.0
  0
LINE
  5
1055
330
1F
100
AcDbEntity
  8
1
  6
CONTINUOUS
 62
     7
100
AcDbLine
 10
554.6816184956247
 20
136.6816358523149
 30
0.0
 11
554.8548235763815
 21
136.6829448575612
 31
0.0
  0
LINE
  5
1056
330
1F
100
AcDbEntity
  8
1
  6
CONTINUOUS
 62
     7
100
AcDbLine
 10
554.8548235763815
 20
146.6269829943679
 30
0.0
 11
554.8548235763815
 21
146.2849252447985
 31
0.0
  0
ELLIPSE
  5
1057
330
1F
100
AcDbEntity
  8
1
  6
CONTINUOUS
 62
     7
100
AcDbEllipse
 10
554.9125586033005
 20
146.2849252447985
 30
0.0
 11
-1.224646799147284E-17
 21
-0.09999999999999432
 31
0.0
210
0.0
220
0.0
230
1.0
 40
0.5773502691897976
 41
4.712388980384698
 42
6.278821984049506
  0
LINE
  5
1058
330
1F
100
AcDbEntity
  8
1
  6
CONTINUOUS
 62
     7
100
AcDbLine
 10
554.9123066875214
 20
146.1849261967265
 30
0.0
 11
554.8473283099491
 21
146.1854172737593
 31
0.0
  0
LINE
  5
1059
330
1F
100
AcDbEntity
  8
1
  6
CONTINUOUS
 62
     7
100
AcDbLine
 10
554.6816184956247
 20
146.6282919996141
 30
0.0
 11
554.8548235763815
 21
146.6269829943679
 31
0.0
  0
LINE
  5
105A
330
1F
100
AcDbEntity
  8
1
  6
CONTINUOUS
 62
     7
100
AcDbLine
 10
552.0231803510212
 20
138.9049639259646
 30
0.0
 11
552.0231803510212
 21
144.4049639259645
 31
0.0
  0
LINE
  5
105B
330
1F
100
AcDbEntity
  8
1
  6
CONTINUOUS
 62
     7
100
AcDbLine
 10
552.4468663789397
 20
138.9049639259646
 30
0.0
 11
552.4468663789397
 21
144.4049639259645
 31
0.0
  0
LINE
  5
105C
330
1F
100
AcDbEntity
  8
1
  6
CONTINUOUS
 62
     7
100
AcDbLine
 10
552.0231803510212
 20
138.9049639259646
 30
0.0
 11
552.4468663789397
 21
138.9049639259646
 31
0.0
  0
LINE
  5
105D
330
1F
100
AcDbEntity
  8
1
  6
CONTINUOUS
 62
     7
100
AcDbLine
 10
552.4468663789397
 20
144.4049639259645
 30
0.0
 11
552.0231803510212
 21
144.4049639259645
 31
0.0
  0
LINE
  5
105E
330
1F
100
AcDbEntity
  8
1
  6
CONTINUOUS
 62
     7
100
AcDbLine
 10
558.3231655315526
 20
144.4049639259645
 30
0.0
 11
558.3231655315526
 21
138.9049639259646
 31
0.0
  0
LINE
  5
105F
330
1F
100
AcDbEntity
  8
1
  6
CONTINUOUS
 62
     7
100
AcDbLine
 10
552.4468663789397
 20
138.9049639259646
 30
0.0
 11
558.3231655315526
 21
138.9049639259646
 31
0.0
  0
LINE
  5
1060
330
1F
100
AcDbEntity
  8
1
  6
CONTINUOUS
 62
     7
100
AcDbLine
 10
558.3231655315526
 20
144.4049639259645
 30
0.0
 11
552.4468663789397
 21
144.4049639259645
 31
0.0
  0
LINE
  5
1061
330
1F
100
AcDbEntity
  8
1
  6
CONTINUOUS
 62
     7
100
AcDbLine
 10
552.8352083341108
 20
137.1245672239854
 30
0.0
 11
551.1450546364122
 21
137.1245672239854
 31
0.0
  0
ELLIPSE
  5
1062
330
1F
100
AcDbEntity
  8
1
  6
CONTINUOUS
 62
     7
100
AcDbEllipse
 10
551.1450546364122
 20
137.1250035590675
 30
0.0
 11
-0.1000000000000085
 21
1.224646799147458E-17
 31
0.0
210
0.0
220
0.0
230
1.0
 40
0.0043633508207104
 41
1.570796326794897
 42
3.137229330496983
  0
LINE
  5
1063
330
1F
100
AcDbEntity
  8
1
  6
CONTINUOUS
 62
     7
100
AcDbLine
 10
551.2468663789398
 20
137.1268143496581
 30
0.0
 11
551.2450536844842
 21
137.1250016552026
 31
0.0
  0
LINE
  5
1064
330
1F
100
AcDbEntity
  8
1
  6
CONTINUOUS
 62
     7
100
AcDbLine
 10
578.8231655315526
 20
137.1268143496581
 30
0.0
 11
551.2468663789398
 21
137.1268143496581
 31
0.0
  0
LINE
  5
1065
330
1F
100
AcDbEntity
  8
1
  6
CONTINUOUS
 62
     7
100
AcDbLine
 10
578.8231655315526
 20
137.1268143496581
 30
0.0
 11
578.8249782260082
 21
137.1250016552026
 31
0.0
  0
LINE
  5
1066
330
1F
100
AcDbEntity
  8
1
  6
CONTINUOUS
 62
     7
100
AcDbLine
 10
551.2468663789398
 20
146.183113502271
 30
0.0
 11
551.2450536844842
 21
146.1849261967265
 31
0.0
  0
ELLIPSE
  5
1067
330
1F
100
AcDbEntity
  8
1
  6
CONTINUOUS
 62
     7
100
AcDbEllipse
 10
551.1450546364122
 20
146.1849242928616
 30
0.0
 11
-0.1000000000000085
 21
1.224646799147458E-17
 31
0.0
210
0.0
220
0.0
230
1.0
 40
0.0043633508205683
 41
3.145955976718514
 42
4.71238898038469
  0
LINE
  5
1068
330
1F
100
AcDbEntity
  8
1
  6
CONTINUOUS
 62
     7
100
AcDbLine
 10
552.8352083341108
 20
146.1853606279436
 30
0.0
 11
551.1450546364122
 21
146.1853606279436
 31
0.0
  0
LINE
  5
1069
330
1F
100
AcDbEntity
  8
1
  6
CONTINUOUS
 62
     7
100
AcDbLine
 10
578.8231655315526
 20
146.183113502271
 30
0.0
 11
578.8249782260082
 21
146.1849261967265
 31
0.0
  0
LINE
  5
106A
330
1F
100
AcDbEntity
  8
1
  6
CONTINUOUS
 62
     7
100
AcDbLine
 10
578.8231655315526
 20
146.183113502271
 30
0.0
 11
551.2468663789398
 21
146.183113502271
 31
0.0
  0
LINE
  5
106B
330
1F
100
AcDbEntity
  8
1
  6
CONTINUOUS
 62
     7
100
AcDbLine
 10
578.8231655315526
 20
146.183113502271
 30
0.0
 11
578.8231655315526
 21
137.1268143496581
 31
0.0
  0
LINE
  5
106C
330
1F
100
AcDbEntity
  8
1
  6
CONTINUOUS
 62
     7
100
AcDbLine
 10
578.8249782260082
 20
146.1849261967265
 30
0.0
 11
578.9249772740802
 21
146.2849252447985
 31
0.0
  0
ARC
  5
106D
330
1F
100
AcDbEntity
  8
1
  6
CONTINUOUS
 62
     7
100
AcDbCircle
 10
578.9670321678386
 20
146.3269801385569
 30
0.0
 40
0.3000028558653433
100
AcDbArc
 50
0.0010908238613105
 51
89.99890917615498
  0
LINE
  5
106E
330
1F
100
AcDbEntity
  8
1
  6
CONTINUOUS
 62
     7
100
AcDbLine
 10
554.8548235763815
 20
146.6269829943679
 30
0.0
 11
578.9670378794333
 21
146.6269829943679
 31
0.0
  0
LINE
  5
106F
330
1F
100
AcDbEntity
  8
1
  6
CONTINUOUS
 62
     7
100
AcDbLine
 10
579.2670350236494
 20
146.3269858501517
 30
0.0
 11
579.2670350236494
 21
142.6647715470998
 31
0.0
  0
LINE
  5
1070
330
1F
100
AcDbEntity
  8
1
  6
CONTINUOUS
 62
     7
100
AcDbLine
 10
578.8249782260082
 20
137.1250016552026
 30
0.0
 11
578.9249772740802
 21
137.0250026071305
 31
0.0
  0
ARC
  5
1071
330
1F
100
AcDbEntity
  8
1
  6
CONTINUOUS
 62
     7
100
AcDbCircle
 10
578.9670321678386
 20
136.9829477133721
 30
0.0
 40
0.3000028558653433
100
AcDbArc
 50
270.001090823845
 51
359.9989091761441
  0
LINE
  5
1072
330
1F
100
AcDbEntity
  8
1
  6
CONTINUOUS
 62
     7
100
AcDbLine
 10
554.8548235763815
 20
136.6829448575612
 30
0.0
 11
578.9670378794333
 21
136.6829448575612
 31
0.0
  0
LINE
  5
1073
330
1F
100
AcDbEntity
  8
1
  6
CONTINUOUS
 62
     7
100
AcDbLine
 10
579.2670350236494
 20
136.9829420017774
 30
0.0
 11
579.2670350236494
 21
140.6451563048292
 31
0.0
  0
ARC
  5
1074
330
1F
100
AcDbEntity
  8
1
  6
CONTINUOUS
 62
     7
100
AcDbCircle
 10
551.1029997426538
 20
136.9829477133721
 30
0.0
 40
0.3000028558653291
100
AcDbArc
 50
180.0010908238559
 51
269.998909176155
  0
LINE
  5
1075
330
1F
100
AcDbEntity
  8
1
  6
CONTINUOUS
 62
     7
100
AcDbLine
 10
550.8029968868428
 20
136.9829420017774
 30
0.0
 11
550.8029968868428
 21
146.3269858501517
 31
0.0
  0
ARC
  5
1076
330
1F
100
AcDbEntity
  8
1
  6
CONTINUOUS
 62
     7
100
AcDbCircle
 10
551.1029997426538
 20
146.3269801385569
 30
0.0
 40
0.3000028558653433
100
AcDbArc
 50
90.00109082384503
 51
179.9989091761387
  0
LINE
  5
1077
330
1F
100
AcDbEntity
  8
1
  6
CONTINUOUS
 62
     7
100
AcDbLine
 10
551.1029940310591
 20
146.6269829943679
 30
0.0
 11
552.8352083341108
 21
146.6269829943679
 31
0.0
  0
LINE
  5
1078
330
1F
100
AcDbEntity
  8
1
  6
CONTINUOUS
 62
     7
100
AcDbLine
 10
551.1029940310591
 20
136.6829448575612
 30
0.0
 11
552.8352083341108
 21
136.6829448575612
 31
0.0
  0
LINE
  5
1079
330
1F
100
AcDbEntity
  8
1
  6
CONTINUOUS
 62
     7
100
AcDbLine
 10
576.9231655315526
 20
138.9049639259646
 30
0.0
 11
576.9231655315526
 21
144.4049639259645
 31
0.0
  0
LINE
  5
107A
330
1F
100
AcDbEntity
  8
1
  6
CONTINUOUS
 62
     7
100
AcDbLine
 10
558.3231655315526
 20
138.9049639259646
 30
0.0
 11
576.9231655315526
 21
138.9049639259646
 31
0.0
  0
LINE
  5
107B
330
1F
100
AcDbEntity
  8
1
  6
CONTINUOUS
 62
     7
100
AcDbLine
 10
576.9231655315526
 20
144.4049639259645
 30
0.0
 11
558.3231655315526
 21
144.4049639259645
 31
0.0
  0
LINE
  5
107C
330
1F
100
AcDbEntity
  8
1
  6
CONTINUOUS
 62
     7
100
AcDbLine
 10
551.8468663789397
 20
138.9049639259646
 30
0.0
 11
551.8468663789397
 21
144.4049639259645
 31
0.0
  0
LINE
  5
107D
330
1F
100
AcDbEntity
  8
1
  6
CONTINUOUS
 62
     7
100
AcDbLine
 10
551.8468663789397
 20
138.9049639259646
 30
0.0
 11
552.0231803510212
 21
138.9049639259646
 31
0.0
  0
LINE
  5
107E
330
1F
100
AcDbEntity
  8
1
  6
CONTINUOUS
 62
     7
100
AcDbLine
 10
552.0231803510212
 20
144.4049639259645
 30
0.0
 11
551.8468663789397
 21
144.4049639259645
 31
0.0
  0
LINE
  5
107F
330
1F
100
AcDbEntity
  8
1
  6
CONTINUOUS
 62
     7
100
AcDbLine
 10
551.2468663789398
 20
137.1268143496581
 30
0.0
 11
551.2468663789398
 21
146.183113502271
 31
0.0
  0
LINE
  5
1080
330
1F
100
AcDbEntity
  8
1
  6
CONTINUOUS
 62
     7
100
AcDbLine
 10
577.2793793060669
 20
110.7700257045
 30
0.0
 11
577.2793793060669
 21
109.7700257045
 31
0.0
  0
LINE
  5
1081
330
1F
100
AcDbEntity
  8
1
  6
CONTINUOUS
 62
     7
100
AcDbLine
 10
578.679379306067
 20
109.7700257045
 30
0.0
 11
578.679379306067
 21
110.7700257045
 31
0.0
  0
LINE
  5
1082
330
1F
100
AcDbEntity
  8
1
  6
CONTINUOUS
 62
     7
100
AcDbLine
 10
554.6816184956247
 20
98.47002570449999
 30
0.0
 11
554.8548235763815
 21
98.7700257045
 31
0.0
  0
LINE
  5
1083
330
1F
100
AcDbEntity
  8
1
  6
CONTINUOUS
 62
     7
100
AcDbLine
 10
554.4218108744893
 20
98.32002570450001
 30
0.0
 11
553.2682210360031
 21
98.32002570450001
 31
0.0
  0
LINE
  5
1084
330
1F
100
AcDbEntity
  8
1
  6
CONTINUOUS
 62
     7
100
AcDbLine
 10
552.8352083341108
 20
98.7700257045
 30
0.0
 11
553.0084134148677
 21
98.47002570449999
 31
0.0
  0
LINE
  5
1085
330
1F
100
AcDbEntity
  8
1
  6
CONTINUOUS
 62
     7
100
AcDbLine
 10
551.1029940310591
 20
98.7700257045
 30
0.0
 11
552.8352083341108
 21
98.7700257045
 31
0.0
  0
LINE
  5
1086
330
1F
100
AcDbEntity
  8
1
  6
CONTINUOUS
 62
     7
100
AcDbLine
 10
554.8548235763815
 20
98.7700257045
 30
0.0
 11
578.9670378794333
 21
98.7700257045
 31
0.0
  0
ARC
  5
1087
330
1F
100
AcDbEntity
  8
1
  6
CONTINUOUS
 62
     7
100
AcDbCircle
 10
554.4218108744893
 20
98.62002570450002
 30
0.0
 40
0.3000000000000078
100
AcDbArc
 50
270.0
 51
329.9999999999949
  0
ARC
  5
1088
330
1F
100
AcDbEntity
  8
1
  6
CONTINUOUS
 62
     7
100
AcDbCircle
 10
553.2682210360031
 20
98.62002570450002
 30
0.0
 40
0.3000000000000016
100
AcDbArc
 50
210.0000000000027
 51
270.0
  0
LINE
  5
1089
330
1F
100
AcDbEntity
  8
1
  6
CONTINUOUS
 62
     7
100
AcDbLine
 10
551.1029940310591
 20
98.7700257045
 30
0.0
 11
550.8029968868428
 21
98.7700257045
 31
0.0
  0
LINE
  5
108A
330
1F
100
AcDbEntity
  8
1
  6
CONTINUOUS
 62
     7
100
AcDbLine
 10
550.8029968868428
 20
98.7700257045
 30
0.0
 11
550.8450159552463
 21
110.7700257045
 31
0.0
  0
LINE
  5
108B
330
1F
100
AcDbEntity
  8
1
  6
CONTINUOUS
 62
     7
100
AcDbLine
 10
579.2250159552461
 20
108.4000257045003
 30
0.0
 11
579.2670350236496
 21
98.7700257045
 31
0.0
  0
LINE
  5
108C
330
1F
100
AcDbEntity
  8
1
  6
CONTINUOUS
 62
     7
100
AcDbLine
 10
579.2670350236496
 20
98.7700257045
 30
0.0
 11
578.9670378794333
 21
98.7700257045
 31
0.0
  0
LINE
  5
108D
330
1F
100
AcDbEntity
  8
1
  6
CONTINUOUS
 62
     7
100
AcDbLine
 10
579.2250159552461
 20
109.7700257045
 30
0.0
 11
579.2250159552461
 21
108.4000257045003
 31
0.0
  0
LINE
  5
108E
330
1F
100
AcDbEntity
  8
1
  6
CONTINUOUS
 62
     7
100
AcDbLine
 10
578.9250159552462
 20
109.7700257045
 30
0.0
 11
579.2250159552461
 21
109.7700257045
 31
0.0
  0
LINE
  5
108F
330
1F
100
AcDbEntity
  8
1
  6
CONTINUOUS
 62
     7
100
AcDbLine
 10
576.7699981018025
 20
109.7700257045
 30
0.0
 11
576.7699981018025
 21
110.7700257045
 31
0.0
  0
LINE
  5
1090
330
1F
100
AcDbEntity
  8
1
  6
CONTINUOUS
 62
     7
100
AcDbLine
 10
578.9250159552462
 20
109.7700257045
 30
0.0
 11
576.7699981018025
 21
109.7700257045
 31
0.0
  0
LINE
  5
1091
330
1F
100
AcDbEntity
  8
1
  6
CONTINUOUS
 62
     7
100
AcDbLine
 10
551.1450159552462
 20
110.7700257045
 30
0.0
 11
576.7699981018025
 21
110.7700257045
 31
0.0
  0
LINE
  5
1092
330
1F
100
AcDbEntity
  8
1
  6
CONTINUOUS
 62
     7
100
AcDbLine
 10
550.8450159552463
 20
110.7700257045
 30
0.0
 11
551.1450159552462
 21
110.7700257045
 31
0.0
  0
LINE
  5
1093
330
1F
100
AcDbEntity
  8
1
  6
CONTINUOUS
 62
     7
100
AcDbLine
 10
577.2793793060669
 20
110.7700257045
 30
0.0
 11
578.679379306067
 21
110.7700257045
 31
0.0
  0
LINE
  5
1094
330
1F
100
AcDbEntity
  8
1
  6
CONTINUOUS
 62
     7
100
AcDbLine
 10
553.7270350236495
 20
94.9200257045
 30
0.0
 11
553.1270350236495
 21
94.9200257045
 31
0.0
  0
LINE
  5
1095
330
1F
100
AcDbEntity
  8
1
  6
CONTINUOUS
 62
     7
100
AcDbLine
 10
553.1270350236495
 20
94.9200257045
 30
0.0
 11
553.1270350236495
 21
95.3950257045
 31
0.0
  0
LINE
  5
1096
330
1F
100
AcDbEntity
  8
1
  6
CONTINUOUS
 62
     7
100
AcDbLine
 10
553.7270350236495
 20
95.3950257045
 30
0.0
 11
553.7270350236495
 21
94.9200257045
 31
0.0
  0
LINE
  5
1097
330
1F
100
AcDbEntity
  8
1
  6
CONTINUOUS
 62
     7
100
AcDbLine
 10
558.7670350236496
 20
95.3950257045
 30
0.0
 11
558.7670350236496
 21
94.9200257045
 31
0.0
  0
LINE
  5
1098
330
1F
100
AcDbEntity
  8
1
  6
CONTINUOUS
 62
     7
100
AcDbLine
 10
558.7670350236496
 20
94.9200257045
 30
0.0
 11
558.1670350236495
 21
94.9200257045
 31
0.0
  0
LINE
  5
1099
330
1F
100
AcDbEntity
  8
1
  6
CONTINUOUS
 62
     7
100
AcDbLine
 10
558.1670350236495
 20
94.9200257045
 30
0.0
 11
558.1670350236495
 21
95.3950257045
 31
0.0
  0
LINE
  5
109A
330
1F
100
AcDbEntity
  8
1
  6
CONTINUOUS
 62
     7
100
AcDbLine
 10
558.7670350236496
 20
95.3950257045
 30
0.0
 11
558.7670350236496
 21
98.7700257045
 31
0.0
  0
LINE
  5
109B
330
1F
100
AcDbEntity
  8
1
  6
CONTINUOUS
 62
     7
100
AcDbLine
 10
558.1670350236495
 20
95.3950257045
 30
0.0
 11
558.1670350236495
 21
98.7700257045
 31
0.0
  0
LINE
  5
109C
330
1F
100
AcDbEntity
  8
1
  6
CONTINUOUS
 62
     7
100
AcDbLine
 10
553.1270350236495
 20
95.3950257045
 30
0.0
 11
553.1270350236495
 21
98.35532491130951
 31
0.0
  0
LINE
  5
109D
330
1F
100
AcDbEntity
  8
1
  6
CONTINUOUS
 62
     7
100
AcDbLine
 10
553.7270350236495
 20
95.3950257045
 30
0.0
 11
553.7270350236495
 21
98.32002570450001
 31
0.0
  0
LINE
  5
109E
330
1F
100
AcDbEntity
  8
1
  6
CONTINUOUS
 62
     7
100
AcDbLine
 10
577.8170350236495
 20
95.3950257045
 30
0.0
 11
577.8170350236495
 21
98.7700257045
 31
0.0
  0
ARC
  5
109F
330
1F
100
AcDbEntity
  8
1
  6
CONTINUOUS
 62
     7
100
AcDbCircle
 10
577.3420350236495
 20
95.3950257045
 30
0.0
 40
0.4750000000000211
100
AcDbArc
 50
273.0169613098269
 51
0.0
  0
ARC
  5
10A0
330
1F
100
AcDbEntity
  8
1
  6
CONTINUOUS
 62
     7
100
AcDbCircle
 10
577.3920350236496
 20
95.3950257045
 30
0.0
 40
0.4750000000000196
100
AcDbArc
 50
180.0
 51
266.9830386901868
  0
LINE
  5
10A1
330
1F
100
AcDbEntity
  8
1
  6
CONTINUOUS
 62
     7
100
AcDbLine
 10
576.9170350236495
 20
95.3950257045
 30
0.0
 11
576.9170350236495
 21
98.7700257045
 31
0.0
  0
LINE
  5
10A2
330
1F
100
AcDbEntity
  8
1
  6
CONTINUOUS
 62
     7
100
AcDbLine
 10
577.0699981018024
 20
110.7700257045
 30
0.0
 11
576.7699981018025
 21
110.7700257045
 31
0.0
  0
LINE
  5
10A3
330
1F
100
AcDbEntity
  8
1
  6
CONTINUOUS
 62
     7
100
AcDbLine
 10
558.1670350236495
 20
98.5850257045
 30
0.0
 11
554.7480137765815
 21
98.5850257045
 31
0.0
  0
LINE
  5
10A4
330
1F
100
AcDbEntity
  8
1
  6
CONTINUOUS
 62
     7
100
AcDbLine
 10
552.942018133911
 20
98.5850257045
 30
0.0
 11
552.4468663789397
 21
98.5850257045
 31
0.0
  0
LINE
  5
10A5
330
1F
100
AcDbEntity
  8
1
  6
CONTINUOUS
 62
     7
100
AcDbLine
 10
552.4468663789397
 20
98.5850257045
 30
0.0
 11
552.2355256871293
 21
98.7700257045
 31
0.0
  0
LINE
  5
10A6
330
1F
100
AcDbEntity
  8
1
  6
CONTINUOUS
 62
     7
100
AcDbLine
 10
579.2250159552461
 20
110.7700257045
 30
0.0
 11
579.2250159552461
 21
109.7700257045
 31
0.0
  0
LINE
  5
10A7
330
1F
100
AcDbEntity
  8
1
  6
CONTINUOUS
 62
     7
100
AcDbLine
 10
579.2250159552461
 20
110.7700257045
 30
0.0
 11
578.679379306067
 21
110.7700257045
 31
0.0
  0
LINE
  5
10A8
330
1F
100
AcDbEntity
  8
1
  6
CONTINUOUS
 62
     7
100
AcDbLine
 10
577.2793793060669
 20
110.7700257045
 30
0.0
 11
577.0699981018024
 21
110.7700257045
 31
0.0
  0
LINE
  5
10A9
330
1F
100
AcDbEntity
  8
1
  6
CONTINUOUS
 62
     7
100
AcDbLine
 10
578.8354921860937
 20
98.47002570449999
 30
0.0
 11
578.8254693030409
 21
98.75704352222755
 31
0.0
  0
LINE
  5
10AA
330
1F
100
AcDbEntity
  8
1
  6
CONTINUOUS
 62
     7
100
AcDbLine
 10
578.8254126572252
 20
98.7700257045
 30
0.0
 11
578.8254693030409
 21
98.75704352222755
 31
0.0
  0
LINE
  5
10AB
330
1F
100
AcDbEntity
  8
1
  6
CONTINUOUS
 62
     7
100
AcDbLine
 10
579.2670350236496
 20
98.7700257045
 30
0.0
 11
579.2683440288957
 21
98.47002570449999
 31
0.0
  0
LINE
  5
10AC
330
1F
100
AcDbEntity
  8
1
  6
CONTINUOUS
 62
     7
100
AcDbLine
 10
579.2689985315188
 20
98.32002570450001
 30
0.0
 11
578.8407303015174
 21
98.32002570450001
 31
0.0
  0
LINE
  5
10AD
330
1F
100
AcDbEntity
  8
1
  6
CONTINUOUS
 62
     7
100
AcDbLine
 10
578.8407303015174
 20
98.32002570450001
 30
0.0
 11
578.8354921860937
 21
98.47002570449999
 31
0.0
  0
LINE
  5
10AE
330
1F
100
AcDbEntity
  8
1
  6
CONTINUOUS
 62
     7
100
AcDbLine
 10
579.2683440288957
 20
98.47002570449999
 30
0.0
 11
579.2689985315188
 21
98.32002570450001
 31
0.0
  0
LINE
  5
10B4
330
1F
100
AcDbEntity
  8
1
  6
CONTINUOUS
 62
     7
100
AcDbLine
 10
624.778637276521
 20
108.4000257045
 30
0.0
 11
624.8206563449244
 21
98.7700257045
 31
0.0
  0
LINE
  5
10B5
330
1F
100
AcDbEntity
  8
1
  6
CONTINUOUS
 62
     7
100
AcDbLine
 10
624.8206563449244
 20
98.7700257045
 30
0.0
 11
624.5206592007081
 21
98.7700257045
 31
0.0
  0
LINE
  5
10B6
330
1F
100
AcDbEntity
  8
1
  6
CONTINUOUS
 62
     7
100
AcDbLine
 10
615.1766153523339
 20
98.7700257045
 30
0.0
 11
624.5206592007081
 21
98.7700257045
 31
0.0
  0
LINE
  5
10B7
330
1F
100
AcDbEntity
  8
1
  6
CONTINUOUS
 62
     7
100
AcDbLine
 10
614.8766182081177
 20
98.7700257045
 30
0.0
 11
614.918637276521
 21
108.4000257045
 31
0.0
  0
LINE
  5
10B8
330
1F
100
AcDbEntity
  8
1
  6
CONTINUOUS
 62
     7
100
AcDbLine
 10
615.1766153523339
 20
98.7700257045
 30
0.0
 11
614.8766182081177
 21
98.7700257045
 31
0.0
  0
LINE
  5
10B9
330
1F
100
AcDbEntity
  8
1
  6
CONTINUOUS
 62
     7
100
AcDbLine
 10
615.218637276521
 20
110.7700257045
 30
0.0
 11
624.478637276521
 21
110.7700257045
 31
0.0
  0
LINE
  5
10BA
330
1F
100
AcDbEntity
  8
1
  6
CONTINUOUS
 62
     7
100
AcDbLine
 10
614.918637276521
 20
108.4000257045
 30
0.0
 11
614.918637276521
 21
110.7700257045
 31
0.0
  0
LINE
  5
10BB
330
1F
100
AcDbEntity
  8
1
  6
CONTINUOUS
 62
     7
100
AcDbLine
 10
614.918637276521
 20
110.7700257045
 30
0.0
 11
615.218637276521
 21
110.7700257045
 31
0.0
  0
LINE
  5
10BC
330
1F
100
AcDbEntity
  8
1
  6
CONTINUOUS
 62
     7
100
AcDbLine
 10
624.778637276521
 20
110.7700257045
 30
0.0
 11
624.778637276521
 21
108.4000257045
 31
0.0
  0
LINE
  5
10BD
330
1F
100
AcDbEntity
  8
1
  6
CONTINUOUS
 62
     7
100
AcDbLine
 10
624.478637276521
 20
110.7700257045
 30
0.0
 11
624.778637276521
 21
110.7700257045
 31
0.0
  0
LINE
  5
10BE
330
1F
100
AcDbEntity
  8
1
  6
CONTINUOUS
 62
     7
100
AcDbLine
 10
623.123637276521
 20
95.3950257045
 30
0.0
 11
623.123637276521
 21
98.7700257045
 31
0.0
  0
ARC
  5
10BF
330
1F
100
AcDbEntity
  8
1
  6
CONTINUOUS
 62
     7
100
AcDbCircle
 10
623.598637276521
 20
95.3950257045
 30
0.0
 40
0.4750000000000085
100
AcDbArc
 50
180.0
 51
270.0000000000138
  0
ARC
  5
10C0
330
1F
100
AcDbEntity
  8
1
  6
CONTINUOUS
 62
     7
100
AcDbCircle
 10
623.598637276521
 20
95.3950257045
 30
0.0
 40
0.4750000000000085
100
AcDbArc
 50
270.0000000000138
 51
0.0
  0
LINE
  5
10C1
330
1F
100
AcDbEntity
  8
1
  6
CONTINUOUS
 62
     7
100
AcDbLine
 10
624.073637276521
 20
95.3950257045
 30
0.0
 11
624.073637276521
 21
98.7700257045
 31
0.0
  0
LINE
  5
10C2
330
1F
100
AcDbEntity
  8
1
  6
CONTINUOUS
 62
     7
100
AcDbLine
 10
617.098637276521
 20
98.5850257045
 30
0.0
 11
622.598637276521
 21
98.5850257045
 31
0.0
  0
LINE
  5
10C3
330
1F
100
AcDbEntity
  8
1
  6
CONTINUOUS
 62
     7
100
AcDbLine
 10
622.598637276521
 20
98.5850257045
 30
0.0
 11
622.598637276521
 21
98.7700257045
 31
0.0
  0
LINE
  5
10C4
330
1F
100
AcDbEntity
  8
1
  6
CONTINUOUS
 62
     7
100
AcDbLine
 10
617.098637276521
 20
98.7700257045
 30
0.0
 11
617.098637276521
 21
98.5850257045
 31
0.0
  0
LINE
  5
10C5
330
1F
100
AcDbEntity
  8
1
  6
CONTINUOUS
 62
     7
100
AcDbLine
 10
615.3181839287262
 20
98.75704352222297
 30
0.0
 11
615.3081610456735
 21
98.47002570449999
 31
0.0
  0
LINE
  5
10C6
330
1F
100
AcDbEntity
  8
1
  6
CONTINUOUS
 62
     7
100
AcDbLine
 10
615.3182405745418
 20
98.7700257045
 30
0.0
 11
615.3181839287262
 21
98.75704352222297
 31
0.0
  0
LINE
  5
10C7
330
1F
100
AcDbEntity
  8
1
  6
CONTINUOUS
 62
     7
100
AcDbLine
 10
614.8766182081177
 20
98.7700257045
 30
0.0
 11
614.8753092028714
 21
98.47002570449999
 31
0.0
  0
LINE
  5
10C8
330
1F
100
AcDbEntity
  8
1
  6
CONTINUOUS
 62
     7
100
AcDbLine
 10
624.3790906243158
 20
98.75704352222263
 30
0.0
 11
624.3891135073685
 21
98.47002570449999
 31
0.0
  0
LINE
  5
10C9
330
1F
100
AcDbEntity
  8
1
  6
CONTINUOUS
 62
     7
100
AcDbLine
 10
624.3790339785002
 20
98.7700257045
 30
0.0
 11
624.3790906243158
 21
98.75704352222263
 31
0.0
  0
LINE
  5
10CA
330
1F
100
AcDbEntity
  8
1
  6
CONTINUOUS
 62
     7
100
AcDbLine
 10
624.8206563449244
 20
98.7700257045
 30
0.0
 11
624.8219653501707
 21
98.47002570449999
 31
0.0
  0
LINE
  5
10CB
330
1F
100
AcDbEntity
  8
1
  6
CONTINUOUS
 62
     7
100
AcDbLine
 10
624.8226198527938
 20
98.32002570450001
 30
0.0
 11
624.3943516227923
 21
98.32002570450001
 31
0.0
  0
LINE
  5
10CC
330
1F
100
AcDbEntity
  8
1
  6
CONTINUOUS
 62
     7
100
AcDbLine
 10
624.3943516227923
 20
98.32002570450001
 30
0.0
 11
624.3891135073685
 21
98.47002570449999
 31
0.0
  0
LINE
  5
10CD
330
1F
100
AcDbEntity
  8
1
  6
CONTINUOUS
 62
     7
100
AcDbLine
 10
624.8219653501707
 20
98.47002570449999
 30
0.0
 11
624.8226198527938
 21
98.32002570450001
 31
0.0
  0
LINE
  5
10CE
330
1F
100
AcDbEntity
  8
1
  6
CONTINUOUS
 62
     7
100
AcDbLine
 10
614.8746547002484
 20
98.32002570450001
 30
0.0
 11
615.3029229302498
 21
98.32002570450001
 31
0.0
  0
LINE
  5
10CF
330
1F
100
AcDbEntity
  8
1
  6
CONTINUOUS
 62
     7
100
AcDbLine
 10
615.3029229302498
 20
98.32002570450001
 30
0.0
 11
615.3081610456735
 21
98.47002570449999
 31
0.0
  0
LINE
  5
10D0
330
1F
100
AcDbEntity
  8
1
  6
CONTINUOUS
 62
     7
100
AcDbLine
 10
614.8753092028714
 20
98.47002570449999
 30
0.0
 11
614.8746547002484
 21
98.32002570450001
 31
0.0
  0
LINE
  5
10D1
330
1F
100
AcDbEntity
  8
1
  6
CONTINUOUS
 62
     7
100
AcDbLine
 10
616.573637276521
 20
95.3950257045
 30
0.0
 11
616.573637276521
 21
98.7700257045
 31
0.0
  0
ARC
  5
10D2
330
1F
100
AcDbEntity
  8
1
  6
CONTINUOUS
 62
     7
100
AcDbCircle
 10
616.098637276521
 20
95.3950257045
 30
0.0
 40
0.4750000000000085
100
AcDbArc
 50
180.0
 51
270.0000000000138
  0
LINE
  5
10D3
330
1F
100
AcDbEntity
  8
1
  6
CONTINUOUS
 62
     7
100
AcDbLine
 10
615.623637276521
 20
95.3950257045
 30
0.0
 11
615.623637276521
 21
98.7700257045
 31
0.0
  0
ARC
  5
10D4
330
1F
100
AcDbEntity
  8
1
  6
CONTINUOUS
 62
     7
100
AcDbCircle
 10
616.098637276521
 20
95.3950257045
 30
0.0
 40
0.4750000000000085
100
AcDbArc
 50
270.0000000000138
 51
0.0
  0
LINE
  5
10D5
330
1F
100
AcDbEntity
  8
1
  6
CONTINUOUS
 62
     7
100
AcDbLine
 10
615.798637276521
 20
94.92068405547474
 30
0.0
 11
616.073637276521
 21
94.92068405547474
 31
0.0
  0
LINE
  5
10D6
330
1F
100
AcDbEntity
  8
1
  6
CONTINUOUS
 62
     7
100
AcDbLine
 10
616.123637276521
 20
94.92068405547474
 30
0.0
 11
616.3986372765211
 21
94.92068405547474
 31
0.0
  0
LINE
  5
10D7
330
1F
100
AcDbEntity
  8
1
  6
CONTINUOUS
 62
     7
100
AcDbLine
 10
615.798637276521
 20
94.92068405547474
 30
0.0
 11
615.798637276521
 21
95.02675270793361
 31
0.0
  0
LINE
  5
10D8
330
1F
100
AcDbEntity
  8
1
  6
CONTINUOUS
 62
     7
100
AcDbLine
 10
616.3986372765211
 20
95.02675270793361
 30
0.0
 11
616.3986372765211
 21
94.92068405547474
 31
0.0
  0
LINE
  5
10D9
330
1F
100
AcDbEntity
  8
1
  6
CONTINUOUS
 62
     7
100
AcDbLine
 10
623.298637276521
 20
94.92068405547474
 30
0.0
 11
623.573637276521
 21
94.92068405547474
 31
0.0
  0
LINE
  5
10DA
330
1F
100
AcDbEntity
  8
1
  6
CONTINUOUS
 62
     7
100
AcDbLine
 10
623.623637276521
 20
94.92068405547474
 30
0.0
 11
623.8986372765211
 21
94.92068405547474
 31
0.0
  0
LINE
  5
10DB
330
1F
100
AcDbEntity
  8
1
  6
CONTINUOUS
 62
     7
100
AcDbLine
 10
623.298637276521
 20
94.92068405547474
 30
0.0
 11
623.298637276521
 21
95.02675270793361
 31
0.0
  0
LINE
  5
10DC
330
1F
100
AcDbEntity
  8
1
  6
CONTINUOUS
 62
     7
100
AcDbLine
 10
623.8986372765211
 20
95.02675270793361
 30
0.0
 11
623.8986372765211
 21
94.92068405547474
 31
0.0
  0
ARC
  5
10DD
330
1F
100
AcDbEntity
  8
1
  6
CONTINUOUS
 62
     7
100
AcDbCircle
 10
619.2718423572779
 20
98.62002570450002
 30
0.0
 40
0.3000000000000016
100
AcDbArc
 50
210.0000000000027
 51
270.0
  0
ARC
  5
10DE
330
1F
100
AcDbEntity
  8
1
  6
CONTINUOUS
 62
     7
100
AcDbCircle
 10
620.4254321957641
 20
98.62002570450002
 30
0.0
 40
0.3000000000000016
100
AcDbArc
 50
270.0
 51
330.0000000000043
  0
LINE
  5
10DF
330
1F
100
AcDbEntity
  8
1
  6
CONTINUOUS
 62
     7
100
AcDbLine
 10
620.4254321957641
 20
98.32002570450001
 30
0.0
 11
619.2718423572779
 21
98.32002570450001
 31
0.0
  0
LINE
  5
10E0
330
1F
100
AcDbEntity
  8
1
  6
CONTINUOUS
 62
     7
100
AcDbLine
 10
619.0120347361426
 20
98.47002570449999
 30
0.0
 11
618.9456394551858
 21
98.5850257045
 31
0.0
  0
LINE
  5
10E1
330
1F
100
AcDbEntity
  8
1
  6
CONTINUOUS
 62
     7
100
AcDbLine
 10
620.6852398168995
 20
98.47002570449999
 30
0.0
 11
620.7516350978563
 21
98.5850257045
 31
0.0
  0
LINE
  5
10E2
330
1F
100
AcDbEntity
  8
OŚ
100
AcDbLine
 10
580.2738834214335
 20
141.6549639259645
 30
0.0
 11
549.6176257576063
 21
141.6549639259645
 31
0.0
  0
LINE
  5
10E3
330
1F
100
AcDbEntity
  8
OŚ
100
AcDbLine
 10
577.3670350236496
 20
144.3998013182553
 30
0.0
 11
577.3670350236496
 21
146.4101265336737
 31
0.0
  0
LINE
  5
10E4
330
1F
100
AcDbEntity
  8
OŚ
100
AcDbLine
 10
577.3670350236496
 20
136.8998013182553
 30
0.0
 11
577.3670350236496
 21
138.9101265336737
 31
0.0
  0
LINE
  5
10E5
330
1F
100
AcDbEntity
  8
OŚ
100
AcDbLine
 10
558.4670350236495
 20
136.8998013182554
 30
0.0
 11
558.4670350236495
 21
138.9101265336737
 31
0.0
  0
LINE
  5
10E6
330
1F
100
AcDbEntity
  8
OŚ
100
AcDbLine
 10
553.4270350236495
 20
144.3998013182553
 30
0.0
 11
553.4270350236495
 21
146.4101265336737
 31
0.0
  0
LINE
  5
10E8
330
1F
100
AcDbEntity
  8
OŚ
100
AcDbLine
 10
619.848637276521
 20
113.2579195073563
 30
0.0
 11
619.848637276521
 21
92.64578160329242
 31
0.0
  0
LINE
  5
10E9
330
1F
100
AcDbEntity
  8
OŚ
100
AcDbLine
 10
616.073637276521
 20
93.5220832147406
 30
0.0
 11
616.073637276521
 21
100.2276955458224
 31
0.0
  0
LINE
  5
10EA
330
1F
100
AcDbEntity
  8
OŚ
100
AcDbLine
 10
623.573637276521
 20
93.5220832147406
 30
0.0
 11
623.573637276521
 21
100.2276955458224
 31
0.0
  0
LINE
  5
10EB
330
1F
100
AcDbEntity
  8
OŚ
100
AcDbLine
 10
553.4270350236495
 20
99.92968156029866
 30
0.0
 11
553.4270350236495
 21
93.5220832147406
 31
0.0
  0
LINE
  5
10ED
330
1F
100
AcDbEntity
  8
OŚ
100
AcDbLine
 10
558.4670350236495
 20
99.92968156029866
 30
0.0
 11
558.4670350236495
 21
93.5220832147406
 31
0.0
  0
LINE
  5
10EE
330
1F
100
AcDbEntity
  8
OŚ
100
AcDbLine
 10
577.3670350236496
 20
99.93033991127336
 30
0.0
 11
577.3670350236496
 21
93.52274156571531
 31
0.0
  0
LINE
  5
10EF
330
1F
100
AcDbEntity
  8
OŚ
100
AcDbLine
 10
577.9793793060669
 20
112.2421420626983
 30
0.0
 11
577.9793793060669
 21
108.2670355655972
 31
0.0
  0
DIMENSION
  5
10F0
330
1F
100
AcDbEntity
  8
WY
100
AcDbDimension
  2
*D50
 10
550.8029968868428
 20
151.3148378472671
 30
0.0
 11
565.7476250034847
 21
151.3148378472671
 31
0.0
 70
   160
 52
-270.0
  3
ISO-25
100
AcDbAlignedDimension
 13
579.2670350236496
 23
146.3269858501517
 33
0.0
 14
550.8029968868428
 24
146.3269858501517
 34
0.0
 50
180.0
100
AcDbRotatedDimension
1001
ACAD
1000
DSTYLE
1002
{
1070
   287
1070
     3
1070
   271
1070
     1
1070
   143
1040
0.0393700787401575
1070
    41
1040
1.2
1070
    44
1040
1.0
1070
    42
1040
1.0
1070
   147
1040
1.0
1070
   279
1070
     0
1070
    74
1070
     1
1070
   140
1040
1.2
1002
}
  0
LINE
  5
10F2
330
1F
100
AcDbEntity
  8
OŚ
100
AcDbLine
 10
578.4888540230326
 20
137.9049639259645
 30
0.0
 11
576.2452160242667
 21
137.9049639259645
 31
0.0
  0
LINE
  5
10F3
330
1F
100
AcDbEntity
  8
OŚ
100
AcDbLine
 10
578.4888540230324
 20
145.4049639259645
 30
0.0
 11
576.2452160242666
 21
145.4049639259645
 31
0.0
  0
LINE
  5
10F4
330
1F
100
AcDbEntity
  8
OŚ
100
AcDbLine
 10
559.5888540230324
 20
137.9049639259646
 30
0.0
 11
557.3452160242665
 21
137.9049639259646
 31
0.0
  0
LINE
  5
10F5
330
1F
100
AcDbEntity
  8
OŚ
100
AcDbLine
 10
554.5488540230324
 20
145.4049639259645
 30
0.0
 11
552.3052160242665
 21
145.4049639259645
 31
0.0
  0
DIMENSION
  5
10F7
330
1F
100
AcDbEntity
  8
WY
100
AcDbDimension
  2
*D51
 10
585.710164532404
 20
145.4049639259645
 30
0.0
 11
584.1101645324039
 21
141.6549639259645
 31
0.0
 70
    32
  3
ISO-25
100
AcDbAlignedDimension
 13
578.4888540230326
 23
137.9049639259645
 33
0.0
 14
578.4888540230324
 24
145.4049639259645
 34
0.0
 50
-90.00000000000001
100
AcDbRotatedDimension
1001
ACAD
1000
DSTYLE
1002
{
1070
   287
1070
     3
1070
   143
1040
0.0393700787401575
1070
    41
1040
1.2
1070
    44
1040
1.0
1070
    42
1040
1.0
1070
   147
1040
1.0
1070
   279
1070
     0
1070
    74
1070
     1
1070
   140
1040
1.2
1002
}
  0
DIMENSION
  5
10FA
330
1F
100
AcDbEntity
  8
WY
100
AcDbDimension
  2
*D52
 10
577.3670350236496
 20
130.5159788237002
 30
0.0
 11
584.5170350236496
 21
130.5159788237002
 31
0.0
 70
   160
 52
-270.0
  3
ISO-25
100
AcDbAlignedDimension
 13
579.2670350236494
 23
136.9829420017774
 33
0.0
 14
577.3670350236496
 24
136.8998013182553
 34
0.0
 50
180.0
100
AcDbRotatedDimension
1001
ACAD
1000
DSTYLE
1002
{
1070
   287
1070
     3
1070
   143
1040
0.0393700787401575
1070
    41
1040
1.2
1070
    44
1040
1.0
1070
    42
1040
1.0
1070
   147
1040
1.0
1070
   279
1070
     0
1070
    74
1070
     1
1070
   140
1040
1.2
1002
}
  0
DIMENSION
  5
10FC
330
1F
100
AcDbEntity
  8
WY
100
AcDbDimension
  2
*D53
 10
558.4670350236495
 20
130.5159788237002
 30
0.0
 11
567.9170350236495
 21
132.1159788237002
 31
0.0
 70
    32
 52
-270.0
  3
ISO-25
100
AcDbAlignedDimension
 13
577.3670350236496
 23
136.8998013182553
 33
0.0
 14
558.4670350236495
 24
136.8998013182554
 34
0.0
 50
180.0
100
AcDbRotatedDimension
1001
ACAD
1000
DSTYLE
1002
{
1070
   287
1070
     3
1070
   143
1040
0.0393700787401575
1070
    41
1040
1.2
1070
    44
1040
1.0
1070
    42
1040
1.0
1070
   147
1040
1.0
1070
   279
1070
     0
1070
    74
1070
     1
1070
   140
1040
1.2
1002
}
  0
DIMENSION
  5
1100
330
1F
100
AcDbEntity
  8
WY
100
AcDbDimension
  2
*D55
 10
558.4670350236495
 20
130.5159788237002
 30
0.0
 11
555.9470350236495
 21
130.5159788237002
 31
0.0
 70
   160
 52
-270.0
  3
ISO-25
100
AcDbAlignedDimension
 13
553.4270350236495
 23
144.3998013182553
 33
0.0
 14
558.4670350236495
 24
136.8998013182554
 34
0.0
 50
180.0
100
AcDbRotatedDimension
1001
ACAD
1000
DSTYLE
1002
{
1070
   287
1070
     3
1070
   143
1040
0.0393700787401575
1070
    41
1040
1.2
1070
    44
1040
1.0
1070
    42
1040
1.0
1070
   147
1040
1.0
1070
   279
1070
     0
1070
    74
1070
     1
1070
   140
1040
1.2
1002
}
  0
DIMENSION
  5
1102
330
1F
100
AcDbEntity
  8
WY
100
AcDbDimension
  2
*D56
 10
624.8226198527938
 20
87.10119949239831
 30
0.0
 11
619.848637276521
 21
88.7011994923983
 31
0.0
 70
    32
  3
ISO-25
100
AcDbAlignedDimension
 13
614.8746547002484
 23
98.32002570450001
 33
0.0
 14
624.8226198527938
 24
98.32002570450001
 34
0.0
100
AcDbRotatedDimension
1001
ACAD
1000
DSTYLE
1002
{
1070
   287
1070
     5
1070
   271
1070
     0
1070
   143
1040
0.0393700787401575
1070
    41
1040
1.2
1070
    44
1040
1.0
1070
    42
1040
1.0
1070
   147
1040
1.0
1070
    77
1070
     3
1070
   174
1070
     1
1070
   279
1070
     2
1070
    74
1070
     1
1070
   140
1040
1.2
1002
}
  0
DIMENSION
  5
1105
330
1F
100
AcDbEntity
  8
WY
100
AcDbDimension
  2
*D57
 10
545.4173906249804
 20
98.32002570450001
 30
0.0
 11
543.8173906249804
 21
104.5450257045
 31
0.0
 70
    32
  3
ISO-25
100
AcDbAlignedDimension
 13
550.8450159552463
 23
110.7700257045
 33
0.0
 14
553.2682210360031
 24
98.32002570450001
 34
0.0
 50
90.0
100
AcDbRotatedDimension
1001
ACAD
1000
DSTYLE
1002
{
1070
   287
1070
     5
1070
   271
1070
     1
1070
   143
1040
0.0393700787401575
1070
    41
1040
1.2
1070
    44
1040
1.0
1070
    42
1040
1.0
1070
   147
1040
1.0
1070
    77
1070
     3
1070
   174
1070
     1
1070
   279
1070
     2
1070
    74
1070
     1
1070
   140
1040
1.2
1002
}
  0
DIMENSION
  5
1108
330
1F
100
AcDbEntity
  8
WY
100
AcDbDimension
  2
*D58
 10
545.4173906249804
 20
94.9200257045
 30
0.0
 11
543.8173906249804
 21
96.62002570450001
 31
0.0
 70
    32
  3
ISO-25
100
AcDbAlignedDimension
 13
553.2682210360031
 23
98.32002570450001
 33
0.0
 14
553.1270350236495
 24
94.9200257045
 34
0.0
 50
90.0
100
AcDbRotatedDimension
1001
ACAD
1000
DSTYLE
1002
{
1070
   287
1070
     5
1070
   143
1040
0.0393700787401575
1070
    41
1040
1.2
1070
    44
1040
1.0
1070
    42
1040
1.0
1070
   147
1040
1.0
1070
    77
1070
     3
1070
   174
1070
     1
1070
   279
1070
     2
1070
    74
1070
     1
1070
   140
1040
1.2
1002
}
  0
DIMENSION
  5
110B
330
1F
100
AcDbEntity
  8
WY
100
AcDbDimension
  2
*D59
 10
553.7270350236495
 20
88.41761473082047
 30
0.0
 11
548.6270350236495
 21
88.41761473082047
 31
0.0
 70
   160
  3
ISO-25
100
AcDbAlignedDimension
 13
553.1270350236495
 23
94.9200257045
 33
0.0
 14
553.7270350236495
 24
94.9200257045
 34
0.0
100
AcDbRotatedDimension
1001
ACAD
1000
DSTYLE
1002
{
1070
   287
1070
     3
1070
   143
1040
0.0393700787401575
1070
    41
1040
1.2
1070
    44
1040
1.0
1070
    42
1040
1.0
1070
   147
1040
1.0
1070
    77
1070
     3
1070
   174
1070
     1
1070
   279
1070
     0
1070
    74
1070
     0
1070
   140
1040
1.2
1002
}
  0
DIMENSION
  5
110E
330
1F
100
AcDbEntity
  8
WY
100
AcDbDimension
  2
*D60
 10
577.8170350236495
 20
88.41761473082047
 30
0.0
 11
572.4170350236495
 21
88.41761473082047
 31
0.0
 70
   160
  3
ISO-25
100
AcDbAlignedDimension
 13
576.9170350236495
 23
95.3950257045
 33
0.0
 14
577.8170350236495
 24
95.3950257045
 34
0.0
100
AcDbRotatedDimension
1001
ACAD
1000
DSTYLE
1002
{
1070
   287
1070
     3
1070
   143
1040
0.0393700787401575
1070
    41
1040
1.2
1070
    44
1040
1.0
1070
    42
1040
1.0
1070
   147
1040
1.0
1070
    77
1070
     3
1070
   174
1070
     1
1070
   279
1070
     0
1070
    74
1070
     1
1070
   140
1040
1.2
1002
}
  0
ENDSEC
  0
SECTION
  2
OBJECTS
  0
DICTIONARY
  5
C
330
0
100
AcDbDictionary
  3
ACAD_DETAILVIEWSTYLE
350
823
  3
ACAD_GROUP
350
D
  3
ACAD_IMAGE_VARS
350
1F5
  3
ACAD_MLINESTYLE
350
17
  3
ACAD_SCALELIST
350
11BE
  3
ACAD_SECTIONVIEWSTYLE
350
824
  3
ACDBVARIABLEDICTIONARY
350
81E
  3
APPDATA
350
1F3
  3
DIMOFFSETDICTIONARY
350
834
  3
DWGPROPS
350
11EC
  0
DICTIONARY
  5
81B
330
2
100
AcDbDictionary
280
     1
  3
ACAD_LAYERSTATES
360
81C
  3
ACLYDICTIONARY
360
829
  0
DICTIONARY
  5
823
102
{ACAD_REACTORS
330
C
102
}
330
C
100
AcDbDictionary
  0
DICTIONARY
  5
D
102
{ACAD_REACTORS
330
C
102
}
330
C
100
AcDbDictionary
  0
RASTERVARIABLES
  5
1F5
102
{ACAD_REACTORS
330
C
102
}
330
C
100
AcDbRasterVariables
 90
        0
 70
     1
 71
     1
 72
     1
  0
DICTIONARY
  5
17
102
{ACAD_REACTORS
330
C
102
}
330
C
100
AcDbDictionary
  3
STANDARD
350
18
  0
DICTIONARY
  5
11BE
102
{ACAD_REACTORS
330
C
102
}
330
C
100
AcDbDictionary
  0
DICTIONARY
  5
824
102
{ACAD_REACTORS
330
C
102
}
330
C
100
AcDbDictionary
  0
DICTIONARY
  5
81E
102
{ACAD_REACTORS
330
C
102
}
330
C
100
AcDbDictionary
  3
HPTRANSPARENCY
350
833
  0
DICTIONARY
  5
1F3
102
{ACAD_REACTORS
330
C
102
}
330
C
100
AcDbDictionary
  0
DICTIONARY
  5
834
102
{ACAD_REACTORS
330
C
102
}
330
C
100
AcDbDictionary
  3
DIMRAILANGLE
350
DE2
  3
DIMRAILFIRSTOFFSET
350
DE0
  3
DIMRAILOFFSET
350
DE1
  3
DIMRAILSENABLED
350
DE3
  0
XRECORD
  5
11EC
102
{ACAD_REACTORS
330
C
102
}
330
C
100
AcDbXrecord
  1
DWGPROPS COOKIE
  2

  3

  4

  6

  7

  8
pikusl
  9

300
=
301
=
302
=
303
=
304
=
305
=
306
=
307
=
308
=
309
=
 40
0.0
 41
2457520.393485509
 42
2457521.269127303
  1

 90
        0
  0
DICTIONARY
  5
81C
102
{ACAD_REACTORS
330
81B
102
}
330
81B
100
AcDbDictionary
  0
DICTIONARY
  5
829
102
{ACAD_REACTORS
330
81B
102
}
330
81B
100
AcDbDictionary
1001
ACAD
1000
<All
  0
MLINESTYLE
  5
18
102
{ACAD_REACTORS
330
17
102
}
330
17
100
AcDbMlineStyle
  2
Standard
 70
     0
  3

 62
   256
 51
90.0
 52
90.0
 71
     2
 49
0.5
 62
   256
  6
BYLAYER
 49
-0.5
 62
   256
  6
BYLAYER
  0
DICTIONARYVAR
  5
833
102
{ACAD_REACTORS
330
81E
102
}
330
81E
100
DictionaryVariables
280
     0
  1
ByLayer
  0
DICTIONARYVAR
  5
DE2
102
{ACAD_REACTORS
330
834
102
}
330
834
100
DictionaryVariables
280
     0
  1
0.261799
  0
DICTIONARYVAR
  5
DE0
102
{ACAD_REACTORS
330
834
102
}
330
834
100
DictionaryVariables
280
     0
  1
10.000000
  0
DICTIONARYVAR
  5
DE1
102
{ACAD_REACTORS
330
834
102
}
330
834
100
DictionaryVariables
280
     0
  1
6.000000
  0
DICTIONARYVAR
  5
DE3
102
{ACAD_REACTORS
330
834
102
}
330
834
100
DictionaryVariables
280
     0
  1
1
  0
ENDSEC
  0
EOF
