  0
SECTION
  2
HEADER
  9
$ACADVER
  1
AC1014
  9
$ACADMAINTVER
 70
     9
  9
$DWGCODEPAGE
  3
ANSI_1250
  9
$INSBASE
 10
0.0
 20
0.0
 30
0.0
  9
$EXTMIN
 10
486.041244
 20
0.0
 30
0.0
  9
$EXTMAX
 10
687.671651
 20
297.0
 30
0.0
  9
$LIMMIN
 10
0.0
 20
0.0
  9
$LIMMAX
 10
420.0
 20
297.0
  9
$ORTHOMODE
 70
     0
  9
$REGENMODE
 70
     1
  9
$FILLMODE
 70
     1
  9
$QTEXTMODE
 70
     0
  9
$MIRRTEXT
 70
     1
  9
$DRAGMODE
 70
     2
  9
$LTSCALE
 40
6.0
  9
$OSMODE
 70
 13247
  9
$ATTMODE
 70
     1
  9
$TEXTSIZE
 40
0.2
  9
$TRACEWID
 40
0.05
  9
$TEXTSTYLE
  7
ITALIC
  9
$CLAYER
  8
OSIE
  9
$CELTYPE
  6
BYLAYER
  9
$CECOLOR
 62
   256
  9
$CELTSCALE
 40
1.0
  9
$DELOBJ
 70
     1
  9
$DISPSILH
 70
     0
  9
$DIMSCALE
 40
1.0
  9
$DIMASZ
 40
2.5
  9
$DIMEXO
 40
1.5
  9
$DIMDLI
 40
7.0
  9
$DIMRND
 40
0.0
  9
$DIMDLE
 40
0.0
  9
$DIMEXE
 40
1.5
  9
$DIMTP
 40
0.1
  9
$DIMTM
 40
0.0
  9
$DIMTXT
 40
1.5
  9
$DIMCEN
 40
-1.0
  9
$DIMTSZ
 40
0.0
  9
$DIMTOL
 70
     0
  9
$DIMLIM
 70
     0
  9
$DIMTIH
 70
     0
  9
$DIMTOH
 70
     1
  9
$DIMSE1
 70
     0
  9
$DIMSE2
 70
     0
  9
$DIMTAD
 70
     1
  9
$DIMZIN
 70
     8
  9
$DIMBLK
  1

  9
$DIMASO
 70
     1
  9
$DIMSHO
 70
     0
  9
$DIMPOST
  1

  9
$DIMAPOST
  1

  9
$DIMALT
 70
     0
  9
$DIMALTD
 70
     2
  9
$DIMALTF
 40
25.4
  9
$DIMLFAC
 40
1.0
  9
$DIMTOFL
 70
     1
  9
$DIMTVP
 40
0.0
  9
$DIMTIX
 70
     1
  9
$DIMSOXD
 70
     0
  9
$DIMSAH
 70
     0
  9
$DIMBLK1
  1

  9
$DIMBLK2
  1

  9
$DIMSTYLE
  2
STANDARD
  9
$DIMCLRD
 70
     0
  9
$DIMCLRE
 70
     0
  9
$DIMCLRT
 70
     0
  9
$DIMTFAC
 40
1.0
  9
$DIMGAP
 40
0.75
  9
$DIMJUST
 70
     0
  9
$DIMSD1
 70
     0
  9
$DIMSD2
 70
     0
  9
$DIMTOLJ
 70
     1
  9
$DIMTZIN
 70
     8
  9
$DIMALTZ
 70
     0
  9
$DIMALTTZ
 70
     0
  9
$DIMFIT
 70
     4
  9
$DIMUPT
 70
     0
  9
$DIMUNIT
 70
     2
  9
$DIMDEC
 70
     2
  9
$DIMTDEC
 70
     4
  9
$DIMALTU
 70
     2
  9
$DIMALTTD
 70
     2
  9
$DIMTXSTY
  7
STANDARD
  9
$DIMAUNIT
 70
     0
  9
$LUNITS
 70
     2
  9
$LUPREC
 70
     2
  9
$SKETCHINC
 40
0.1
  9
$FILLETRAD
 40
2.5
  9
$AUNITS
 70
     0
  9
$AUPREC
 70
     2
  9
$MENU
  1
ACAD
  9
$ELEVATION
 40
0.0
  9
$PELEVATION
 40
0.0
  9
$THICKNESS
 40
0.0
  9
$LIMCHECK
 70
     0
  9
$CHAMFERA
 40
0.0
  9
$CHAMFERB
 40
0.0
  9
$CHAMFERC
 40
0.0
  9
$CHAMFERD
 40
0.0
  9
$SKPOLY
 70
     0
  9
$TDCREATE
 40
2448721.39913669
  9
$TDUPDATE
 40
2457556.448975428
  9
$TDINDWG
 40
1.5941660417
  9
$TDUSRTIMER
 40
2457556.362582072
  9
$USRTIMER
 70
     1
  9
$ANGBASE
 50
0.0
  9
$ANGDIR
 70
     0
  9
$PDMODE
 70
     0
  9
$PDSIZE
 40
0.0
  9
$PLINEWID
 40
0.5
  9
$COORDS
 70
     1
  9
$SPLFRAME
 70
     0
  9
$SPLINETYPE
 70
     6
  9
$SPLINESEGS
 70
     8
  9
$ATTDIA
 70
     0
  9
$ATTREQ
 70
     1
  9
$HANDLING
 70
     1
  9
$HANDSEED
  5
18533
  9
$SURFTAB1
 70
     6
  9
$SURFTAB2
 70
     6
  9
$SURFTYPE
 70
     6
  9
$SURFU
 70
     6
  9
$SURFV
 70
     6
  9
$UCSNAME
  2

  9
$UCSORG
 10
0.0
 20
0.0
 30
0.0
  9
$UCSXDIR
 10
1.0
 20
0.0
 30
0.0
  9
$UCSYDIR
 10
0.0
 20
1.0
 30
0.0
  9
$PUCSNAME
  2

  9
$PUCSORG
 10
0.0
 20
0.0
 30
0.0
  9
$PUCSXDIR
 10
1.0
 20
0.0
 30
0.0
  9
$PUCSYDIR
 10
0.0
 20
1.0
 30
0.0
  9
$USERI1
 70
     0
  9
$USERI2
 70
     0
  9
$USERI3
 70
     0
  9
$USERI4
 70
     0
  9
$USERI5
 70
     0
  9
$USERR1
 40
0.0
  9
$USERR2
 40
0.0
  9
$USERR3
 40
0.0
  9
$USERR4
 40
0.0
  9
$USERR5
 40
0.0
  9
$WORLDVIEW
 70
     1
  9
$SHADEDGE
 70
     3
  9
$SHADEDIF
 70
    70
  9
$TILEMODE
 70
     1
  9
$MAXACTVP
 70
    16
  9
$PINSBASE
 10
0.0
 20
0.0
 30
0.0
  9
$PLIMCHECK
 70
     0
  9
$PEXTMIN
 10
1.000000000000000E+20
 20
1.000000000000000E+20
 30
1.000000000000000E+20
  9
$PEXTMAX
 10
-1.000000000000000E+20
 20
-1.000000000000000E+20
 30
-1.000000000000000E+20
  9
$PLIMMIN
 10
0.0
 20
0.0
  9
$PLIMMAX
 10
0.0
 20
0.0
  9
$UNITMODE
 70
     0
  9
$VISRETAIN
 70
     0
  9
$PLINEGEN
 70
     0
  9
$PSLTSCALE
 70
     0
  9
$TREEDEPTH
 70
  3020
  9
$PICKSTYLE
 70
     1
  9
$CMLSTYLE
  2
STANDARD
  9
$CMLJUST
 70
     0
  9
$CMLSCALE
 40
1.0
  9
$PROXYGRAPHICS
 70
     1
  9
$MEASUREMENT
 70
     0
  0
ENDSEC
  0
SECTION
  2
CLASSES
  0
CLASS
  1
HATCH
  2
AcDbHatch
  3
ObjectDBX Classes
 90
        0
280
     0
281
     1
  0
CLASS
  1
LWPOLYLINE
  2
AcDbPolyline
  3
ObjectDBX Classes
 90
        0
280
     0
281
     1
  0
CLASS
  1
DICTIONARYVAR
  2
AcDbDictionaryVar
  3
ObjectDBX Classes
 90
        0
280
     0
281
     0
  0
CLASS
  1
XRECORD
  2
AcDbXrecord
  3
ObjectDBX Classes
 90
        0
280
     0
281
     0
  0
CLASS
  1
SCALE
  2
AcDbScale
  3
ObjectDBX Classes
 90
     1153
280
     0
281
     0
  0
CLASS
  1
VISUALSTYLE
  2
AcDbVisualStyle
  3
ObjectDBX Classes
 90
     4095
280
     0
281
     0
  0
CLASS
  1
MATERIAL
  2
AcDbMaterial
  3
ObjectDBX Classes
 90
     1153
280
     0
281
     0
  0
CLASS
  1
TABLESTYLE
  2
AcDbTableStyle
  3
ObjectDBX Classes
 90
     4095
280
     0
281
     0
  0
CLASS
  1
MLEADERSTYLE
  2
AcDbMLeaderStyle
  3
ACDB_MLEADERSTYLE_CLASS
 90
     4095
280
     0
281
     0
  0
CLASS
  1
SUN
  2
AcDbSun
  3
SCENEOE
 90
     1153
280
     0
281
     0
  0
CLASS
  1
RASTERVARIABLES
  2
AcDbRasterVariables
  3
ISM
 90
        0
280
     0
281
     0
  0
CLASS
  1
DIMASSOC
  2
AcDbDimAssoc
  3
"AcDbDimAssoc|Product Desc:     AcDim ARX App For Dimension|Company:          Autodesk, Inc.|WEB Address:      www.autodesk.com"
 90
        0
280
     0
281
     0
  0
CLASS
  1
ACDBDICTIONARYWDFLT
  2
AcDbDictionaryWithDefault
  3
ObjectDBX Classes
 90
        0
280
     0
281
     0
  0
ENDSEC
  0
SECTION
  2
TABLES
  0
TABLE
  2
VPORT
  5
8
330
0
100
AcDbSymbolTable
 70
     1
  0
VPORT
  5
F0F7
330
8
100
AcDbSymbolTableRecord
100
AcDbViewportTableRecord
  2
*ACTIVE
 70
     0
 10
0.0
 20
0.0
 11
1.0
 21
1.0
 12
586.8564475000001
 22
148.5
 13
0.0
 23
0.0
 14
1.0
 24
1.0
 15
5.0
 25
5.0
 16
0.0
 26
0.0
 36
1.0
 17
0.0
 27
0.0
 37
0.0
 40
302.94
 41
2.443631039531479
 42
50.0
 43
0.0
 44
0.0
 50
0.0
 51
0.0
 71
    16
 72
   200
 73
     1
 74
     0
 75
     0
 76
     0
 77
     0
 78
     0
  0
ENDTAB
  0
TABLE
  2
LTYPE
  5
5
330
0
100
AcDbSymbolTable
 70
     5
  0
LTYPE
  5
12
330
5
100
AcDbSymbolTableRecord
100
AcDbLinetypeTableRecord
  2
BYBLOCK
 70
     0
  3

 72
    65
 73
     0
 40
0.0
  0
LTYPE
  5
13
330
5
100
AcDbSymbolTableRecord
100
AcDbLinetypeTableRecord
  2
BYLAYER
 70
     0
  3

 72
    65
 73
     0
 40
0.0
  0
LTYPE
  5
14
330
5
100
AcDbSymbolTableRecord
100
AcDbLinetypeTableRecord
  2
CONTINUOUS
 70
     0
  3
Solid line
 72
    65
 73
     0
 40
0.0
  0
LTYPE
  5
1D
330
5
100
AcDbSymbolTableRecord
100
AcDbLinetypeTableRecord
  2
CENTER
 70
     0
  3
____ _ ____ _ ____ _ ____ _ ____ _ ____ _ ____
 72
    65
 73
     4
 40
2.0
 49
1.25
 74
     0
 49
-0.25
 74
     0
 49
0.25
 74
     0
 49
-0.25
 74
     0
  0
LTYPE
  5
1E
330
5
100
AcDbSymbolTableRecord
100
AcDbLinetypeTableRecord
  2
HIDDEN
 70
     0
  3
_ _ _ _ _ _ _ _ _ _ _ _ _ _ _ _ _ _ _ _ _ _ _
 72
    65
 73
     2
 40
0.375
 49
0.25
 74
     0
 49
-0.125
 74
     0
  0
LTYPE
  5
8093
330
5
100
AcDbSymbolTableRecord
100
AcDbLinetypeTableRecord
  2
PHANTOM
 70
     0
  3
Phantom ______  __  __  ______  __  __  ______
 72
    65
 73
     6
 40
12.7
 49
6.35
 74
     0
 49
-1.27
 74
     0
 49
1.27
 74
     0
 49
-1.27
 74
     0
 49
1.27
 74
     0
 49
-1.27
 74
     0
  0
LTYPE
  5
1187C
330
5
100
AcDbSymbolTableRecord
100
AcDbLinetypeTableRecord
  2
CENTERX2
 70
     0
  3
Center (2x) ________  __  ________  __  _____
 72
    65
 73
     4
 40
20.32
 49
12.7
 74
     0
 49
-2.54
 74
     0
 49
2.54
 74
     0
 49
-2.54
 74
     0
  0
ENDTAB
  0
TABLE
  2
LAYER
  5
2
102
{ACAD_XDICTIONARY
360
13241
102
}
330
0
100
AcDbSymbolTable
 70
     8
  0
LAYER
  5
F
330
2
100
AcDbSymbolTableRecord
100
AcDbLayerTableRecord
  2
0
 70
     0
 62
     7
  6
CONTINUOUS
  0
LAYER
  5
21
330
2
100
AcDbSymbolTableRecord
100
AcDbLayerTableRecord
  2
1
 70
     0
 62
     3
  6
CONTINUOUS
  0
LAYER
  5
22
330
2
100
AcDbSymbolTableRecord
100
AcDbLayerTableRecord
  2
2
 70
     0
 62
     6
  6
CONTINUOUS
  0
LAYER
  5
23
330
2
100
AcDbSymbolTableRecord
100
AcDbLayerTableRecord
  2
3
 70
     0
 62
     4
  6
HIDDEN
  0
LAYER
  5
24
330
2
100
AcDbSymbolTableRecord
100
AcDbLayerTableRecord
  2
OSIE
 70
     0
 62
     2
  6
CENTER
  0
LAYER
  5
25
330
2
100
AcDbSymbolTableRecord
100
AcDbLayerTableRecord
  2
WY
 70
     0
 62
     1
  6
CONTINUOUS
  0
LAYER
  5
26
330
2
100
AcDbSymbolTableRecord
100
AcDbLayerTableRecord
  2
DEFPOINTS
 70
     0
 62
     7
  6
CONTINUOUS
  0
LAYER
  5
464
330
2
100
AcDbSymbolTableRecord
100
AcDbLayerTableRecord
  2
WYMIARY
 70
     0
 62
     1
  6
CONTINUOUS
  0
ENDTAB
  0
TABLE
  2
STYLE
  5
3
330
0
100
AcDbSymbolTable
 70
     4
  0
STYLE
  5
10
330
3
100
AcDbSymbolTableRecord
100
AcDbTextStyleTableRecord
  2
STANDARD
 70
     0
 40
0.0
 41
1.0
 50
0.0
 71
     0
 42
6.0
  3
txt
  4

  0
STYLE
  5
1C
330
3
100
AcDbSymbolTableRecord
100
AcDbTextStyleTableRecord
  2
ITALIC
 70
     0
 40
0.0
 41
1.0
 50
15.0
 71
     0
 42
0.2
  3
simplex
  4

  0
STYLE
  5
C512
330
3
100
AcDbSymbolTableRecord
100
AcDbTextStyleTableRecord
  2
SLDTEXTSTYLE2
 70
     0
 40
0.0
 41
0.7
 50
0.0
 71
     0
 42
0.2
  3
TXT
  4

  0
STYLE
  5
C513
330
3
100
AcDbSymbolTableRecord
100
AcDbTextStyleTableRecord
  2
SLDTEXTSTYLE6
 70
     0
 40
0.0
 41
0.605
 50
0.0
 71
     0
 42
0.2
  3
TXT
  4

  0
ENDTAB
  0
TABLE
  2
VIEW
  5
6
330
0
100
AcDbSymbolTable
 70
     0
  0
ENDTAB
  0
TABLE
  2
UCS
  5
7
330
0
100
AcDbSymbolTable
 70
     0
  0
ENDTAB
  0
TABLE
  2
APPID
  5
9
330
0
100
AcDbSymbolTable
 70
     5
  0
APPID
  5
11
330
9
100
AcDbSymbolTableRecord
100
AcDbRegAppTableRecord
  2
ACAD
 70
     0
  0
APPID
  5
15DA9
330
9
100
AcDbSymbolTableRecord
100
AcDbRegAppTableRecord
  2
ACAD_DSTYLE_DIMRADIAL_EXTE
 70
     0
  0
APPID
  5
16CFB
330
9
100
AcDbSymbolTableRecord
100
AcDbRegAppTableRecord
  2
ACAD_DSTYLE_DIMRADIAL_EXT0
 70
     0
  0
APPID
  5
176C1
330
9
100
AcDbSymbolTableRecord
100
AcDbRegAppTableRecord
  2
ACAD_DSTYLE_DIMRADIAL_EXT1
 70
     0
  0
APPID
  5
17F66
330
9
100
AcDbSymbolTableRecord
100
AcDbRegAppTableRecord
  2
ACAD_DSTYLE_DIMRADIAL_EXT2
 70
     0
  0
ENDTAB
  0
TABLE
  2
DIMSTYLE
  5
A
330
0
100
AcDbSymbolTable
 70
     2
  0
DIMSTYLE
105
3B
102
{ACAD_REACTORS
330
1843D
330
1844E
330
18463
330
18472
330
18481
330
184D1
330
184E4
330
184F3
330
18502
330
18511
330
18520
102
}
330
A
100
AcDbSymbolTableRecord
100
AcDbDimStyleTableRecord
  2
STANDARD
 70
     0
  3

  4

  5

  6

  7

 40
1.0
 41
3.5
 42
1.5
 43
7.0
 44
1.5
 45
0.0
 46
0.0
 47
0.1
 48
0.0
140
3.6
141
-1.0
142
0.0
143
25.4
144
1.0
145
0.0
146
1.0
147
1.5
 71
     0
 72
     0
 73
     0
 74
     0
 75
     0
 76
     0
 77
     1
 78
     0
170
     0
171
     2
172
     0
173
     0
174
     0
175
     0
176
     0
177
     0
178
     0
270
     2
271
     2
272
     4
273
     2
274
     2
340
10
275
     0
280
     0
281
     0
282
     0
283
     1
284
     0
285
     0
286
     0
287
     3
288
     0
  0
DIMSTYLE
105
1187D
330
A
100
AcDbSymbolTableRecord
100
AcDbDimStyleTableRecord
  2
ISO-25
 70
     0
  3

  4

  5

  6

  7

 40
1.0
 41
2.5
 42
0.625
 43
3.75
 44
1.25
 45
0.0
 46
0.0
 47
0.0
 48
0.0
140
2.5
141
2.5
142
0.0
143
0.03937007874016
144
1.0
145
0.0
146
1.0
147
0.625
 71
     0
 72
     0
 73
     0
 74
     0
 75
     0
 76
     0
 77
     1
 78
     8
170
     0
171
     3
172
     1
173
     0
174
     0
175
     0
176
     0
177
     0
178
     0
270
     2
271
     2
272
     2
273
     2
274
     3
340
10
275
     0
280
     0
281
     0
282
     0
283
     0
284
     8
285
     0
286
     0
287
     3
288
     0
  0
ENDTAB
  0
TABLE
  2
BLOCK_RECORD
  5
1
330
0
100
AcDbSymbolTable
 70
   196
  0
BLOCK_RECORD
  5
18
330
1
100
AcDbSymbolTableRecord
100
AcDbBlockTableRecord
  2
*MODEL_SPACE
  0
BLOCK_RECORD
  5
15
330
1
100
AcDbSymbolTableRecord
100
AcDbBlockTableRecord
  2
*PAPER_SPACE
  0
BLOCK_RECORD
  5
7EA0
330
1
100
AcDbSymbolTableRecord
100
AcDbBlockTableRecord
  2
A$C312173AA
  0
BLOCK_RECORD
  5
C4F7
330
1
100
AcDbSymbolTableRecord
100
AcDbBlockTableRecord
  2
_DOT
  0
BLOCK_RECORD
  5
13341
330
1
100
AcDbSymbolTableRecord
100
AcDbBlockTableRecord
  2
_NONE
  0
BLOCK_RECORD
  5
13346
330
1
100
AcDbSymbolTableRecord
100
AcDbBlockTableRecord
  2
_OBLIQUE
  0
BLOCK_RECORD
  5
17DB1
330
1
100
AcDbSymbolTableRecord
100
AcDbBlockTableRecord
  2
SW_CENTERMARKSYMBOL_0
  0
BLOCK_RECORD
  5
17ED4
330
1
100
AcDbSymbolTableRecord
100
AcDbBlockTableRecord
  2
*D172
  0
BLOCK_RECORD
  5
17F01
330
1
100
AcDbSymbolTableRecord
100
AcDbBlockTableRecord
  2
*D175
  0
BLOCK_RECORD
  5
17FCB
330
1
100
AcDbSymbolTableRecord
100
AcDbBlockTableRecord
  2
*D179
  0
BLOCK_RECORD
  5
17FDC
330
1
100
AcDbSymbolTableRecord
100
AcDbBlockTableRecord
  2
*D180
  0
BLOCK_RECORD
  5
1805E
330
1
100
AcDbSymbolTableRecord
100
AcDbBlockTableRecord
  2
*D182
  0
BLOCK_RECORD
  5
18440
330
1
100
AcDbSymbolTableRecord
100
AcDbBlockTableRecord
  2
*D184
  0
BLOCK_RECORD
  5
18451
330
1
100
AcDbSymbolTableRecord
100
AcDbBlockTableRecord
  2
*D185
  0
BLOCK_RECORD
  5
18466
330
1
100
AcDbSymbolTableRecord
100
AcDbBlockTableRecord
  2
*D186
  0
BLOCK_RECORD
  5
18475
330
1
100
AcDbSymbolTableRecord
100
AcDbBlockTableRecord
  2
*D187
  0
BLOCK_RECORD
  5
18484
330
1
100
AcDbSymbolTableRecord
100
AcDbBlockTableRecord
  2
*D188
  0
BLOCK_RECORD
  5
184D4
330
1
100
AcDbSymbolTableRecord
100
AcDbBlockTableRecord
  2
*D190
  0
BLOCK_RECORD
  5
184E7
330
1
100
AcDbSymbolTableRecord
100
AcDbBlockTableRecord
  2
*D191
  0
BLOCK_RECORD
  5
184F6
330
1
100
AcDbSymbolTableRecord
100
AcDbBlockTableRecord
  2
*D192
  0
BLOCK_RECORD
  5
18505
330
1
100
AcDbSymbolTableRecord
100
AcDbBlockTableRecord
  2
*D193
  0
BLOCK_RECORD
  5
18514
330
1
100
AcDbSymbolTableRecord
100
AcDbBlockTableRecord
  2
*D194
  0
BLOCK_RECORD
  5
18523
330
1
100
AcDbSymbolTableRecord
100
AcDbBlockTableRecord
  2
*D195
  0
ENDTAB
  0
ENDSEC
  0
SECTION
  2
BLOCKS
  0
BLOCK
  5
29
330
18
100
AcDbEntity
  8
0
100
AcDbBlockBegin
  2
*MODEL_SPACE
 70
     0
 10
0.0
 20
0.0
 30
0.0
  3
*MODEL_SPACE
  1

  0
ENDBLK
  5
2A
330
18
100
AcDbEntity
  8
0
100
AcDbBlockEnd
  0
BLOCK
  5
27
330
15
100
AcDbEntity
 67
     1
  8
0
100
AcDbBlockBegin
  2
*PAPER_SPACE
 70
     0
 10
0.0
 20
0.0
 30
0.0
  3
*PAPER_SPACE
  1

  0
ENDBLK
  5
28
330
15
100
AcDbEntity
 67
     1
  8
0
100
AcDbBlockEnd
  0
BLOCK
  5
7EAF
330
7EA0
100
AcDbEntity
  8
0
100
AcDbBlockBegin
  2
A$C312173AA
 70
     0
 10
0.0
 20
0.0
 30
0.0
  3
A$C312173AA
  1
A$C312173AA
  0
HATCH
  5
7EA1
330
7EA0
100
AcDbEntity
  8
1
100
AcDbHatch
 10
0.0
 20
0.0
 30
0.0
210
0.0
220
0.0
230
1.0
  2
SOLID
 70
     1
 71
     1
 91
        1
 92
        7
 72
     0
 73
     1
 93
        4
 10
2.724690422176706
 20
5.013136352600668
 10
5.058157912552363
 20
1.095673373491763
 10
5.076413282682712
 20
1.095673373491763
 10
7.382430158279476
 20
5.013136352600668
 97
        4
330
7EA6
330
7EAA
330
7EA5
330
7EA8
 75
     0
 76
     1
 47
0.057765
 98
        1
 10
5.461965
 20
4.283681
  0
HATCH
  5
7EA2
330
7EA0
100
AcDbEntity
  8
1
100
AcDbHatch
 10
0.0
 20
0.0
 30
0.0
210
0.0
220
0.0
230
1.0
  2
SOLID
 70
     1
 71
     1
 91
        1
 92
        7
 72
     0
 73
     1
 93
        4
 10
2.724690422176706
 20
5.013136352600668
 10
5.058157912552363
 20
1.095673373491763
 10
5.076413282682712
 20
1.095673373491763
 10
7.382430158279476
 20
5.013136352600668
 97
        4
330
7EA4
330
7EA9
330
7EA3
330
7EA7
 75
     0
 76
     1
 47
0.057765
 98
        1
 10
5.461965
 20
4.283681
  0
LINE
  5
7EA3
102
{ACAD_REACTORS
330
7EA2
102
}
330
7EA0
100
AcDbEntity
  8
1
100
AcDbLine
 10
7.376974
 20
1.095673
 30
0.0
 11
2.719445
 21
1.095673
 31
0.0
  0
LINE
  5
7EA4
102
{ACAD_REACTORS
330
7EA2
102
}
330
7EA0
100
AcDbEntity
  8
1
100
AcDbLine
 10
2.716507
 20
5.013136
 30
0.0
 11
7.38243
 21
5.013136
 31
0.0
  0
LINE
  5
7EA5
102
{ACAD_REACTORS
330
7EA1
102
}
330
7EA0
100
AcDbEntity
  8
1
100
AcDbLine
 10
7.376974
 20
1.095673
 30
0.0
 11
2.719445
 21
1.095673
 31
0.0
  0
LINE
  5
7EA6
102
{ACAD_REACTORS
330
7EA1
102
}
330
7EA0
100
AcDbEntity
  8
1
100
AcDbLine
 10
2.716507
 20
5.013136
 30
0.0
 11
7.38243
 21
5.013136
 31
0.0
  0
LINE
  5
7EA7
102
{ACAD_REACTORS
330
7EA2
102
}
330
7EA0
100
AcDbEntity
  8
1
100
AcDbLine
 10
7.38243
 20
5.013136
 30
0.0
 11
5.049469
 21
1.0499
 31
0.0
  0
LINE
  5
7EA8
102
{ACAD_REACTORS
330
7EA1
102
}
330
7EA0
100
AcDbEntity
  8
1
100
AcDbLine
 10
7.38243
 20
5.013136
 30
0.0
 11
5.049469
 21
1.0499
 31
0.0
  0
LINE
  5
7EA9
102
{ACAD_REACTORS
330
7EA2
102
}
330
7EA0
100
AcDbEntity
  8
1
100
AcDbLine
 10
5.048209
 20
1.112376
 30
0.0
 11
2.719445
 21
5.021942
 31
0.0
  0
LINE
  5
7EAA
102
{ACAD_REACTORS
330
7EA1
102
}
330
7EA0
100
AcDbEntity
  8
1
100
AcDbLine
 10
5.048209
 20
1.112376
 30
0.0
 11
2.719445
 21
5.021942
 31
0.0
  0
LINE
  5
7EAB
330
7EA0
100
AcDbEntity
  8
1
100
AcDbLine
 10
3.176777
 20
2.240563
 30
0.0
 11
1.859991
 21
0.714974
 31
0.0
  0
LINE
  5
7EAC
330
7EA0
100
AcDbEntity
  8
1
100
AcDbLine
 10
1.935572
 20
2.29404
 30
0.0
 11
0.618786
 21
0.768452
 31
0.0
  0
HATCH
  5
7EAD
330
7EA0
100
AcDbEntity
  8
1
100
AcDbHatch
 10
0.0
 20
0.0
 30
0.0
210
0.0
220
0.0
230
1.0
  2
SOLID
 70
     1
 71
     0
 91
        1
 92
        7
 72
     0
 73
     1
 93
        3
 10
2.13435432304297
 20
0.5079866047149438
 10
1.594971700028992
 20
0.9149117569309055
 10
1.241204476589189
 20
0.0000001052034975
 97
        0
 75
     0
 76
     1
 47
0.009825
 98
        1
 10
1.617082
 20
0.370646
  0
HATCH
  5
7EAE
330
7EA0
100
AcDbEntity
  8
1
100
AcDbHatch
 10
0.0
 20
0.0
 30
0.0
210
0.0
220
0.0
230
1.0
  2
SOLID
 70
     1
 71
     0
 91
        1
 92
        7
 72
     0
 73
     1
 93
        3
 10
0.8931496793437361
 20
0.5614642425206
 10
0.3537670563297865
 20
0.9683893947365334
 10
-0.0000001671100733
 20
0.0534777430091538
 97
        0
 75
     0
 76
     1
 47
0.009825
 98
        1
 10
0.375878
 20
0.424123
  0
ENDBLK
  5
7EB0
330
7EA0
100
AcDbEntity
  8
0
100
AcDbBlockEnd
  0
BLOCK
  5
C4FC
330
C4F7
100
AcDbEntity
  8
0
100
AcDbBlockBegin
  2
_DOT
 70
     0
 10
0.0
 20
0.0
 30
0.0
  3
_DOT
  1
_DOT
  0
LWPOLYLINE
  5
C4F8
330
C4F7
100
AcDbEntity
  8
0
  6
BYBLOCK
 62
     0
100
AcDbPolyline
 90
        2
 70
     1
 43
0.5
 10
-0.25
 20
0.0
 42
1.0
 10
0.25
 20
0.0
 42
1.0
  0
LINE
  5
C4F9
330
C4F7
100
AcDbEntity
  8
0
  6
BYBLOCK
 62
     0
100
AcDbLine
 10
-0.5
 20
0.0
 30
0.0
 11
-1.0
 21
0.0
 31
0.0
  0
ENDBLK
  5
C4FD
330
C4F7
100
AcDbEntity
  8
0
100
AcDbBlockEnd
  0
BLOCK
  5
13342
330
13341
100
AcDbEntity
  8
0
100
AcDbBlockBegin
  2
_NONE
 70
     0
 10
0.0
 20
0.0
 30
0.0
  3
_NONE
  1
_NONE
  0
ENDBLK
  5
13343
330
13341
100
AcDbEntity
  8
0
100
AcDbBlockEnd
  0
BLOCK
  5
13347
330
13346
100
AcDbEntity
  8
0
100
AcDbBlockBegin
  2
_OBLIQUE
 70
     0
 10
0.0
 20
0.0
 30
0.0
  3
_OBLIQUE
  1
_OBLIQUE
  0
LINE
  5
13349
330
13346
100
AcDbEntity
  8
0
  6
BYBLOCK
 62
     0
100
AcDbLine
 10
-0.5
 20
-0.5
 30
0.0
 11
0.5
 21
0.5
 31
0.0
  0
ENDBLK
  5
13348
330
13346
100
AcDbEntity
  8
0
100
AcDbBlockEnd
  0
BLOCK
  5
17DB2
330
17DB1
100
AcDbEntity
  8
0
100
AcDbBlockBegin
  2
SW_CENTERMARKSYMBOL_0
 70
     0
 10
0.0
 20
0.0
 30
0.0
  3
SW_CENTERMARKSYMBOL_0
  1
SW_CENTERMARKSYMBOL_0
  0
LINE
  5
17DB3
330
17DB1
100
AcDbEntity
  8
0
  6
CONTINUOUS
 62
     0
100
AcDbLine
 10
0.0
 20
0.0
 30
0.0
 11
0.0
 21
2.500000000000002
 31
0.0
  0
LINE
  5
17DB4
330
17DB1
100
AcDbEntity
  8
0
  6
CONTINUOUS
 62
     0
100
AcDbLine
 10
0.0
 20
0.0
 30
0.0
 11
-2.500000000000002
 21
0.0
 31
0.0
  0
LINE
  5
17DB5
330
17DB1
100
AcDbEntity
  8
0
  6
CONTINUOUS
 62
     0
100
AcDbLine
 10
0.0
 20
0.0
 30
0.0
 11
0.0
 21
-2.500000000000002
 31
0.0
  0
LINE
  5
17DB6
330
17DB1
100
AcDbEntity
  8
0
  6
CONTINUOUS
 62
     0
100
AcDbLine
 10
0.0
 20
0.0
 30
0.0
 11
2.500000000000002
 21
0.0
 31
0.0
  0
LINE
  5
17DB7
330
17DB1
100
AcDbEntity
  8
0
  6
CONTINUOUS
 62
     0
100
AcDbLine
 10
0.0
 20
2.500000000000002
 30
0.0
 11
0.0
 21
2.900000000000014
 31
0.0
  0
LINE
  5
17DB8
330
17DB1
100
AcDbEntity
  8
0
  6
CONTINUOUS
 62
     0
100
AcDbLine
 10
-2.500000000000002
 20
0.0
 30
0.0
 11
-2.9
 21
0.0
 31
0.0
  0
LINE
  5
17DB9
330
17DB1
100
AcDbEntity
  8
0
  6
CONTINUOUS
 62
     0
100
AcDbLine
 10
0.0
 20
-2.500000000000002
 30
0.0
 11
0.0
 21
-2.899999999999986
 31
0.0
  0
LINE
  5
17DBA
330
17DB1
100
AcDbEntity
  8
0
  6
CONTINUOUS
 62
     0
100
AcDbLine
 10
2.500000000000002
 20
0.0
 30
0.0
 11
2.9
 21
0.0
 31
0.0
  0
ENDBLK
  5
17DBB
330
17DB1
100
AcDbEntity
  8
0
100
AcDbBlockEnd
  0
BLOCK
  5
17ED5
330
17ED4
100
AcDbEntity
  8
0
100
AcDbBlockBegin
  2
*D172
 70
     1
 10
0.0
 20
0.0
 30
0.0
  3
*D172
  1
*D172
  0
LINE
  5
17ED7
330
17ED4
100
AcDbEntity
  8
WY
 62
     0
100
AcDbLine
 10
545.0035971227246
 20
189.6323903562784
 30
0.0
 11
545.0035971227246
 21
197.1429405039314
 31
0.0
  0
LINE
  5
17ED8
330
17ED4
100
AcDbEntity
  8
WY
 62
     0
100
AcDbLine
 10
558.5024122264617
 20
163.9986958362331
 30
0.0
 11
558.5024122264617
 21
197.1429405039314
 31
0.0
  0
LINE
  5
17ED9
330
17ED4
100
AcDbEntity
  8
WY
 62
     0
100
AcDbLine
 10
547.5035971227246
 20
195.6429405039314
 30
0.0
 11
556.0024122264617
 21
195.6429405039314
 31
0.0
  0
SOLID
  5
17EDA
330
17ED4
100
AcDbEntity
  8
WY
 62
     0
100
AcDbTrace
 10
547.5035971227246
 20
196.059607170598
 30
0.0
 11
547.5035971227246
 21
195.2262738372647
 31
0.0
 12
545.0035971227246
 22
195.6429405039314
 32
0.0
 13
545.0035971227246
 23
195.6429405039314
 33
0.0
  0
SOLID
  5
17EDB
330
17ED4
100
AcDbEntity
  8
WY
 62
     0
100
AcDbTrace
 10
556.0024122264617
 20
195.2262738372647
 30
0.0
 11
556.0024122264617
 21
196.059607170598
 31
0.0
 12
558.5024122264617
 22
195.6429405039314
 32
0.0
 13
558.5024122264617
 23
195.6429405039314
 33
0.0
  0
MTEXT
  5
17EDC
330
17ED4
100
AcDbEntity
  8
WY
 62
     0
100
AcDbMText
 10
551.7530046745932
 20
197.2679405039314
 30
0.0
 40
1.5
 41
0.0
 71
     5
 72
     1
  1
\A1;13.5+0,5
  0
POINT
  5
17EDD
330
17ED4
100
AcDbEntity
  8
DEFPOINTS
 62
     0
100
AcDbPoint
 10
545.0035971227246
 20
188.1323903562784
 30
0.0
  0
POINT
  5
17EDE
330
17ED4
100
AcDbEntity
  8
DEFPOINTS
 62
     0
100
AcDbPoint
 10
558.5024122264617
 20
162.4986958362331
 30
0.0
  0
POINT
  5
17EDF
330
17ED4
100
AcDbEntity
  8
DEFPOINTS
 62
     0
100
AcDbPoint
 10
558.5024122264617
 20
195.6429405039314
 30
0.0
  0
ENDBLK
  5
17ED6
330
17ED4
100
AcDbEntity
  8
0
100
AcDbBlockEnd
  0
BLOCK
  5
17F02
330
17F01
100
AcDbEntity
  8
0
100
AcDbBlockBegin
  2
*D175
 70
     1
 10
0.0
 20
0.0
 30
0.0
  3
*D175
  1
*D175
  0
LINE
  5
17F04
330
17F01
100
AcDbEntity
  8
WY
 62
     0
100
AcDbLine
 10
606.9288607094963
 20
188.9410395860327
 30
0.0
 11
606.9288607094963
 21
199.1325739102319
 31
0.0
  0
LINE
  5
17F05
330
17F01
100
AcDbEntity
  8
WY
 62
     0
100
AcDbLine
 10
643.9306649475874
 20
188.974940258021
 30
0.0
 11
643.9306649475874
 21
199.1325739102319
 31
0.0
  0
LINE
  5
17F06
330
17F01
100
AcDbEntity
  8
WY
 62
     0
100
AcDbLine
 10
609.4288607094963
 20
197.6325739102319
 30
0.0
 11
641.4306649475874
 21
197.6325739102319
 31
0.0
  0
SOLID
  5
17F07
330
17F01
100
AcDbEntity
  8
WY
 62
     0
100
AcDbTrace
 10
609.4288607094963
 20
198.0492405768985
 30
0.0
 11
609.4288607094963
 21
197.2159072435652
 31
0.0
 12
606.9288607094963
 22
197.6325739102319
 32
0.0
 13
606.9288607094963
 23
197.6325739102319
 33
0.0
  0
SOLID
  5
17F08
330
17F01
100
AcDbEntity
  8
WY
 62
     0
100
AcDbTrace
 10
641.4306649475874
 20
197.2159072435652
 30
0.0
 11
641.4306649475874
 21
198.0492405768985
 31
0.0
 12
643.9306649475874
 22
197.6325739102319
 32
0.0
 13
643.9306649475874
 23
197.6325739102319
 33
0.0
  0
MTEXT
  5
17F09
330
17F01
100
AcDbEntity
  8
WY
 62
     0
100
AcDbMText
 10
625.4297628285419
 20
199.1325739102319
 30
0.0
 40
1.5
 41
0.0
 71
     5
 72
     1
  1
\A1;37+1
  0
POINT
  5
17F0A
330
17F01
100
AcDbEntity
  8
DEFPOINTS
 62
     0
100
AcDbPoint
 10
606.9288607094963
 20
187.4410395860327
 30
0.0
  0
POINT
  5
17F0B
330
17F01
100
AcDbEntity
  8
DEFPOINTS
 62
     0
100
AcDbPoint
 10
643.9306649475874
 20
187.474940258021
 30
0.0
  0
POINT
  5
17F0C
330
17F01
100
AcDbEntity
  8
DEFPOINTS
 62
     0
100
AcDbPoint
 10
643.9306649475874
 20
197.6325739102319
 30
0.0
  0
ENDBLK
  5
17F03
330
17F01
100
AcDbEntity
  8
0
100
AcDbBlockEnd
  0
BLOCK
  5
17FCC
330
17FCB
100
AcDbEntity
  8
0
100
AcDbBlockBegin
  2
*D179
 70
     1
 10
0.0
 20
0.0
 30
0.0
  3
*D179
  1
*D179
  0
ARC
  5
17FCE
330
17FCB
100
AcDbEntity
  8
WY
 62
     0
100
AcDbCircle
 10
607.6879149647452
 20
187.7323903562784
 30
0.0
 40
10.63292431204506
100
AcDbArc
 50
291.0025367112876
 51
346.4974632887126
  0
SOLID
  5
17FCF
330
17FCB
100
AcDbEntity
  8
WY
 62
     0
100
AcDbTrace
 10
611.3962809262995
 20
178.209712999589
 30
0.0
 11
611.6014265503128
 21
177.4020251159405
 31
0.0
 12
609.0757900873606
 22
177.1904321857247
 32
0.0
 13
609.0757900873606
 23
177.1904321857247
 33
0.0
  0
SOLID
  5
17FD0
330
17FCB
100
AcDbEntity
  8
WY
 62
     0
100
AcDbTrace
 10
618.4407182638662
 20
185.2007426439043
 30
0.0
 11
617.613163384876
 21
185.2987087947107
 31
0.0
 12
618.3208392767903
 22
187.7323903562784
 32
0.0
 13
618.3208392767903
 23
187.7323903562784
 33
0.0
  0
MTEXT
  5
17FD1
330
17FCB
100
AcDbEntity
  8
WY
 62
     0
100
AcDbMText
 10
614.665486882131
 20
181.8397002552079
 30
0.0
 40
1.5
 41
0.0
 71
     5
 72
     1
  1
80+5%%d
 11
0.6452139424060315
 21
0.7640019427494058
 31
0.0
  0
POINT
  5
17FD2
330
17FCB
100
AcDbEntity
  8
DEFPOINTS
 62
     0
100
AcDbPoint
 10
613.7867097996383
 20
179.0224086692965
 30
0.0
  0
POINT
  5
17FD3
330
17FCB
100
AcDbEntity
  8
DEFPOINTS
 62
     0
100
AcDbPoint
 10
610.5507930030373
 20
165.9866727226923
 30
0.0
  0
POINT
  5
17FD4
330
17FCB
100
AcDbEntity
  8
DEFPOINTS
 62
     0
100
AcDbPoint
 10
607.9897028518303
 20
187.7323903562784
 30
0.0
  0
POINT
  5
17FD5
330
17FCB
100
AcDbEntity
  8
DEFPOINTS
 62
     0
100
AcDbPoint
 10
622.1401289498999
 20
187.7323903562784
 30
0.0
  0
POINT
  5
17FD6
330
17FCB
100
AcDbEntity
  8
DEFPOINTS
 62
     0
100
AcDbPoint
 10
607.731427251084
 20
187.4018817283667
 30
0.0
  0
ENDBLK
  5
17FCD
330
17FCB
100
AcDbEntity
  8
0
100
AcDbBlockEnd
  0
BLOCK
  5
17FDD
330
17FDC
100
AcDbEntity
  8
0
100
AcDbBlockBegin
  2
*D180
 70
     1
 10
0.0
 20
0.0
 30
0.0
  3
*D180
  1
*D180
  0
LINE
  5
17FDF
330
17FDC
100
AcDbEntity
  8
WY
 62
     0
100
AcDbLine
 10
609.5618478256081
 20
167.369419060977
 30
0.0
 11
609.1222990149189
 21
170.7081237475133
 31
0.0
  0
LINE
  5
17FE0
330
17FDC
100
AcDbEntity
  8
WY
 62
     0
100
AcDbLine
 10
610.3550037147063
 20
167.4738400147529
 30
0.0
 11
609.9154549040171
 21
170.8125447012892
 31
0.0
  0
LINE
  5
17FE1
330
17FDC
100
AcDbEntity
  8
WY
 62
     0
100
AcDbLine
 10
610.1112441923472
 20
169.3253774092285
 30
0.0
 11
620.7692764521156
 21
170.728533975594
 31
0.0
  0
LINE
  5
17FE2
330
17FDC
100
AcDbEntity
  8
WY
 62
     0
100
AcDbLine
 10
609.3180883032489
 20
169.2209564554526
 30
0.0
 11
610.1112441923472
 21
169.3253774092285
 31
0.0
  0
LINE
  5
17FE3
330
17FDC
100
AcDbEntity
  8
WY
 62
     0
100
AcDbLine
 10
606.8394761498145
 20
168.8946409749025
 30
0.0
 11
604.36086399638
 21
168.5683254943524
 31
0.0
  0
LINE
  5
17FE4
330
17FDC
100
AcDbEntity
  8
WY
 62
     0
100
AcDbLine
 10
612.5898563457816
 20
169.6516928897786
 30
0.0
 11
615.0684684992161
 21
169.9780083703287
 31
0.0
  0
SOLID
  5
17FE5
330
17FDC
100
AcDbEntity
  8
WY
 62
     0
100
AcDbTrace
 10
606.8938620632395
 20
168.4815389493301
 30
0.0
 11
606.7850902363895
 21
169.3077430004749
 31
0.0
 12
609.3180883032489
 22
169.2209564554526
 32
0.0
 13
609.3180883032489
 23
169.2209564554526
 33
0.0
  0
SOLID
  5
17FE6
330
17FDC
100
AcDbEntity
  8
WY
 62
     0
100
AcDbTrace
 10
612.5354704323566
 20
170.064794915351
 30
0.0
 11
612.6442422592066
 21
169.2385908642062
 31
0.0
 12
610.1112441923472
 22
169.3253774092285
 32
0.0
 13
610.1112441923472
 23
169.3253774092285
 33
0.0
  0
MTEXT
  5
17FE7
330
17FDC
100
AcDbEntity
  8
WY
 62
     0
100
AcDbMText
 10
617.7230831873359
 20
171.8404384650221
 30
0.0
 40
1.5
 41
0.0
 71
     5
 72
     1
  1
\A1;%%c0.8
 11
0.9914448613738109
 21
0.1305261922200479
 31
0.0
  0
POINT
  5
17FE8
330
17FDC
100
AcDbEntity
  8
DEFPOINTS
 62
     0
100
AcDbPoint
 10
609.7576371139381
 20
165.8822517689163
 30
0.0
  0
POINT
  5
17FE9
330
17FDC
100
AcDbEntity
  8
DEFPOINTS
 62
     0
100
AcDbPoint
 10
610.5507930030363
 20
165.9866727226922
 30
0.0
  0
POINT
  5
17FEA
330
17FDC
100
AcDbEntity
  8
DEFPOINTS
 62
     0
100
AcDbPoint
 10
610.1112441923472
 20
169.3253774092285
 30
0.0
  0
ENDBLK
  5
17FDE
330
17FDC
100
AcDbEntity
  8
0
100
AcDbBlockEnd
  0
BLOCK
  5
1805F
330
1805E
100
AcDbEntity
  8
0
100
AcDbBlockBegin
  2
*D182
 70
     1
 10
0.0
 20
0.0
 30
0.0
  3
*D182
  1
*D182
  0
LINE
  5
18061
330
1805E
100
AcDbEntity
  8
WY
 62
     0
100
AcDbLine
 10
606.5033960457257
 20
187.5301724586356
 30
0.0
 11
597.1800587688903
 21
186.2616956842623
 31
0.0
  0
LINE
  5
18062
330
1805E
100
AcDbEntity
  8
WY
 62
     0
100
AcDbLine
 10
615.1347966766324
 20
124.0891533724251
 30
0.0
 11
605.811459399797
 21
122.8206765980517
 31
0.0
  0
LINE
  5
18063
330
1805E
100
AcDbEntity
  8
WY
 62
     0
100
AcDbLine
 10
599.0033954043996
 20
183.9867355717307
 30
0.0
 11
606.9607363764968
 21
125.5000725058689
 31
0.0
  0
SOLID
  5
18064
330
1805E
100
AcDbEntity
  8
WY
 62
     0
100
AcDbTrace
 10
599.4162584060954
 20
184.0429072099649
 30
0.0
 11
598.5905324027038
 21
183.9305639334966
 31
0.0
 12
598.6663655749949
 22
186.4639135819051
 32
0.0
 13
598.6663655749949
 23
186.4639135819051
 33
0.0
  0
SOLID
  5
18065
330
1805E
100
AcDbEntity
  8
WY
 62
     0
100
AcDbTrace
 10
606.547873374801
 20
125.4439008676348
 30
0.0
 11
607.3735993781926
 21
125.5562441441031
 31
0.0
 12
607.2977662059016
 22
123.0228944956946
 32
0.0
 13
607.2977662059016
 23
123.0228944956946
 33
0.0
  0
MTEXT
  5
18066
330
1805E
100
AcDbEntity
  8
WY
 62
     0
100
AcDbMText
 10
604.4683726965528
 20
154.9456219364427
 30
0.0
 40
1.5
 41
0.0
 71
     5
 72
     1
  1
\A1;64%%p0.5
 11
0.1348119317618884
 21
-0.9908712040697459
 31
0.0
  0
POINT
  5
18067
330
1805E
100
AcDbEntity
  8
DEFPOINTS
 62
     0
100
AcDbPoint
 10
607.9897028518303
 20
187.7323903562784
 30
0.0
  0
POINT
  5
18068
330
1805E
100
AcDbEntity
  8
DEFPOINTS
 62
     0
100
AcDbPoint
 10
616.621103482737
 20
124.2913712700679
 30
0.0
  0
POINT
  5
18069
330
1805E
100
AcDbEntity
  8
DEFPOINTS
 62
     0
100
AcDbPoint
 10
607.2977662059016
 20
123.0228944956946
 30
0.0
  0
ENDBLK
  5
18060
330
1805E
100
AcDbEntity
  8
0
100
AcDbBlockEnd
  0
BLOCK
  5
18441
330
18440
100
AcDbEntity
  8
0
100
AcDbBlockBegin
  2
*D184
 70
     1
 10
0.0
 20
0.0
 30
0.0
  3
*D184
  1
*D184
  0
LINE
  5
18443
330
18440
100
AcDbEntity
  8
WY
 62
     0
100
AcDbLine
 10
559.2499646491169
 20
232.1752487516884
 30
0.0
 11
569.7549298161073
 21
232.1752487516884
 31
0.0
  0
LINE
  5
18444
330
18440
100
AcDbEntity
  8
WY
 62
     0
100
AcDbLine
 10
559.2499646491169
 20
229.1752487516884
 30
0.0
 11
569.7549298161073
 21
229.1752487516884
 31
0.0
  0
LINE
  5
18445
330
18440
100
AcDbEntity
  8
WY
 62
     0
100
AcDbLine
 10
568.2549298161073
 20
232.1752487516884
 30
0.0
 11
568.2549298161073
 21
229.1752487516884
 31
0.0
  0
LINE
  5
18446
330
18440
100
AcDbEntity
  8
WY
 62
     0
100
AcDbLine
 10
568.2549298161073
 20
234.6752487516884
 30
0.0
 11
568.2549298161073
 21
237.1752487516884
 31
0.0
  0
LINE
  5
18447
330
18440
100
AcDbEntity
  8
WY
 62
     0
100
AcDbLine
 10
568.2549298161073
 20
226.6752487516884
 30
0.0
 11
568.2549298161073
 21
224.1752487516884
 31
0.0
  0
SOLID
  5
18448
330
18440
100
AcDbEntity
  8
WY
 62
     0
100
AcDbTrace
 10
567.8382631494406
 20
234.6752487516884
 30
0.0
 11
568.6715964827739
 21
234.6752487516884
 31
0.0
 12
568.2549298161073
 22
232.1752487516884
 32
0.0
 13
568.2549298161073
 23
232.1752487516884
 33
0.0
  0
SOLID
  5
18449
330
18440
100
AcDbEntity
  8
WY
 62
     0
100
AcDbTrace
 10
568.6715964827739
 20
226.6752487516884
 30
0.0
 11
567.8382631494406
 21
226.6752487516884
 31
0.0
 12
568.2549298161073
 22
229.1752487516884
 32
0.0
 13
568.2549298161073
 23
229.1752487516884
 33
0.0
  0
MTEXT
  5
1844A
330
18440
100
AcDbEntity
  8
WY
 62
     0
100
AcDbMText
 10
566.7549298161073
 20
230.6752487516884
 30
0.0
 40
1.5
 41
0.0
 71
     5
 72
     1
  1
\A1;3
 11
0.0
 21
1.0
 31
0.0
  0
POINT
  5
1844B
330
18440
100
AcDbEntity
  8
DEFPOINTS
 62
     0
100
AcDbPoint
 10
557.7499646491169
 20
232.1752487516884
 30
0.0
  0
POINT
  5
1844C
330
18440
100
AcDbEntity
  8
DEFPOINTS
 62
     0
100
AcDbPoint
 10
557.7499646491169
 20
229.1752487516884
 30
0.0
  0
POINT
  5
1844D
330
18440
100
AcDbEntity
  8
DEFPOINTS
 62
     0
100
AcDbPoint
 10
568.2549298161073
 20
229.1752487516884
 30
0.0
  0
ENDBLK
  5
18442
330
18440
100
AcDbEntity
  8
0
100
AcDbBlockEnd
  0
BLOCK
  5
18452
330
18451
100
AcDbEntity
  8
0
100
AcDbBlockBegin
  2
*D185
 70
     1
 10
0.0
 20
0.0
 30
0.0
  3
*D185
  1
*D185
  0
LINE
  5
18454
330
18451
100
AcDbEntity
  8
WY
 62
     0
100
AcDbLine
 10
559.2499646491169
 20
229.1752487516884
 30
0.0
 11
575.2436723438383
 21
229.1752487516884
 31
0.0
  0
LINE
  5
18455
330
18451
100
AcDbEntity
  8
WY
 62
     0
100
AcDbLine
 10
546.7499646491169
 20
240.4191651991708
 30
0.0
 11
575.2436723438383
 21
240.4191651991708
 31
0.0
  0
LINE
  5
18456
330
18451
100
AcDbEntity
  8
WY
 62
     0
100
AcDbLine
 10
573.7436723438383
 20
229.1752487516884
 30
0.0
 11
573.7436723438383
 21
240.4191651991708
 31
0.0
  0
LINE
  5
18457
330
18451
100
AcDbEntity
  8
WY
 62
     0
100
AcDbLine
 10
573.7436723438383
 20
226.6752487516884
 30
0.0
 11
573.7436723438383
 21
224.1752487516884
 31
0.0
  0
LINE
  5
18458
330
18451
100
AcDbEntity
  8
WY
 62
     0
100
AcDbLine
 10
573.7436723438383
 20
242.9191651991708
 30
0.0
 11
573.7436723438383
 21
245.4191651991708
 31
0.0
  0
SOLID
  5
18459
330
18451
100
AcDbEntity
  8
WY
 62
     0
100
AcDbTrace
 10
574.1603390105049
 20
226.6752487516884
 30
0.0
 11
573.3270056771717
 21
226.6752487516884
 31
0.0
 12
573.7436723438383
 22
229.1752487516884
 32
0.0
 13
573.7436723438383
 23
229.1752487516884
 33
0.0
  0
SOLID
  5
1845A
330
18451
100
AcDbEntity
  8
WY
 62
     0
100
AcDbTrace
 10
573.3270056771717
 20
242.9191651991708
 30
0.0
 11
574.1603390105049
 21
242.9191651991708
 31
0.0
 12
573.7436723438383
 22
240.4191651991708
 32
0.0
 13
573.7436723438383
 23
240.4191651991708
 33
0.0
  0
MTEXT
  5
1845B
330
18451
100
AcDbEntity
  8
WY
 62
     0
100
AcDbMText
 10
572.2436723438383
 20
234.7972069754296
 30
0.0
 40
1.5
 41
0.0
 71
     5
 72
     1
  1
\A1;11.2%%p0.1
 11
0.0
 21
1.0
 31
0.0
  0
POINT
  5
1845C
330
18451
100
AcDbEntity
  8
DEFPOINTS
 62
     0
100
AcDbPoint
 10
557.7499646491169
 20
229.1752487516884
 30
0.0
  0
POINT
  5
18461
330
18451
100
AcDbEntity
  8
DEFPOINTS
 62
     0
100
AcDbPoint
 10
545.2499646491169
 20
240.4191651991708
 30
0.0
  0
POINT
  5
18462
330
18451
100
AcDbEntity
  8
DEFPOINTS
 62
     0
100
AcDbPoint
 10
573.7436723438383
 20
240.4191651991708
 30
0.0
  0
ENDBLK
  5
18453
330
18451
100
AcDbEntity
  8
0
100
AcDbBlockEnd
  0
BLOCK
  5
18467
330
18466
100
AcDbEntity
  8
0
100
AcDbBlockBegin
  2
*D186
 70
     1
 10
0.0
 20
0.0
 30
0.0
  3
*D186
  1
*D186
  0
LINE
  5
18469
330
18466
100
AcDbEntity
  8
WY
 62
     0
100
AcDbLine
 10
547.7499646491169
 20
190.5066781929295
 30
0.0
 11
547.7499646491169
 21
198.4513308737236
 31
0.0
  0
LINE
  5
1846A
330
18466
100
AcDbEntity
  8
WY
 62
     0
100
AcDbLine
 10
557.7499646491169
 20
193.0066781929295
 30
0.0
 11
557.7499646491169
 21
198.4513308737236
 31
0.0
  0
LINE
  5
1846B
330
18466
100
AcDbEntity
  8
WY
 62
     0
100
AcDbLine
 10
550.2499646491169
 20
196.9513308737236
 30
0.0
 11
555.2499646491169
 21
196.9513308737236
 31
0.0
  0
SOLID
  5
1846C
330
18466
100
AcDbEntity
  8
WY
 62
     0
100
AcDbTrace
 10
550.2499646491169
 20
197.3679975403903
 30
0.0
 11
550.2499646491169
 21
196.5346642070569
 31
0.0
 12
547.7499646491169
 22
196.9513308737236
 32
0.0
 13
547.7499646491169
 23
196.9513308737236
 33
0.0
  0
SOLID
  5
1846D
330
18466
100
AcDbEntity
  8
WY
 62
     0
100
AcDbTrace
 10
555.2499646491169
 20
196.5346642070569
 30
0.0
 11
555.2499646491169
 21
197.3679975403903
 31
0.0
 12
557.7499646491169
 22
196.9513308737236
 32
0.0
 13
557.7499646491169
 23
196.9513308737236
 33
0.0
  0
MTEXT
  5
1846E
330
18466
100
AcDbEntity
  8
WY
 62
     0
100
AcDbMText
 10
552.7499646491169
 20
198.4513308737236
 30
0.0
 40
1.5
 41
0.0
 71
     5
 72
     1
  1
\A1;10
  0
POINT
  5
1846F
330
18466
100
AcDbEntity
  8
DEFPOINTS
 62
     0
100
AcDbPoint
 10
547.7499646491169
 20
189.0066781929295
 30
0.0
  0
POINT
  5
18470
330
18466
100
AcDbEntity
  8
DEFPOINTS
 62
     0
100
AcDbPoint
 10
557.7499646491169
 20
191.5066781929295
 30
0.0
  0
POINT
  5
18471
330
18466
100
AcDbEntity
  8
DEFPOINTS
 62
     0
100
AcDbPoint
 10
557.7499646491169
 20
196.9513308737236
 30
0.0
  0
ENDBLK
  5
18468
330
18466
100
AcDbEntity
  8
0
100
AcDbBlockEnd
  0
BLOCK
  5
18476
330
18475
100
AcDbEntity
  8
0
100
AcDbBlockBegin
  2
*D187
 70
     1
 10
0.0
 20
0.0
 30
0.0
  3
*D187
  1
*D187
  0
LINE
  5
18478
330
18475
100
AcDbEntity
  8
WY
 62
     0
100
AcDbLine
 10
543.9499646491169
 20
193.0066781929295
 30
0.0
 11
543.9499646491169
 21
201.9184372494534
 31
0.0
  0
LINE
  5
18479
330
18475
100
AcDbEntity
  8
WY
 62
     0
100
AcDbLine
 10
557.7499646491169
 20
193.0066781929295
 30
0.0
 11
557.7499646491169
 21
201.9184372494534
 31
0.0
  0
LINE
  5
1847A
330
18475
100
AcDbEntity
  8
WY
 62
     0
100
AcDbLine
 10
546.4499646491169
 20
200.4184372494534
 30
0.0
 11
555.2499646491169
 21
200.4184372494534
 31
0.0
  0
SOLID
  5
1847B
330
18475
100
AcDbEntity
  8
WY
 62
     0
100
AcDbTrace
 10
546.4499646491169
 20
200.8351039161201
 30
0.0
 11
546.4499646491169
 21
200.0017705827867
 31
0.0
 12
543.9499646491169
 22
200.4184372494534
 32
0.0
 13
543.9499646491169
 23
200.4184372494534
 33
0.0
  0
SOLID
  5
1847C
330
18475
100
AcDbEntity
  8
WY
 62
     0
100
AcDbTrace
 10
555.2499646491169
 20
200.0017705827867
 30
0.0
 11
555.2499646491169
 21
200.8351039161201
 31
0.0
 12
557.7499646491169
 22
200.4184372494534
 32
0.0
 13
557.7499646491169
 23
200.4184372494534
 33
0.0
  0
MTEXT
  5
1847D
330
18475
100
AcDbEntity
  8
WY
 62
     0
100
AcDbMText
 10
550.8499646491168
 20
201.9184372494534
 30
0.0
 40
1.5
 41
0.0
 71
     5
 72
     1
  1
\A1;13.8
  0
POINT
  5
1847E
330
18475
100
AcDbEntity
  8
DEFPOINTS
 62
     0
100
AcDbPoint
 10
543.9499646491169
 20
191.5066781929295
 30
0.0
  0
POINT
  5
1847F
330
18475
100
AcDbEntity
  8
DEFPOINTS
 62
     0
100
AcDbPoint
 10
557.7499646491169
 20
191.5066781929295
 30
0.0
  0
POINT
  5
18480
330
18475
100
AcDbEntity
  8
DEFPOINTS
 62
     0
100
AcDbPoint
 10
557.7499646491169
 20
200.4184372494534
 30
0.0
  0
ENDBLK
  5
18477
330
18475
100
AcDbEntity
  8
0
100
AcDbBlockEnd
  0
BLOCK
  5
18485
330
18484
100
AcDbEntity
  8
0
100
AcDbBlockBegin
  2
*D188
 70
     1
 10
0.0
 20
0.0
 30
0.0
  3
*D188
  1
*D188
  0
LINE
  5
18487
330
18484
100
AcDbEntity
  8
WY
 62
     0
100
AcDbLine
 10
559.2499646491169
 20
191.5066781929295
 30
0.0
 11
571.7522340873314
 21
191.5066781929295
 31
0.0
  0
LINE
  5
18488
330
18484
100
AcDbEntity
  8
WY
 62
     0
100
AcDbLine
 10
559.2499646491169
 20
55.80667819292955
 30
0.0
 11
571.7522340873314
 21
55.80667819292955
 31
0.0
  0
LINE
  5
18489
330
18484
100
AcDbEntity
  8
WY
 62
     0
100
AcDbLine
 10
570.2522340873314
 20
189.0066781929295
 30
0.0
 11
570.2522340873314
 21
58.30667819292955
 31
0.0
  0
SOLID
  5
1848A
330
18484
100
AcDbEntity
  8
WY
 62
     0
100
AcDbTrace
 10
570.6689007539981
 20
189.0066781929295
 30
0.0
 11
569.8355674206648
 21
189.0066781929295
 31
0.0
 12
570.2522340873314
 22
191.5066781929295
 32
0.0
 13
570.2522340873314
 23
191.5066781929295
 33
0.0
  0
SOLID
  5
1848B
330
18484
100
AcDbEntity
  8
WY
 62
     0
100
AcDbTrace
 10
569.8355674206648
 20
58.30667819292955
 30
0.0
 11
570.6689007539981
 21
58.30667819292955
 31
0.0
 12
570.2522340873314
 22
55.80667819292955
 32
0.0
 13
570.2522340873314
 23
55.80667819292955
 33
0.0
  0
MTEXT
  5
1848C
330
18484
100
AcDbEntity
  8
WY
 62
     0
100
AcDbMText
 10
568.7522340873314
 20
123.6566781929295
 30
0.0
 40
1.5
 41
0.0
 71
     5
 72
     1
  1
\A1;135.7%%p0.2
 11
0.0
 21
1.0
 31
0.0
  0
POINT
  5
1848D
330
18484
100
AcDbEntity
  8
DEFPOINTS
 62
     0
100
AcDbPoint
 10
557.7499646491169
 20
191.5066781929295
 30
0.0
  0
POINT
  5
1848E
330
18484
100
AcDbEntity
  8
DEFPOINTS
 62
     0
100
AcDbPoint
 10
557.7499646491169
 20
55.80667819292955
 30
0.0
  0
POINT
  5
1848F
330
18484
100
AcDbEntity
  8
DEFPOINTS
 62
     0
100
AcDbPoint
 10
570.2522340873314
 20
55.80667819292955
 30
0.0
  0
ENDBLK
  5
18486
330
18484
100
AcDbEntity
  8
0
100
AcDbBlockEnd
  0
BLOCK
  5
184D5
330
184D4
100
AcDbEntity
  8
0
100
AcDbBlockBegin
  2
*D190
 70
     1
 10
0.0
 20
0.0
 30
0.0
  3
*D190
  1
*D190
  0
LINE
  5
184D7
330
184D4
100
AcDbEntity
  8
WY
 62
     0
100
AcDbLine
 10
636.8674095888044
 20
191.1066781929295
 30
0.0
 11
634.5850872707225
 21
191.1066781929295
 31
0.0
  0
LINE
  5
184D8
330
184D4
100
AcDbEntity
  8
WY
 62
     0
100
AcDbLine
 10
636.8674095888044
 20
189.6066781929295
 30
0.0
 11
634.5850872707225
 21
189.6066781929295
 31
0.0
  0
LINE
  5
184D9
330
184D4
100
AcDbEntity
  8
WY
 62
     0
100
AcDbLine
 10
636.0850872707225
 20
191.1066781929295
 30
0.0
 11
636.0850872707225
 21
200.1066781929295
 31
0.0
  0
LINE
  5
184DA
330
184D4
100
AcDbEntity
  8
WY
 62
     0
100
AcDbLine
 10
636.0850872707225
 20
191.1066781929295
 30
0.0
 11
636.0850872707225
 21
189.6066781929295
 31
0.0
  0
LINE
  5
184DB
330
184D4
100
AcDbEntity
  8
WY
 62
     0
100
AcDbLine
 10
636.0850872707225
 20
193.6066781929295
 30
0.0
 11
636.0850872707225
 21
196.1066781929295
 31
0.0
  0
LINE
  5
184DC
330
184D4
100
AcDbEntity
  8
WY
 62
     0
100
AcDbLine
 10
636.0850872707225
 20
187.1066781929295
 30
0.0
 11
636.0850872707225
 21
184.6066781929295
 31
0.0
  0
SOLID
  5
184DD
330
184D4
100
AcDbEntity
  8
WY
 62
     0
100
AcDbTrace
 10
635.6684206040559
 20
193.6066781929295
 30
0.0
 11
636.5017539373891
 21
193.6066781929295
 31
0.0
 12
636.0850872707225
 22
191.1066781929295
 32
0.0
 13
636.0850872707225
 23
191.1066781929295
 33
0.0
  0
SOLID
  5
184DE
330
184D4
100
AcDbEntity
  8
WY
 62
     0
100
AcDbTrace
 10
636.5017539373891
 20
187.1066781929295
 30
0.0
 11
635.6684206040559
 21
187.1066781929295
 31
0.0
 12
636.0850872707225
 22
189.6066781929295
 32
0.0
 13
636.0850872707225
 23
189.6066781929295
 33
0.0
  0
MTEXT
  5
184DF
330
184D4
100
AcDbEntity
  8
WY
 62
     0
100
AcDbMText
 10
634.5850872707225
 20
198.1066781929295
 30
0.0
 40
1.5
 41
0.0
 71
     5
 72
     1
  1
\A1;1.5
 11
0.0
 21
1.0
 31
0.0
  0
POINT
  5
184E0
330
184D4
100
AcDbEntity
  8
DEFPOINTS
 62
     0
100
AcDbPoint
 10
638.3674095888044
 20
191.1066781929295
 30
0.0
  0
POINT
  5
184E1
330
184D4
100
AcDbEntity
  8
DEFPOINTS
 62
     0
100
AcDbPoint
 10
638.3674095888044
 20
189.6066781929295
 30
0.0
  0
POINT
  5
184E3
330
184D4
100
AcDbEntity
  8
DEFPOINTS
 62
     0
100
AcDbPoint
 10
636.0850872707225
 20
189.6066781929295
 30
0.0
  0
ENDBLK
  5
184D6
330
184D4
100
AcDbEntity
  8
0
100
AcDbBlockEnd
  0
BLOCK
  5
184E8
330
184E7
100
AcDbEntity
  8
0
100
AcDbBlockBegin
  2
*D191
 70
     1
 10
0.0
 20
0.0
 30
0.0
  3
*D191
  1
*D191
  0
LINE
  5
184EA
330
184E7
100
AcDbEntity
  8
WY
 62
     0
100
AcDbLine
 10
642.6812195454418
 20
190.3566781929296
 30
0.0
 11
651.228682803483
 21
190.3566781929296
 31
0.0
  0
LINE
  5
184EB
330
184E7
100
AcDbEntity
  8
WY
 62
     0
100
AcDbLine
 10
642.6812195454418
 20
164.1566781929295
 30
0.0
 11
651.228682803483
 21
164.1566781929295
 31
0.0
  0
LINE
  5
184EC
330
184E7
100
AcDbEntity
  8
WY
 62
     0
100
AcDbLine
 10
649.728682803483
 20
187.8566781929296
 30
0.0
 11
649.728682803483
 21
166.6566781929295
 31
0.0
  0
SOLID
  5
184ED
330
184E7
100
AcDbEntity
  8
WY
 62
     0
100
AcDbTrace
 10
650.1453494701497
 20
187.8566781929296
 30
0.0
 11
649.3120161368164
 21
187.8566781929296
 31
0.0
 12
649.728682803483
 22
190.3566781929296
 32
0.0
 13
649.728682803483
 23
190.3566781929296
 33
0.0
  0
SOLID
  5
184EE
330
184E7
100
AcDbEntity
  8
WY
 62
     0
100
AcDbTrace
 10
649.3120161368164
 20
166.6566781929295
 30
0.0
 11
650.1453494701497
 21
166.6566781929295
 31
0.0
 12
649.728682803483
 22
164.1566781929295
 32
0.0
 13
649.728682803483
 23
164.1566781929295
 33
0.0
  0
MTEXT
  5
184EF
330
184E7
100
AcDbEntity
  8
WY
 62
     0
100
AcDbMText
 10
648.228682803483
 20
177.2566781929295
 30
0.0
 40
1.5
 41
0.0
 71
     5
 72
     1
  1
\A1;26.2
 11
0.0
 21
1.0
 31
0.0
  0
POINT
  5
184F0
330
184E7
100
AcDbEntity
  8
DEFPOINTS
 62
     0
100
AcDbPoint
 10
641.1812195454418
 20
190.3566781929296
 30
0.0
  0
POINT
  5
184F1
330
184E7
100
AcDbEntity
  8
DEFPOINTS
 62
     0
100
AcDbPoint
 10
641.1812195454418
 20
164.1566781929295
 30
0.0
  0
POINT
  5
184F2
330
184E7
100
AcDbEntity
  8
DEFPOINTS
 62
     0
100
AcDbPoint
 10
649.728682803483
 20
164.1566781929295
 30
0.0
  0
ENDBLK
  5
184E9
330
184E7
100
AcDbEntity
  8
0
100
AcDbBlockEnd
  0
BLOCK
  5
184F7
330
184F6
100
AcDbEntity
  8
0
100
AcDbBlockBegin
  2
*D192
 70
     1
 10
0.0
 20
0.0
 30
0.0
  3
*D192
  1
*D192
  0
LINE
  5
184F9
330
184F6
100
AcDbEntity
  8
WY
 62
     0
100
AcDbLine
 10
642.6812195454418
 20
164.1566781929295
 30
0.0
 11
651.228682803483
 21
164.1566781929295
 31
0.0
  0
LINE
  5
184FA
330
184F6
100
AcDbEntity
  8
WY
 62
     0
100
AcDbLine
 10
642.6812195454418
 20
137.1566781929295
 30
0.0
 11
651.228682803483
 21
137.1566781929295
 31
0.0
  0
LINE
  5
184FB
330
184F6
100
AcDbEntity
  8
WY
 62
     0
100
AcDbLine
 10
649.728682803483
 20
161.6566781929295
 30
0.0
 11
649.728682803483
 21
139.6566781929295
 31
0.0
  0
SOLID
  5
184FC
330
184F6
100
AcDbEntity
  8
WY
 62
     0
100
AcDbTrace
 10
650.1453494701497
 20
161.6566781929295
 30
0.0
 11
649.3120161368164
 21
161.6566781929295
 31
0.0
 12
649.728682803483
 22
164.1566781929295
 32
0.0
 13
649.728682803483
 23
164.1566781929295
 33
0.0
  0
SOLID
  5
184FD
330
184F6
100
AcDbEntity
  8
WY
 62
     0
100
AcDbTrace
 10
649.3120161368164
 20
139.6566781929295
 30
0.0
 11
650.1453494701497
 21
139.6566781929295
 31
0.0
 12
649.728682803483
 22
137.1566781929295
 32
0.0
 13
649.728682803483
 23
137.1566781929295
 33
0.0
  0
MTEXT
  5
184FE
330
184F6
100
AcDbEntity
  8
WY
 62
     0
100
AcDbMText
 10
648.228682803483
 20
150.6566781929295
 30
0.0
 40
1.5
 41
0.0
 71
     5
 72
     1
  1
\A1;27
 11
0.0
 21
1.0
 31
0.0
  0
POINT
  5
184FF
330
184F6
100
AcDbEntity
  8
DEFPOINTS
 62
     0
100
AcDbPoint
 10
641.1812195454418
 20
164.1566781929295
 30
0.0
  0
POINT
  5
18500
330
184F6
100
AcDbEntity
  8
DEFPOINTS
 62
     0
100
AcDbPoint
 10
641.1812195454418
 20
137.1566781929295
 30
0.0
  0
POINT
  5
18501
330
184F6
100
AcDbEntity
  8
DEFPOINTS
 62
     0
100
AcDbPoint
 10
649.728682803483
 20
137.1566781929295
 30
0.0
  0
ENDBLK
  5
184F8
330
184F6
100
AcDbEntity
  8
0
100
AcDbBlockEnd
  0
BLOCK
  5
18506
330
18505
100
AcDbEntity
  8
0
100
AcDbBlockBegin
  2
*D193
 70
     1
 10
0.0
 20
0.0
 30
0.0
  3
*D193
  1
*D193
  0
LINE
  5
18508
330
18505
100
AcDbEntity
  8
WY
 62
     0
100
AcDbLine
 10
642.6812195454418
 20
137.1566781929295
 30
0.0
 11
651.228682803483
 21
137.1566781929295
 31
0.0
  0
LINE
  5
18509
330
18505
100
AcDbEntity
  8
WY
 62
     0
100
AcDbLine
 10
642.6812195454418
 20
110.1566781929295
 30
0.0
 11
651.228682803483
 21
110.1566781929295
 31
0.0
  0
LINE
  5
1850A
330
18505
100
AcDbEntity
  8
WY
 62
     0
100
AcDbLine
 10
649.728682803483
 20
134.6566781929295
 30
0.0
 11
649.728682803483
 21
112.6566781929295
 31
0.0
  0
SOLID
  5
1850B
330
18505
100
AcDbEntity
  8
WY
 62
     0
100
AcDbTrace
 10
650.1453494701497
 20
134.6566781929295
 30
0.0
 11
649.3120161368164
 21
134.6566781929295
 31
0.0
 12
649.728682803483
 22
137.1566781929295
 32
0.0
 13
649.728682803483
 23
137.1566781929295
 33
0.0
  0
SOLID
  5
1850C
330
18505
100
AcDbEntity
  8
WY
 62
     0
100
AcDbTrace
 10
649.3120161368164
 20
112.6566781929295
 30
0.0
 11
650.1453494701497
 21
112.6566781929295
 31
0.0
 12
649.728682803483
 22
110.1566781929295
 32
0.0
 13
649.728682803483
 23
110.1566781929295
 33
0.0
  0
MTEXT
  5
1850D
330
18505
100
AcDbEntity
  8
WY
 62
     0
100
AcDbMText
 10
648.228682803483
 20
123.6566781929295
 30
0.0
 40
1.5
 41
0.0
 71
     5
 72
     1
  1
\A1;27
 11
0.0
 21
1.0
 31
0.0
  0
POINT
  5
1850E
330
18505
100
AcDbEntity
  8
DEFPOINTS
 62
     0
100
AcDbPoint
 10
641.1812195454418
 20
137.1566781929295
 30
0.0
  0
POINT
  5
1850F
330
18505
100
AcDbEntity
  8
DEFPOINTS
 62
     0
100
AcDbPoint
 10
641.1812195454418
 20
110.1566781929295
 30
0.0
  0
POINT
  5
18510
330
18505
100
AcDbEntity
  8
DEFPOINTS
 62
     0
100
AcDbPoint
 10
649.728682803483
 20
110.1566781929295
 30
0.0
  0
ENDBLK
  5
18507
330
18505
100
AcDbEntity
  8
0
100
AcDbBlockEnd
  0
BLOCK
  5
18515
330
18514
100
AcDbEntity
  8
0
100
AcDbBlockBegin
  2
*D194
 70
     1
 10
0.0
 20
0.0
 30
0.0
  3
*D194
  1
*D194
  0
LINE
  5
18517
330
18514
100
AcDbEntity
  8
WY
 62
     0
100
AcDbLine
 10
642.6812195454418
 20
110.1566781929295
 30
0.0
 11
651.228682803483
 21
110.1566781929295
 31
0.0
  0
LINE
  5
18518
330
18514
100
AcDbEntity
  8
WY
 62
     0
100
AcDbLine
 10
642.6812195454418
 20
83.15667819292952
 30
0.0
 11
651.228682803483
 21
83.15667819292952
 31
0.0
  0
LINE
  5
18519
330
18514
100
AcDbEntity
  8
WY
 62
     0
100
AcDbLine
 10
649.728682803483
 20
107.6566781929295
 30
0.0
 11
649.728682803483
 21
85.65667819292952
 31
0.0
  0
SOLID
  5
1851A
330
18514
100
AcDbEntity
  8
WY
 62
     0
100
AcDbTrace
 10
650.1453494701497
 20
107.6566781929295
 30
0.0
 11
649.3120161368164
 21
107.6566781929295
 31
0.0
 12
649.728682803483
 22
110.1566781929295
 32
0.0
 13
649.728682803483
 23
110.1566781929295
 33
0.0
  0
SOLID
  5
1851B
330
18514
100
AcDbEntity
  8
WY
 62
     0
100
AcDbTrace
 10
649.3120161368164
 20
85.65667819292952
 30
0.0
 11
650.1453494701497
 21
85.65667819292952
 31
0.0
 12
649.728682803483
 22
83.15667819292952
 32
0.0
 13
649.728682803483
 23
83.15667819292952
 33
0.0
  0
MTEXT
  5
1851C
330
18514
100
AcDbEntity
  8
WY
 62
     0
100
AcDbMText
 10
648.228682803483
 20
96.65667819292952
 30
0.0
 40
1.5
 41
0.0
 71
     5
 72
     1
  1
\A1;27
 11
0.0
 21
1.0
 31
0.0
  0
POINT
  5
1851D
330
18514
100
AcDbEntity
  8
DEFPOINTS
 62
     0
100
AcDbPoint
 10
641.1812195454418
 20
110.1566781929295
 30
0.0
  0
POINT
  5
1851E
330
18514
100
AcDbEntity
  8
DEFPOINTS
 62
     0
100
AcDbPoint
 10
641.1812195454418
 20
83.15667819292952
 30
0.0
  0
POINT
  5
1851F
330
18514
100
AcDbEntity
  8
DEFPOINTS
 62
     0
100
AcDbPoint
 10
649.728682803483
 20
83.15667819292952
 30
0.0
  0
ENDBLK
  5
18516
330
18514
100
AcDbEntity
  8
0
100
AcDbBlockEnd
  0
BLOCK
  5
18524
330
18523
100
AcDbEntity
  8
0
100
AcDbBlockBegin
  2
*D195
 70
     1
 10
0.0
 20
0.0
 30
0.0
  3
*D195
  1
*D195
  0
LINE
  5
18526
330
18523
100
AcDbEntity
  8
WY
 62
     0
100
AcDbLine
 10
642.6812195454418
 20
83.15667819292952
 30
0.0
 11
651.228682803483
 21
83.15667819292952
 31
0.0
  0
LINE
  5
18527
330
18523
100
AcDbEntity
  8
WY
 62
     0
100
AcDbLine
 10
642.6812195454418
 20
56.95667819292959
 30
0.0
 11
651.228682803483
 21
56.95667819292959
 31
0.0
  0
LINE
  5
18528
330
18523
100
AcDbEntity
  8
WY
 62
     0
100
AcDbLine
 10
649.728682803483
 20
80.65667819292952
 30
0.0
 11
649.728682803483
 21
59.45667819292959
 31
0.0
  0
SOLID
  5
18529
330
18523
100
AcDbEntity
  8
WY
 62
     0
100
AcDbTrace
 10
650.1453494701497
 20
80.65667819292952
 30
0.0
 11
649.3120161368164
 21
80.65667819292952
 31
0.0
 12
649.728682803483
 22
83.15667819292952
 32
0.0
 13
649.728682803483
 23
83.15667819292952
 33
0.0
  0
SOLID
  5
1852A
330
18523
100
AcDbEntity
  8
WY
 62
     0
100
AcDbTrace
 10
649.3120161368164
 20
59.45667819292959
 30
0.0
 11
650.1453494701497
 21
59.45667819292959
 31
0.0
 12
649.728682803483
 22
56.95667819292959
 32
0.0
 13
649.728682803483
 23
56.95667819292959
 33
0.0
  0
MTEXT
  5
1852B
330
18523
100
AcDbEntity
  8
WY
 62
     0
100
AcDbMText
 10
648.228682803483
 20
70.05667819292955
 30
0.0
 40
1.5
 41
0.0
 71
     5
 72
     1
  1
\A1;26.2
 11
0.0
 21
1.0
 31
0.0
  0
POINT
  5
1852C
330
18523
100
AcDbEntity
  8
DEFPOINTS
 62
     0
100
AcDbPoint
 10
641.1812195454418
 20
83.15667819292952
 30
0.0
  0
POINT
  5
1852D
330
18523
100
AcDbEntity
  8
DEFPOINTS
 62
     0
100
AcDbPoint
 10
641.1812195454418
 20
56.95667819292959
 30
0.0
  0
POINT
  5
1852E
330
18523
100
AcDbEntity
  8
DEFPOINTS
 62
     0
100
AcDbPoint
 10
649.728682803483
 20
56.95667819292959
 30
0.0
  0
ENDBLK
  5
18525
330
18523
100
AcDbEntity
  8
0
100
AcDbBlockEnd
  0
ENDSEC
  0
SECTION
  2
ENTITIES
  0
LINE
  5
2D2D
330
18
100
AcDbEntity
  8
WYMIARY
 62
     6
100
AcDbLine
 10
486.041244
 20
0.0
 30
0.0
 11
486.041244
 21
297.0
 31
0.0
  0
LINE
  5
2D2E
330
18
100
AcDbEntity
  8
WYMIARY
 62
     6
100
AcDbLine
 10
497.671651
 20
292.0
 30
0.0
 11
497.671651
 21
5.0
 31
0.0
  0
LINE
  5
2D34
330
18
100
AcDbEntity
  8
2
100
AcDbLine
 10
682.671651
 20
5.0
 30
0.0
 11
682.671651
 21
292.0
 31
0.0
  0
LINE
  5
2D35
330
18
100
AcDbEntity
  8
2
100
AcDbLine
 10
687.671651
 20
0.0
 30
0.0
 11
687.671651
 21
297.0
 31
0.0
  0
LINE
  5
2D36
330
18
100
AcDbEntity
  8
WY
  6
CONTINUOUS
 62
     3
100
AcDbLine
 10
682.671651
 20
19.689837
 30
0.0
 11
497.671651
 21
19.689837
 31
0.0
  0
LINE
  5
2D38
330
18
100
AcDbEntity
  8
2
100
AcDbLine
 10
497.671651
 20
5.0
 30
0.0
 11
682.671651
 21
5.0
 31
0.0
  0
LINE
  5
2D39
330
18
100
AcDbEntity
  8
2
 62
     6
100
AcDbLine
 10
497.671651
 20
0.0
 30
0.0
 11
687.671651
 21
0.0
 31
0.0
  0
LINE
  5
2D3A
330
18
100
AcDbEntity
  8
0
100
AcDbLine
 10
529.697667
 20
11.742481
 30
0.0
 11
528.795256
 21
11.742481
 31
0.0
  0
ELLIPSE
  5
2D3B
330
18
100
AcDbEntity
  8
0
100
AcDbEllipse
 10
529.697667
 20
11.742481
 30
0.0
 11
-1.203215696869327
 21
1.967000000000000E-13
 31
0.0
210
0.0
220
0.0
230
1.0
 40
0.958812
 41
-1.570796326794739
 42
0.0000000000001705
  0
TEXT
  5
2D3D
330
18
100
AcDbEntity
  8
1
100
AcDbText
 10
515.607578
 20
8.797457
 30
0.0
 40
5.0
  1
A4
 51
15.0
  7
ITALIC
100
AcDbText
  0
LINE
  5
2D40
330
18
100
AcDbEntity
  8
WYMIARY
 62
     6
100
AcDbLine
 10
497.671651
 20
0.0
 30
0.0
 11
486.041244
 21
0.0
 31
0.0
  0
TEXT
  5
2D42
330
18
100
AcDbEntity
  8
WY
100
AcDbText
 10
502.936765
 20
16.373844
 30
0.0
 40
2.0
  1
Skala
 51
15.0
  7
ITALIC
100
AcDbText
  0
TEXT
  5
2D43
330
18
100
AcDbEntity
  8
WY
100
AcDbText
 10
515.042219
 20
16.329369
 30
0.0
 40
2.0
  1
Format
 51
15.0
  7
ITALIC
100
AcDbText
  0
LINE
  5
2D44
330
18
100
AcDbEntity
  8
0
100
AcDbLine
 10
528.494452
 20
11.742481
 30
0.0
 11
528.795256
 21
11.742481
 31
0.0
  0
LINE
  5
2D45
330
18
100
AcDbEntity
  8
0
100
AcDbLine
 10
559.88722
 20
17.211264
 30
0.0
 11
559.88722
 21
9.015264
 31
0.0
  0
LINE
  5
2D46
330
18
100
AcDbEntity
  8
0
100
AcDbLine
 10
550.89322
 20
9.438264
 30
0.0
 11
550.89322
 21
7.416264
 31
0.0
  0
ARC
  5
2D47
330
18
100
AcDbEntity
  8
0
100
AcDbCircle
 10
551.5428
 20
9.724764
 30
0.0
 40
0.709955
100
AcDbArc
 50
203.80008
 51
272.051918
  0
LINE
  5
2D48
330
18
100
AcDbEntity
  8
0
100
AcDbLine
 10
549.34822
 20
7.416264
 30
0.0
 11
549.34822
 21
15.612264
 31
0.0
  0
ARC
  5
2D49
330
18
100
AcDbEntity
  8
0
100
AcDbCircle
 10
551.982126
 20
10.136416
 30
0.0
 40
1.128907
100
AcDbArc
 50
276.719576
 51
2.175194
  0
ARC
  5
2D4A
330
18
100
AcDbEntity
  8
0
100
AcDbCircle
 10
555.243059
 20
10.503572
 30
0.0
 40
1.488419
100
AcDbArc
 50
191.634268
 51
270.699113
  0
ARC
  5
2D4B
330
18
100
AcDbEntity
  8
0
100
AcDbCircle
 10
556.209381
 20
10.503572
 30
0.0
 40
1.488419
100
AcDbArc
 50
269.300887
 51
348.365732
  0
LINE
  5
2D4C
330
18
100
AcDbEntity
  8
0
100
AcDbLine
 10
558.34222
 20
9.015264
 30
0.0
 11
558.34222
 21
17.211264
 31
0.0
  0
ARC
  5
2D4D
330
18
100
AcDbEntity
  8
0
100
AcDbCircle
 10
545.056591
 20
10.472364
 30
0.0
 40
1.425319
100
AcDbArc
 50
269.703671
 51
350.465171
  0
ARC
  5
2D4E
330
18
100
AcDbEntity
  8
0
100
AcDbCircle
 10
544.201848
 20
10.472364
 30
0.0
 40
1.425319
100
AcDbArc
 50
189.534829
 51
270.2963290000001
  0
LINE
  5
2D4F
330
18
100
AcDbEntity
  8
0
100
AcDbLine
 10
547.14922
 20
9.015264
 30
0.0
 11
547.14922
 21
17.211264
 31
0.0
  0
LINE
  5
2D50
330
18
100
AcDbEntity
  8
0
100
AcDbLine
 10
548.69422
 20
17.211264
 30
0.0
 11
548.69422
 21
9.015264
 31
0.0
  0
LINE
  5
2D51
330
18
100
AcDbEntity
  8
0
100
AcDbLine
 10
539.892236
 20
14.361264
 30
0.0
 11
539.903809
 21
9.015264
 31
0.0
  0
LINE
  5
2D52
330
18
100
AcDbEntity
  8
0
100
AcDbLine
 10
538.361694
 20
9.015264
 30
0.0
 11
538.361694
 21
15.60367
 31
0.0
  0
LINE
  5
2D53
330
18
100
AcDbEntity
  8
0
100
AcDbLine
 10
529.697667
 20
9.895061
 30
0.0
 11
529.697667
 21
8.185369
 31
0.0
  0
LINE
  5
2D54
330
18
100
AcDbEntity
  8
0
100
AcDbLine
 10
535.613478
 20
8.185369
 30
0.0
 11
535.613478
 21
11.742481
 31
0.0
  0
LINE
  5
2D55
330
18
100
AcDbEntity
  8
1
100
AcDbLine
 10
563.469863
 20
5.0
 30
0.0
 11
563.469863
 21
19.689837
 31
0.0
  0
LINE
  5
2D56
330
18
100
AcDbEntity
  8
0
100
AcDbLine
 10
530.499811
 20
7.416263
 30
0.0
 11
534.811334
 21
7.416263
 31
0.0
  0
ELLIPSE
  5
2D57
330
18
100
AcDbEntity
  8
0
100
AcDbEllipse
 10
530.499811
 20
8.185369
 30
0.0
 11
-0.8021437979128705
 21
1.540000000000000E-14
 31
0.0
210
0.0
220
0.0
230
1.0
 40
0.958812
 41
0.00000000000002
 42
1.570796326794914
  0
ELLIPSE
  5
2D58
330
18
100
AcDbEntity
  8
0
100
AcDbEllipse
 10
534.811334
 20
8.185369
 30
0.0
 11
0.8021437979128704
 21
1.602000000000000E-13
 31
0.0
210
0.0
220
0.0
230
1.0
 40
0.958812
 41
4.712388980384497
 42
6.283185307179378
  0
LINE
  5
2D59
330
18
100
AcDbEntity
  8
0
100
AcDbLine
 10
539.892236
 20
9.015264
 30
0.0
 11
539.903809
 21
9.022759
 31
0.0
  0
LINE
  5
2D5A
330
18
100
AcDbEntity
  8
0
100
AcDbLine
 10
538.361694
 20
9.015264
 30
0.0
 11
539.903809
 21
9.015264
 31
0.0
  0
LINE
  5
2D5B
330
18
100
AcDbEntity
  8
0
100
AcDbLine
 10
544.194477
 20
9.047064
 30
0.0
 11
545.04922
 21
9.047064
 31
0.0
  0
LINE
  5
2D5C
330
18
100
AcDbEntity
  8
0
100
AcDbLine
 10
550.89322
 20
7.416264
 30
0.0
 11
549.34822
 21
7.416264
 31
0.0
  0
LINE
  5
2D5D
330
18
100
AcDbEntity
  8
0
100
AcDbLine
 10
548.69422
 20
9.015264
 30
0.0
 11
547.14922
 21
9.015264
 31
0.0
  0
LINE
  5
2D5E
330
18
100
AcDbEntity
  8
0
100
AcDbLine
 10
551.576266
 20
9.015264
 30
0.0
 11
552.11422
 21
9.015264
 31
0.0
  0
LINE
  5
2D5F
330
18
100
AcDbEntity
  8
0
100
AcDbLine
 10
555.26122
 20
9.015264
 30
0.0
 11
556.19122
 21
9.015264
 31
0.0
  0
LINE
  5
2D60
330
18
100
AcDbEntity
  8
0
100
AcDbLine
 10
559.88722
 20
9.015264
 30
0.0
 11
558.34222
 21
9.015264
 31
0.0
  0
ARC
  5
2D61
330
18
100
AcDbEntity
  8
0
100
AcDbCircle
 10
545.056591
 20
14.17837
 30
0.0
 40
1.425319
100
AcDbArc
 50
9.534829000000002
 51
90.296329
  0
LINE
  5
2D62
330
18
100
AcDbEntity
  8
0
100
AcDbLine
 10
546.46222
 20
11.81167
 30
0.0
 11
544.33822
 21
11.81167
 31
0.0
  0
LINE
  5
2D63
330
18
100
AcDbEntity
  8
0
100
AcDbLine
 10
545.01322
 20
11.13667
 30
0.0
 11
546.46222
 21
11.13667
 31
0.0
  0
LINE
  5
2D64
330
18
100
AcDbEntity
  8
0
100
AcDbLine
 10
529.697667
 20
13.461283
 30
0.0
 11
529.697667
 21
16.260974
 31
0.0
  0
ELLIPSE
  5
2D65
330
18
100
AcDbEntity
  8
0
100
AcDbEllipse
 10
532.630506
 20
15.17942
 30
0.0
 11
2.983077570132104
 21
2.996000000000000E-13
 31
0.0
210
0.0
220
0.0
230
1.0
 40
0.9588119999999999
 41
-1.562393163247347
 42
0.0084031635475457
  0
ELLIPSE
  5
2D66
330
18
100
AcDbEntity
  8
0
100
AcDbEllipse
 10
532.58733
 20
15.509539
 30
0.0
 11
-4.072692107280919
 21
9.250000000000000E-14
 31
0.0
210
0.0
220
0.0
230
1.0
 40
0.958812
 41
1.587553347046634
 42
2.408388587343224
  0
LINE
  5
2D67
330
18
100
AcDbEntity
  8
0
100
AcDbLine
 10
529.697667
 20
11.742481
 30
0.0
 11
529.697667
 21
11.034514
 31
0.0
  0
LINE
  5
2D68
330
18
100
AcDbEntity
  8
0
100
AcDbLine
 10
529.697667
 20
13.461283
 30
0.0
 11
529.697667
 21
12.896138
 31
0.0
  0
ELLIPSE
  5
2D69
330
18
100
AcDbEntity
  8
0
100
AcDbEllipse
 10
532.249598
 20
9.872487
 30
0.0
 11
2.960559210508897
 21
0.3570763225581005
 31
0.0
210
0.0
220
0.0
230
1.0
 40
0.820999
 41
1.335209029023201
 42
2.503032872947537
  0
ELLIPSE
  5
2D6A
330
18
100
AcDbEntity
  8
0
100
AcDbEllipse
 10
532.480104
 20
8.937306
 30
0.0
 11
3.015746449176215
 21
0.7746519372140024
 31
0.0
210
0.0
220
0.0
230
1.0
 40
0.8467750000000003
 41
1.29973646820557
 42
2.479974117225238
  0
LINE
  5
2D6B
330
18
100
AcDbEntity
  8
0
100
AcDbLine
 10
536.816694
 20
12.896138
 30
0.0
 11
536.51589
 21
12.896138
 31
0.0
  0
LINE
  5
2D6C
330
18
100
AcDbEntity
  8
0
100
AcDbLine
 10
535.613478
 20
12.896138
 30
0.0
 11
536.51589
 21
12.896138
 31
0.0
  0
ELLIPSE
  5
2D6D
330
18
100
AcDbEntity
  8
0
100
AcDbEllipse
 10
535.613478
 20
12.896138
 30
0.0
 11
1.203215696869352
 21
8.930000000000000E-14
 31
0.0
210
0.0
220
0.0
230
1.0
 40
0.9588119999999999
 41
4.712388980384611
 42
6.283185307179508
  0
LINE
  5
2D6E
330
18
100
AcDbEntity
  8
0
100
AcDbLine
 10
530.499811
 20
17.030079
 30
0.0
 11
534.811334
 21
17.030079
 31
0.0
  0
ELLIPSE
  5
2D6F
330
18
100
AcDbEntity
  8
0
100
AcDbEllipse
 10
530.499811
 20
16.260974
 30
0.0
 11
0.8021437979128704
 21
3.800000000000000E-14
 31
0.0
210
0.0
220
0.0
230
1.0
 40
0.958812
 41
1.570796326794851
 42
3.141592653589743
  0
LINE
  5
2D70
330
18
100
AcDbEntity
  8
0
100
AcDbLine
 10
535.613478
 20
15.155385
 30
0.0
 11
535.613478
 21
16.260974
 31
0.0
  0
ELLIPSE
  5
2D71
330
18
100
AcDbEntity
  8
0
100
AcDbEllipse
 10
534.811334
 20
16.260974
 30
0.0
 11
-0.8021437979128705
 21
3.800000000000000E-14
 31
0.0
210
0.0
220
0.0
230
1.0
 40
0.958812
 41
3.141592653589842
 42
4.712388980384734
  0
ARC
  5
2D72
330
18
100
AcDbEntity
  8
0
100
AcDbCircle
 10
540.798894
 20
14.34127
 30
0.0
 40
1.377457
100
AcDbArc
 50
16.265061
 51
130.527299
  0
ARC
  5
2D73
330
18
100
AcDbEntity
  8
0
100
AcDbCircle
 10
544.201848
 20
14.17837
 30
0.0
 40
1.425319
100
AcDbArc
 50
89.703671
 51
170.465171
  0
LINE
  5
2D74
330
18
100
AcDbEntity
  8
0
100
AcDbLine
 10
540.911147
 20
12.93607
 30
0.0
 11
542.12122
 21
12.93607
 31
0.0
  0
LINE
  5
2D75
330
18
100
AcDbEntity
  8
0
100
AcDbLine
 10
540.578809
 20
12.93607
 30
0.0
 11
542.12122
 21
12.93607
 31
0.0
  0
ARC
  5
2D76
330
18
100
AcDbEntity
  8
0
100
AcDbCircle
 10
540.229736
 20
14.361264
 30
0.0
 40
0.3375
100
AcDbArc
 50
360.0
 51
180.0
  0
LINE
  5
2D77
330
18
100
AcDbEntity
  8
0
100
AcDbLine
 10
540.567236
 20
14.361264
 30
0.0
 11
540.578809
 21
12.93607
 31
0.0
  0
ARC
  5
2D78
330
18
100
AcDbEntity
  8
0
100
AcDbCircle
 10
544.67572
 20
14.361264
 30
0.0
 40
0.3375
100
AcDbArc
 50
360.0
 51
180.0
  0
LINE
  5
2D79
330
18
100
AcDbEntity
  8
0
100
AcDbLine
 10
544.33822
 20
11.81167
 30
0.0
 11
544.33822
 21
10.236264
 31
0.0
  0
LINE
  5
2D7A
330
18
100
AcDbEntity
  8
0
100
AcDbLine
 10
544.33822
 20
12.71167
 30
0.0
 11
545.01322
 21
12.71167
 31
0.0
  0
LINE
  5
2D7B
330
18
100
AcDbEntity
  8
0
100
AcDbLine
 10
545.01322
 20
11.13667
 30
0.0
 11
545.01322
 21
10.252764
 31
0.0
  0
LINE
  5
2D7C
330
18
100
AcDbEntity
  8
0
100
AcDbLine
 10
544.33822
 20
11.81167
 30
0.0
 11
544.33822
 21
10.252764
 31
0.0
  0
ARC
  5
2D7D
330
18
100
AcDbEntity
  8
0
100
AcDbCircle
 10
544.67572
 20
10.252764
 30
0.0
 40
0.3375
100
AcDbArc
 50
180.0
 51
0.0
  0
LINE
  5
2D7E
330
18
100
AcDbEntity
  8
0
100
AcDbLine
 10
545.01322
 20
14.361264
 30
0.0
 11
545.01322
 21
12.71167
 31
0.0
  0
LINE
  5
2D7F
330
18
100
AcDbEntity
  8
0
100
AcDbLine
 10
544.33822
 20
14.361264
 30
0.0
 11
544.33822
 21
12.71167
 31
0.0
  0
LINE
  5
2D80
330
18
100
AcDbEntity
  8
0
100
AcDbLine
 10
542.12122
 20
12.93607
 30
0.0
 11
542.12122
 21
14.72707
 31
0.0
  0
LINE
  5
2D81
330
18
100
AcDbEntity
  8
0
100
AcDbLine
 10
542.79622
 20
10.236264
 30
0.0
 11
542.79622
 21
14.41447
 31
0.0
  0
LINE
  5
2D82
330
18
100
AcDbEntity
  8
0
100
AcDbLine
 10
539.903809
 20
15.60367
 30
0.0
 11
539.903809
 21
15.38827
 31
0.0
  0
LINE
  5
2D83
330
18
100
AcDbEntity
  8
0
100
AcDbLine
 10
538.361694
 20
15.60367
 30
0.0
 11
539.903809
 21
15.60367
 31
0.0
  0
LINE
  5
2D84
330
18
100
AcDbEntity
  8
0
100
AcDbLine
 10
544.194477
 20
15.60367
 30
0.0
 11
545.04922
 21
15.60367
 31
0.0
  0
ARC
  5
2D85
330
18
100
AcDbEntity
  8
0
100
AcDbCircle
 10
555.243059
 20
14.124104
 30
0.0
 40
1.488419
100
AcDbArc
 50
89.300887
 51
168.365732
  0
ARC
  5
2D86
330
18
100
AcDbEntity
  8
0
100
AcDbCircle
 10
551.752247
 20
14.207365
 30
0.0
 40
1.409039
100
AcDbArc
 50
15.47255
 51
127.56454
  0
LINE
  5
2D87
330
18
100
AcDbEntity
  8
0
100
AcDbLine
 10
546.46222
 20
11.13667
 30
0.0
 11
546.46222
 21
10.236264
 31
0.0
  0
LINE
  5
2D88
330
18
100
AcDbEntity
  8
0
100
AcDbLine
 10
546.46222
 20
11.81167
 30
0.0
 11
546.46222
 21
14.41447
 31
0.0
  0
LINE
  5
2D89
330
18
100
AcDbEntity
  8
0
100
AcDbLine
 10
553.11022
 20
14.583264
 30
0.0
 11
553.11022
 21
10.179264
 31
0.0
  0
LINE
  5
2D8A
330
18
100
AcDbEntity
  8
0
100
AcDbLine
 10
551.56822
 20
14.361264
 30
0.0
 11
551.56822
 21
10.252764
 31
0.0
  0
LINE
  5
2D8B
330
18
100
AcDbEntity
  8
0
100
AcDbLine
 10
550.89322
 20
14.361264
 30
0.0
 11
550.89322
 21
10.252764
 31
0.0
  0
ARC
  5
2D8C
330
18
100
AcDbEntity
  8
0
100
AcDbCircle
 10
551.23072
 20
10.252764
 30
0.0
 40
0.3375
100
AcDbArc
 50
180.0
 51
0.0
  0
ARC
  5
2D8D
330
18
100
AcDbEntity
  8
0
100
AcDbCircle
 10
551.23072
 20
14.361264
 30
0.0
 40
0.3375
100
AcDbArc
 50
360.0
 51
180.0
  0
LINE
  5
2D8E
330
18
100
AcDbEntity
  8
0
100
AcDbLine
 10
549.34822
 20
15.612264
 30
0.0
 11
550.89322
 21
15.612264
 31
0.0
  0
LINE
  5
2D8F
330
18
100
AcDbEntity
  8
0
100
AcDbLine
 10
547.14922
 20
17.211264
 30
0.0
 11
548.69422
 21
17.211264
 31
0.0
  0
LINE
  5
2D90
330
18
100
AcDbEntity
  8
0
100
AcDbLine
 10
550.89322
 20
15.612264
 30
0.0
 11
550.89322
 21
15.324264
 31
0.0
  0
ARC
  5
2D91
330
18
100
AcDbEntity
  8
0
100
AcDbCircle
 10
556.209381
 20
14.124104
 30
0.0
 40
1.488419
100
AcDbArc
 50
11.634268
 51
90.699113
  0
LINE
  5
2D92
330
18
100
AcDbEntity
  8
0
100
AcDbLine
 10
557.66722
 20
14.424264
 30
0.0
 11
557.66722
 21
10.203412
 31
0.0
  0
ARC
  5
2D93
330
18
100
AcDbEntity
  8
0
100
AcDbCircle
 10
555.72622
 20
14.361264
 30
0.0
 40
0.3375
100
AcDbArc
 50
360.0
 51
180.0
  0
ARC
  5
2D94
330
18
100
AcDbEntity
  8
0
100
AcDbCircle
 10
555.72622
 20
10.252764
 30
0.0
 40
0.3375
100
AcDbArc
 50
180.0
 51
0.0
  0
LINE
  5
2D95
330
18
100
AcDbEntity
  8
0
100
AcDbLine
 10
555.38872
 20
14.361264
 30
0.0
 11
555.38872
 21
10.252764
 31
0.0
  0
LINE
  5
2D96
330
18
100
AcDbEntity
  8
0
100
AcDbLine
 10
556.06372
 20
14.361264
 30
0.0
 11
556.06372
 21
10.252764
 31
0.0
  0
LINE
  5
2D97
330
18
100
AcDbEntity
  8
0
100
AcDbLine
 10
553.78522
 20
10.203412
 30
0.0
 11
553.78522
 21
14.424264
 31
0.0
  0
LINE
  5
2D98
330
18
100
AcDbEntity
  8
0
100
AcDbLine
 10
555.26122
 20
15.612412
 30
0.0
 11
556.19122
 21
15.612412
 31
0.0
  0
LINE
  5
2D99
330
18
100
AcDbEntity
  8
0
100
AcDbLine
 10
558.34222
 20
17.211264
 30
0.0
 11
559.88722
 21
17.211264
 31
0.0
  0
TEXT
  5
2D9A
330
18
100
AcDbEntity
  8
WY
100
AcDbText
 10
564.417407
 20
11.60401
 30
0.0
 40
1.999999999999998
  1
16-06-2016
 41
1.000000000000001
 51
15.0
  7
ITALIC
100
AcDbText
  0
TEXT
  5
2D9B
330
18
100
AcDbEntity
  8
WY
100
AcDbText
 10
568.848776
 20
16.149239
 30
0.0
 40
2.0
  1
Data
 51
15.0
  7
ITALIC
100
AcDbText
  0
TEXT
  5
2D9D
330
18
100
AcDbEntity
  8
1
100
AcDbText
 10
637.422754
 20
9.064009
 30
0.0
 40
5.0
  1
ZGGZ4
 41
0.8
 51
15.0
  7
ITALIC
100
AcDbText
  0
LINE
  5
2D9E
330
18
100
AcDbEntity
  8
1
100
AcDbLine
 10
627.394234
 20
5.0
 30
0.0
 11
627.394234
 21
19.689837
 31
0.0
  0
TEXT
  5
2D9F
330
18
100
AcDbEntity
  8
WY
100
AcDbText
 10
629.585432
 20
16.599248
 30
0.0
 40
2.0
  1
Product type
 51
15.0
  7
ITALIC
100
AcDbText
  0
LINE
  5
2DF2
330
18
100
AcDbEntity
  8
2
100
AcDbLine
 10
682.671651
 20
292.0
 30
0.0
 11
497.671651
 21
292.0
 31
0.0
  0
LINE
  5
2DF3
330
18
100
AcDbEntity
  8
2
100
AcDbLine
 10
687.671651
 20
297.0
 30
0.0
 11
497.671651
 21
297.0
 31
0.0
  0
LINE
  5
2E74
330
18
100
AcDbEntity
  8
WYMIARY
 62
     6
100
AcDbLine
 10
497.671651
 20
297.0
 30
0.0
 11
486.041244
 21
297.0
 31
0.0
  0
MTEXT
  5
31F2
330
18
100
AcDbEntity
  8
WYMIARY
100
AcDbMText
 10
780.543201
 20
224.476865
 30
0.0
 40
3.5
 41
15.6
 71
     1
 72
     5
  1

  7
ITALIC
  0
TEXT
  5
478E
330
18
100
AcDbEntity
  8
1
100
AcDbText
 10
500.301985
 20
8.797457
 30
0.0
 40
5.0
  1
1:1
 51
15.0
  7
ITALIC
100
AcDbText
  0
LINE
  5
482F
330
18
100
AcDbEntity
  8
WYMIARY
 62
     6
100
AcDbLine
 10
687.671651
 20
0.0
 30
0.0
 11
687.671651
 21
297.0
 31
0.0
  0
LINE
  5
4AD7
330
18
100
AcDbEntity
  8
WYMIARY
 62
     3
100
AcDbLine
 10
512.671651
 20
19.689837
 30
0.0
 11
512.671651
 21
5.0
 31
0.0
  0
LINE
  5
4AD9
330
18
100
AcDbEntity
  8
WYMIARY
 62
     3
100
AcDbLine
 10
527.671651
 20
19.689837
 30
0.0
 11
527.671651
 21
5.0
 31
0.0
  0
LINE
  5
4ADA
330
18
100
AcDbEntity
  8
WYMIARY
 62
     3
100
AcDbLine
 10
586.373187
 20
19.689837
 30
0.0
 11
586.373187
 21
5.0
 31
0.0
  0
TEXT
  5
4ADB
330
18
100
AcDbEntity
  8
WY
100
AcDbText
 10
587.562196
 20
16.599248
 30
0.0
 40
2.0
  1
Draw. No.
 51
15.0
  7
ITALIC
100
AcDbText
  0
TEXT
  5
4ADF
330
18
100
AcDbEntity
  8
1
100
AcDbText
 10
590.7724191352855
 20
9.064009
 30
0.0
 40
3.999999999999994
  1
ZGGZ4-01A
 41
0.7000000000000011
 51
14.99999999999999
  7
ITALIC
100
AcDbText
  0
LINE
  5
4AE9
330
18
100
AcDbEntity
  8
WYMIARY
 62
     6
100
AcDbLine
 10
687.671651
 20
0.0
 30
0.0
 11
687.671651
 21
297.0
 31
0.0
  0
LINE
  5
6488
330
18
100
AcDbEntity
  8
WYMIARY
 62
     6
100
AcDbLine
 10
687.671651
 20
0.0
 30
0.0
 11
687.671651
 21
297.0
 31
0.0
  0
LINE
  5
648E
330
18
100
AcDbEntity
  8
2
100
AcDbLine
 10
687.671651
 20
0.0
 30
0.0
 11
687.671651
 21
297.0
 31
0.0
  0
LINE
  5
6CB6
330
18
100
AcDbEntity
  8
WYMIARY
 62
     6
100
AcDbLine
 10
687.671651
 20
0.0
 30
0.0
 11
687.671651
 21
297.0
 31
0.0
  0
LINE
  5
6CB8
330
18
100
AcDbEntity
  8
2
100
AcDbLine
 10
687.671651
 20
0.0
 30
0.0
 11
687.671651
 21
297.0
 31
0.0
  0
TEXT
  5
B62D
330
18
100
AcDbEntity
  8
1
100
AcDbText
 10
579.317934
 20
274.3510462125303
 30
0.0
 40
5.0
  1
ZGGZ4
 41
0.8
 51
15.0
  7
ITALIC
100
AcDbText
  0
TEXT
  5
17A04
330
18
100
AcDbEntity
  8
1
100
AcDbText
 10
530.0465885106546
 20
263.3148018483084
 30
0.0
 40
5.0
  1
Złącze grzebieniowe/Interconnection strip 
 41
0.8
 51
15.0
  7
ITALIC
100
AcDbText
  0
LINE
  5
18283
330
18
100
AcDbEntity
  8
1
  6
CONTINUOUS
 62
     7
100
AcDbLine
 10
628.223493141322
 20
111.4816781929295
 30
0.0
 11
628.223493141322
 21
108.8316781929295
 31
0.0
  0
LINE
  5
18284
330
18
100
AcDbEntity
  8
1
  6
CONTINUOUS
 62
     7
100
AcDbLine
 10
628.223493141322
 20
111.4816781929295
 30
0.0
 11
631.223493141322
 21
111.4816781929295
 31
0.0
  0
LINE
  5
18285
330
18
100
AcDbEntity
  8
1
  6
CONTINUOUS
 62
     7
100
AcDbLine
 10
631.223493141322
 20
111.4816781929295
 30
0.0
 11
631.223493141322
 21
108.8316781929295
 31
0.0
  0
LINE
  5
18286
330
18
100
AcDbEntity
  8
1
  6
CONTINUOUS
 62
     7
100
AcDbLine
 10
628.223493141322
 20
108.8316781929295
 30
0.0
 11
631.223493141322
 21
108.8316781929295
 31
0.0
  0
LINE
  5
18287
330
18
100
AcDbEntity
  8
1
  6
CONTINUOUS
 62
     7
100
AcDbLine
 10
628.223493141322
 20
138.4816781929295
 30
0.0
 11
628.223493141322
 21
135.8316781929295
 31
0.0
  0
LINE
  5
18288
330
18
100
AcDbEntity
  8
1
  6
CONTINUOUS
 62
     7
100
AcDbLine
 10
628.223493141322
 20
138.4816781929295
 30
0.0
 11
631.223493141322
 21
138.4816781929295
 31
0.0
  0
LINE
  5
18289
330
18
100
AcDbEntity
  8
1
  6
CONTINUOUS
 62
     7
100
AcDbLine
 10
631.223493141322
 20
138.4816781929295
 30
0.0
 11
631.223493141322
 21
135.8316781929295
 31
0.0
  0
LINE
  5
1828A
330
18
100
AcDbEntity
  8
1
  6
CONTINUOUS
 62
     7
100
AcDbLine
 10
628.223493141322
 20
135.8316781929295
 30
0.0
 11
631.223493141322
 21
135.8316781929295
 31
0.0
  0
LINE
  5
1828B
330
18
100
AcDbEntity
  8
1
  6
CONTINUOUS
 62
     7
100
AcDbLine
 10
628.223493141322
 20
165.4816781929295
 30
0.0
 11
628.223493141322
 21
162.8316781929295
 31
0.0
  0
LINE
  5
1828C
330
18
100
AcDbEntity
  8
1
  6
CONTINUOUS
 62
     7
100
AcDbLine
 10
628.223493141322
 20
165.4816781929295
 30
0.0
 11
631.223493141322
 21
165.4816781929295
 31
0.0
  0
LINE
  5
1828D
330
18
100
AcDbEntity
  8
1
  6
CONTINUOUS
 62
     7
100
AcDbLine
 10
628.223493141322
 20
162.8316781929295
 30
0.0
 11
631.223493141322
 21
162.8316781929295
 31
0.0
  0
LINE
  5
1828E
330
18
100
AcDbEntity
  8
1
  6
CONTINUOUS
 62
     7
100
AcDbLine
 10
631.223493141322
 20
165.4816781929295
 30
0.0
 11
631.223493141322
 21
162.8316781929295
 31
0.0
  0
LINE
  5
1828F
330
18
100
AcDbEntity
  8
1
  6
CONTINUOUS
 62
     7
100
AcDbLine
 10
628.223493141322
 20
58.30667819292955
 30
0.0
 11
628.223493141322
 21
55.80667819292955
 31
0.0
  0
LINE
  5
18290
330
18
100
AcDbEntity
  8
1
  6
CONTINUOUS
 62
     7
100
AcDbLine
 10
628.223493141322
 20
58.30667819292955
 30
0.0
 11
631.223493141322
 21
58.30667819292955
 31
0.0
  0
LINE
  5
18291
330
18
100
AcDbEntity
  8
1
  6
CONTINUOUS
 62
     7
100
AcDbLine
 10
628.223493141322
 20
55.80667819292955
 30
0.0
 11
631.223493141322
 21
55.80667819292955
 31
0.0
  0
LINE
  5
18292
330
18
100
AcDbEntity
  8
1
  6
CONTINUOUS
 62
     7
100
AcDbLine
 10
631.223493141322
 20
58.30667819292955
 30
0.0
 11
631.223493141322
 21
55.80667819292955
 31
0.0
  0
LINE
  5
18293
330
18
100
AcDbEntity
  8
1
  6
CONTINUOUS
 62
     7
100
AcDbLine
 10
628.223493141322
 20
84.48167819292951
 30
0.0
 11
628.223493141322
 21
81.83167819292953
 31
0.0
  0
LINE
  5
18294
330
18
100
AcDbEntity
  8
1
  6
CONTINUOUS
 62
     7
100
AcDbLine
 10
628.223493141322
 20
84.48167819292951
 30
0.0
 11
631.223493141322
 21
84.48167819292951
 31
0.0
  0
LINE
  5
18295
330
18
100
AcDbEntity
  8
1
  6
CONTINUOUS
 62
     7
100
AcDbLine
 10
628.223493141322
 20
81.83167819292953
 30
0.0
 11
631.223493141322
 21
81.83167819292953
 31
0.0
  0
LINE
  5
18296
330
18
100
AcDbEntity
  8
1
  6
CONTINUOUS
 62
     7
100
AcDbLine
 10
631.223493141322
 20
84.48167819292951
 30
0.0
 11
631.223493141322
 21
81.83167819292953
 31
0.0
  0
LINE
  5
18297
330
18
100
AcDbEntity
  8
1
  6
CONTINUOUS
 62
     7
100
AcDbLine
 10
628.223493141322
 20
191.5066781929295
 30
0.0
 11
628.223493141322
 21
189.0066781929295
 31
0.0
  0
LINE
  5
18298
330
18
100
AcDbEntity
  8
1
  6
CONTINUOUS
 62
     7
100
AcDbLine
 10
628.223493141322
 20
191.5066781929295
 30
0.0
 11
631.223493141322
 21
191.5066781929295
 31
0.0
  0
LINE
  5
18299
330
18
100
AcDbEntity
  8
1
  6
CONTINUOUS
 62
     7
100
AcDbLine
 10
628.223493141322
 20
189.0066781929295
 30
0.0
 11
631.223493141322
 21
189.0066781929295
 31
0.0
  0
LINE
  5
1829A
330
18
100
AcDbEntity
  8
1
  6
CONTINUOUS
 62
     7
100
AcDbLine
 10
631.223493141322
 20
191.5066781929295
 30
0.0
 11
631.223493141322
 21
189.0066781929295
 31
0.0
  0
LINE
  5
1829B
330
18
100
AcDbEntity
  8
1
  6
CONTINUOUS
 62
     7
100
AcDbLine
 10
630.223493141322
 20
122.9566781929295
 30
0.0
 11
630.223493141322
 21
111.4816781929295
 31
0.0
  0
LINE
  5
1829C
330
18
100
AcDbEntity
  8
1
  6
CONTINUOUS
 62
     7
100
AcDbLine
 10
629.223493141322
 20
111.4816781929295
 30
0.0
 11
629.223493141322
 21
122.9566781929295
 31
0.0
  0
LINE
  5
1829D
330
18
100
AcDbEntity
  8
1
  6
CONTINUOUS
 62
     7
100
AcDbLine
 10
629.223493141322
 20
122.9566781929295
 30
0.0
 11
630.223493141322
 21
122.9566781929295
 31
0.0
  0
LINE
  5
1829E
330
18
100
AcDbEntity
  8
1
  6
CONTINUOUS
 62
     7
100
AcDbLine
 10
630.223493141322
 20
149.9566781929295
 30
0.0
 11
630.223493141322
 21
138.4816781929295
 31
0.0
  0
LINE
  5
1829F
330
18
100
AcDbEntity
  8
1
  6
CONTINUOUS
 62
     7
100
AcDbLine
 10
629.223493141322
 20
138.4816781929295
 30
0.0
 11
629.223493141322
 21
149.9566781929295
 31
0.0
  0
LINE
  5
182A0
330
18
100
AcDbEntity
  8
1
  6
CONTINUOUS
 62
     7
100
AcDbLine
 10
629.223493141322
 20
149.9566781929295
 30
0.0
 11
630.223493141322
 21
149.9566781929295
 31
0.0
  0
LINE
  5
182A1
330
18
100
AcDbEntity
  8
1
  6
CONTINUOUS
 62
     7
100
AcDbLine
 10
630.223493141322
 20
81.83167819292953
 30
0.0
 11
630.223493141322
 21
58.30667819292955
 31
0.0
  0
LINE
  5
182A2
330
18
100
AcDbEntity
  8
1
  6
CONTINUOUS
 62
     7
100
AcDbLine
 10
629.223493141322
 20
58.30667819292955
 30
0.0
 11
629.223493141322
 21
81.83167819292953
 31
0.0
  0
LINE
  5
182A3
330
18
100
AcDbEntity
  8
1
  6
CONTINUOUS
 62
     7
100
AcDbLine
 10
630.223493141322
 20
189.0066781929295
 30
0.0
 11
630.223493141322
 21
165.4816781929295
 31
0.0
  0
LINE
  5
182A4
330
18
100
AcDbEntity
  8
1
  6
CONTINUOUS
 62
     7
100
AcDbLine
 10
629.223493141322
 20
165.4816781929295
 30
0.0
 11
629.223493141322
 21
189.0066781929295
 31
0.0
  0
LINE
  5
182A5
330
18
100
AcDbEntity
  8
1
  6
CONTINUOUS
 62
     7
100
AcDbLine
 10
630.223493141322
 20
95.95667819292953
 30
0.0
 11
630.223493141322
 21
84.48167819292951
 31
0.0
  0
LINE
  5
182A6
330
18
100
AcDbEntity
  8
1
  6
CONTINUOUS
 62
     7
100
AcDbLine
 10
629.223493141322
 20
84.48167819292951
 30
0.0
 11
629.223493141322
 21
95.95667819292953
 31
0.0
  0
LINE
  5
182A7
330
18
100
AcDbEntity
  8
1
  6
CONTINUOUS
 62
     7
100
AcDbLine
 10
629.223493141322
 20
95.95667819292953
 30
0.0
 11
630.223493141322
 21
95.95667819292953
 31
0.0
  0
LINE
  5
182A8
330
18
100
AcDbEntity
  8
1
  6
CONTINUOUS
 62
     7
100
AcDbLine
 10
629.223493141322
 20
97.35667819292951
 30
0.0
 11
629.223493141322
 21
108.8316781929295
 31
0.0
  0
LINE
  5
182A9
330
18
100
AcDbEntity
  8
1
  6
CONTINUOUS
 62
     7
100
AcDbLine
 10
630.223493141322
 20
108.8316781929295
 30
0.0
 11
630.223493141322
 21
97.35667819292951
 31
0.0
  0
LINE
  5
182AA
330
18
100
AcDbEntity
  8
1
  6
CONTINUOUS
 62
     7
100
AcDbLine
 10
629.223493141322
 20
97.35667819292951
 30
0.0
 11
630.223493141322
 21
97.35667819292951
 31
0.0
  0
LINE
  5
182AB
330
18
100
AcDbEntity
  8
1
  6
CONTINUOUS
 62
     7
100
AcDbLine
 10
629.223493141322
 20
151.3566781929295
 30
0.0
 11
629.223493141322
 21
162.8316781929295
 31
0.0
  0
LINE
  5
182AC
330
18
100
AcDbEntity
  8
1
  6
CONTINUOUS
 62
     7
100
AcDbLine
 10
630.223493141322
 20
162.8316781929295
 30
0.0
 11
630.223493141322
 21
151.3566781929295
 31
0.0
  0
LINE
  5
182AD
330
18
100
AcDbEntity
  8
1
  6
CONTINUOUS
 62
     7
100
AcDbLine
 10
629.223493141322
 20
151.3566781929295
 30
0.0
 11
630.223493141322
 21
151.3566781929295
 31
0.0
  0
LINE
  5
182AE
330
18
100
AcDbEntity
  8
1
  6
CONTINUOUS
 62
     7
100
AcDbLine
 10
629.223493141322
 20
124.3566781929295
 30
0.0
 11
629.223493141322
 21
135.8316781929295
 31
0.0
  0
LINE
  5
182AF
330
18
100
AcDbEntity
  8
1
  6
CONTINUOUS
 62
     7
100
AcDbLine
 10
629.223493141322
 20
124.3566781929295
 30
0.0
 11
630.223493141322
 21
124.3566781929295
 31
0.0
  0
LINE
  5
182B0
330
18
100
AcDbEntity
  8
1
  6
CONTINUOUS
 62
     7
100
AcDbLine
 10
630.223493141322
 20
135.8316781929295
 30
0.0
 11
630.223493141322
 21
124.3566781929295
 31
0.0
  0
LINE
  5
182B1
330
18
100
AcDbEntity
  8
1
  6
CONTINUOUS
 62
     7
100
AcDbLine
 10
630.473493141322
 20
96.65667819292958
 30
0.0
 11
631.223493141322
 21
97.28600291631255
 31
0.0
  0
LINE
  5
182B2
330
18
100
AcDbEntity
  8
1
  6
CONTINUOUS
 62
     7
100
AcDbLine
 10
628.973493141322
 20
96.65667819292958
 30
0.0
 11
628.223493141322
 21
96.0273534695466
 31
0.0
  0
LINE
  5
182B3
330
18
100
AcDbEntity
  8
1
  6
CONTINUOUS
 62
     7
100
AcDbLine
 10
628.223493141322
 20
97.28600291631255
 30
0.0
 11
628.973493141322
 21
96.65667819292958
 31
0.0
  0
LINE
  5
182B4
330
18
100
AcDbEntity
  8
1
  6
CONTINUOUS
 62
     7
100
AcDbLine
 10
631.223493141322
 20
96.0273534695466
 30
0.0
 11
630.473493141322
 21
96.65667819292958
 31
0.0
  0
LINE
  5
182B5
330
18
100
AcDbEntity
  8
1
  6
CONTINUOUS
 62
     7
100
AcDbLine
 10
628.223493141322
 20
108.8316781929295
 30
0.0
 11
628.223493141322
 21
97.28600291631255
 31
0.0
  0
LINE
  5
182B6
330
18
100
AcDbEntity
  8
1
  6
CONTINUOUS
 62
     7
100
AcDbLine
 10
628.223493141322
 20
96.0273534695466
 30
0.0
 11
628.223493141322
 21
84.48167819292951
 31
0.0
  0
LINE
  5
182B7
330
18
100
AcDbEntity
  8
1
  6
CONTINUOUS
 62
     7
100
AcDbLine
 10
631.223493141322
 20
97.28600291631255
 30
0.0
 11
631.223493141322
 21
108.8316781929295
 31
0.0
  0
LINE
  5
182B8
330
18
100
AcDbEntity
  8
1
  6
CONTINUOUS
 62
     7
100
AcDbLine
 10
631.223493141322
 20
84.48167819292951
 30
0.0
 11
631.223493141322
 21
96.0273534695466
 31
0.0
  0
LINE
  5
182B9
330
18
100
AcDbEntity
  8
1
  6
CONTINUOUS
 62
     7
100
AcDbLine
 10
631.223493141322
 20
165.4816781929295
 30
0.0
 11
631.223493141322
 21
189.0066781929295
 31
0.0
  0
LINE
  5
182BA
330
18
100
AcDbEntity
  8
1
  6
CONTINUOUS
 62
     7
100
AcDbLine
 10
628.973493141322
 20
150.6566781929296
 30
0.0
 11
628.223493141322
 21
150.0273534695466
 31
0.0
  0
LINE
  5
182BB
330
18
100
AcDbEntity
  8
1
  6
CONTINUOUS
 62
     7
100
AcDbLine
 10
628.223493141322
 20
151.2860029163126
 30
0.0
 11
628.973493141322
 21
150.6566781929296
 31
0.0
  0
LINE
  5
182BC
330
18
100
AcDbEntity
  8
1
  6
CONTINUOUS
 62
     7
100
AcDbLine
 10
630.473493141322
 20
150.6566781929296
 30
0.0
 11
631.223493141322
 21
151.2860029163126
 31
0.0
  0
LINE
  5
182BD
330
18
100
AcDbEntity
  8
1
  6
CONTINUOUS
 62
     7
100
AcDbLine
 10
631.223493141322
 20
150.0273534695466
 30
0.0
 11
630.473493141322
 21
150.6566781929296
 31
0.0
  0
LINE
  5
182BE
330
18
100
AcDbEntity
  8
1
  6
CONTINUOUS
 62
     7
100
AcDbLine
 10
628.223493141322
 20
162.8316781929295
 30
0.0
 11
628.223493141322
 21
151.2860029163126
 31
0.0
  0
LINE
  5
182BF
330
18
100
AcDbEntity
  8
1
  6
CONTINUOUS
 62
     7
100
AcDbLine
 10
628.223493141322
 20
150.0273534695466
 30
0.0
 11
628.223493141322
 21
138.4816781929295
 31
0.0
  0
LINE
  5
182C0
330
18
100
AcDbEntity
  8
1
  6
CONTINUOUS
 62
     7
100
AcDbLine
 10
631.223493141322
 20
151.2860029163126
 30
0.0
 11
631.223493141322
 21
162.8316781929295
 31
0.0
  0
LINE
  5
182C1
330
18
100
AcDbEntity
  8
1
  6
CONTINUOUS
 62
     7
100
AcDbLine
 10
631.223493141322
 20
138.4816781929295
 30
0.0
 11
631.223493141322
 21
150.0273534695466
 31
0.0
  0
LINE
  5
182C2
330
18
100
AcDbEntity
  8
1
  6
CONTINUOUS
 62
     7
100
AcDbLine
 10
631.223493141322
 20
58.30667819292955
 30
0.0
 11
631.223493141322
 21
81.83167819292953
 31
0.0
  0
LINE
  5
182C3
330
18
100
AcDbEntity
  8
1
  6
CONTINUOUS
 62
     7
100
AcDbLine
 10
628.973493141322
 20
123.6566781929296
 30
0.0
 11
628.223493141322
 21
123.0273534695466
 31
0.0
  0
LINE
  5
182C4
330
18
100
AcDbEntity
  8
1
  6
CONTINUOUS
 62
     7
100
AcDbLine
 10
628.223493141322
 20
124.2860029163126
 30
0.0
 11
628.973493141322
 21
123.6566781929296
 31
0.0
  0
LINE
  5
182C5
330
18
100
AcDbEntity
  8
1
  6
CONTINUOUS
 62
     7
100
AcDbLine
 10
631.223493141322
 20
123.0273534695466
 30
0.0
 11
630.473493141322
 21
123.6566781929296
 31
0.0
  0
LINE
  5
182C6
330
18
100
AcDbEntity
  8
1
  6
CONTINUOUS
 62
     7
100
AcDbLine
 10
630.473493141322
 20
123.6566781929296
 30
0.0
 11
631.223493141322
 21
124.2860029163126
 31
0.0
  0
LINE
  5
182C7
330
18
100
AcDbEntity
  8
1
  6
CONTINUOUS
 62
     7
100
AcDbLine
 10
628.223493141322
 20
123.0273534695466
 30
0.0
 11
628.223493141322
 21
111.4816781929295
 31
0.0
  0
LINE
  5
182C8
330
18
100
AcDbEntity
  8
1
  6
CONTINUOUS
 62
     7
100
AcDbLine
 10
628.223493141322
 20
135.8316781929295
 30
0.0
 11
628.223493141322
 21
124.2860029163126
 31
0.0
  0
LINE
  5
182C9
330
18
100
AcDbEntity
  8
1
  6
CONTINUOUS
 62
     7
100
AcDbLine
 10
631.223493141322
 20
124.2860029163126
 30
0.0
 11
631.223493141322
 21
135.8316781929295
 31
0.0
  0
LINE
  5
182CA
330
18
100
AcDbEntity
  8
1
  6
CONTINUOUS
 62
     7
100
AcDbLine
 10
631.223493141322
 20
111.4816781929295
 30
0.0
 11
631.223493141322
 21
123.0273534695466
 31
0.0
  0
LINE
  5
182CB
330
18
100
AcDbEntity
  8
1
  6
CONTINUOUS
 62
     7
100
AcDbLine
 10
628.223493141322
 20
189.0066781929295
 30
0.0
 11
628.223493141322
 21
165.4816781929295
 31
0.0
  0
LINE
  5
182CC
330
18
100
AcDbEntity
  8
1
  6
CONTINUOUS
 62
     7
100
AcDbLine
 10
628.223493141322
 20
81.83167819292953
 30
0.0
 11
628.223493141322
 21
58.30667819292955
 31
0.0
  0
LINE
  5
18341
330
18
100
AcDbEntity
  8
1
  6
CONTINUOUS
 62
     7
100
AcDbLine
 10
638.3674095888044
 20
110.9066781929296
 30
0.0
 11
639.4674095888045
 21
110.3316781929295
 31
0.0
  0
LINE
  5
18342
330
18
100
AcDbEntity
  8
1
  6
CONTINUOUS
 62
     7
100
AcDbLine
 10
639.4674095888045
 20
110.3316781929295
 30
0.0
 11
639.4674095888045
 21
109.9816781929295
 31
0.0
  0
LINE
  5
18343
330
18
100
AcDbEntity
  8
1
  6
CONTINUOUS
 62
     7
100
AcDbLine
 10
639.4674095888045
 20
109.9816781929295
 30
0.0
 11
638.3674095888044
 21
109.4066781929296
 31
0.0
  0
LINE
  5
18344
330
18
100
AcDbEntity
  8
1
  6
CONTINUOUS
 62
     7
100
AcDbLine
 10
638.3674095888044
 20
109.4066781929296
 30
0.0
 11
631.223493141322
 21
109.4066781929296
 31
0.0
  0
LINE
  5
18345
330
18
100
AcDbEntity
  8
1
  6
CONTINUOUS
 62
     7
100
AcDbLine
 10
631.223493141322
 20
110.9066781929296
 30
0.0
 11
638.3674095888044
 21
110.9066781929296
 31
0.0
  0
LINE
  5
18346
330
18
100
AcDbEntity
  8
1
  6
CONTINUOUS
 62
     7
100
AcDbLine
 10
638.3674095888044
 20
164.9066781929296
 30
0.0
 11
639.4674095888045
 21
164.3316781929295
 31
0.0
  0
LINE
  5
18347
330
18
100
AcDbEntity
  8
1
  6
CONTINUOUS
 62
     7
100
AcDbLine
 10
639.4674095888045
 20
164.3316781929295
 30
0.0
 11
639.4674095888045
 21
163.9816781929295
 31
0.0
  0
LINE
  5
18348
330
18
100
AcDbEntity
  8
1
  6
CONTINUOUS
 62
     7
100
AcDbLine
 10
639.4674095888045
 20
163.9816781929295
 30
0.0
 11
638.3674095888044
 21
163.4066781929296
 31
0.0
  0
LINE
  5
18349
330
18
100
AcDbEntity
  8
1
  6
CONTINUOUS
 62
     7
100
AcDbLine
 10
638.3674095888044
 20
163.4066781929296
 30
0.0
 11
631.223493141322
 21
163.4066781929296
 31
0.0
  0
LINE
  5
1834A
330
18
100
AcDbEntity
  8
1
  6
CONTINUOUS
 62
     7
100
AcDbLine
 10
631.223493141322
 20
164.9066781929296
 30
0.0
 11
638.3674095888044
 21
164.9066781929296
 31
0.0
  0
LINE
  5
1834B
330
18
100
AcDbEntity
  8
1
  6
CONTINUOUS
 62
     7
100
AcDbLine
 10
639.4674095888045
 20
57.1316781929296
 30
0.0
 11
638.3674095888044
 21
57.70667819292953
 31
0.0
  0
LINE
  5
1834C
330
18
100
AcDbEntity
  8
1
  6
CONTINUOUS
 62
     7
100
AcDbLine
 10
639.4674095888045
 20
56.78167819292958
 30
0.0
 11
639.4674095888045
 21
57.1316781929296
 31
0.0
  0
LINE
  5
1834D
330
18
100
AcDbEntity
  8
1
  6
CONTINUOUS
 62
     7
100
AcDbLine
 10
638.3674095888044
 20
56.20667819292953
 30
0.0
 11
639.4674095888045
 21
56.78167819292958
 31
0.0
  0
LINE
  5
1834E
330
18
100
AcDbEntity
  8
1
  6
CONTINUOUS
 62
     7
100
AcDbLine
 10
638.3674095888044
 20
56.20667819292953
 30
0.0
 11
631.223493141322
 21
56.20667819292953
 31
0.0
  0
LINE
  5
1834F
330
18
100
AcDbEntity
  8
1
  6
CONTINUOUS
 62
     7
100
AcDbLine
 10
638.3674095888044
 20
57.70667819292953
 30
0.0
 11
631.223493141322
 21
57.70667819292953
 31
0.0
  0
LINE
  5
18350
330
18
100
AcDbEntity
  8
1
  6
CONTINUOUS
 62
     7
100
AcDbLine
 10
638.3674095888044
 20
191.1066781929295
 30
0.0
 11
639.4674095888045
 21
190.5316781929296
 31
0.0
  0
LINE
  5
18351
330
18
100
AcDbEntity
  8
1
  6
CONTINUOUS
 62
     7
100
AcDbLine
 10
639.4674095888045
 20
190.5316781929296
 30
0.0
 11
639.4674095888045
 21
190.1816781929296
 31
0.0
  0
LINE
  5
18352
102
{ACAD_REACTORS
102
}
330
18
100
AcDbEntity
  8
1
  6
CONTINUOUS
 62
     7
100
AcDbLine
 10
639.4674095888045
 20
190.1816781929296
 30
0.0
 11
638.3674095888044
 21
189.6066781929295
 31
0.0
  0
LINE
  5
18353
330
18
100
AcDbEntity
  8
1
  6
CONTINUOUS
 62
     7
100
AcDbLine
 10
638.3674095888044
 20
189.6066781929295
 30
0.0
 11
631.223493141322
 21
189.6066781929295
 31
0.0
  0
LINE
  5
18354
102
{ACAD_REACTORS
102
}
330
18
100
AcDbEntity
  8
1
  6
CONTINUOUS
 62
     7
100
AcDbLine
 10
631.223493141322
 20
191.1066781929295
 30
0.0
 11
638.3674095888044
 21
191.1066781929295
 31
0.0
  0
LINE
  5
18355
330
18
100
AcDbEntity
  8
1
  6
CONTINUOUS
 62
     7
100
AcDbLine
 10
638.3674095888044
 20
83.90667819292958
 30
0.0
 11
639.4674095888045
 21
83.33167819292953
 31
0.0
  0
LINE
  5
18356
330
18
100
AcDbEntity
  8
1
  6
CONTINUOUS
 62
     7
100
AcDbLine
 10
639.4674095888045
 20
83.33167819292953
 30
0.0
 11
639.4674095888045
 21
82.98167819292951
 31
0.0
  0
LINE
  5
18357
330
18
100
AcDbEntity
  8
1
  6
CONTINUOUS
 62
     7
100
AcDbLine
 10
639.4674095888045
 20
82.98167819292951
 30
0.0
 11
638.3674095888044
 21
82.40667819292958
 31
0.0
  0
LINE
  5
18358
330
18
100
AcDbEntity
  8
1
  6
CONTINUOUS
 62
     7
100
AcDbLine
 10
638.3674095888044
 20
82.40667819292958
 30
0.0
 11
631.223493141322
 21
82.40667819292958
 31
0.0
  0
LINE
  5
18359
330
18
100
AcDbEntity
  8
1
  6
CONTINUOUS
 62
     7
100
AcDbLine
 10
631.223493141322
 20
83.90667819292958
 30
0.0
 11
638.3674095888044
 21
83.90667819292958
 31
0.0
  0
LINE
  5
1835A
330
18
100
AcDbEntity
  8
1
  6
CONTINUOUS
 62
     7
100
AcDbLine
 10
638.3674095888044
 20
137.9066781929296
 30
0.0
 11
639.4674095888045
 21
137.3316781929295
 31
0.0
  0
LINE
  5
1835B
330
18
100
AcDbEntity
  8
1
  6
CONTINUOUS
 62
     7
100
AcDbLine
 10
639.4674095888045
 20
137.3316781929295
 30
0.0
 11
639.4674095888045
 21
136.9816781929295
 31
0.0
  0
LINE
  5
1835C
330
18
100
AcDbEntity
  8
1
  6
CONTINUOUS
 62
     7
100
AcDbLine
 10
639.4674095888045
 20
136.9816781929295
 30
0.0
 11
638.3674095888044
 21
136.4066781929296
 31
0.0
  0
LINE
  5
1835D
330
18
100
AcDbEntity
  8
1
  6
CONTINUOUS
 62
     7
100
AcDbLine
 10
638.3674095888044
 20
136.4066781929296
 30
0.0
 11
631.223493141322
 21
136.4066781929296
 31
0.0
  0
LINE
  5
1835E
330
18
100
AcDbEntity
  8
1
  6
CONTINUOUS
 62
     7
100
AcDbLine
 10
631.223493141322
 20
137.9066781929296
 30
0.0
 11
638.3674095888044
 21
137.9066781929296
 31
0.0
  0
LINE
  5
1835F
330
18
100
AcDbEntity
  8
1
  6
CONTINUOUS
 62
     7
100
AcDbLine
 10
543.9499646491169
 20
162.8316781929295
 30
0.0
 11
550.7499646491169
 21
162.8316781929295
 31
0.0
  0
LINE
  5
18360
330
18
100
AcDbEntity
  8
1
  6
CONTINUOUS
 62
     7
100
AcDbLine
 10
543.9499646491169
 20
165.4816781929295
 30
0.0
 11
543.9499646491169
 21
162.8316781929295
 31
0.0
  0
LINE
  5
18361
330
18
100
AcDbEntity
  8
1
  6
CONTINUOUS
 62
     7
100
AcDbLine
 10
550.7499646491169
 20
165.4816781929295
 30
0.0
 11
543.9499646491169
 21
165.4816781929295
 31
0.0
  0
LINE
  5
18362
330
18
100
AcDbEntity
  8
1
  6
CONTINUOUS
 62
     7
100
AcDbLine
 10
550.7499646491169
 20
165.4816781929295
 30
0.0
 11
550.7499646491169
 21
189.0066781929295
 31
0.0
  0
LINE
  5
18363
330
18
100
AcDbEntity
  8
1
  6
CONTINUOUS
 62
     7
100
AcDbLine
 10
543.9499646491169
 20
189.0066781929295
 30
0.0
 11
550.7499646491169
 21
189.0066781929295
 31
0.0
  0
LINE
  5
18364
102
{ACAD_REACTORS
102
}
330
18
100
AcDbEntity
  8
1
  6
CONTINUOUS
 62
     7
100
AcDbLine
 10
543.9499646491169
 20
191.5066781929295
 30
0.0
 11
543.9499646491169
 21
189.0066781929295
 31
0.0
  0
LINE
  5
18365
330
18
100
AcDbEntity
  8
1
  6
CONTINUOUS
 62
     7
100
AcDbLine
 10
554.7499646491169
 20
191.5066781929295
 30
0.0
 11
543.9499646491169
 21
191.5066781929295
 31
0.0
  0
LINE
  5
18366
330
18
100
AcDbEntity
  8
1
  6
CONTINUOUS
 62
     7
100
AcDbLine
 10
554.7499646491169
 20
191.5066781929295
 30
0.0
 11
554.7499646491169
 21
167.1566781929296
 31
0.0
  0
LINE
  5
18367
330
18
100
AcDbEntity
  8
1
  6
CONTINUOUS
 62
     7
100
AcDbLine
 10
554.7499646491169
 20
167.1566781929296
 30
0.0
 11
557.7499646491169
 21
167.1566781929296
 31
0.0
  0
LINE
  5
18368
330
18
100
AcDbEntity
  8
1
  6
CONTINUOUS
 62
     7
100
AcDbLine
 10
557.7499646491169
 20
161.1566781929296
 30
0.0
 11
557.7499646491169
 21
167.1566781929296
 31
0.0
  0
LINE
  5
18369
330
18
100
AcDbEntity
  8
1
  6
CONTINUOUS
 62
     7
100
AcDbLine
 10
557.7499646491169
 20
161.1566781929296
 30
0.0
 11
554.7499646491169
 21
161.1566781929296
 31
0.0
  0
LINE
  5
1836A
330
18
100
AcDbEntity
  8
1
  6
CONTINUOUS
 62
     7
100
AcDbLine
 10
554.7499646491169
 20
161.1566781929296
 30
0.0
 11
554.7499646491169
 21
151.2860029163126
 31
0.0
  0
LINE
  5
1836B
330
18
100
AcDbEntity
  8
1
  6
CONTINUOUS
 62
     7
100
AcDbLine
 10
550.7499646491169
 20
151.2860029163126
 30
0.0
 11
554.7499646491169
 21
151.2860029163126
 31
0.0
  0
LINE
  5
1836C
330
18
100
AcDbEntity
  8
1
  6
CONTINUOUS
 62
     7
100
AcDbLine
 10
550.7499646491169
 20
151.2860029163126
 30
0.0
 11
550.7499646491169
 21
162.8316781929295
 31
0.0
  0
CIRCLE
  5
1836D
330
18
100
AcDbEntity
  8
1
  6
CONTINUOUS
 62
     7
100
AcDbCircle
 10
550.2499646491169
 20
190.1066781929295
 30
0.0
 40
0.5
  0
CIRCLE
  5
1836E
330
18
100
AcDbEntity
  8
1
  6
CONTINUOUS
 62
     7
100
AcDbCircle
 10
552.7499646491169
 20
177.6566781929296
 30
0.0
 40
0.5
  0
CIRCLE
  5
1836F
330
18
100
AcDbEntity
  8
1
  6
CONTINUOUS
 62
     7
100
AcDbCircle
 10
550.2499646491169
 20
164.1566781929296
 30
0.0
 40
0.5
  0
LINE
  5
18370
330
18
100
AcDbEntity
  8
1
  6
CONTINUOUS
 62
     7
100
AcDbLine
 10
543.9499646491169
 20
135.8316781929295
 30
0.0
 11
550.7499646491169
 21
135.8316781929295
 31
0.0
  0
LINE
  5
18371
330
18
100
AcDbEntity
  8
1
  6
CONTINUOUS
 62
     7
100
AcDbLine
 10
543.9499646491169
 20
138.4816781929295
 30
0.0
 11
543.9499646491169
 21
135.8316781929295
 31
0.0
  0
LINE
  5
18372
330
18
100
AcDbEntity
  8
1
  6
CONTINUOUS
 62
     7
100
AcDbLine
 10
550.7499646491169
 20
138.4816781929295
 30
0.0
 11
543.9499646491169
 21
138.4816781929295
 31
0.0
  0
LINE
  5
18373
330
18
100
AcDbEntity
  8
1
  6
CONTINUOUS
 62
     7
100
AcDbLine
 10
550.7499646491169
 20
150.0273534695466
 30
0.0
 11
554.7499646491169
 21
150.0273534695466
 31
0.0
  0
LINE
  5
18374
330
18
100
AcDbEntity
  8
1
  6
CONTINUOUS
 62
     7
100
AcDbLine
 10
554.7499646491169
 20
140.1566781929296
 30
0.0
 11
557.7499646491169
 21
140.1566781929296
 31
0.0
  0
LINE
  5
18375
330
18
100
AcDbEntity
  8
1
  6
CONTINUOUS
 62
     7
100
AcDbLine
 10
557.7499646491169
 20
134.1566781929296
 30
0.0
 11
557.7499646491169
 21
140.1566781929296
 31
0.0
  0
LINE
  5
18376
330
18
100
AcDbEntity
  8
1
  6
CONTINUOUS
 62
     7
100
AcDbLine
 10
557.7499646491169
 20
134.1566781929296
 30
0.0
 11
554.7499646491169
 21
134.1566781929296
 31
0.0
  0
LINE
  5
18377
330
18
100
AcDbEntity
  8
1
  6
CONTINUOUS
 62
     7
100
AcDbLine
 10
554.7499646491169
 20
134.1566781929296
 30
0.0
 11
554.7499646491169
 21
124.2860029163126
 31
0.0
  0
LINE
  5
18378
330
18
100
AcDbEntity
  8
1
  6
CONTINUOUS
 62
     7
100
AcDbLine
 10
550.7499646491169
 20
124.2860029163126
 30
0.0
 11
554.7499646491169
 21
124.2860029163126
 31
0.0
  0
LINE
  5
18379
330
18
100
AcDbEntity
  8
1
  6
CONTINUOUS
 62
     7
100
AcDbLine
 10
550.7499646491169
 20
124.2860029163126
 30
0.0
 11
550.7499646491169
 21
135.8316781929295
 31
0.0
  0
CIRCLE
  5
1837A
330
18
100
AcDbEntity
  8
1
  6
CONTINUOUS
 62
     7
100
AcDbCircle
 10
550.2499646491169
 20
137.1566781929296
 30
0.0
 40
0.4999999999999716
  0
LINE
  5
1837B
330
18
100
AcDbEntity
  8
1
  6
CONTINUOUS
 62
     7
100
AcDbLine
 10
550.7499646491169
 20
138.4816781929295
 30
0.0
 11
550.7499646491169
 21
150.0273534695466
 31
0.0
  0
LINE
  5
1837C
330
18
100
AcDbEntity
  8
1
  6
CONTINUOUS
 62
     7
100
AcDbLine
 10
554.7499646491169
 20
150.0273534695466
 30
0.0
 11
554.7499646491169
 21
140.1566781929296
 31
0.0
  0
LINE
  5
1837D
330
18
100
AcDbEntity
  8
1
  6
CONTINUOUS
 62
     7
100
AcDbLine
 10
553.2499646491169
 20
150.6566781929296
 30
0.0
 11
554.7499646491169
 21
150.6566781929296
 31
0.0
  0
ARC
  5
1837E
330
18
100
AcDbEntity
  8
1
  6
CONTINUOUS
 62
     7
100
AcDbCircle
 10
552.7499646491169
 20
150.6566781929296
 30
0.0
 40
0.5
100
AcDbArc
 50
0.0
 51
180.0
  0
LINE
  5
1837F
330
18
100
AcDbEntity
  8
1
  6
CONTINUOUS
 62
     7
100
AcDbLine
 10
550.7499646491169
 20
150.6566781929296
 30
0.0
 11
552.2499646491169
 21
150.6566781929296
 31
0.0
  0
LINE
  5
18380
330
18
100
AcDbEntity
  8
1
  6
CONTINUOUS
 62
     7
100
AcDbLine
 10
550.7499646491169
 20
150.6566781929296
 30
0.0
 11
550.7499646491169
 21
151.2860029163126
 31
0.0
  0
LINE
  5
18381
330
18
100
AcDbEntity
  8
1
  6
CONTINUOUS
 62
     7
100
AcDbLine
 10
554.7499646491169
 20
150.6566781929296
 30
0.0
 11
554.7499646491169
 21
151.2860029163126
 31
0.0
  0
ARC
  5
18382
330
18
100
AcDbEntity
  8
1
  6
CONTINUOUS
 62
     7
100
AcDbCircle
 10
552.7499646491169
 20
150.6566781929296
 30
0.0
 40
0.5
100
AcDbArc
 50
180.0
 51
0.0
  0
LINE
  5
18383
330
18
100
AcDbEntity
  8
1
  6
CONTINUOUS
 62
     7
100
AcDbLine
 10
550.7499646491169
 20
150.0273534695466
 30
0.0
 11
550.7499646491169
 21
150.6566781929296
 31
0.0
  0
LINE
  5
18384
330
18
100
AcDbEntity
  8
1
  6
CONTINUOUS
 62
     7
100
AcDbLine
 10
554.7499646491169
 20
150.0273534695466
 30
0.0
 11
554.7499646491169
 21
150.6566781929296
 31
0.0
  0
LINE
  5
18385
330
18
100
AcDbEntity
  8
1
  6
CONTINUOUS
 62
     7
100
AcDbLine
 10
543.9499646491169
 20
108.8316781929295
 30
0.0
 11
550.7499646491169
 21
108.8316781929295
 31
0.0
  0
LINE
  5
18386
330
18
100
AcDbEntity
  8
1
  6
CONTINUOUS
 62
     7
100
AcDbLine
 10
543.9499646491169
 20
111.4816781929295
 30
0.0
 11
543.9499646491169
 21
108.8316781929295
 31
0.0
  0
LINE
  5
18387
330
18
100
AcDbEntity
  8
1
  6
CONTINUOUS
 62
     7
100
AcDbLine
 10
550.7499646491169
 20
111.4816781929295
 30
0.0
 11
543.9499646491169
 21
111.4816781929295
 31
0.0
  0
LINE
  5
18388
330
18
100
AcDbEntity
  8
1
  6
CONTINUOUS
 62
     7
100
AcDbLine
 10
550.7499646491169
 20
123.0273534695466
 30
0.0
 11
554.7499646491169
 21
123.0273534695466
 31
0.0
  0
LINE
  5
18389
330
18
100
AcDbEntity
  8
1
  6
CONTINUOUS
 62
     7
100
AcDbLine
 10
554.7499646491169
 20
113.1566781929296
 30
0.0
 11
557.7499646491169
 21
113.1566781929296
 31
0.0
  0
LINE
  5
1838A
330
18
100
AcDbEntity
  8
1
  6
CONTINUOUS
 62
     7
100
AcDbLine
 10
557.7499646491169
 20
107.1566781929296
 30
0.0
 11
557.7499646491169
 21
113.1566781929296
 31
0.0
  0
LINE
  5
1838B
330
18
100
AcDbEntity
  8
1
  6
CONTINUOUS
 62
     7
100
AcDbLine
 10
557.7499646491169
 20
107.1566781929296
 30
0.0
 11
554.7499646491169
 21
107.1566781929296
 31
0.0
  0
LINE
  5
1838C
330
18
100
AcDbEntity
  8
1
  6
CONTINUOUS
 62
     7
100
AcDbLine
 10
554.7499646491169
 20
107.1566781929296
 30
0.0
 11
554.7499646491169
 21
97.28600291631255
 31
0.0
  0
LINE
  5
1838D
330
18
100
AcDbEntity
  8
1
  6
CONTINUOUS
 62
     7
100
AcDbLine
 10
550.7499646491169
 20
97.28600291631255
 30
0.0
 11
554.7499646491169
 21
97.28600291631255
 31
0.0
  0
LINE
  5
1838E
330
18
100
AcDbEntity
  8
1
  6
CONTINUOUS
 62
     7
100
AcDbLine
 10
550.7499646491169
 20
97.28600291631255
 30
0.0
 11
550.7499646491169
 21
108.8316781929295
 31
0.0
  0
CIRCLE
  5
1838F
330
18
100
AcDbEntity
  8
1
  6
CONTINUOUS
 62
     7
100
AcDbCircle
 10
550.2499646491169
 20
110.1566781929296
 30
0.0
 40
0.5
  0
LINE
  5
18390
330
18
100
AcDbEntity
  8
1
  6
CONTINUOUS
 62
     7
100
AcDbLine
 10
550.7499646491169
 20
111.4816781929295
 30
0.0
 11
550.7499646491169
 21
123.0273534695466
 31
0.0
  0
LINE
  5
18391
330
18
100
AcDbEntity
  8
1
  6
CONTINUOUS
 62
     7
100
AcDbLine
 10
554.7499646491169
 20
123.0273534695466
 30
0.0
 11
554.7499646491169
 21
113.1566781929296
 31
0.0
  0
LINE
  5
18392
330
18
100
AcDbEntity
  8
1
  6
CONTINUOUS
 62
     7
100
AcDbLine
 10
553.2499646491169
 20
123.6566781929296
 30
0.0
 11
554.7499646491169
 21
123.6566781929296
 31
0.0
  0
ARC
  5
18393
330
18
100
AcDbEntity
  8
1
  6
CONTINUOUS
 62
     7
100
AcDbCircle
 10
552.7499646491169
 20
123.6566781929296
 30
0.0
 40
0.5
100
AcDbArc
 50
0.0
 51
180.0
  0
LINE
  5
18394
330
18
100
AcDbEntity
  8
1
  6
CONTINUOUS
 62
     7
100
AcDbLine
 10
550.7499646491169
 20
123.6566781929296
 30
0.0
 11
552.2499646491169
 21
123.6566781929296
 31
0.0
  0
LINE
  5
18395
330
18
100
AcDbEntity
  8
1
  6
CONTINUOUS
 62
     7
100
AcDbLine
 10
550.7499646491169
 20
123.6566781929296
 30
0.0
 11
550.7499646491169
 21
124.2860029163126
 31
0.0
  0
LINE
  5
18396
330
18
100
AcDbEntity
  8
1
  6
CONTINUOUS
 62
     7
100
AcDbLine
 10
554.7499646491169
 20
123.6566781929296
 30
0.0
 11
554.7499646491169
 21
124.2860029163126
 31
0.0
  0
ARC
  5
18397
330
18
100
AcDbEntity
  8
1
  6
CONTINUOUS
 62
     7
100
AcDbCircle
 10
552.7499646491169
 20
123.6566781929296
 30
0.0
 40
0.5
100
AcDbArc
 50
180.0
 51
0.0
  0
LINE
  5
18398
330
18
100
AcDbEntity
  8
1
  6
CONTINUOUS
 62
     7
100
AcDbLine
 10
550.7499646491169
 20
123.0273534695466
 30
0.0
 11
550.7499646491169
 21
123.6566781929296
 31
0.0
  0
LINE
  5
18399
330
18
100
AcDbEntity
  8
1
  6
CONTINUOUS
 62
     7
100
AcDbLine
 10
554.7499646491169
 20
123.0273534695466
 30
0.0
 11
554.7499646491169
 21
123.6566781929296
 31
0.0
  0
CIRCLE
  5
1839A
330
18
100
AcDbEntity
  8
1
  6
CONTINUOUS
 62
     7
100
AcDbCircle
 10
552.7499646491169
 20
69.65667819292958
 30
0.0
 40
0.5
  0
LINE
  5
1839B
330
18
100
AcDbEntity
  8
1
  6
CONTINUOUS
 62
     7
100
AcDbLine
 10
554.7499646491169
 20
86.15667819292958
 30
0.0
 11
557.7499646491169
 21
86.15667819292958
 31
0.0
  0
LINE
  5
1839C
330
18
100
AcDbEntity
  8
1
  6
CONTINUOUS
 62
     7
100
AcDbLine
 10
557.7499646491169
 20
80.15667819292958
 30
0.0
 11
557.7499646491169
 21
86.15667819292958
 31
0.0
  0
LINE
  5
1839D
330
18
100
AcDbEntity
  8
1
  6
CONTINUOUS
 62
     7
100
AcDbLine
 10
557.7499646491169
 20
80.15667819292958
 30
0.0
 11
554.7499646491169
 21
80.15667819292958
 31
0.0
  0
LINE
  5
1839E
330
18
100
AcDbEntity
  8
1
  6
CONTINUOUS
 62
     7
100
AcDbLine
 10
554.7499646491169
 20
80.15667819292958
 30
0.0
 11
554.7499646491169
 21
55.80667819292955
 31
0.0
  0
LINE
  5
1839F
330
18
100
AcDbEntity
  8
1
  6
CONTINUOUS
 62
     7
100
AcDbLine
 10
543.949964649117
 20
55.80667819292955
 30
0.0
 11
554.7499646491169
 21
55.80667819292955
 31
0.0
  0
LINE
  5
183A0
330
18
100
AcDbEntity
  8
1
  6
CONTINUOUS
 62
     7
100
AcDbLine
 10
543.9499646491169
 20
58.30667819292955
 30
0.0
 11
543.949964649117
 21
55.80667819292955
 31
0.0
  0
LINE
  5
183A1
330
18
100
AcDbEntity
  8
1
  6
CONTINUOUS
 62
     7
100
AcDbLine
 10
550.7499646491169
 20
58.30667819292955
 30
0.0
 11
543.9499646491169
 21
58.30667819292955
 31
0.0
  0
LINE
  5
183A2
330
18
100
AcDbEntity
  8
1
  6
CONTINUOUS
 62
     7
100
AcDbLine
 10
550.7499646491169
 20
58.30667819292955
 30
0.0
 11
550.7499646491169
 21
81.83167819292953
 31
0.0
  0
LINE
  5
183A3
330
18
100
AcDbEntity
  8
1
  6
CONTINUOUS
 62
     7
100
AcDbLine
 10
543.9499646491169
 20
81.83167819292953
 30
0.0
 11
550.7499646491169
 21
81.83167819292953
 31
0.0
  0
LINE
  5
183A4
330
18
100
AcDbEntity
  8
1
  6
CONTINUOUS
 62
     7
100
AcDbLine
 10
543.9499646491169
 20
84.48167819292951
 30
0.0
 11
543.9499646491169
 21
81.83167819292953
 31
0.0
  0
LINE
  5
183A5
330
18
100
AcDbEntity
  8
1
  6
CONTINUOUS
 62
     7
100
AcDbLine
 10
550.7499646491169
 20
84.48167819292951
 30
0.0
 11
543.9499646491169
 21
84.48167819292951
 31
0.0
  0
LINE
  5
183A6
330
18
100
AcDbEntity
  8
1
  6
CONTINUOUS
 62
     7
100
AcDbLine
 10
550.7499646491169
 20
96.0273534695466
 30
0.0
 11
554.7499646491169
 21
96.0273534695466
 31
0.0
  0
CIRCLE
  5
183A7
330
18
100
AcDbEntity
  8
1
  6
CONTINUOUS
 62
     7
100
AcDbCircle
 10
550.2499646491169
 20
57.20667819292953
 30
0.0
 40
0.5
  0
CIRCLE
  5
183A8
330
18
100
AcDbEntity
  8
1
  6
CONTINUOUS
 62
     7
100
AcDbCircle
 10
550.2499646491169
 20
83.15667819292958
 30
0.0
 40
0.5
  0
LINE
  5
183A9
330
18
100
AcDbEntity
  8
1
  6
CONTINUOUS
 62
     7
100
AcDbLine
 10
550.7499646491169
 20
84.48167819292951
 30
0.0
 11
550.7499646491169
 21
96.0273534695466
 31
0.0
  0
LINE
  5
183AA
330
18
100
AcDbEntity
  8
1
  6
CONTINUOUS
 62
     7
100
AcDbLine
 10
554.7499646491169
 20
96.0273534695466
 30
0.0
 11
554.7499646491169
 21
86.15667819292958
 31
0.0
  0
LINE
  5
183AB
330
18
100
AcDbEntity
  8
1
  6
CONTINUOUS
 62
     7
100
AcDbLine
 10
553.2499646491169
 20
96.65667819292958
 30
0.0
 11
554.7499646491169
 21
96.65667819292958
 31
0.0
  0
ARC
  5
183AC
330
18
100
AcDbEntity
  8
1
  6
CONTINUOUS
 62
     7
100
AcDbCircle
 10
552.7499646491169
 20
96.65667819292958
 30
0.0
 40
0.5
100
AcDbArc
 50
0.0
 51
180.0
  0
LINE
  5
183AD
330
18
100
AcDbEntity
  8
1
  6
CONTINUOUS
 62
     7
100
AcDbLine
 10
550.7499646491169
 20
96.65667819292958
 30
0.0
 11
552.2499646491169
 21
96.65667819292958
 31
0.0
  0
LINE
  5
183AE
330
18
100
AcDbEntity
  8
1
  6
CONTINUOUS
 62
     7
100
AcDbLine
 10
550.7499646491169
 20
96.65667819292958
 30
0.0
 11
550.7499646491169
 21
97.28600291631255
 31
0.0
  0
LINE
  5
183AF
330
18
100
AcDbEntity
  8
1
  6
CONTINUOUS
 62
     7
100
AcDbLine
 10
554.7499646491169
 20
96.65667819292958
 30
0.0
 11
554.7499646491169
 21
97.28600291631255
 31
0.0
  0
ARC
  5
183B0
330
18
100
AcDbEntity
  8
1
  6
CONTINUOUS
 62
     7
100
AcDbCircle
 10
552.7499646491169
 20
96.65667819292958
 30
0.0
 40
0.5
100
AcDbArc
 50
180.0
 51
0.0
  0
LINE
  5
183B1
330
18
100
AcDbEntity
  8
1
  6
CONTINUOUS
 62
     7
100
AcDbLine
 10
550.7499646491169
 20
96.0273534695466
 30
0.0
 11
550.7499646491169
 21
96.65667819292958
 31
0.0
  0
LINE
  5
183B2
330
18
100
AcDbEntity
  8
1
  6
CONTINUOUS
 62
     7
100
AcDbLine
 10
554.7499646491169
 20
96.0273534695466
 30
0.0
 11
554.7499646491169
 21
96.65667819292958
 31
0.0
  0
LINE
  5
183B3
102
{ACAD_REACTORS
102
}
330
18
100
AcDbEntity
  8
1
  6
CONTINUOUS
 62
     7
100
AcDbLine
 10
557.7499646491169
 20
167.1566781929296
 30
0.0
 11
557.7499646491169
 21
191.5066781929295
 31
0.0
  0
LINE
  5
183B4
330
18
100
AcDbEntity
  8
1
  6
CONTINUOUS
 62
     7
100
AcDbLine
 10
557.7499646491169
 20
191.5066781929295
 30
0.0
 11
554.7499646491169
 21
191.5066781929295
 31
0.0
  0
LINE
  5
183B5
102
{ACAD_REACTORS
102
}
330
18
100
AcDbEntity
  8
1
  6
CONTINUOUS
 62
     7
100
AcDbLine
 10
547.7499646491169
 20
189.0066781929295
 30
0.0
 11
547.7499646491169
 21
165.4816781929295
 31
0.0
  0
LINE
  5
183B6
330
18
100
AcDbEntity
  8
1
  6
CONTINUOUS
 62
     7
100
AcDbLine
 10
554.7499646491169
 20
151.3566781929295
 30
0.0
 11
557.7499646491169
 21
151.3566781929295
 31
0.0
  0
LINE
  5
183B7
330
18
100
AcDbEntity
  8
1
  6
CONTINUOUS
 62
     7
100
AcDbLine
 10
557.7499646491169
 20
151.3566781929295
 30
0.0
 11
557.7499646491169
 21
161.1566781929296
 31
0.0
  0
LINE
  5
183B8
330
18
100
AcDbEntity
  8
1
  6
CONTINUOUS
 62
     7
100
AcDbLine
 10
547.7499646491169
 20
151.3566781929295
 30
0.0
 11
550.7499646491169
 21
151.3566781929295
 31
0.0
  0
LINE
  5
183B9
330
18
100
AcDbEntity
  8
1
  6
CONTINUOUS
 62
     7
100
AcDbLine
 10
547.7499646491169
 20
162.8316781929295
 30
0.0
 11
547.7499646491169
 21
151.3566781929295
 31
0.0
  0
LINE
  5
183BA
330
18
100
AcDbEntity
  8
1
  6
CONTINUOUS
 62
     7
100
AcDbLine
 10
557.7499646491169
 20
149.9566781929295
 30
0.0
 11
554.7499646491169
 21
149.9566781929295
 31
0.0
  0
LINE
  5
183BB
330
18
100
AcDbEntity
  8
1
  6
CONTINUOUS
 62
     7
100
AcDbLine
 10
557.7499646491169
 20
140.1566781929296
 30
0.0
 11
557.7499646491169
 21
149.9566781929295
 31
0.0
  0
LINE
  5
183BC
330
18
100
AcDbEntity
  8
1
  6
CONTINUOUS
 62
     7
100
AcDbLine
 10
547.7499646491169
 20
149.9566781929295
 30
0.0
 11
547.7499646491169
 21
138.4816781929295
 31
0.0
  0
LINE
  5
183BD
330
18
100
AcDbEntity
  8
1
  6
CONTINUOUS
 62
     7
100
AcDbLine
 10
550.7499646491169
 20
149.9566781929295
 30
0.0
 11
547.7499646491169
 21
149.9566781929295
 31
0.0
  0
LINE
  5
183BE
330
18
100
AcDbEntity
  8
1
  6
CONTINUOUS
 62
     7
100
AcDbLine
 10
554.7499646491169
 20
124.3566781929295
 30
0.0
 11
557.7499646491169
 21
124.3566781929295
 31
0.0
  0
LINE
  5
183BF
330
18
100
AcDbEntity
  8
1
  6
CONTINUOUS
 62
     7
100
AcDbLine
 10
557.7499646491169
 20
124.3566781929295
 30
0.0
 11
557.7499646491169
 21
134.1566781929296
 31
0.0
  0
LINE
  5
183C0
330
18
100
AcDbEntity
  8
1
  6
CONTINUOUS
 62
     7
100
AcDbLine
 10
547.7499646491169
 20
124.3566781929295
 30
0.0
 11
550.7499646491169
 21
124.3566781929295
 31
0.0
  0
LINE
  5
183C1
330
18
100
AcDbEntity
  8
1
  6
CONTINUOUS
 62
     7
100
AcDbLine
 10
547.7499646491169
 20
135.8316781929295
 30
0.0
 11
547.7499646491169
 21
124.3566781929295
 31
0.0
  0
LINE
  5
183C2
330
18
100
AcDbEntity
  8
1
  6
CONTINUOUS
 62
     7
100
AcDbLine
 10
557.7499646491169
 20
122.9566781929295
 30
0.0
 11
554.7499646491169
 21
122.9566781929295
 31
0.0
  0
LINE
  5
183C3
330
18
100
AcDbEntity
  8
1
  6
CONTINUOUS
 62
     7
100
AcDbLine
 10
557.7499646491169
 20
113.1566781929296
 30
0.0
 11
557.7499646491169
 21
122.9566781929295
 31
0.0
  0
LINE
  5
183C4
330
18
100
AcDbEntity
  8
1
  6
CONTINUOUS
 62
     7
100
AcDbLine
 10
547.7499646491169
 20
122.9566781929295
 30
0.0
 11
547.7499646491169
 21
111.4816781929295
 31
0.0
  0
LINE
  5
183C5
330
18
100
AcDbEntity
  8
1
  6
CONTINUOUS
 62
     7
100
AcDbLine
 10
550.7499646491169
 20
122.9566781929295
 30
0.0
 11
547.7499646491169
 21
122.9566781929295
 31
0.0
  0
LINE
  5
183C6
330
18
100
AcDbEntity
  8
1
  6
CONTINUOUS
 62
     7
100
AcDbLine
 10
554.7499646491169
 20
97.35667819292951
 30
0.0
 11
557.7499646491169
 21
97.35667819292951
 31
0.0
  0
LINE
  5
183C7
330
18
100
AcDbEntity
  8
1
  6
CONTINUOUS
 62
     7
100
AcDbLine
 10
557.7499646491169
 20
97.35667819292951
 30
0.0
 11
557.7499646491169
 21
107.1566781929296
 31
0.0
  0
LINE
  5
183C8
330
18
100
AcDbEntity
  8
1
  6
CONTINUOUS
 62
     7
100
AcDbLine
 10
547.7499646491169
 20
97.35667819292951
 30
0.0
 11
550.7499646491169
 21
97.35667819292951
 31
0.0
  0
LINE
  5
183C9
330
18
100
AcDbEntity
  8
1
  6
CONTINUOUS
 62
     7
100
AcDbLine
 10
547.7499646491169
 20
108.8316781929295
 30
0.0
 11
547.7499646491169
 21
97.35667819292951
 31
0.0
  0
LINE
  5
183CA
330
18
100
AcDbEntity
  8
1
  6
CONTINUOUS
 62
     7
100
AcDbLine
 10
557.7499646491169
 20
95.95667819292953
 30
0.0
 11
554.7499646491169
 21
95.95667819292953
 31
0.0
  0
LINE
  5
183CB
330
18
100
AcDbEntity
  8
1
  6
CONTINUOUS
 62
     7
100
AcDbLine
 10
557.7499646491169
 20
86.15667819292958
 30
0.0
 11
557.7499646491169
 21
95.95667819292953
 31
0.0
  0
LINE
  5
183CC
330
18
100
AcDbEntity
  8
1
  6
CONTINUOUS
 62
     7
100
AcDbLine
 10
547.7499646491169
 20
95.95667819292953
 30
0.0
 11
547.7499646491169
 21
84.48167819292951
 31
0.0
  0
LINE
  5
183CD
330
18
100
AcDbEntity
  8
1
  6
CONTINUOUS
 62
     7
100
AcDbLine
 10
550.7499646491169
 20
95.95667819292953
 30
0.0
 11
547.7499646491169
 21
95.95667819292953
 31
0.0
  0
LINE
  5
183CE
102
{ACAD_REACTORS
102
}
330
18
100
AcDbEntity
  8
1
  6
CONTINUOUS
 62
     7
100
AcDbLine
 10
554.7499646491169
 20
55.80667819292955
 30
0.0
 11
557.7499646491169
 21
55.80667819292955
 31
0.0
  0
LINE
  5
183CF
330
18
100
AcDbEntity
  8
1
  6
CONTINUOUS
 62
     7
100
AcDbLine
 10
557.7499646491169
 20
55.80667819292955
 30
0.0
 11
557.7499646491169
 21
80.15667819292958
 31
0.0
  0
LINE
  5
183D0
330
18
100
AcDbEntity
  8
1
  6
CONTINUOUS
 62
     7
100
AcDbLine
 10
547.7499646491169
 20
81.83167819292953
 30
0.0
 11
547.7499646491169
 21
58.30667819292955
 31
0.0
  0
LINE
  5
183D1
330
18
100
AcDbEntity
  8
1
  6
CONTINUOUS
 62
     7
100
AcDbLine
 10
545.2499646491169
 20
191.1066781929295
 30
0.0
 11
545.2499646491169
 21
190.5316781929296
 31
0.0
  0
LINE
  5
183D2
330
18
100
AcDbEntity
  8
1
  6
CONTINUOUS
 62
     7
100
AcDbLine
 10
544.449964649117
 20
190.5316781929296
 30
0.0
 11
545.2499646491169
 21
190.5316781929296
 31
0.0
  0
LINE
  5
183D3
330
18
100
AcDbEntity
  8
1
  6
CONTINUOUS
 62
     7
100
AcDbLine
 10
544.449964649117
 20
191.1066781929295
 30
0.0
 11
544.449964649117
 21
190.5316781929296
 31
0.0
  0
LINE
  5
183D4
330
18
100
AcDbEntity
  8
1
  6
CONTINUOUS
 62
     7
100
AcDbLine
 10
544.449964649117
 20
191.1066781929295
 30
0.0
 11
545.2499646491169
 21
191.1066781929295
 31
0.0
  0
LINE
  5
183D5
330
18
100
AcDbEntity
  8
1
  6
CONTINUOUS
 62
     7
100
AcDbLine
 10
545.2499646491169
 20
190.5316781929296
 30
0.0
 11
545.2499646491169
 21
190.1816781929296
 31
0.0
  0
LINE
  5
183D6
330
18
100
AcDbEntity
  8
1
  6
CONTINUOUS
 62
     7
100
AcDbLine
 10
544.449964649117
 20
190.1816781929296
 30
0.0
 11
545.2499646491169
 21
190.1816781929296
 31
0.0
  0
LINE
  5
183D7
330
18
100
AcDbEntity
  8
1
  6
CONTINUOUS
 62
     7
100
AcDbLine
 10
544.449964649117
 20
190.5316781929296
 30
0.0
 11
544.449964649117
 21
190.1816781929296
 31
0.0
  0
LINE
  5
183D8
330
18
100
AcDbEntity
  8
1
  6
CONTINUOUS
 62
     7
100
AcDbLine
 10
544.449964649117
 20
189.6066781929295
 30
0.0
 11
545.2499646491169
 21
189.6066781929295
 31
0.0
  0
LINE
  5
183D9
330
18
100
AcDbEntity
  8
1
  6
CONTINUOUS
 62
     7
100
AcDbLine
 10
544.449964649117
 20
190.1816781929296
 30
0.0
 11
544.449964649117
 21
189.6066781929295
 31
0.0
  0
LINE
  5
183DA
330
18
100
AcDbEntity
  8
1
  6
CONTINUOUS
 62
     7
100
AcDbLine
 10
545.2499646491169
 20
190.1816781929296
 30
0.0
 11
545.2499646491169
 21
189.6066781929295
 31
0.0
  0
LINE
  5
183DB
330
18
100
AcDbEntity
  8
1
  6
CONTINUOUS
 62
     7
100
AcDbLine
 10
545.2499646491169
 20
164.9066781929296
 30
0.0
 11
545.2499646491169
 21
164.3316781929295
 31
0.0
  0
LINE
  5
183DC
330
18
100
AcDbEntity
  8
1
  6
CONTINUOUS
 62
     7
100
AcDbLine
 10
544.449964649117
 20
164.3316781929295
 30
0.0
 11
545.2499646491169
 21
164.3316781929295
 31
0.0
  0
LINE
  5
183DD
330
18
100
AcDbEntity
  8
1
  6
CONTINUOUS
 62
     7
100
AcDbLine
 10
544.449964649117
 20
164.9066781929296
 30
0.0
 11
544.449964649117
 21
164.3316781929295
 31
0.0
  0
LINE
  5
183DE
330
18
100
AcDbEntity
  8
1
  6
CONTINUOUS
 62
     7
100
AcDbLine
 10
544.449964649117
 20
164.9066781929296
 30
0.0
 11
545.2499646491169
 21
164.9066781929296
 31
0.0
  0
LINE
  5
183DF
330
18
100
AcDbEntity
  8
1
  6
CONTINUOUS
 62
     7
100
AcDbLine
 10
545.2499646491169
 20
164.3316781929295
 30
0.0
 11
545.2499646491169
 21
163.9816781929295
 31
0.0
  0
LINE
  5
183E0
330
18
100
AcDbEntity
  8
1
  6
CONTINUOUS
 62
     7
100
AcDbLine
 10
544.449964649117
 20
163.9816781929295
 30
0.0
 11
545.2499646491169
 21
163.9816781929295
 31
0.0
  0
LINE
  5
183E1
330
18
100
AcDbEntity
  8
1
  6
CONTINUOUS
 62
     7
100
AcDbLine
 10
544.449964649117
 20
164.3316781929295
 30
0.0
 11
544.449964649117
 21
163.9816781929295
 31
0.0
  0
LINE
  5
183E2
330
18
100
AcDbEntity
  8
1
  6
CONTINUOUS
 62
     7
100
AcDbLine
 10
544.449964649117
 20
163.4066781929296
 30
0.0
 11
545.2499646491169
 21
163.4066781929296
 31
0.0
  0
LINE
  5
183E3
330
18
100
AcDbEntity
  8
1
  6
CONTINUOUS
 62
     7
100
AcDbLine
 10
544.449964649117
 20
163.9816781929295
 30
0.0
 11
544.449964649117
 21
163.4066781929296
 31
0.0
  0
LINE
  5
183E4
330
18
100
AcDbEntity
  8
1
  6
CONTINUOUS
 62
     7
100
AcDbLine
 10
545.2499646491169
 20
163.9816781929295
 30
0.0
 11
545.2499646491169
 21
163.4066781929296
 31
0.0
  0
LINE
  5
183E5
330
18
100
AcDbEntity
  8
1
  6
CONTINUOUS
 62
     7
100
AcDbLine
 10
545.2499646491169
 20
137.9066781929296
 30
0.0
 11
545.2499646491169
 21
137.3316781929295
 31
0.0
  0
LINE
  5
183E6
330
18
100
AcDbEntity
  8
1
  6
CONTINUOUS
 62
     7
100
AcDbLine
 10
544.449964649117
 20
137.3316781929295
 30
0.0
 11
545.2499646491169
 21
137.3316781929295
 31
0.0
  0
LINE
  5
183E7
330
18
100
AcDbEntity
  8
1
  6
CONTINUOUS
 62
     7
100
AcDbLine
 10
544.449964649117
 20
137.9066781929296
 30
0.0
 11
544.449964649117
 21
137.3316781929295
 31
0.0
  0
LINE
  5
183E8
330
18
100
AcDbEntity
  8
1
  6
CONTINUOUS
 62
     7
100
AcDbLine
 10
544.449964649117
 20
137.9066781929296
 30
0.0
 11
545.2499646491169
 21
137.9066781929296
 31
0.0
  0
LINE
  5
183E9
330
18
100
AcDbEntity
  8
1
  6
CONTINUOUS
 62
     7
100
AcDbLine
 10
544.449964649117
 20
136.9816781929295
 30
0.0
 11
545.2499646491169
 21
136.9816781929295
 31
0.0
  0
LINE
  5
183EA
330
18
100
AcDbEntity
  8
1
  6
CONTINUOUS
 62
     7
100
AcDbLine
 10
544.449964649117
 20
137.3316781929295
 30
0.0
 11
544.449964649117
 21
136.9816781929295
 31
0.0
  0
LINE
  5
183EB
330
18
100
AcDbEntity
  8
1
  6
CONTINUOUS
 62
     7
100
AcDbLine
 10
545.2499646491169
 20
137.3316781929295
 30
0.0
 11
545.2499646491169
 21
136.9816781929295
 31
0.0
  0
LINE
  5
183EC
330
18
100
AcDbEntity
  8
1
  6
CONTINUOUS
 62
     7
100
AcDbLine
 10
544.449964649117
 20
136.4066781929296
 30
0.0
 11
545.2499646491169
 21
136.4066781929296
 31
0.0
  0
LINE
  5
183ED
330
18
100
AcDbEntity
  8
1
  6
CONTINUOUS
 62
     7
100
AcDbLine
 10
544.449964649117
 20
136.9816781929295
 30
0.0
 11
544.449964649117
 21
136.4066781929296
 31
0.0
  0
LINE
  5
183EE
330
18
100
AcDbEntity
  8
1
  6
CONTINUOUS
 62
     7
100
AcDbLine
 10
545.2499646491169
 20
136.9816781929295
 30
0.0
 11
545.2499646491169
 21
136.4066781929296
 31
0.0
  0
LINE
  5
183EF
330
18
100
AcDbEntity
  8
1
  6
CONTINUOUS
 62
     7
100
AcDbLine
 10
545.2499646491169
 20
110.9066781929296
 30
0.0
 11
545.2499646491169
 21
110.3316781929295
 31
0.0
  0
LINE
  5
183F0
330
18
100
AcDbEntity
  8
1
  6
CONTINUOUS
 62
     7
100
AcDbLine
 10
544.449964649117
 20
110.3316781929295
 30
0.0
 11
545.2499646491169
 21
110.3316781929295
 31
0.0
  0
LINE
  5
183F1
330
18
100
AcDbEntity
  8
1
  6
CONTINUOUS
 62
     7
100
AcDbLine
 10
544.449964649117
 20
110.9066781929296
 30
0.0
 11
544.449964649117
 21
110.3316781929295
 31
0.0
  0
LINE
  5
183F2
330
18
100
AcDbEntity
  8
1
  6
CONTINUOUS
 62
     7
100
AcDbLine
 10
544.449964649117
 20
110.9066781929296
 30
0.0
 11
545.2499646491169
 21
110.9066781929296
 31
0.0
  0
LINE
  5
183F3
330
18
100
AcDbEntity
  8
1
  6
CONTINUOUS
 62
     7
100
AcDbLine
 10
545.2499646491169
 20
110.3316781929295
 30
0.0
 11
545.2499646491169
 21
109.9816781929295
 31
0.0
  0
LINE
  5
183F4
330
18
100
AcDbEntity
  8
1
  6
CONTINUOUS
 62
     7
100
AcDbLine
 10
544.449964649117
 20
109.9816781929295
 30
0.0
 11
545.2499646491169
 21
109.9816781929295
 31
0.0
  0
LINE
  5
183F5
330
18
100
AcDbEntity
  8
1
  6
CONTINUOUS
 62
     7
100
AcDbLine
 10
544.449964649117
 20
110.3316781929295
 30
0.0
 11
544.449964649117
 21
109.9816781929295
 31
0.0
  0
LINE
  5
183F6
330
18
100
AcDbEntity
  8
1
  6
CONTINUOUS
 62
     7
100
AcDbLine
 10
544.449964649117
 20
109.4066781929296
 30
0.0
 11
545.2499646491169
 21
109.4066781929296
 31
0.0
  0
LINE
  5
183F7
330
18
100
AcDbEntity
  8
1
  6
CONTINUOUS
 62
     7
100
AcDbLine
 10
544.449964649117
 20
109.9816781929295
 30
0.0
 11
544.449964649117
 21
109.4066781929296
 31
0.0
  0
LINE
  5
183F8
330
18
100
AcDbEntity
  8
1
  6
CONTINUOUS
 62
     7
100
AcDbLine
 10
545.2499646491169
 20
109.9816781929295
 30
0.0
 11
545.2499646491169
 21
109.4066781929296
 31
0.0
  0
LINE
  5
183F9
330
18
100
AcDbEntity
  8
1
  6
CONTINUOUS
 62
     7
100
AcDbLine
 10
545.2499646491169
 20
83.90667819292958
 30
0.0
 11
545.2499646491169
 21
83.33167819292953
 31
0.0
  0
LINE
  5
183FA
330
18
100
AcDbEntity
  8
1
  6
CONTINUOUS
 62
     7
100
AcDbLine
 10
544.449964649117
 20
83.33167819292953
 30
0.0
 11
545.2499646491169
 21
83.33167819292953
 31
0.0
  0
LINE
  5
183FB
330
18
100
AcDbEntity
  8
1
  6
CONTINUOUS
 62
     7
100
AcDbLine
 10
544.449964649117
 20
83.90667819292958
 30
0.0
 11
544.449964649117
 21
83.33167819292953
 31
0.0
  0
LINE
  5
183FC
330
18
100
AcDbEntity
  8
1
  6
CONTINUOUS
 62
     7
100
AcDbLine
 10
544.449964649117
 20
83.90667819292958
 30
0.0
 11
545.2499646491169
 21
83.90667819292958
 31
0.0
  0
LINE
  5
183FD
330
18
100
AcDbEntity
  8
1
  6
CONTINUOUS
 62
     7
100
AcDbLine
 10
545.2499646491169
 20
83.33167819292953
 30
0.0
 11
545.2499646491169
 21
82.98167819292951
 31
0.0
  0
LINE
  5
183FE
330
18
100
AcDbEntity
  8
1
  6
CONTINUOUS
 62
     7
100
AcDbLine
 10
544.449964649117
 20
82.98167819292951
 30
0.0
 11
545.2499646491169
 21
82.98167819292951
 31
0.0
  0
LINE
  5
183FF
330
18
100
AcDbEntity
  8
1
  6
CONTINUOUS
 62
     7
100
AcDbLine
 10
544.449964649117
 20
83.33167819292953
 30
0.0
 11
544.449964649117
 21
82.98167819292951
 31
0.0
  0
LINE
  5
18400
330
18
100
AcDbEntity
  8
1
  6
CONTINUOUS
 62
     7
100
AcDbLine
 10
544.449964649117
 20
82.40667819292958
 30
0.0
 11
545.2499646491169
 21
82.40667819292958
 31
0.0
  0
LINE
  5
18401
330
18
100
AcDbEntity
  8
1
  6
CONTINUOUS
 62
     7
100
AcDbLine
 10
544.449964649117
 20
82.98167819292951
 30
0.0
 11
544.449964649117
 21
82.40667819292958
 31
0.0
  0
LINE
  5
18402
330
18
100
AcDbEntity
  8
1
  6
CONTINUOUS
 62
     7
100
AcDbLine
 10
545.2499646491169
 20
82.98167819292951
 30
0.0
 11
545.2499646491169
 21
82.40667819292958
 31
0.0
  0
LINE
  5
18403
330
18
100
AcDbEntity
  8
1
  6
CONTINUOUS
 62
     7
100
AcDbLine
 10
544.449964649117
 20
57.70667819292953
 30
0.0
 11
545.2499646491169
 21
57.70667819292953
 31
0.0
  0
LINE
  5
18404
330
18
100
AcDbEntity
  8
1
  6
CONTINUOUS
 62
     7
100
AcDbLine
 10
545.2499646491169
 20
57.1316781929296
 30
0.0
 11
545.2499646491169
 21
57.70667819292953
 31
0.0
  0
LINE
  5
18405
330
18
100
AcDbEntity
  8
1
  6
CONTINUOUS
 62
     7
100
AcDbLine
 10
544.449964649117
 20
57.1316781929296
 30
0.0
 11
545.2499646491169
 21
57.1316781929296
 31
0.0
  0
LINE
  5
18406
330
18
100
AcDbEntity
  8
1
  6
CONTINUOUS
 62
     7
100
AcDbLine
 10
544.449964649117
 20
57.1316781929296
 30
0.0
 11
544.449964649117
 21
57.70667819292953
 31
0.0
  0
LINE
  5
18407
330
18
100
AcDbEntity
  8
1
  6
CONTINUOUS
 62
     7
100
AcDbLine
 10
545.2499646491169
 20
56.78167819292958
 30
0.0
 11
545.2499646491169
 21
57.1316781929296
 31
0.0
  0
LINE
  5
18408
330
18
100
AcDbEntity
  8
1
  6
CONTINUOUS
 62
     7
100
AcDbLine
 10
544.449964649117
 20
56.78167819292958
 30
0.0
 11
545.2499646491169
 21
56.78167819292958
 31
0.0
  0
LINE
  5
18409
330
18
100
AcDbEntity
  8
1
  6
CONTINUOUS
 62
     7
100
AcDbLine
 10
544.449964649117
 20
56.78167819292958
 30
0.0
 11
544.449964649117
 21
57.1316781929296
 31
0.0
  0
LINE
  5
1840A
330
18
100
AcDbEntity
  8
1
  6
CONTINUOUS
 62
     7
100
AcDbLine
 10
544.449964649117
 20
56.20667819292953
 30
0.0
 11
545.2499646491169
 21
56.20667819292953
 31
0.0
  0
LINE
  5
1840B
330
18
100
AcDbEntity
  8
1
  6
CONTINUOUS
 62
     7
100
AcDbLine
 10
544.449964649117
 20
56.20667819292953
 30
0.0
 11
544.449964649117
 21
56.78167819292958
 31
0.0
  0
LINE
  5
1840C
330
18
100
AcDbEntity
  8
1
  6
CONTINUOUS
 62
     7
100
AcDbLine
 10
545.2499646491169
 20
56.20667819292953
 30
0.0
 11
545.2499646491169
 21
56.78167819292958
 31
0.0
  0
LINE
  5
1840D
330
18
100
AcDbEntity
  8
1
  6
CONTINUOUS
 62
     7
100
AcDbLine
 10
543.9499646491169
 20
229.1752487516884
 30
0.0
 11
543.9499646491169
 21
232.1752487516884
 31
0.0
  0
LINE
  5
1840E
330
18
100
AcDbEntity
  8
1
  6
CONTINUOUS
 62
     7
100
AcDbLine
 10
557.7499646491169
 20
230.1752487516884
 30
0.0
 11
554.7499646491169
 21
230.1752487516884
 31
0.0
  0
LINE
  5
1840F
330
18
100
AcDbEntity
  8
1
  6
CONTINUOUS
 62
     7
100
AcDbLine
 10
554.7499646491169
 20
230.1752487516884
 30
0.0
 11
554.7499646491169
 21
229.1752487516884
 31
0.0
  0
LINE
  5
18410
330
18
100
AcDbEntity
  8
1
  6
CONTINUOUS
 62
     7
100
AcDbLine
 10
554.7499646491169
 20
231.1752487516884
 30
0.0
 11
557.7499646491169
 21
231.1752487516884
 31
0.0
  0
LINE
  5
18411
330
18
100
AcDbEntity
  8
1
  6
CONTINUOUS
 62
     7
100
AcDbLine
 10
554.7499646491169
 20
231.1752487516884
 30
0.0
 11
554.7499646491169
 21
232.1752487516884
 31
0.0
  0
LINE
  5
18412
330
18
100
AcDbEntity
  8
1
  6
CONTINUOUS
 62
     7
100
AcDbLine
 10
543.9499646491169
 20
232.1752487516884
 30
0.0
 11
554.7499646491169
 21
232.1752487516884
 31
0.0
  0
LINE
  5
18413
330
18
100
AcDbEntity
  8
1
  6
CONTINUOUS
 62
     7
100
AcDbLine
 10
543.9499646491169
 20
229.1752487516884
 30
0.0
 11
554.7499646491169
 21
229.1752487516884
 31
0.0
  0
LINE
  5
18414
330
18
100
AcDbEntity
  8
1
  6
CONTINUOUS
 62
     7
100
AcDbLine
 10
557.7499646491169
 20
230.1752487516884
 30
0.0
 11
557.7499646491169
 21
231.1752487516884
 31
0.0
  0
LINE
  5
1841E
102
{ACAD_REACTORS
102
}
330
18
100
AcDbEntity
  8
1
  6
CONTINUOUS
 62
     7
100
AcDbLine
 10
554.7499646491169
 20
229.1752487516884
 30
0.0
 11
557.7499646491169
 21
229.1752487516884
 31
0.0
  0
LINE
  5
1841F
330
18
100
AcDbEntity
  8
1
  6
CONTINUOUS
 62
     7
100
AcDbLine
 10
557.7499646491169
 20
230.1752487516884
 30
0.0
 11
557.7499646491169
 21
229.1752487516884
 31
0.0
  0
LINE
  5
18420
102
{ACAD_REACTORS
102
}
330
18
100
AcDbEntity
  8
1
  6
CONTINUOUS
 62
     7
100
AcDbLine
 10
557.7499646491169
 20
232.1752487516884
 30
0.0
 11
554.7499646491169
 21
232.1752487516884
 31
0.0
  0
LINE
  5
18421
330
18
100
AcDbEntity
  8
1
  6
CONTINUOUS
 62
     7
100
AcDbLine
 10
557.7499646491169
 20
231.1752487516884
 30
0.0
 11
557.7499646491169
 21
232.1752487516884
 31
0.0
  0
LINE
  5
18426
102
{ACAD_REACTORS
102
}
330
18
100
AcDbEntity
  8
1
  6
CONTINUOUS
 62
     7
100
AcDbLine
 10
544.449964649117
 20
240.4191651991709
 30
0.0
 11
545.2499646491169
 21
240.4191651991708
 31
0.0
  0
LINE
  5
18427
330
18
100
AcDbEntity
  8
1
  6
CONTINUOUS
 62
     7
100
AcDbLine
 10
545.2499646491169
 20
239.3191651991709
 30
0.0
 11
545.2499646491169
 21
240.4191651991708
 31
0.0
  0
LINE
  5
18428
330
18
100
AcDbEntity
  8
1
  6
CONTINUOUS
 62
     7
100
AcDbLine
 10
544.449964649117
 20
239.3191651991709
 30
0.0
 11
545.2499646491169
 21
239.3191651991709
 31
0.0
  0
LINE
  5
18429
330
18
100
AcDbEntity
  8
1
  6
CONTINUOUS
 62
     7
100
AcDbLine
 10
544.449964649117
 20
239.3191651991709
 30
0.0
 11
544.449964649117
 21
240.4191651991709
 31
0.0
  0
LINE
  5
1842A
330
18
100
AcDbEntity
  8
1
  6
CONTINUOUS
 62
     7
100
AcDbLine
 10
545.2499646491169
 20
239.3191651991709
 30
0.0
 11
545.2499646445492
 21
232.1752487516884
 31
0.0
  0
LINE
  5
1842B
330
18
100
AcDbEntity
  8
1
  6
CONTINUOUS
 62
     7
100
AcDbLine
 10
544.449964649117
 20
239.3191651991709
 30
0.0
 11
544.4499646491169
 21
232.1752487516884
 31
0.0
  0
LINE
  5
1842D
330
18
100
AcDbEntity
  8
OSIE
100
AcDbLine
 10
565.1322223748202
 20
123.6566781929296
 30
0.0
 11
538.2686964124565
 21
123.6566781929296
 31
0.0
  0
LINE
  5
1842E
330
18
100
AcDbEntity
  8
OSIE
100
AcDbLine
 10
621.861564088062
 20
123.6566781929296
 30
0.0
 11
644.557894887289
 21
123.6566781929296
 31
0.0
  0
LINE
  5
1842F
330
18
100
AcDbEntity
  8
OSIE
100
AcDbLine
 10
542.8918819282501
 20
190.3566781929296
 30
0.0
 11
546.8080473699839
 21
190.3566781929296
 31
0.0
  0
LINE
  5
18430
330
18
100
AcDbEntity
  8
OSIE
100
AcDbLine
 10
542.8918819282501
 20
164.1566781929296
 30
0.0
 11
546.8080473699839
 21
164.1566781929296
 31
0.0
  0
LINE
  5
18431
330
18
100
AcDbEntity
  8
OSIE
100
AcDbLine
 10
542.8918819282501
 20
137.1566781929296
 30
0.0
 11
546.8080473699839
 21
137.1566781929296
 31
0.0
  0
LINE
  5
18432
330
18
100
AcDbEntity
  8
OSIE
100
AcDbLine
 10
542.8918819282501
 20
110.1566781929296
 30
0.0
 11
546.8080473699839
 21
110.1566781929296
 31
0.0
  0
LINE
  5
18433
330
18
100
AcDbEntity
  8
OSIE
100
AcDbLine
 10
542.8918819282501
 20
83.15667819292963
 30
0.0
 11
546.8080473699839
 21
83.15667819292963
 31
0.0
  0
LINE
  5
18434
330
18
100
AcDbEntity
  8
OSIE
100
AcDbLine
 10
542.8918819282501
 20
56.95667819292959
 30
0.0
 11
546.8080473699839
 21
56.95667819292959
 31
0.0
  0
LINE
  5
18435
102
{ACAD_REACTORS
102
}
330
18
100
AcDbEntity
  8
OSIE
100
AcDbLine
 10
641.1812195454418
 20
190.3566781929296
 30
0.0
 11
629.5236953881924
 21
190.3566781929296
 31
0.0
  0
LINE
  5
18436
102
{ACAD_REACTORS
102
}
330
18
100
AcDbEntity
  8
OSIE
100
AcDbLine
 10
641.1812195454418
 20
164.1566781929295
 30
0.0
 11
629.5236953881924
 21
164.1566781929295
 31
0.0
  0
LINE
  5
18437
102
{ACAD_REACTORS
102
}
330
18
100
AcDbEntity
  8
OSIE
100
AcDbLine
 10
641.1812195454418
 20
137.1566781929295
 30
0.0
 11
629.5236953881924
 21
137.1566781929295
 31
0.0
  0
LINE
  5
18438
102
{ACAD_REACTORS
102
}
330
18
100
AcDbEntity
  8
OSIE
100
AcDbLine
 10
641.1812195454418
 20
110.1566781929295
 30
0.0
 11
629.5236953881924
 21
110.1566781929295
 31
0.0
  0
LINE
  5
18439
102
{ACAD_REACTORS
102
}
330
18
100
AcDbEntity
  8
OSIE
100
AcDbLine
 10
641.1812195454418
 20
83.15667819292952
 30
0.0
 11
629.5236953881924
 21
83.15667819292952
 31
0.0
  0
LINE
  5
1843A
102
{ACAD_REACTORS
102
}
330
18
100
AcDbEntity
  8
OSIE
100
AcDbLine
 10
641.1812195454418
 20
56.95667819292959
 30
0.0
 11
629.5236953881924
 21
56.95667819292959
 31
0.0
  0
LINE
  5
1843B
330
18
100
AcDbEntity
  8
OSIE
100
AcDbLine
 10
544.8499646491169
 20
241.9006753101642
 30
0.0
 11
544.8499646491169
 21
230.1963337868215
 31
0.0
  0
DIMENSION
  5
1843D
102
{ACAD_REACTORS
102
}
102
{ACAD_XDICTIONARY
360
1843E
102
}
330
18
100
AcDbEntity
  8
WY
100
AcDbDimension
  2
*D184
 10
568.2549298161073
 20
229.1752487516884
 30
0.0
 11
566.7549298161073
 21
230.6752487516884
 31
0.0
 70
    32
  3
STANDARD
100
AcDbAlignedDimension
 13
557.7499646491169
 23
232.1752487516884
 33
0.0
 14
557.7499646491169
 24
229.1752487516884
 34
0.0
 50
90.0
100
AcDbRotatedDimension
1001
ACAD
1000
DSTYLE
1002
{
1070
   287
1070
     4
1070
    41
1040
2.5
1070
   147
1040
0.75
1070
   174
1070
     1
1070
   279
1070
     1
1070
   172
1070
     1
1070
    74
1070
     1
1070
   140
1040
1.5
1070
   284
1070
     8
1070
    78
1070
     8
1002
}
  0
DIMENSION
  5
1844E
102
{ACAD_REACTORS
102
}
102
{ACAD_XDICTIONARY
360
1844F
102
}
330
18
100
AcDbEntity
  8
WY
100
AcDbDimension
  2
*D185
 10
573.7436723438383
 20
240.4191651991708
 30
0.0
 11
572.2436723438383
 21
234.7972069754296
 31
0.0
 70
    32
  3
STANDARD
100
AcDbAlignedDimension
 13
557.7499646491169
 23
229.1752487516884
 33
0.0
 14
545.2499646491169
 24
240.4191651991708
 34
0.0
 50
90.0
100
AcDbRotatedDimension
1001
ACAD
1000
DSTYLE
1002
{
1070
   287
1070
     4
1070
     3
1000
%%p0.1
1070
   271
1070
     1
1070
    41
1040
2.5
1070
   147
1040
0.75
1070
   174
1070
     1
1070
   279
1070
     1
1070
   172
1070
     1
1070
    74
1070
     1
1070
   140
1040
1.5
1070
   284
1070
     8
1070
    78
1070
     8
1002
}
  0
DIMENSION
  5
18463
102
{ACAD_REACTORS
102
}
102
{ACAD_XDICTIONARY
360
18464
102
}
330
18
100
AcDbEntity
  8
WY
100
AcDbDimension
  2
*D186
 10
557.7499646491169
 20
196.9513308737236
 30
0.0
 11
552.7499646491169
 21
198.4513308737236
 31
0.0
 70
    32
  3
STANDARD
100
AcDbAlignedDimension
 13
547.7499646491169
 23
189.0066781929295
 33
0.0
 14
557.7499646491169
 24
191.5066781929295
 34
0.0
100
AcDbRotatedDimension
1001
ACAD
1000
DSTYLE
1002
{
1070
   287
1070
     4
1070
    41
1040
2.5
1070
   147
1040
0.75
1070
   174
1070
     1
1070
   279
1070
     1
1070
   172
1070
     1
1070
    74
1070
     1
1070
   140
1040
1.5
1070
   284
1070
     8
1070
    78
1070
     8
1002
}
  0
DIMENSION
  5
18472
102
{ACAD_REACTORS
102
}
102
{ACAD_XDICTIONARY
360
18473
102
}
330
18
100
AcDbEntity
  8
WY
100
AcDbDimension
  2
*D187
 10
557.7499646491169
 20
200.4184372494534
 30
0.0
 11
550.8499646491168
 21
201.9184372494534
 31
0.0
 70
    32
  3
STANDARD
100
AcDbAlignedDimension
 13
543.9499646491169
 23
191.5066781929295
 33
0.0
 14
557.7499646491169
 24
191.5066781929295
 34
0.0
100
AcDbRotatedDimension
1001
ACAD
1000
DSTYLE
1002
{
1070
   287
1070
     4
1070
    41
1040
2.5
1070
   147
1040
0.75
1070
   174
1070
     1
1070
   279
1070
     1
1070
   172
1070
     1
1070
    74
1070
     1
1070
   140
1040
1.5
1070
   284
1070
     8
1070
    78
1070
     8
1002
}
  0
DIMENSION
  5
18481
102
{ACAD_REACTORS
102
}
102
{ACAD_XDICTIONARY
360
18482
102
}
330
18
100
AcDbEntity
  8
WY
100
AcDbDimension
  2
*D188
 10
570.2522340873314
 20
55.80667819292955
 30
0.0
 11
568.7522340873314
 21
123.6566781929295
 31
0.0
 70
    32
  3
STANDARD
100
AcDbAlignedDimension
 13
557.7499646491169
 23
191.5066781929295
 33
0.0
 14
557.7499646491169
 24
55.80667819292955
 34
0.0
 50
90.0
100
AcDbRotatedDimension
1001
ACAD
1000
DSTYLE
1002
{
1070
   287
1070
     4
1070
     3
1000
%%p0.2
1070
    41
1040
2.5
1070
   147
1040
0.75
1070
   174
1070
     1
1070
   279
1070
     1
1070
   172
1070
     1
1070
    74
1070
     1
1070
   140
1040
1.5
1070
   284
1070
     8
1070
    78
1070
     8
1002
}
  0
LINE
  5
18491
330
18
100
AcDbEntity
  8
OSIE
100
AcDbLine
 10
550.2499646491169
 20
191.1104710208992
 30
0.0
 11
550.2499646491169
 21
189.1029423628155
 31
0.0
  0
LINE
  5
184BB
330
18
100
AcDbEntity
  8
OSIE
100
AcDbLine
 10
549.246200320075
 20
190.1067066918573
 30
0.0
 11
551.2537289781587
 21
190.1067066918573
 31
0.0
  0
LINE
  5
184BC
330
18
100
AcDbEntity
  8
OSIE
100
AcDbLine
 10
552.7499646491169
 20
178.6604425219714
 30
0.0
 11
552.7499646491169
 21
176.6529138638877
 31
0.0
  0
LINE
  5
184BD
330
18
100
AcDbEntity
  8
OSIE
100
AcDbLine
 10
551.746200320075
 20
177.6566781929296
 30
0.0
 11
553.7537289781587
 21
177.6566781929296
 31
0.0
  0
LINE
  5
184BE
330
18
100
AcDbEntity
  8
OSIE
100
AcDbLine
 10
550.2499646491169
 20
165.1604425219714
 30
0.0
 11
550.2499646491169
 21
163.1529138638877
 31
0.0
  0
LINE
  5
184BF
330
18
100
AcDbEntity
  8
OSIE
100
AcDbLine
 10
549.246200320075
 20
164.1566781929296
 30
0.0
 11
551.2537289781587
 21
164.1566781929296
 31
0.0
  0
LINE
  5
184C0
330
18
100
AcDbEntity
  8
OSIE
100
AcDbLine
 10
552.7499646491169
 20
151.6604425219714
 30
0.0
 11
552.7499646491169
 21
149.6529138638877
 31
0.0
  0
LINE
  5
184C1
330
18
100
AcDbEntity
  8
OSIE
100
AcDbLine
 10
551.746200320075
 20
150.6566781929296
 30
0.0
 11
553.7537289781587
 21
150.6566781929296
 31
0.0
  0
LINE
  5
184C2
330
18
100
AcDbEntity
  8
OSIE
100
AcDbLine
 10
550.2499646491169
 20
138.1604425219714
 30
0.0
 11
550.2499646491169
 21
136.1529138638877
 31
0.0
  0
LINE
  5
184C3
330
18
100
AcDbEntity
  8
OSIE
100
AcDbLine
 10
549.246200320075
 20
137.1566781929296
 30
0.0
 11
551.2537289781587
 21
137.1566781929296
 31
0.0
  0
LINE
  5
184C4
330
18
100
AcDbEntity
  8
OSIE
100
AcDbLine
 10
552.7499646491169
 20
124.6604425219714
 30
0.0
 11
552.7499646491169
 21
122.6529138638877
 31
0.0
  0
LINE
  5
184C5
330
18
100
AcDbEntity
  8
OSIE
100
AcDbLine
 10
551.746200320075
 20
123.6566781929296
 30
0.0
 11
553.7537289781587
 21
123.6566781929296
 31
0.0
  0
LINE
  5
184C6
330
18
100
AcDbEntity
  8
OSIE
100
AcDbLine
 10
550.2499646491169
 20
111.1604425219714
 30
0.0
 11
550.2499646491169
 21
109.1529138638877
 31
0.0
  0
LINE
  5
184C7
330
18
100
AcDbEntity
  8
OSIE
100
AcDbLine
 10
549.246200320075
 20
110.1566781929296
 30
0.0
 11
551.2537289781587
 21
110.1566781929296
 31
0.0
  0
LINE
  5
184C8
330
18
100
AcDbEntity
  8
OSIE
100
AcDbLine
 10
552.7499646491169
 20
97.66044252197145
 30
0.0
 11
552.7499646491169
 21
95.6529138638877
 31
0.0
  0
LINE
  5
184C9
330
18
100
AcDbEntity
  8
OSIE
100
AcDbLine
 10
551.746200320075
 20
96.65667819292958
 30
0.0
 11
553.7537289781587
 21
96.65667819292958
 31
0.0
  0
LINE
  5
184CA
330
18
100
AcDbEntity
  8
OSIE
100
AcDbLine
 10
550.2499646491169
 20
84.16044252197145
 30
0.0
 11
550.2499646491169
 21
82.1529138638877
 31
0.0
  0
LINE
  5
184CB
330
18
100
AcDbEntity
  8
OSIE
100
AcDbLine
 10
549.246200320075
 20
83.15667819292958
 30
0.0
 11
551.2537289781587
 21
83.15667819292958
 31
0.0
  0
LINE
  5
184CC
330
18
100
AcDbEntity
  8
OSIE
100
AcDbLine
 10
552.7499646491169
 20
70.66044252197145
 30
0.0
 11
552.7499646491169
 21
68.6529138638877
 31
0.0
  0
LINE
  5
184CD
330
18
100
AcDbEntity
  8
OSIE
100
AcDbLine
 10
551.746200320075
 20
69.65667819292958
 30
0.0
 11
553.7537289781587
 21
69.65667819292958
 31
0.0
  0
LINE
  5
184CE
330
18
100
AcDbEntity
  8
OSIE
100
AcDbLine
 10
550.2499646491169
 20
58.2104425219714
 30
0.0
 11
550.2499646491169
 21
56.20291386388766
 31
0.0
  0
LINE
  5
184CF
330
18
100
AcDbEntity
  8
OSIE
100
AcDbLine
 10
549.246200320075
 20
57.20667819292953
 30
0.0
 11
551.2537289781587
 21
57.20667819292953
 31
0.0
  0
DIMENSION
  5
184D1
102
{ACAD_REACTORS
102
}
102
{ACAD_XDICTIONARY
360
184D2
102
}
330
18
100
AcDbEntity
  8
WY
100
AcDbDimension
  2
*D190
 10
636.0850872707225
 20
189.6066781929295
 30
0.0
 11
636.0850872707225
 21
198.1066781929295
 31
0.0
 70
   160
  3
STANDARD
100
AcDbAlignedDimension
 13
638.3674095888044
 23
191.1066781929295
 33
0.0
 14
638.3674095888044
 24
189.6066781929295
 34
0.0
 50
90.0
100
AcDbRotatedDimension
1001
ACAD
1000
DSTYLE
1002
{
1070
   287
1070
     3
1070
    41
1040
2.5
1070
   147
1040
0.75
1070
   174
1070
     1
1070
   279
1070
     0
1070
   172
1070
     1
1070
    74
1070
     0
1070
   140
1040
1.5
1070
   284
1070
     8
1070
    78
1070
     8
1002
}
  0
DIMENSION
  5
184E4
102
{ACAD_REACTORS
102
}
102
{ACAD_XDICTIONARY
360
184E5
102
}
330
18
100
AcDbEntity
  8
WY
100
AcDbDimension
  2
*D191
 10
649.728682803483
 20
164.1566781929295
 30
0.0
 11
648.228682803483
 21
177.2566781929295
 31
0.0
 70
    32
  3
STANDARD
100
AcDbAlignedDimension
 13
641.1812195454418
 23
190.3566781929296
 33
0.0
 14
641.1812195454418
 24
164.1566781929295
 34
0.0
 50
90.0
100
AcDbRotatedDimension
1001
ACAD
1000
DSTYLE
1002
{
1070
   287
1070
     4
1070
    41
1040
2.5
1070
   147
1040
0.75
1070
   174
1070
     1
1070
   279
1070
     1
1070
   172
1070
     1
1070
    74
1070
     1
1070
   140
1040
1.5
1070
   284
1070
     8
1070
    78
1070
     8
1002
}
  0
DIMENSION
  5
184F3
102
{ACAD_REACTORS
102
}
102
{ACAD_XDICTIONARY
360
184F4
102
}
330
18
100
AcDbEntity
  8
WY
100
AcDbDimension
  2
*D192
 10
649.728682803483
 20
137.1566781929295
 30
0.0
 11
648.228682803483
 21
150.6566781929295
 31
0.0
 70
    32
  3
STANDARD
100
AcDbAlignedDimension
 13
641.1812195454418
 23
164.1566781929295
 33
0.0
 14
641.1812195454418
 24
137.1566781929295
 34
0.0
 50
90.0
100
AcDbRotatedDimension
1001
ACAD
1000
DSTYLE
1002
{
1070
   287
1070
     4
1070
    41
1040
2.5
1070
   147
1040
0.75
1070
   174
1070
     1
1070
   279
1070
     1
1070
   172
1070
     1
1070
    74
1070
     1
1070
   140
1040
1.5
1070
   284
1070
     8
1070
    78
1070
     8
1002
}
  0
DIMENSION
  5
18502
102
{ACAD_REACTORS
102
}
102
{ACAD_XDICTIONARY
360
18503
102
}
330
18
100
AcDbEntity
  8
WY
100
AcDbDimension
  2
*D193
 10
649.728682803483
 20
110.1566781929295
 30
0.0
 11
648.228682803483
 21
123.6566781929295
 31
0.0
 70
    32
  3
STANDARD
100
AcDbAlignedDimension
 13
641.1812195454418
 23
137.1566781929295
 33
0.0
 14
641.1812195454418
 24
110.1566781929295
 34
0.0
 50
90.0
100
AcDbRotatedDimension
1001
ACAD
1000
DSTYLE
1002
{
1070
   287
1070
     4
1070
    41
1040
2.5
1070
   147
1040
0.75
1070
   174
1070
     1
1070
   279
1070
     1
1070
   172
1070
     1
1070
    74
1070
     1
1070
   140
1040
1.5
1070
   284
1070
     8
1070
    78
1070
     8
1002
}
  0
DIMENSION
  5
18511
102
{ACAD_REACTORS
102
}
102
{ACAD_XDICTIONARY
360
18512
102
}
330
18
100
AcDbEntity
  8
WY
100
AcDbDimension
  2
*D194
 10
649.728682803483
 20
83.15667819292952
 30
0.0
 11
648.228682803483
 21
96.65667819292952
 31
0.0
 70
    32
  3
STANDARD
100
AcDbAlignedDimension
 13
641.1812195454418
 23
110.1566781929295
 33
0.0
 14
641.1812195454418
 24
83.15667819292952
 34
0.0
 50
90.0
100
AcDbRotatedDimension
1001
ACAD
1000
DSTYLE
1002
{
1070
   287
1070
     4
1070
    41
1040
2.5
1070
   147
1040
0.75
1070
   174
1070
     1
1070
   279
1070
     1
1070
   172
1070
     1
1070
    74
1070
     1
1070
   140
1040
1.5
1070
   284
1070
     8
1070
    78
1070
     8
1002
}
  0
DIMENSION
  5
18520
102
{ACAD_REACTORS
102
}
102
{ACAD_XDICTIONARY
360
18521
102
}
330
18
100
AcDbEntity
  8
WY
100
AcDbDimension
  2
*D195
 10
649.728682803483
 20
56.95667819292959
 30
0.0
 11
648.228682803483
 21
70.05667819292955
 31
0.0
 70
    32
  3
STANDARD
100
AcDbAlignedDimension
 13
641.1812195454418
 23
83.15667819292952
 33
0.0
 14
641.1812195454418
 24
56.95667819292959
 34
0.0
 50
90.0
100
AcDbRotatedDimension
1001
ACAD
1000
DSTYLE
1002
{
1070
   287
1070
     4
1070
    41
1040
2.5
1070
   147
1040
0.75
1070
   174
1070
     1
1070
   279
1070
     1
1070
   172
1070
     1
1070
    74
1070
     1
1070
   140
1040
1.5
1070
   284
1070
     8
1070
    78
1070
     8
1002
}
  0
LINE
  5
18530
330
18
100
AcDbEntity
  8
OSIE
100
AcDbLine
 10
558.6934489393406
 20
230.6752487516884
 30
0.0
 11
543.3214198086233
 21
230.6752487516884
 31
0.0
  0
ENDSEC
  0
SECTION
  2
OBJECTS
  0
DICTIONARY
  5
C
330
0
100
AcDbDictionary
  3
ACAD_DETAILVIEWSTYLE
350
F5C4
  3
ACAD_GROUP
350
D
  3
ACAD_IMAGE_VARS
350
F140
  3
ACAD_MLINESTYLE
350
E
  3
ACAD_SCALELIST
350
18084
  3
ACAD_SECTIONVIEWSTYLE
350
F5C5
  3
ACDBVARIABLEDICTIONARY
350
C1B
  3
APPDATA
350
F13E
  3
DIMOFFSETDICTIONARY
350
13296
  3
DWGPROPS
350
18532
  0
DICTIONARY
  5
13241
330
2
100
AcDbDictionary
280
     1
  3
ACAD_LAYERSTATES
360
13242
  0
DICTIONARY
  5
1843E
330
1843D
100
AcDbDictionary
280
     1
  0
DICTIONARY
  5
1844F
330
1844E
100
AcDbDictionary
280
     1
  0
DICTIONARY
  5
18464
330
18463
100
AcDbDictionary
280
     1
  0
DICTIONARY
  5
18473
330
18472
100
AcDbDictionary
280
     1
  0
DICTIONARY
  5
18482
330
18481
100
AcDbDictionary
280
     1
  0
DICTIONARY
  5
184D2
330
184D1
100
AcDbDictionary
280
     1
  0
DICTIONARY
  5
184E5
330
184E4
100
AcDbDictionary
280
     1
  0
DICTIONARY
  5
184F4
330
184F3
100
AcDbDictionary
280
     1
  0
DICTIONARY
  5
18503
330
18502
100
AcDbDictionary
280
     1
  0
DICTIONARY
  5
18512
330
18511
100
AcDbDictionary
280
     1
  0
DICTIONARY
  5
18521
330
18520
100
AcDbDictionary
280
     1
  0
DICTIONARY
  5
F5C4
102
{ACAD_REACTORS
330
C
102
}
330
C
100
AcDbDictionary
  0
DICTIONARY
  5
D
102
{ACAD_REACTORS
330
C
102
}
330
C
100
AcDbDictionary
  0
RASTERVARIABLES
  5
F140
102
{ACAD_REACTORS
330
C
102
}
330
C
100
AcDbRasterVariables
 90
        0
 70
     1
 71
     1
 72
     0
  0
DICTIONARY
  5
E
102
{ACAD_REACTORS
330
C
102
}
330
C
100
AcDbDictionary
  3
STANDARD
350
1B
  0
DICTIONARY
  5
18084
102
{ACAD_REACTORS
330
C
102
}
330
C
100
AcDbDictionary
  0
DICTIONARY
  5
F5C5
102
{ACAD_REACTORS
330
C
102
}
330
C
100
AcDbDictionary
  0
DICTIONARY
  5
C1B
102
{ACAD_REACTORS
330
C
102
}
330
C
100
AcDbDictionary
  3
HPTRANSPARENCY
350
13295
  3
SORTENTS
350
C1C
  0
DICTIONARY
  5
F13E
102
{ACAD_REACTORS
330
C
102
}
330
C
100
AcDbDictionary
  0
DICTIONARY
  5
13296
102
{ACAD_REACTORS
330
C
102
}
330
C
100
AcDbDictionary
  3
DIMRAILANGLE
350
17EB8
  3
DIMRAILFIRSTOFFSET
350
17EB6
  3
DIMRAILOFFSET
350
17EB7
  3
DIMRAILSENABLED
350
17EB9
  0
XRECORD
  5
18532
102
{ACAD_REACTORS
330
C
102
}
330
C
100
AcDbXrecord
  1
DWGPROPS COOKIE
  2

  3

  4

  6

  7

  8
pikusl
  9

300
=
301
=
302
=
303
=
304
=
305
=
306
=
307
=
308
=
309
=
 40
0.0
 41
2448721.315803356
 42
2457556.365642095
  1

 90
        0
  0
DICTIONARY
  5
13242
102
{ACAD_REACTORS
330
13241
102
}
330
13241
100
AcDbDictionary
  0
MLINESTYLE
  5
1B
102
{ACAD_REACTORS
330
E
102
}
330
E
100
AcDbMlineStyle
  2
STANDARD
 70
     0
  3

 62
     0
 51
90.0
 52
90.0
 71
     2
 49
0.5
 62
   256
  6
BYLAYER
 49
-0.5
 62
   256
  6
BYLAYER
  0
DICTIONARYVAR
  5
13295
102
{ACAD_REACTORS
330
C1B
102
}
330
C1B
100
DictionaryVariables
280
     0
  1
ByLayer
  0
DICTIONARYVAR
  5
C1C
102
{ACAD_REACTORS
330
C1B
102
}
330
C1B
100
DictionaryVariables
280
     0
  1
96
  0
DICTIONARYVAR
  5
17EB8
102
{ACAD_REACTORS
330
13296
102
}
330
13296
100
DictionaryVariables
280
     0
  1
0.261799
  0
DICTIONARYVAR
  5
17EB6
102
{ACAD_REACTORS
330
13296
102
}
330
13296
100
DictionaryVariables
280
     0
  1
0.400000
  0
DICTIONARYVAR
  5
17EB7
102
{ACAD_REACTORS
330
13296
102
}
330
13296
100
DictionaryVariables
280
     0
  1
0.250000
  0
DICTIONARYVAR
  5
17EB9
102
{ACAD_REACTORS
330
13296
102
}
330
13296
100
DictionaryVariables
280
     0
  1
1
  0
ENDSEC
  0
EOF
