  0
SECTION
  2
HEADER
  9
$ACADVER
  1
AC1014
  9
$ACADMAINTVER
 70
     9
  9
$DWGCODEPAGE
  3
ANSI_1250
  9
$INSBASE
 10
0.0
 20
0.0
 30
0.0
  9
$EXTMIN
 10
486.041244
 20
0.0
 30
0.0
  9
$EXTMAX
 10
687.671651
 20
297.0
 30
0.0
  9
$LIMMIN
 10
0.0
 20
0.0
  9
$LIMMAX
 10
420.0
 20
297.0
  9
$ORTHOMODE
 70
     0
  9
$REGENMODE
 70
     1
  9
$FILLMODE
 70
     1
  9
$QTEXTMODE
 70
     0
  9
$MIRRTEXT
 70
     1
  9
$DRAGMODE
 70
     2
  9
$LTSCALE
 40
6.0
  9
$OSMODE
 70
 13247
  9
$ATTMODE
 70
     1
  9
$TEXTSIZE
 40
0.2
  9
$TRACEWID
 40
0.05
  9
$TEXTSTYLE
  7
ITALIC
  9
$CLAYER
  8
WY
  9
$CELTYPE
  6
BYLAYER
  9
$CECOLOR
 62
   256
  9
$CELTSCALE
 40
1.0
  9
$DELOBJ
 70
     1
  9
$DISPSILH
 70
     0
  9
$DIMSCALE
 40
1.0
  9
$DIMASZ
 40
2.5
  9
$DIMEXO
 40
1.5
  9
$DIMDLI
 40
7.0
  9
$DIMRND
 40
0.0
  9
$DIMDLE
 40
0.0
  9
$DIMEXE
 40
1.5
  9
$DIMTP
 40
0.1
  9
$DIMTM
 40
0.0
  9
$DIMTXT
 40
1.5
  9
$DIMCEN
 40
-1.0
  9
$DIMTSZ
 40
0.0
  9
$DIMTOL
 70
     0
  9
$DIMLIM
 70
     0
  9
$DIMTIH
 70
     0
  9
$DIMTOH
 70
     1
  9
$DIMSE1
 70
     0
  9
$DIMSE2
 70
     0
  9
$DIMTAD
 70
     1
  9
$DIMZIN
 70
     8
  9
$DIMBLK
  1

  9
$DIMASO
 70
     1
  9
$DIMSHO
 70
     0
  9
$DIMPOST
  1

  9
$DIMAPOST
  1

  9
$DIMALT
 70
     0
  9
$DIMALTD
 70
     2
  9
$DIMALTF
 40
25.4
  9
$DIMLFAC
 40
1.0
  9
$DIMTOFL
 70
     1
  9
$DIMTVP
 40
0.0
  9
$DIMTIX
 70
     1
  9
$DIMSOXD
 70
     0
  9
$DIMSAH
 70
     0
  9
$DIMBLK1
  1

  9
$DIMBLK2
  1

  9
$DIMSTYLE
  2
STANDARD
  9
$DIMCLRD
 70
     0
  9
$DIMCLRE
 70
     0
  9
$DIMCLRT
 70
     0
  9
$DIMTFAC
 40
1.0
  9
$DIMGAP
 40
0.75
  9
$DIMJUST
 70
     0
  9
$DIMSD1
 70
     0
  9
$DIMSD2
 70
     0
  9
$DIMTOLJ
 70
     1
  9
$DIMTZIN
 70
     8
  9
$DIMALTZ
 70
     0
  9
$DIMALTTZ
 70
     0
  9
$DIMFIT
 70
     4
  9
$DIMUPT
 70
     0
  9
$DIMUNIT
 70
     2
  9
$DIMDEC
 70
     2
  9
$DIMTDEC
 70
     4
  9
$DIMALTU
 70
     2
  9
$DIMALTTD
 70
     2
  9
$DIMTXSTY
  7
STANDARD
  9
$DIMAUNIT
 70
     0
  9
$LUNITS
 70
     2
  9
$LUPREC
 70
     2
  9
$SKETCHINC
 40
0.1
  9
$FILLETRAD
 40
2.5
  9
$AUNITS
 70
     0
  9
$AUPREC
 70
     2
  9
$MENU
  1
ACAD
  9
$ELEVATION
 40
0.0
  9
$PELEVATION
 40
0.0
  9
$THICKNESS
 40
0.0
  9
$LIMCHECK
 70
     0
  9
$CHAMFERA
 40
0.0
  9
$CHAMFERB
 40
0.0
  9
$CHAMFERC
 40
0.0
  9
$CHAMFERD
 40
0.0
  9
$SKPOLY
 70
     0
  9
$TDCREATE
 40
2448721.39913669
  9
$TDUPDATE
 40
2457556.457150764
  9
$TDINDWG
 40
1.5979937963
  9
$TDUSRTIMER
 40
2457556.369906956
  9
$USRTIMER
 70
     1
  9
$ANGBASE
 50
0.0
  9
$ANGDIR
 70
     0
  9
$PDMODE
 70
     0
  9
$PDSIZE
 40
0.0
  9
$PLINEWID
 40
0.5
  9
$COORDS
 70
     1
  9
$SPLFRAME
 70
     0
  9
$SPLINETYPE
 70
     6
  9
$SPLINESEGS
 70
     8
  9
$ATTDIA
 70
     0
  9
$ATTREQ
 70
     1
  9
$HANDLING
 70
     1
  9
$HANDSEED
  5
18AED
  9
$SURFTAB1
 70
     6
  9
$SURFTAB2
 70
     6
  9
$SURFTYPE
 70
     6
  9
$SURFU
 70
     6
  9
$SURFV
 70
     6
  9
$UCSNAME
  2

  9
$UCSORG
 10
0.0
 20
0.0
 30
0.0
  9
$UCSXDIR
 10
1.0
 20
0.0
 30
0.0
  9
$UCSYDIR
 10
0.0
 20
1.0
 30
0.0
  9
$PUCSNAME
  2

  9
$PUCSORG
 10
0.0
 20
0.0
 30
0.0
  9
$PUCSXDIR
 10
1.0
 20
0.0
 30
0.0
  9
$PUCSYDIR
 10
0.0
 20
1.0
 30
0.0
  9
$USERI1
 70
     0
  9
$USERI2
 70
     0
  9
$USERI3
 70
     0
  9
$USERI4
 70
     0
  9
$USERI5
 70
     0
  9
$USERR1
 40
0.0
  9
$USERR2
 40
0.0
  9
$USERR3
 40
0.0
  9
$USERR4
 40
0.0
  9
$USERR5
 40
0.0
  9
$WORLDVIEW
 70
     1
  9
$SHADEDGE
 70
     3
  9
$SHADEDIF
 70
    70
  9
$TILEMODE
 70
     1
  9
$MAXACTVP
 70
    16
  9
$PINSBASE
 10
0.0
 20
0.0
 30
0.0
  9
$PLIMCHECK
 70
     0
  9
$PEXTMIN
 10
1.000000000000000E+20
 20
1.000000000000000E+20
 30
1.000000000000000E+20
  9
$PEXTMAX
 10
-1.000000000000000E+20
 20
-1.000000000000000E+20
 30
-1.000000000000000E+20
  9
$PLIMMIN
 10
0.0
 20
0.0
  9
$PLIMMAX
 10
0.0
 20
0.0
  9
$UNITMODE
 70
     0
  9
$VISRETAIN
 70
     0
  9
$PLINEGEN
 70
     0
  9
$PSLTSCALE
 70
     0
  9
$TREEDEPTH
 70
  3020
  9
$PICKSTYLE
 70
     1
  9
$CMLSTYLE
  2
STANDARD
  9
$CMLJUST
 70
     0
  9
$CMLSCALE
 40
1.0
  9
$PROXYGRAPHICS
 70
     1
  9
$MEASUREMENT
 70
     0
  0
ENDSEC
  0
SECTION
  2
CLASSES
  0
CLASS
  1
HATCH
  2
AcDbHatch
  3
ObjectDBX Classes
 90
        0
280
     0
281
     1
  0
CLASS
  1
LWPOLYLINE
  2
AcDbPolyline
  3
ObjectDBX Classes
 90
        0
280
     0
281
     1
  0
CLASS
  1
DICTIONARYVAR
  2
AcDbDictionaryVar
  3
ObjectDBX Classes
 90
        0
280
     0
281
     0
  0
CLASS
  1
XRECORD
  2
AcDbXrecord
  3
ObjectDBX Classes
 90
        0
280
     0
281
     0
  0
CLASS
  1
SCALE
  2
AcDbScale
  3
ObjectDBX Classes
 90
     1153
280
     0
281
     0
  0
CLASS
  1
VISUALSTYLE
  2
AcDbVisualStyle
  3
ObjectDBX Classes
 90
     4095
280
     0
281
     0
  0
CLASS
  1
MATERIAL
  2
AcDbMaterial
  3
ObjectDBX Classes
 90
     1153
280
     0
281
     0
  0
CLASS
  1
TABLESTYLE
  2
AcDbTableStyle
  3
ObjectDBX Classes
 90
     4095
280
     0
281
     0
  0
CLASS
  1
MLEADERSTYLE
  2
AcDbMLeaderStyle
  3
ACDB_MLEADERSTYLE_CLASS
 90
     4095
280
     0
281
     0
  0
CLASS
  1
SUN
  2
AcDbSun
  3
SCENEOE
 90
     1153
280
     0
281
     0
  0
CLASS
  1
RASTERVARIABLES
  2
AcDbRasterVariables
  3
ISM
 90
        0
280
     0
281
     0
  0
CLASS
  1
DIMASSOC
  2
AcDbDimAssoc
  3
"AcDbDimAssoc|Product Desc:     AcDim ARX App For Dimension|Company:          Autodesk, Inc.|WEB Address:      www.autodesk.com"
 90
        0
280
     0
281
     0
  0
CLASS
  1
ACDBDICTIONARYWDFLT
  2
AcDbDictionaryWithDefault
  3
ObjectDBX Classes
 90
        0
280
     0
281
     0
  0
ENDSEC
  0
SECTION
  2
TABLES
  0
TABLE
  2
VPORT
  5
8
330
0
100
AcDbSymbolTable
 70
     1
  0
VPORT
  5
F0F7
330
8
100
AcDbSymbolTableRecord
100
AcDbViewportTableRecord
  2
*ACTIVE
 70
     0
 10
0.0
 20
0.0
 11
1.0
 21
1.0
 12
586.8564475000001
 22
148.5
 13
0.0
 23
0.0
 14
1.0
 24
1.0
 15
5.0
 25
5.0
 16
0.0
 26
0.0
 36
1.0
 17
0.0
 27
0.0
 37
0.0
 40
302.94
 41
2.443631039531479
 42
50.0
 43
0.0
 44
0.0
 50
0.0
 51
0.0
 71
    16
 72
   200
 73
     1
 74
     0
 75
     0
 76
     0
 77
     0
 78
     0
  0
ENDTAB
  0
TABLE
  2
LTYPE
  5
5
330
0
100
AcDbSymbolTable
 70
     5
  0
LTYPE
  5
12
330
5
100
AcDbSymbolTableRecord
100
AcDbLinetypeTableRecord
  2
BYBLOCK
 70
     0
  3

 72
    65
 73
     0
 40
0.0
  0
LTYPE
  5
13
330
5
100
AcDbSymbolTableRecord
100
AcDbLinetypeTableRecord
  2
BYLAYER
 70
     0
  3

 72
    65
 73
     0
 40
0.0
  0
LTYPE
  5
14
330
5
100
AcDbSymbolTableRecord
100
AcDbLinetypeTableRecord
  2
CONTINUOUS
 70
     0
  3
Solid line
 72
    65
 73
     0
 40
0.0
  0
LTYPE
  5
1D
330
5
100
AcDbSymbolTableRecord
100
AcDbLinetypeTableRecord
  2
CENTER
 70
     0
  3
____ _ ____ _ ____ _ ____ _ ____ _ ____ _ ____
 72
    65
 73
     4
 40
2.0
 49
1.25
 74
     0
 49
-0.25
 74
     0
 49
0.25
 74
     0
 49
-0.25
 74
     0
  0
LTYPE
  5
1E
330
5
100
AcDbSymbolTableRecord
100
AcDbLinetypeTableRecord
  2
HIDDEN
 70
     0
  3
_ _ _ _ _ _ _ _ _ _ _ _ _ _ _ _ _ _ _ _ _ _ _
 72
    65
 73
     2
 40
0.375
 49
0.25
 74
     0
 49
-0.125
 74
     0
  0
LTYPE
  5
8093
330
5
100
AcDbSymbolTableRecord
100
AcDbLinetypeTableRecord
  2
PHANTOM
 70
     0
  3
Phantom ______  __  __  ______  __  __  ______
 72
    65
 73
     6
 40
12.7
 49
6.35
 74
     0
 49
-1.27
 74
     0
 49
1.27
 74
     0
 49
-1.27
 74
     0
 49
1.27
 74
     0
 49
-1.27
 74
     0
  0
LTYPE
  5
1187C
330
5
100
AcDbSymbolTableRecord
100
AcDbLinetypeTableRecord
  2
CENTERX2
 70
     0
  3
Center (2x) ________  __  ________  __  _____
 72
    65
 73
     4
 40
20.32
 49
12.7
 74
     0
 49
-2.54
 74
     0
 49
2.54
 74
     0
 49
-2.54
 74
     0
  0
ENDTAB
  0
TABLE
  2
LAYER
  5
2
102
{ACAD_XDICTIONARY
360
13241
102
}
330
0
100
AcDbSymbolTable
 70
     8
  0
LAYER
  5
F
330
2
100
AcDbSymbolTableRecord
100
AcDbLayerTableRecord
  2
0
 70
     0
 62
     7
  6
CONTINUOUS
  0
LAYER
  5
21
330
2
100
AcDbSymbolTableRecord
100
AcDbLayerTableRecord
  2
1
 70
     0
 62
     3
  6
CONTINUOUS
  0
LAYER
  5
22
330
2
100
AcDbSymbolTableRecord
100
AcDbLayerTableRecord
  2
2
 70
     0
 62
     6
  6
CONTINUOUS
  0
LAYER
  5
23
330
2
100
AcDbSymbolTableRecord
100
AcDbLayerTableRecord
  2
3
 70
     0
 62
     4
  6
HIDDEN
  0
LAYER
  5
24
330
2
100
AcDbSymbolTableRecord
100
AcDbLayerTableRecord
  2
OSIE
 70
     0
 62
     2
  6
CENTER
  0
LAYER
  5
25
330
2
100
AcDbSymbolTableRecord
100
AcDbLayerTableRecord
  2
WY
 70
     0
 62
     1
  6
CONTINUOUS
  0
LAYER
  5
26
330
2
100
AcDbSymbolTableRecord
100
AcDbLayerTableRecord
  2
DEFPOINTS
 70
     0
 62
     7
  6
CONTINUOUS
  0
LAYER
  5
464
330
2
100
AcDbSymbolTableRecord
100
AcDbLayerTableRecord
  2
WYMIARY
 70
     0
 62
     1
  6
CONTINUOUS
  0
ENDTAB
  0
TABLE
  2
STYLE
  5
3
330
0
100
AcDbSymbolTable
 70
     4
  0
STYLE
  5
10
330
3
100
AcDbSymbolTableRecord
100
AcDbTextStyleTableRecord
  2
STANDARD
 70
     0
 40
0.0
 41
1.0
 50
0.0
 71
     0
 42
6.0
  3
txt
  4

  0
STYLE
  5
1C
330
3
100
AcDbSymbolTableRecord
100
AcDbTextStyleTableRecord
  2
ITALIC
 70
     0
 40
0.0
 41
1.0
 50
15.0
 71
     0
 42
0.2
  3
simplex
  4

  0
STYLE
  5
C512
330
3
100
AcDbSymbolTableRecord
100
AcDbTextStyleTableRecord
  2
SLDTEXTSTYLE2
 70
     0
 40
0.0
 41
0.7
 50
0.0
 71
     0
 42
0.2
  3
TXT
  4

  0
STYLE
  5
C513
330
3
100
AcDbSymbolTableRecord
100
AcDbTextStyleTableRecord
  2
SLDTEXTSTYLE6
 70
     0
 40
0.0
 41
0.605
 50
0.0
 71
     0
 42
0.2
  3
TXT
  4

  0
ENDTAB
  0
TABLE
  2
VIEW
  5
6
330
0
100
AcDbSymbolTable
 70
     0
  0
ENDTAB
  0
TABLE
  2
UCS
  5
7
330
0
100
AcDbSymbolTable
 70
     0
  0
ENDTAB
  0
TABLE
  2
APPID
  5
9
330
0
100
AcDbSymbolTable
 70
     5
  0
APPID
  5
11
330
9
100
AcDbSymbolTableRecord
100
AcDbRegAppTableRecord
  2
ACAD
 70
     0
  0
APPID
  5
15DA9
330
9
100
AcDbSymbolTableRecord
100
AcDbRegAppTableRecord
  2
ACAD_DSTYLE_DIMRADIAL_EXTE
 70
     0
  0
APPID
  5
16CFB
330
9
100
AcDbSymbolTableRecord
100
AcDbRegAppTableRecord
  2
ACAD_DSTYLE_DIMRADIAL_EXT0
 70
     0
  0
APPID
  5
176C1
330
9
100
AcDbSymbolTableRecord
100
AcDbRegAppTableRecord
  2
ACAD_DSTYLE_DIMRADIAL_EXT1
 70
     0
  0
APPID
  5
17F66
330
9
100
AcDbSymbolTableRecord
100
AcDbRegAppTableRecord
  2
ACAD_DSTYLE_DIMRADIAL_EXT2
 70
     0
  0
ENDTAB
  0
TABLE
  2
DIMSTYLE
  5
A
330
0
100
AcDbSymbolTable
 70
     2
  0
DIMSTYLE
105
3B
102
{ACAD_REACTORS
330
18A26
330
18A27
330
18A43
330
18A52
330
18A61
330
18A70
330
18A7F
330
18A8E
330
18A9D
330
18AAC
330
18ABB
330
18ACA
330
18AD9
102
}
330
A
100
AcDbSymbolTableRecord
100
AcDbDimStyleTableRecord
  2
STANDARD
 70
     0
  3

  4

  5

  6

  7

 40
1.0
 41
3.5
 42
1.5
 43
7.0
 44
1.5
 45
0.0
 46
0.0
 47
0.1
 48
0.0
140
3.6
141
-1.0
142
0.0
143
25.4
144
1.0
145
0.0
146
1.0
147
1.5
 71
     0
 72
     0
 73
     0
 74
     0
 75
     0
 76
     0
 77
     1
 78
     0
170
     0
171
     2
172
     0
173
     0
174
     0
175
     0
176
     0
177
     0
178
     0
270
     2
271
     2
272
     4
273
     2
274
     2
340
10
275
     0
280
     0
281
     0
282
     0
283
     1
284
     0
285
     0
286
     0
287
     3
288
     0
  0
DIMSTYLE
105
1187D
330
A
100
AcDbSymbolTableRecord
100
AcDbDimStyleTableRecord
  2
ISO-25
 70
     0
  3

  4

  5

  6

  7

 40
1.0
 41
2.5
 42
0.625
 43
3.75
 44
1.25
 45
0.0
 46
0.0
 47
0.0
 48
0.0
140
2.5
141
2.5
142
0.0
143
0.03937007874016
144
1.0
145
0.0
146
1.0
147
0.625
 71
     0
 72
     0
 73
     0
 74
     0
 75
     0
 76
     0
 77
     1
 78
     8
170
     0
171
     3
172
     1
173
     0
174
     0
175
     0
176
     0
177
     0
178
     0
270
     2
271
     2
272
     2
273
     2
274
     3
340
10
275
     0
280
     0
281
     0
282
     0
283
     0
284
     8
285
     0
286
     0
287
     3
288
     0
  0
ENDTAB
  0
TABLE
  2
BLOCK_RECORD
  5
1
330
0
100
AcDbSymbolTable
 70
   210
  0
BLOCK_RECORD
  5
18
330
1
100
AcDbSymbolTableRecord
100
AcDbBlockTableRecord
  2
*MODEL_SPACE
  0
BLOCK_RECORD
  5
15
330
1
100
AcDbSymbolTableRecord
100
AcDbBlockTableRecord
  2
*PAPER_SPACE
  0
BLOCK_RECORD
  5
7EA0
330
1
100
AcDbSymbolTableRecord
100
AcDbBlockTableRecord
  2
A$C312173AA
  0
BLOCK_RECORD
  5
C4F7
330
1
100
AcDbSymbolTableRecord
100
AcDbBlockTableRecord
  2
_DOT
  0
BLOCK_RECORD
  5
13341
330
1
100
AcDbSymbolTableRecord
100
AcDbBlockTableRecord
  2
_NONE
  0
BLOCK_RECORD
  5
13346
330
1
100
AcDbSymbolTableRecord
100
AcDbBlockTableRecord
  2
_OBLIQUE
  0
BLOCK_RECORD
  5
17DB1
330
1
100
AcDbSymbolTableRecord
100
AcDbBlockTableRecord
  2
SW_CENTERMARKSYMBOL_0
  0
BLOCK_RECORD
  5
18440
330
1
100
AcDbSymbolTableRecord
100
AcDbBlockTableRecord
  2
*D184
  0
BLOCK_RECORD
  5
18451
330
1
100
AcDbSymbolTableRecord
100
AcDbBlockTableRecord
  2
*D185
  0
BLOCK_RECORD
  5
18466
330
1
100
AcDbSymbolTableRecord
100
AcDbBlockTableRecord
  2
*D186
  0
BLOCK_RECORD
  5
18475
330
1
100
AcDbSymbolTableRecord
100
AcDbBlockTableRecord
  2
*D187
  0
BLOCK_RECORD
  5
18484
330
1
100
AcDbSymbolTableRecord
100
AcDbBlockTableRecord
  2
*D188
  0
BLOCK_RECORD
  5
184D4
330
1
100
AcDbSymbolTableRecord
100
AcDbBlockTableRecord
  2
*D190
  0
BLOCK_RECORD
  5
184E7
330
1
100
AcDbSymbolTableRecord
100
AcDbBlockTableRecord
  2
*D191
  0
BLOCK_RECORD
  5
184F6
330
1
100
AcDbSymbolTableRecord
100
AcDbBlockTableRecord
  2
*D192
  0
BLOCK_RECORD
  5
18505
330
1
100
AcDbSymbolTableRecord
100
AcDbBlockTableRecord
  2
*D193
  0
BLOCK_RECORD
  5
18514
330
1
100
AcDbSymbolTableRecord
100
AcDbBlockTableRecord
  2
*D194
  0
BLOCK_RECORD
  5
18523
330
1
100
AcDbSymbolTableRecord
100
AcDbBlockTableRecord
  2
*D195
  0
BLOCK_RECORD
  5
18A28
330
1
100
AcDbSymbolTableRecord
100
AcDbBlockTableRecord
  2
*D197
  0
BLOCK_RECORD
  5
18A36
330
1
100
AcDbSymbolTableRecord
100
AcDbBlockTableRecord
  2
*D198
  0
BLOCK_RECORD
  5
18A46
330
1
100
AcDbSymbolTableRecord
100
AcDbBlockTableRecord
  2
*D199
  0
BLOCK_RECORD
  5
18A55
330
1
100
AcDbSymbolTableRecord
100
AcDbBlockTableRecord
  2
*D200
  0
BLOCK_RECORD
  5
18A64
330
1
100
AcDbSymbolTableRecord
100
AcDbBlockTableRecord
  2
*D201
  0
BLOCK_RECORD
  5
18A73
330
1
100
AcDbSymbolTableRecord
100
AcDbBlockTableRecord
  2
*D202
  0
BLOCK_RECORD
  5
18A82
330
1
100
AcDbSymbolTableRecord
100
AcDbBlockTableRecord
  2
*D203
  0
BLOCK_RECORD
  5
18A91
330
1
100
AcDbSymbolTableRecord
100
AcDbBlockTableRecord
  2
*D204
  0
BLOCK_RECORD
  5
18AA0
330
1
100
AcDbSymbolTableRecord
100
AcDbBlockTableRecord
  2
*D205
  0
BLOCK_RECORD
  5
18AAF
330
1
100
AcDbSymbolTableRecord
100
AcDbBlockTableRecord
  2
*D206
  0
BLOCK_RECORD
  5
18ABE
330
1
100
AcDbSymbolTableRecord
100
AcDbBlockTableRecord
  2
*D207
  0
BLOCK_RECORD
  5
18ACD
330
1
100
AcDbSymbolTableRecord
100
AcDbBlockTableRecord
  2
*D208
  0
BLOCK_RECORD
  5
18ADC
330
1
100
AcDbSymbolTableRecord
100
AcDbBlockTableRecord
  2
*D209
  0
ENDTAB
  0
ENDSEC
  0
SECTION
  2
BLOCKS
  0
BLOCK
  5
29
330
18
100
AcDbEntity
  8
0
100
AcDbBlockBegin
  2
*MODEL_SPACE
 70
     0
 10
0.0
 20
0.0
 30
0.0
  3
*MODEL_SPACE
  1

  0
ENDBLK
  5
2A
330
18
100
AcDbEntity
  8
0
100
AcDbBlockEnd
  0
BLOCK
  5
27
330
15
100
AcDbEntity
 67
     1
  8
0
100
AcDbBlockBegin
  2
*PAPER_SPACE
 70
     0
 10
0.0
 20
0.0
 30
0.0
  3
*PAPER_SPACE
  1

  0
ENDBLK
  5
28
330
15
100
AcDbEntity
 67
     1
  8
0
100
AcDbBlockEnd
  0
BLOCK
  5
7EAF
330
7EA0
100
AcDbEntity
  8
0
100
AcDbBlockBegin
  2
A$C312173AA
 70
     0
 10
0.0
 20
0.0
 30
0.0
  3
A$C312173AA
  1
A$C312173AA
  0
HATCH
  5
7EA1
330
7EA0
100
AcDbEntity
  8
1
100
AcDbHatch
 10
0.0
 20
0.0
 30
0.0
210
0.0
220
0.0
230
1.0
  2
SOLID
 70
     1
 71
     1
 91
        1
 92
        7
 72
     0
 73
     1
 93
        4
 10
2.724690422176706
 20
5.013136352600668
 10
5.058157912552363
 20
1.095673373491763
 10
5.076413282682712
 20
1.095673373491763
 10
7.382430158279476
 20
5.013136352600668
 97
        4
330
7EA6
330
7EAA
330
7EA5
330
7EA8
 75
     0
 76
     1
 47
0.057765
 98
        1
 10
5.461965
 20
4.283681
  0
HATCH
  5
7EA2
330
7EA0
100
AcDbEntity
  8
1
100
AcDbHatch
 10
0.0
 20
0.0
 30
0.0
210
0.0
220
0.0
230
1.0
  2
SOLID
 70
     1
 71
     1
 91
        1
 92
        7
 72
     0
 73
     1
 93
        4
 10
2.724690422176706
 20
5.013136352600668
 10
5.058157912552363
 20
1.095673373491763
 10
5.076413282682712
 20
1.095673373491763
 10
7.382430158279476
 20
5.013136352600668
 97
        4
330
7EA4
330
7EA9
330
7EA3
330
7EA7
 75
     0
 76
     1
 47
0.057765
 98
        1
 10
5.461965
 20
4.283681
  0
LINE
  5
7EA3
102
{ACAD_REACTORS
330
7EA2
102
}
330
7EA0
100
AcDbEntity
  8
1
100
AcDbLine
 10
7.376974
 20
1.095673
 30
0.0
 11
2.719445
 21
1.095673
 31
0.0
  0
LINE
  5
7EA4
102
{ACAD_REACTORS
330
7EA2
102
}
330
7EA0
100
AcDbEntity
  8
1
100
AcDbLine
 10
2.716507
 20
5.013136
 30
0.0
 11
7.38243
 21
5.013136
 31
0.0
  0
LINE
  5
7EA5
102
{ACAD_REACTORS
330
7EA1
102
}
330
7EA0
100
AcDbEntity
  8
1
100
AcDbLine
 10
7.376974
 20
1.095673
 30
0.0
 11
2.719445
 21
1.095673
 31
0.0
  0
LINE
  5
7EA6
102
{ACAD_REACTORS
330
7EA1
102
}
330
7EA0
100
AcDbEntity
  8
1
100
AcDbLine
 10
2.716507
 20
5.013136
 30
0.0
 11
7.38243
 21
5.013136
 31
0.0
  0
LINE
  5
7EA7
102
{ACAD_REACTORS
330
7EA2
102
}
330
7EA0
100
AcDbEntity
  8
1
100
AcDbLine
 10
7.38243
 20
5.013136
 30
0.0
 11
5.049469
 21
1.0499
 31
0.0
  0
LINE
  5
7EA8
102
{ACAD_REACTORS
330
7EA1
102
}
330
7EA0
100
AcDbEntity
  8
1
100
AcDbLine
 10
7.38243
 20
5.013136
 30
0.0
 11
5.049469
 21
1.0499
 31
0.0
  0
LINE
  5
7EA9
102
{ACAD_REACTORS
330
7EA2
102
}
330
7EA0
100
AcDbEntity
  8
1
100
AcDbLine
 10
5.048209
 20
1.112376
 30
0.0
 11
2.719445
 21
5.021942
 31
0.0
  0
LINE
  5
7EAA
102
{ACAD_REACTORS
330
7EA1
102
}
330
7EA0
100
AcDbEntity
  8
1
100
AcDbLine
 10
5.048209
 20
1.112376
 30
0.0
 11
2.719445
 21
5.021942
 31
0.0
  0
LINE
  5
7EAB
330
7EA0
100
AcDbEntity
  8
1
100
AcDbLine
 10
3.176777
 20
2.240563
 30
0.0
 11
1.859991
 21
0.714974
 31
0.0
  0
LINE
  5
7EAC
330
7EA0
100
AcDbEntity
  8
1
100
AcDbLine
 10
1.935572
 20
2.29404
 30
0.0
 11
0.618786
 21
0.768452
 31
0.0
  0
HATCH
  5
7EAD
330
7EA0
100
AcDbEntity
  8
1
100
AcDbHatch
 10
0.0
 20
0.0
 30
0.0
210
0.0
220
0.0
230
1.0
  2
SOLID
 70
     1
 71
     0
 91
        1
 92
        7
 72
     0
 73
     1
 93
        3
 10
2.13435432304297
 20
0.5079866047149438
 10
1.594971700028992
 20
0.9149117569309055
 10
1.241204476589189
 20
0.0000001052034975
 97
        0
 75
     0
 76
     1
 47
0.009825
 98
        1
 10
1.617082
 20
0.370646
  0
HATCH
  5
7EAE
330
7EA0
100
AcDbEntity
  8
1
100
AcDbHatch
 10
0.0
 20
0.0
 30
0.0
210
0.0
220
0.0
230
1.0
  2
SOLID
 70
     1
 71
     0
 91
        1
 92
        7
 72
     0
 73
     1
 93
        3
 10
0.8931496793437361
 20
0.5614642425206
 10
0.3537670563297865
 20
0.9683893947365334
 10
-0.0000001671100733
 20
0.0534777430091538
 97
        0
 75
     0
 76
     1
 47
0.009825
 98
        1
 10
0.375878
 20
0.424123
  0
ENDBLK
  5
7EB0
330
7EA0
100
AcDbEntity
  8
0
100
AcDbBlockEnd
  0
BLOCK
  5
C4FC
330
C4F7
100
AcDbEntity
  8
0
100
AcDbBlockBegin
  2
_DOT
 70
     0
 10
0.0
 20
0.0
 30
0.0
  3
_DOT
  1
_DOT
  0
LWPOLYLINE
  5
C4F8
330
C4F7
100
AcDbEntity
  8
0
  6
BYBLOCK
 62
     0
100
AcDbPolyline
 90
        2
 70
     1
 43
0.5
 10
-0.25
 20
0.0
 42
1.0
 10
0.25
 20
0.0
 42
1.0
  0
LINE
  5
C4F9
330
C4F7
100
AcDbEntity
  8
0
  6
BYBLOCK
 62
     0
100
AcDbLine
 10
-0.5
 20
0.0
 30
0.0
 11
-1.0
 21
0.0
 31
0.0
  0
ENDBLK
  5
C4FD
330
C4F7
100
AcDbEntity
  8
0
100
AcDbBlockEnd
  0
BLOCK
  5
13342
330
13341
100
AcDbEntity
  8
0
100
AcDbBlockBegin
  2
_NONE
 70
     0
 10
0.0
 20
0.0
 30
0.0
  3
_NONE
  1
_NONE
  0
ENDBLK
  5
13343
330
13341
100
AcDbEntity
  8
0
100
AcDbBlockEnd
  0
BLOCK
  5
13347
330
13346
100
AcDbEntity
  8
0
100
AcDbBlockBegin
  2
_OBLIQUE
 70
     0
 10
0.0
 20
0.0
 30
0.0
  3
_OBLIQUE
  1
_OBLIQUE
  0
LINE
  5
13349
330
13346
100
AcDbEntity
  8
0
  6
BYBLOCK
 62
     0
100
AcDbLine
 10
-0.5
 20
-0.5
 30
0.0
 11
0.5
 21
0.5
 31
0.0
  0
ENDBLK
  5
13348
330
13346
100
AcDbEntity
  8
0
100
AcDbBlockEnd
  0
BLOCK
  5
17DB2
330
17DB1
100
AcDbEntity
  8
0
100
AcDbBlockBegin
  2
SW_CENTERMARKSYMBOL_0
 70
     0
 10
0.0
 20
0.0
 30
0.0
  3
SW_CENTERMARKSYMBOL_0
  1
SW_CENTERMARKSYMBOL_0
  0
LINE
  5
17DB3
330
17DB1
100
AcDbEntity
  8
0
  6
CONTINUOUS
 62
     0
100
AcDbLine
 10
0.0
 20
0.0
 30
0.0
 11
0.0
 21
2.500000000000002
 31
0.0
  0
LINE
  5
17DB4
330
17DB1
100
AcDbEntity
  8
0
  6
CONTINUOUS
 62
     0
100
AcDbLine
 10
0.0
 20
0.0
 30
0.0
 11
-2.500000000000002
 21
0.0
 31
0.0
  0
LINE
  5
17DB5
330
17DB1
100
AcDbEntity
  8
0
  6
CONTINUOUS
 62
     0
100
AcDbLine
 10
0.0
 20
0.0
 30
0.0
 11
0.0
 21
-2.500000000000002
 31
0.0
  0
LINE
  5
17DB6
330
17DB1
100
AcDbEntity
  8
0
  6
CONTINUOUS
 62
     0
100
AcDbLine
 10
0.0
 20
0.0
 30
0.0
 11
2.500000000000002
 21
0.0
 31
0.0
  0
LINE
  5
17DB7
330
17DB1
100
AcDbEntity
  8
0
  6
CONTINUOUS
 62
     0
100
AcDbLine
 10
0.0
 20
2.500000000000002
 30
0.0
 11
0.0
 21
2.900000000000014
 31
0.0
  0
LINE
  5
17DB8
330
17DB1
100
AcDbEntity
  8
0
  6
CONTINUOUS
 62
     0
100
AcDbLine
 10
-2.500000000000002
 20
0.0
 30
0.0
 11
-2.9
 21
0.0
 31
0.0
  0
LINE
  5
17DB9
330
17DB1
100
AcDbEntity
  8
0
  6
CONTINUOUS
 62
     0
100
AcDbLine
 10
0.0
 20
-2.500000000000002
 30
0.0
 11
0.0
 21
-2.899999999999986
 31
0.0
  0
LINE
  5
17DBA
330
17DB1
100
AcDbEntity
  8
0
  6
CONTINUOUS
 62
     0
100
AcDbLine
 10
2.500000000000002
 20
0.0
 30
0.0
 11
2.9
 21
0.0
 31
0.0
  0
ENDBLK
  5
17DBB
330
17DB1
100
AcDbEntity
  8
0
100
AcDbBlockEnd
  0
BLOCK
  5
18441
330
18440
100
AcDbEntity
  8
0
100
AcDbBlockBegin
  2
*D184
 70
     1
 10
0.0
 20
0.0
 30
0.0
  3
*D184
  1
*D184
  0
LINE
  5
18443
330
18440
100
AcDbEntity
  8
WY
 62
     0
100
AcDbLine
 10
559.2499646491169
 20
232.1752487516884
 30
0.0
 11
569.7549298161073
 21
232.1752487516884
 31
0.0
  0
LINE
  5
18444
330
18440
100
AcDbEntity
  8
WY
 62
     0
100
AcDbLine
 10
559.2499646491169
 20
229.1752487516884
 30
0.0
 11
569.7549298161073
 21
229.1752487516884
 31
0.0
  0
LINE
  5
18445
330
18440
100
AcDbEntity
  8
WY
 62
     0
100
AcDbLine
 10
568.2549298161073
 20
232.1752487516884
 30
0.0
 11
568.2549298161073
 21
229.1752487516884
 31
0.0
  0
LINE
  5
18446
330
18440
100
AcDbEntity
  8
WY
 62
     0
100
AcDbLine
 10
568.2549298161073
 20
234.6752487516884
 30
0.0
 11
568.2549298161073
 21
237.1752487516884
 31
0.0
  0
LINE
  5
18447
330
18440
100
AcDbEntity
  8
WY
 62
     0
100
AcDbLine
 10
568.2549298161073
 20
226.6752487516884
 30
0.0
 11
568.2549298161073
 21
224.1752487516884
 31
0.0
  0
SOLID
  5
18448
330
18440
100
AcDbEntity
  8
WY
 62
     0
100
AcDbTrace
 10
567.8382631494406
 20
234.6752487516884
 30
0.0
 11
568.6715964827739
 21
234.6752487516884
 31
0.0
 12
568.2549298161073
 22
232.1752487516884
 32
0.0
 13
568.2549298161073
 23
232.1752487516884
 33
0.0
  0
SOLID
  5
18449
330
18440
100
AcDbEntity
  8
WY
 62
     0
100
AcDbTrace
 10
568.6715964827739
 20
226.6752487516884
 30
0.0
 11
567.8382631494406
 21
226.6752487516884
 31
0.0
 12
568.2549298161073
 22
229.1752487516884
 32
0.0
 13
568.2549298161073
 23
229.1752487516884
 33
0.0
  0
MTEXT
  5
1844A
330
18440
100
AcDbEntity
  8
WY
 62
     0
100
AcDbMText
 10
566.7549298161073
 20
230.6752487516884
 30
0.0
 40
1.5
 41
0.0
 71
     5
 72
     1
  1
\A1;3
 11
0.0
 21
1.0
 31
0.0
  0
POINT
  5
1844B
330
18440
100
AcDbEntity
  8
DEFPOINTS
 62
     0
100
AcDbPoint
 10
557.7499646491169
 20
232.1752487516884
 30
0.0
  0
POINT
  5
1844C
330
18440
100
AcDbEntity
  8
DEFPOINTS
 62
     0
100
AcDbPoint
 10
557.7499646491169
 20
229.1752487516884
 30
0.0
  0
POINT
  5
1844D
330
18440
100
AcDbEntity
  8
DEFPOINTS
 62
     0
100
AcDbPoint
 10
568.2549298161073
 20
229.1752487516884
 30
0.0
  0
ENDBLK
  5
18442
330
18440
100
AcDbEntity
  8
0
100
AcDbBlockEnd
  0
BLOCK
  5
18452
330
18451
100
AcDbEntity
  8
0
100
AcDbBlockBegin
  2
*D185
 70
     1
 10
0.0
 20
0.0
 30
0.0
  3
*D185
  1
*D185
  0
LINE
  5
18454
330
18451
100
AcDbEntity
  8
WY
 62
     0
100
AcDbLine
 10
559.2499646491169
 20
229.1752487516884
 30
0.0
 11
575.2436723438383
 21
229.1752487516884
 31
0.0
  0
LINE
  5
18455
330
18451
100
AcDbEntity
  8
WY
 62
     0
100
AcDbLine
 10
546.7499646491169
 20
240.4191651991708
 30
0.0
 11
575.2436723438383
 21
240.4191651991708
 31
0.0
  0
LINE
  5
18456
330
18451
100
AcDbEntity
  8
WY
 62
     0
100
AcDbLine
 10
573.7436723438383
 20
229.1752487516884
 30
0.0
 11
573.7436723438383
 21
240.4191651991708
 31
0.0
  0
LINE
  5
18457
330
18451
100
AcDbEntity
  8
WY
 62
     0
100
AcDbLine
 10
573.7436723438383
 20
226.6752487516884
 30
0.0
 11
573.7436723438383
 21
224.1752487516884
 31
0.0
  0
LINE
  5
18458
330
18451
100
AcDbEntity
  8
WY
 62
     0
100
AcDbLine
 10
573.7436723438383
 20
242.9191651991708
 30
0.0
 11
573.7436723438383
 21
245.4191651991708
 31
0.0
  0
SOLID
  5
18459
330
18451
100
AcDbEntity
  8
WY
 62
     0
100
AcDbTrace
 10
574.1603390105049
 20
226.6752487516884
 30
0.0
 11
573.3270056771717
 21
226.6752487516884
 31
0.0
 12
573.7436723438383
 22
229.1752487516884
 32
0.0
 13
573.7436723438383
 23
229.1752487516884
 33
0.0
  0
SOLID
  5
1845A
330
18451
100
AcDbEntity
  8
WY
 62
     0
100
AcDbTrace
 10
573.3270056771717
 20
242.9191651991708
 30
0.0
 11
574.1603390105049
 21
242.9191651991708
 31
0.0
 12
573.7436723438383
 22
240.4191651991708
 32
0.0
 13
573.7436723438383
 23
240.4191651991708
 33
0.0
  0
MTEXT
  5
1845B
330
18451
100
AcDbEntity
  8
WY
 62
     0
100
AcDbMText
 10
572.2436723438383
 20
234.7972069754296
 30
0.0
 40
1.5
 41
0.0
 71
     5
 72
     1
  1
\A1;11.2%%p0.1
 11
0.0
 21
1.0
 31
0.0
  0
POINT
  5
1845C
330
18451
100
AcDbEntity
  8
DEFPOINTS
 62
     0
100
AcDbPoint
 10
557.7499646491169
 20
229.1752487516884
 30
0.0
  0
POINT
  5
18461
330
18451
100
AcDbEntity
  8
DEFPOINTS
 62
     0
100
AcDbPoint
 10
545.2499646491169
 20
240.4191651991708
 30
0.0
  0
POINT
  5
18462
330
18451
100
AcDbEntity
  8
DEFPOINTS
 62
     0
100
AcDbPoint
 10
573.7436723438383
 20
240.4191651991708
 30
0.0
  0
ENDBLK
  5
18453
330
18451
100
AcDbEntity
  8
0
100
AcDbBlockEnd
  0
BLOCK
  5
18467
330
18466
100
AcDbEntity
  8
0
100
AcDbBlockBegin
  2
*D186
 70
     1
 10
0.0
 20
0.0
 30
0.0
  3
*D186
  1
*D186
  0
LINE
  5
18469
330
18466
100
AcDbEntity
  8
WY
 62
     0
100
AcDbLine
 10
547.7499646491169
 20
190.5066781929295
 30
0.0
 11
547.7499646491169
 21
198.4513308737236
 31
0.0
  0
LINE
  5
1846A
330
18466
100
AcDbEntity
  8
WY
 62
     0
100
AcDbLine
 10
557.7499646491169
 20
193.0066781929295
 30
0.0
 11
557.7499646491169
 21
198.4513308737236
 31
0.0
  0
LINE
  5
1846B
330
18466
100
AcDbEntity
  8
WY
 62
     0
100
AcDbLine
 10
550.2499646491169
 20
196.9513308737236
 30
0.0
 11
555.2499646491169
 21
196.9513308737236
 31
0.0
  0
SOLID
  5
1846C
330
18466
100
AcDbEntity
  8
WY
 62
     0
100
AcDbTrace
 10
550.2499646491169
 20
197.3679975403903
 30
0.0
 11
550.2499646491169
 21
196.5346642070569
 31
0.0
 12
547.7499646491169
 22
196.9513308737236
 32
0.0
 13
547.7499646491169
 23
196.9513308737236
 33
0.0
  0
SOLID
  5
1846D
330
18466
100
AcDbEntity
  8
WY
 62
     0
100
AcDbTrace
 10
555.2499646491169
 20
196.5346642070569
 30
0.0
 11
555.2499646491169
 21
197.3679975403903
 31
0.0
 12
557.7499646491169
 22
196.9513308737236
 32
0.0
 13
557.7499646491169
 23
196.9513308737236
 33
0.0
  0
MTEXT
  5
1846E
330
18466
100
AcDbEntity
  8
WY
 62
     0
100
AcDbMText
 10
552.7499646491169
 20
198.4513308737236
 30
0.0
 40
1.5
 41
0.0
 71
     5
 72
     1
  1
\A1;10
  0
POINT
  5
1846F
330
18466
100
AcDbEntity
  8
DEFPOINTS
 62
     0
100
AcDbPoint
 10
547.7499646491169
 20
189.0066781929295
 30
0.0
  0
POINT
  5
18470
330
18466
100
AcDbEntity
  8
DEFPOINTS
 62
     0
100
AcDbPoint
 10
557.7499646491169
 20
191.5066781929295
 30
0.0
  0
POINT
  5
18471
330
18466
100
AcDbEntity
  8
DEFPOINTS
 62
     0
100
AcDbPoint
 10
557.7499646491169
 20
196.9513308737236
 30
0.0
  0
ENDBLK
  5
18468
330
18466
100
AcDbEntity
  8
0
100
AcDbBlockEnd
  0
BLOCK
  5
18476
330
18475
100
AcDbEntity
  8
0
100
AcDbBlockBegin
  2
*D187
 70
     1
 10
0.0
 20
0.0
 30
0.0
  3
*D187
  1
*D187
  0
LINE
  5
18478
330
18475
100
AcDbEntity
  8
WY
 62
     0
100
AcDbLine
 10
543.9499646491169
 20
193.0066781929295
 30
0.0
 11
543.9499646491169
 21
201.9184372494534
 31
0.0
  0
LINE
  5
18479
330
18475
100
AcDbEntity
  8
WY
 62
     0
100
AcDbLine
 10
557.7499646491169
 20
193.0066781929295
 30
0.0
 11
557.7499646491169
 21
201.9184372494534
 31
0.0
  0
LINE
  5
1847A
330
18475
100
AcDbEntity
  8
WY
 62
     0
100
AcDbLine
 10
546.4499646491169
 20
200.4184372494534
 30
0.0
 11
555.2499646491169
 21
200.4184372494534
 31
0.0
  0
SOLID
  5
1847B
330
18475
100
AcDbEntity
  8
WY
 62
     0
100
AcDbTrace
 10
546.4499646491169
 20
200.8351039161201
 30
0.0
 11
546.4499646491169
 21
200.0017705827867
 31
0.0
 12
543.9499646491169
 22
200.4184372494534
 32
0.0
 13
543.9499646491169
 23
200.4184372494534
 33
0.0
  0
SOLID
  5
1847C
330
18475
100
AcDbEntity
  8
WY
 62
     0
100
AcDbTrace
 10
555.2499646491169
 20
200.0017705827867
 30
0.0
 11
555.2499646491169
 21
200.8351039161201
 31
0.0
 12
557.7499646491169
 22
200.4184372494534
 32
0.0
 13
557.7499646491169
 23
200.4184372494534
 33
0.0
  0
MTEXT
  5
1847D
330
18475
100
AcDbEntity
  8
WY
 62
     0
100
AcDbMText
 10
550.8499646491168
 20
201.9184372494534
 30
0.0
 40
1.5
 41
0.0
 71
     5
 72
     1
  1
\A1;13.8
  0
POINT
  5
1847E
330
18475
100
AcDbEntity
  8
DEFPOINTS
 62
     0
100
AcDbPoint
 10
543.9499646491169
 20
191.5066781929295
 30
0.0
  0
POINT
  5
1847F
330
18475
100
AcDbEntity
  8
DEFPOINTS
 62
     0
100
AcDbPoint
 10
557.7499646491169
 20
191.5066781929295
 30
0.0
  0
POINT
  5
18480
330
18475
100
AcDbEntity
  8
DEFPOINTS
 62
     0
100
AcDbPoint
 10
557.7499646491169
 20
200.4184372494534
 30
0.0
  0
ENDBLK
  5
18477
330
18475
100
AcDbEntity
  8
0
100
AcDbBlockEnd
  0
BLOCK
  5
18485
330
18484
100
AcDbEntity
  8
0
100
AcDbBlockBegin
  2
*D188
 70
     1
 10
0.0
 20
0.0
 30
0.0
  3
*D188
  1
*D188
  0
LINE
  5
18487
330
18484
100
AcDbEntity
  8
WY
 62
     0
100
AcDbLine
 10
559.2499646491169
 20
191.5066781929295
 30
0.0
 11
571.7522340873314
 21
191.5066781929295
 31
0.0
  0
LINE
  5
18488
330
18484
100
AcDbEntity
  8
WY
 62
     0
100
AcDbLine
 10
559.2499646491169
 20
55.80667819292955
 30
0.0
 11
571.7522340873314
 21
55.80667819292955
 31
0.0
  0
LINE
  5
18489
330
18484
100
AcDbEntity
  8
WY
 62
     0
100
AcDbLine
 10
570.2522340873314
 20
189.0066781929295
 30
0.0
 11
570.2522340873314
 21
58.30667819292955
 31
0.0
  0
SOLID
  5
1848A
330
18484
100
AcDbEntity
  8
WY
 62
     0
100
AcDbTrace
 10
570.6689007539981
 20
189.0066781929295
 30
0.0
 11
569.8355674206648
 21
189.0066781929295
 31
0.0
 12
570.2522340873314
 22
191.5066781929295
 32
0.0
 13
570.2522340873314
 23
191.5066781929295
 33
0.0
  0
SOLID
  5
1848B
330
18484
100
AcDbEntity
  8
WY
 62
     0
100
AcDbTrace
 10
569.8355674206648
 20
58.30667819292955
 30
0.0
 11
570.6689007539981
 21
58.30667819292955
 31
0.0
 12
570.2522340873314
 22
55.80667819292955
 32
0.0
 13
570.2522340873314
 23
55.80667819292955
 33
0.0
  0
MTEXT
  5
1848C
330
18484
100
AcDbEntity
  8
WY
 62
     0
100
AcDbMText
 10
568.7522340873314
 20
123.6566781929295
 30
0.0
 40
1.5
 41
0.0
 71
     5
 72
     1
  1
\A1;135.7%%p0.2
 11
0.0
 21
1.0
 31
0.0
  0
POINT
  5
1848D
330
18484
100
AcDbEntity
  8
DEFPOINTS
 62
     0
100
AcDbPoint
 10
557.7499646491169
 20
191.5066781929295
 30
0.0
  0
POINT
  5
1848E
330
18484
100
AcDbEntity
  8
DEFPOINTS
 62
     0
100
AcDbPoint
 10
557.7499646491169
 20
55.80667819292955
 30
0.0
  0
POINT
  5
1848F
330
18484
100
AcDbEntity
  8
DEFPOINTS
 62
     0
100
AcDbPoint
 10
570.2522340873314
 20
55.80667819292955
 30
0.0
  0
ENDBLK
  5
18486
330
18484
100
AcDbEntity
  8
0
100
AcDbBlockEnd
  0
BLOCK
  5
184D5
330
184D4
100
AcDbEntity
  8
0
100
AcDbBlockBegin
  2
*D190
 70
     1
 10
0.0
 20
0.0
 30
0.0
  3
*D190
  1
*D190
  0
LINE
  5
184D7
330
184D4
100
AcDbEntity
  8
WY
 62
     0
100
AcDbLine
 10
636.8674095888044
 20
191.1066781929295
 30
0.0
 11
634.5850872707225
 21
191.1066781929295
 31
0.0
  0
LINE
  5
184D8
330
184D4
100
AcDbEntity
  8
WY
 62
     0
100
AcDbLine
 10
636.8674095888044
 20
189.6066781929295
 30
0.0
 11
634.5850872707225
 21
189.6066781929295
 31
0.0
  0
LINE
  5
184D9
330
184D4
100
AcDbEntity
  8
WY
 62
     0
100
AcDbLine
 10
636.0850872707225
 20
191.1066781929295
 30
0.0
 11
636.0850872707225
 21
200.1066781929295
 31
0.0
  0
LINE
  5
184DA
330
184D4
100
AcDbEntity
  8
WY
 62
     0
100
AcDbLine
 10
636.0850872707225
 20
191.1066781929295
 30
0.0
 11
636.0850872707225
 21
189.6066781929295
 31
0.0
  0
LINE
  5
184DB
330
184D4
100
AcDbEntity
  8
WY
 62
     0
100
AcDbLine
 10
636.0850872707225
 20
193.6066781929295
 30
0.0
 11
636.0850872707225
 21
196.1066781929295
 31
0.0
  0
LINE
  5
184DC
330
184D4
100
AcDbEntity
  8
WY
 62
     0
100
AcDbLine
 10
636.0850872707225
 20
187.1066781929295
 30
0.0
 11
636.0850872707225
 21
184.6066781929295
 31
0.0
  0
SOLID
  5
184DD
330
184D4
100
AcDbEntity
  8
WY
 62
     0
100
AcDbTrace
 10
635.6684206040559
 20
193.6066781929295
 30
0.0
 11
636.5017539373891
 21
193.6066781929295
 31
0.0
 12
636.0850872707225
 22
191.1066781929295
 32
0.0
 13
636.0850872707225
 23
191.1066781929295
 33
0.0
  0
SOLID
  5
184DE
330
184D4
100
AcDbEntity
  8
WY
 62
     0
100
AcDbTrace
 10
636.5017539373891
 20
187.1066781929295
 30
0.0
 11
635.6684206040559
 21
187.1066781929295
 31
0.0
 12
636.0850872707225
 22
189.6066781929295
 32
0.0
 13
636.0850872707225
 23
189.6066781929295
 33
0.0
  0
MTEXT
  5
184DF
330
184D4
100
AcDbEntity
  8
WY
 62
     0
100
AcDbMText
 10
634.5850872707225
 20
198.1066781929295
 30
0.0
 40
1.5
 41
0.0
 71
     5
 72
     1
  1
\A1;1.5
 11
0.0
 21
1.0
 31
0.0
  0
POINT
  5
184E0
330
184D4
100
AcDbEntity
  8
DEFPOINTS
 62
     0
100
AcDbPoint
 10
638.3674095888044
 20
191.1066781929295
 30
0.0
  0
POINT
  5
184E1
330
184D4
100
AcDbEntity
  8
DEFPOINTS
 62
     0
100
AcDbPoint
 10
638.3674095888044
 20
189.6066781929295
 30
0.0
  0
POINT
  5
184E3
330
184D4
100
AcDbEntity
  8
DEFPOINTS
 62
     0
100
AcDbPoint
 10
636.0850872707225
 20
189.6066781929295
 30
0.0
  0
ENDBLK
  5
184D6
330
184D4
100
AcDbEntity
  8
0
100
AcDbBlockEnd
  0
BLOCK
  5
184E8
330
184E7
100
AcDbEntity
  8
0
100
AcDbBlockBegin
  2
*D191
 70
     1
 10
0.0
 20
0.0
 30
0.0
  3
*D191
  1
*D191
  0
LINE
  5
184EA
330
184E7
100
AcDbEntity
  8
WY
 62
     0
100
AcDbLine
 10
642.6812195454418
 20
190.3566781929296
 30
0.0
 11
651.228682803483
 21
190.3566781929296
 31
0.0
  0
LINE
  5
184EB
330
184E7
100
AcDbEntity
  8
WY
 62
     0
100
AcDbLine
 10
642.6812195454418
 20
164.1566781929295
 30
0.0
 11
651.228682803483
 21
164.1566781929295
 31
0.0
  0
LINE
  5
184EC
330
184E7
100
AcDbEntity
  8
WY
 62
     0
100
AcDbLine
 10
649.728682803483
 20
187.8566781929296
 30
0.0
 11
649.728682803483
 21
166.6566781929295
 31
0.0
  0
SOLID
  5
184ED
330
184E7
100
AcDbEntity
  8
WY
 62
     0
100
AcDbTrace
 10
650.1453494701497
 20
187.8566781929296
 30
0.0
 11
649.3120161368164
 21
187.8566781929296
 31
0.0
 12
649.728682803483
 22
190.3566781929296
 32
0.0
 13
649.728682803483
 23
190.3566781929296
 33
0.0
  0
SOLID
  5
184EE
330
184E7
100
AcDbEntity
  8
WY
 62
     0
100
AcDbTrace
 10
649.3120161368164
 20
166.6566781929295
 30
0.0
 11
650.1453494701497
 21
166.6566781929295
 31
0.0
 12
649.728682803483
 22
164.1566781929295
 32
0.0
 13
649.728682803483
 23
164.1566781929295
 33
0.0
  0
MTEXT
  5
184EF
330
184E7
100
AcDbEntity
  8
WY
 62
     0
100
AcDbMText
 10
648.228682803483
 20
177.2566781929295
 30
0.0
 40
1.5
 41
0.0
 71
     5
 72
     1
  1
\A1;26.2
 11
0.0
 21
1.0
 31
0.0
  0
POINT
  5
184F0
330
184E7
100
AcDbEntity
  8
DEFPOINTS
 62
     0
100
AcDbPoint
 10
641.1812195454418
 20
190.3566781929296
 30
0.0
  0
POINT
  5
184F1
330
184E7
100
AcDbEntity
  8
DEFPOINTS
 62
     0
100
AcDbPoint
 10
641.1812195454418
 20
164.1566781929295
 30
0.0
  0
POINT
  5
184F2
330
184E7
100
AcDbEntity
  8
DEFPOINTS
 62
     0
100
AcDbPoint
 10
649.728682803483
 20
164.1566781929295
 30
0.0
  0
ENDBLK
  5
184E9
330
184E7
100
AcDbEntity
  8
0
100
AcDbBlockEnd
  0
BLOCK
  5
184F7
330
184F6
100
AcDbEntity
  8
0
100
AcDbBlockBegin
  2
*D192
 70
     1
 10
0.0
 20
0.0
 30
0.0
  3
*D192
  1
*D192
  0
LINE
  5
184F9
330
184F6
100
AcDbEntity
  8
WY
 62
     0
100
AcDbLine
 10
642.6812195454418
 20
164.1566781929295
 30
0.0
 11
651.228682803483
 21
164.1566781929295
 31
0.0
  0
LINE
  5
184FA
330
184F6
100
AcDbEntity
  8
WY
 62
     0
100
AcDbLine
 10
642.6812195454418
 20
137.1566781929295
 30
0.0
 11
651.228682803483
 21
137.1566781929295
 31
0.0
  0
LINE
  5
184FB
330
184F6
100
AcDbEntity
  8
WY
 62
     0
100
AcDbLine
 10
649.728682803483
 20
161.6566781929295
 30
0.0
 11
649.728682803483
 21
139.6566781929295
 31
0.0
  0
SOLID
  5
184FC
330
184F6
100
AcDbEntity
  8
WY
 62
     0
100
AcDbTrace
 10
650.1453494701497
 20
161.6566781929295
 30
0.0
 11
649.3120161368164
 21
161.6566781929295
 31
0.0
 12
649.728682803483
 22
164.1566781929295
 32
0.0
 13
649.728682803483
 23
164.1566781929295
 33
0.0
  0
SOLID
  5
184FD
330
184F6
100
AcDbEntity
  8
WY
 62
     0
100
AcDbTrace
 10
649.3120161368164
 20
139.6566781929295
 30
0.0
 11
650.1453494701497
 21
139.6566781929295
 31
0.0
 12
649.728682803483
 22
137.1566781929295
 32
0.0
 13
649.728682803483
 23
137.1566781929295
 33
0.0
  0
MTEXT
  5
184FE
330
184F6
100
AcDbEntity
  8
WY
 62
     0
100
AcDbMText
 10
648.228682803483
 20
150.6566781929295
 30
0.0
 40
1.5
 41
0.0
 71
     5
 72
     1
  1
\A1;27
 11
0.0
 21
1.0
 31
0.0
  0
POINT
  5
184FF
330
184F6
100
AcDbEntity
  8
DEFPOINTS
 62
     0
100
AcDbPoint
 10
641.1812195454418
 20
164.1566781929295
 30
0.0
  0
POINT
  5
18500
330
184F6
100
AcDbEntity
  8
DEFPOINTS
 62
     0
100
AcDbPoint
 10
641.1812195454418
 20
137.1566781929295
 30
0.0
  0
POINT
  5
18501
330
184F6
100
AcDbEntity
  8
DEFPOINTS
 62
     0
100
AcDbPoint
 10
649.728682803483
 20
137.1566781929295
 30
0.0
  0
ENDBLK
  5
184F8
330
184F6
100
AcDbEntity
  8
0
100
AcDbBlockEnd
  0
BLOCK
  5
18506
330
18505
100
AcDbEntity
  8
0
100
AcDbBlockBegin
  2
*D193
 70
     1
 10
0.0
 20
0.0
 30
0.0
  3
*D193
  1
*D193
  0
LINE
  5
18508
330
18505
100
AcDbEntity
  8
WY
 62
     0
100
AcDbLine
 10
642.6812195454418
 20
137.1566781929295
 30
0.0
 11
651.228682803483
 21
137.1566781929295
 31
0.0
  0
LINE
  5
18509
330
18505
100
AcDbEntity
  8
WY
 62
     0
100
AcDbLine
 10
642.6812195454418
 20
110.1566781929295
 30
0.0
 11
651.228682803483
 21
110.1566781929295
 31
0.0
  0
LINE
  5
1850A
330
18505
100
AcDbEntity
  8
WY
 62
     0
100
AcDbLine
 10
649.728682803483
 20
134.6566781929295
 30
0.0
 11
649.728682803483
 21
112.6566781929295
 31
0.0
  0
SOLID
  5
1850B
330
18505
100
AcDbEntity
  8
WY
 62
     0
100
AcDbTrace
 10
650.1453494701497
 20
134.6566781929295
 30
0.0
 11
649.3120161368164
 21
134.6566781929295
 31
0.0
 12
649.728682803483
 22
137.1566781929295
 32
0.0
 13
649.728682803483
 23
137.1566781929295
 33
0.0
  0
SOLID
  5
1850C
330
18505
100
AcDbEntity
  8
WY
 62
     0
100
AcDbTrace
 10
649.3120161368164
 20
112.6566781929295
 30
0.0
 11
650.1453494701497
 21
112.6566781929295
 31
0.0
 12
649.728682803483
 22
110.1566781929295
 32
0.0
 13
649.728682803483
 23
110.1566781929295
 33
0.0
  0
MTEXT
  5
1850D
330
18505
100
AcDbEntity
  8
WY
 62
     0
100
AcDbMText
 10
648.228682803483
 20
123.6566781929295
 30
0.0
 40
1.5
 41
0.0
 71
     5
 72
     1
  1
\A1;27
 11
0.0
 21
1.0
 31
0.0
  0
POINT
  5
1850E
330
18505
100
AcDbEntity
  8
DEFPOINTS
 62
     0
100
AcDbPoint
 10
641.1812195454418
 20
137.1566781929295
 30
0.0
  0
POINT
  5
1850F
330
18505
100
AcDbEntity
  8
DEFPOINTS
 62
     0
100
AcDbPoint
 10
641.1812195454418
 20
110.1566781929295
 30
0.0
  0
POINT
  5
18510
330
18505
100
AcDbEntity
  8
DEFPOINTS
 62
     0
100
AcDbPoint
 10
649.728682803483
 20
110.1566781929295
 30
0.0
  0
ENDBLK
  5
18507
330
18505
100
AcDbEntity
  8
0
100
AcDbBlockEnd
  0
BLOCK
  5
18515
330
18514
100
AcDbEntity
  8
0
100
AcDbBlockBegin
  2
*D194
 70
     1
 10
0.0
 20
0.0
 30
0.0
  3
*D194
  1
*D194
  0
LINE
  5
18517
330
18514
100
AcDbEntity
  8
WY
 62
     0
100
AcDbLine
 10
642.6812195454418
 20
110.1566781929295
 30
0.0
 11
651.228682803483
 21
110.1566781929295
 31
0.0
  0
LINE
  5
18518
330
18514
100
AcDbEntity
  8
WY
 62
     0
100
AcDbLine
 10
642.6812195454418
 20
83.15667819292952
 30
0.0
 11
651.228682803483
 21
83.15667819292952
 31
0.0
  0
LINE
  5
18519
330
18514
100
AcDbEntity
  8
WY
 62
     0
100
AcDbLine
 10
649.728682803483
 20
107.6566781929295
 30
0.0
 11
649.728682803483
 21
85.65667819292952
 31
0.0
  0
SOLID
  5
1851A
330
18514
100
AcDbEntity
  8
WY
 62
     0
100
AcDbTrace
 10
650.1453494701497
 20
107.6566781929295
 30
0.0
 11
649.3120161368164
 21
107.6566781929295
 31
0.0
 12
649.728682803483
 22
110.1566781929295
 32
0.0
 13
649.728682803483
 23
110.1566781929295
 33
0.0
  0
SOLID
  5
1851B
330
18514
100
AcDbEntity
  8
WY
 62
     0
100
AcDbTrace
 10
649.3120161368164
 20
85.65667819292952
 30
0.0
 11
650.1453494701497
 21
85.65667819292952
 31
0.0
 12
649.728682803483
 22
83.15667819292952
 32
0.0
 13
649.728682803483
 23
83.15667819292952
 33
0.0
  0
MTEXT
  5
1851C
330
18514
100
AcDbEntity
  8
WY
 62
     0
100
AcDbMText
 10
648.228682803483
 20
96.65667819292952
 30
0.0
 40
1.5
 41
0.0
 71
     5
 72
     1
  1
\A1;27
 11
0.0
 21
1.0
 31
0.0
  0
POINT
  5
1851D
330
18514
100
AcDbEntity
  8
DEFPOINTS
 62
     0
100
AcDbPoint
 10
641.1812195454418
 20
110.1566781929295
 30
0.0
  0
POINT
  5
1851E
330
18514
100
AcDbEntity
  8
DEFPOINTS
 62
     0
100
AcDbPoint
 10
641.1812195454418
 20
83.15667819292952
 30
0.0
  0
POINT
  5
1851F
330
18514
100
AcDbEntity
  8
DEFPOINTS
 62
     0
100
AcDbPoint
 10
649.728682803483
 20
83.15667819292952
 30
0.0
  0
ENDBLK
  5
18516
330
18514
100
AcDbEntity
  8
0
100
AcDbBlockEnd
  0
BLOCK
  5
18524
330
18523
100
AcDbEntity
  8
0
100
AcDbBlockBegin
  2
*D195
 70
     1
 10
0.0
 20
0.0
 30
0.0
  3
*D195
  1
*D195
  0
LINE
  5
18526
330
18523
100
AcDbEntity
  8
WY
 62
     0
100
AcDbLine
 10
642.6812195454418
 20
83.15667819292952
 30
0.0
 11
651.228682803483
 21
83.15667819292952
 31
0.0
  0
LINE
  5
18527
330
18523
100
AcDbEntity
  8
WY
 62
     0
100
AcDbLine
 10
642.6812195454418
 20
56.95667819292959
 30
0.0
 11
651.228682803483
 21
56.95667819292959
 31
0.0
  0
LINE
  5
18528
330
18523
100
AcDbEntity
  8
WY
 62
     0
100
AcDbLine
 10
649.728682803483
 20
80.65667819292952
 30
0.0
 11
649.728682803483
 21
59.45667819292959
 31
0.0
  0
SOLID
  5
18529
330
18523
100
AcDbEntity
  8
WY
 62
     0
100
AcDbTrace
 10
650.1453494701497
 20
80.65667819292952
 30
0.0
 11
649.3120161368164
 21
80.65667819292952
 31
0.0
 12
649.728682803483
 22
83.15667819292952
 32
0.0
 13
649.728682803483
 23
83.15667819292952
 33
0.0
  0
SOLID
  5
1852A
330
18523
100
AcDbEntity
  8
WY
 62
     0
100
AcDbTrace
 10
649.3120161368164
 20
59.45667819292959
 30
0.0
 11
650.1453494701497
 21
59.45667819292959
 31
0.0
 12
649.728682803483
 22
56.95667819292959
 32
0.0
 13
649.728682803483
 23
56.95667819292959
 33
0.0
  0
MTEXT
  5
1852B
330
18523
100
AcDbEntity
  8
WY
 62
     0
100
AcDbMText
 10
648.228682803483
 20
70.05667819292955
 30
0.0
 40
1.5
 41
0.0
 71
     5
 72
     1
  1
\A1;26.2
 11
0.0
 21
1.0
 31
0.0
  0
POINT
  5
1852C
330
18523
100
AcDbEntity
  8
DEFPOINTS
 62
     0
100
AcDbPoint
 10
641.1812195454418
 20
83.15667819292952
 30
0.0
  0
POINT
  5
1852D
330
18523
100
AcDbEntity
  8
DEFPOINTS
 62
     0
100
AcDbPoint
 10
641.1812195454418
 20
56.95667819292959
 30
0.0
  0
POINT
  5
1852E
330
18523
100
AcDbEntity
  8
DEFPOINTS
 62
     0
100
AcDbPoint
 10
649.728682803483
 20
56.95667819292959
 30
0.0
  0
ENDBLK
  5
18525
330
18523
100
AcDbEntity
  8
0
100
AcDbBlockEnd
  0
BLOCK
  5
18A29
330
18A28
100
AcDbEntity
  8
0
100
AcDbBlockBegin
  2
*D197
 70
     1
 10
0.0
 20
0.0
 30
0.0
  3
*D197
  1
*D197
  0
LINE
  5
18A2B
330
18A28
100
AcDbEntity
  8
WY
 62
     0
100
AcDbLine
 10
566.3131093424516
 20
225.2855851713645
 30
0.0
 11
576.818074509442
 21
225.2855851713645
 31
0.0
  0
LINE
  5
18A2C
330
18A28
100
AcDbEntity
  8
WY
 62
     0
100
AcDbLine
 10
566.3131093424516
 20
222.2855851713645
 30
0.0
 11
576.818074509442
 21
222.2855851713645
 31
0.0
  0
LINE
  5
18A2D
330
18A28
100
AcDbEntity
  8
WY
 62
     0
100
AcDbLine
 10
575.318074509442
 20
225.2855851713645
 30
0.0
 11
575.318074509442
 21
222.2855851713645
 31
0.0
  0
LINE
  5
18A2E
330
18A28
100
AcDbEntity
  8
WY
 62
     0
100
AcDbLine
 10
575.318074509442
 20
227.7855851713645
 30
0.0
 11
575.318074509442
 21
230.2855851713645
 31
0.0
  0
LINE
  5
18A2F
330
18A28
100
AcDbEntity
  8
WY
 62
     0
100
AcDbLine
 10
575.318074509442
 20
219.7855851713645
 30
0.0
 11
575.318074509442
 21
217.2855851713645
 31
0.0
  0
SOLID
  5
18A30
330
18A28
100
AcDbEntity
  8
WY
 62
     0
100
AcDbTrace
 10
574.9014078427754
 20
227.7855851713645
 30
0.0
 11
575.7347411761086
 21
227.7855851713645
 31
0.0
 12
575.318074509442
 22
225.2855851713645
 32
0.0
 13
575.318074509442
 23
225.2855851713645
 33
0.0
  0
SOLID
  5
18A31
330
18A28
100
AcDbEntity
  8
WY
 62
     0
100
AcDbTrace
 10
575.7347411761086
 20
219.7855851713645
 30
0.0
 11
574.9014078427754
 21
219.7855851713645
 31
0.0
 12
575.318074509442
 22
222.2855851713645
 32
0.0
 13
575.318074509442
 23
222.2855851713645
 33
0.0
  0
MTEXT
  5
18A32
330
18A28
100
AcDbEntity
  8
WY
 62
     0
100
AcDbMText
 10
573.818074509442
 20
223.7855851713645
 30
0.0
 40
1.5
 41
0.0
 71
     5
 72
     1
  1
\A1;3
 11
0.0
 21
1.0
 31
0.0
  0
POINT
  5
18A33
330
18A28
100
AcDbEntity
  8
DEFPOINTS
 62
     0
100
AcDbPoint
 10
564.8131093424516
 20
225.2855851713645
 30
0.0
  0
POINT
  5
18A34
330
18A28
100
AcDbEntity
  8
DEFPOINTS
 62
     0
100
AcDbPoint
 10
564.8131093424516
 20
222.2855851713645
 30
0.0
  0
POINT
  5
18A35
330
18A28
100
AcDbEntity
  8
DEFPOINTS
 62
     0
100
AcDbPoint
 10
575.318074509442
 20
222.2855851713645
 30
0.0
  0
ENDBLK
  5
18A2A
330
18A28
100
AcDbEntity
  8
0
100
AcDbBlockEnd
  0
BLOCK
  5
18A37
330
18A36
100
AcDbEntity
  8
0
100
AcDbBlockBegin
  2
*D198
 70
     1
 10
0.0
 20
0.0
 30
0.0
  3
*D198
  1
*D198
  0
LINE
  5
18A39
330
18A36
100
AcDbEntity
  8
WY
 62
     0
100
AcDbLine
 10
566.3131093424516
 20
222.2855851713645
 30
0.0
 11
582.306817037173
 21
222.2855851713645
 31
0.0
  0
LINE
  5
18A3A
330
18A36
100
AcDbEntity
  8
WY
 62
     0
100
AcDbLine
 10
553.8131093424516
 20
233.5295016188469
 30
0.0
 11
582.306817037173
 21
233.5295016188469
 31
0.0
  0
LINE
  5
18A3B
330
18A36
100
AcDbEntity
  8
WY
 62
     0
100
AcDbLine
 10
580.806817037173
 20
224.7855851713645
 30
0.0
 11
580.806817037173
 21
231.0295016188469
 31
0.0
  0
SOLID
  5
18A3C
330
18A36
100
AcDbEntity
  8
WY
 62
     0
100
AcDbTrace
 10
580.3901503705064
 20
224.7855851713645
 30
0.0
 11
581.2234837038396
 21
224.7855851713645
 31
0.0
 12
580.806817037173
 22
222.2855851713645
 32
0.0
 13
580.806817037173
 23
222.2855851713645
 33
0.0
  0
SOLID
  5
18A3D
330
18A36
100
AcDbEntity
  8
WY
 62
     0
100
AcDbTrace
 10
581.2234837038396
 20
231.0295016188469
 30
0.0
 11
580.3901503705064
 21
231.0295016188469
 31
0.0
 12
580.806817037173
 22
233.5295016188469
 32
0.0
 13
580.806817037173
 23
233.5295016188469
 33
0.0
  0
MTEXT
  5
18A3E
330
18A36
100
AcDbEntity
  8
WY
 62
     0
100
AcDbMText
 10
579.306817037173
 20
227.9075433951057
 30
0.0
 40
1.5
 41
0.0
 71
     5
 72
     1
  1
\A1;11.2%%p0.1
 11
0.0
 21
1.0
 31
0.0
  0
POINT
  5
18A3F
330
18A36
100
AcDbEntity
  8
DEFPOINTS
 62
     0
100
AcDbPoint
 10
564.8131093424516
 20
222.2855851713645
 30
0.0
  0
POINT
  5
18A40
330
18A36
100
AcDbEntity
  8
DEFPOINTS
 62
     0
100
AcDbPoint
 10
552.3131093424516
 20
233.5295016188469
 30
0.0
  0
POINT
  5
18A41
330
18A36
100
AcDbEntity
  8
DEFPOINTS
 62
     0
100
AcDbPoint
 10
580.806817037173
 20
233.5295016188469
 30
0.0
  0
ENDBLK
  5
18A38
330
18A36
100
AcDbEntity
  8
0
100
AcDbBlockEnd
  0
BLOCK
  5
18A47
330
18A46
100
AcDbEntity
  8
0
100
AcDbBlockBegin
  2
*D199
 70
     1
 10
0.0
 20
0.0
 30
0.0
  3
*D199
  1
*D199
  0
LINE
  5
18A49
330
18A46
100
AcDbEntity
  8
WY
 62
     0
100
AcDbLine
 10
566.3131093424516
 20
177.4127158230307
 30
0.0
 11
578.357874167562
 21
177.4127158230307
 31
0.0
  0
LINE
  5
18A4A
330
18A46
100
AcDbEntity
  8
WY
 62
     0
100
AcDbLine
 10
566.3131093424516
 20
66.11271582303075
 30
0.0
 11
578.357874167562
 21
66.11271582303075
 31
0.0
  0
LINE
  5
18A4B
330
18A46
100
AcDbEntity
  8
WY
 62
     0
100
AcDbLine
 10
576.857874167562
 20
174.9127158230307
 30
0.0
 11
576.857874167562
 21
68.61271582303075
 31
0.0
  0
SOLID
  5
18A4C
330
18A46
100
AcDbEntity
  8
WY
 62
     0
100
AcDbTrace
 10
577.2745408342287
 20
174.9127158230307
 30
0.0
 11
576.4412075008954
 21
174.9127158230307
 31
0.0
 12
576.857874167562
 22
177.4127158230307
 32
0.0
 13
576.857874167562
 23
177.4127158230307
 33
0.0
  0
SOLID
  5
18A4D
330
18A46
100
AcDbEntity
  8
WY
 62
     0
100
AcDbTrace
 10
576.4412075008954
 20
68.61271582303075
 30
0.0
 11
577.2745408342287
 21
68.61271582303075
 31
0.0
 12
576.857874167562
 22
66.11271582303075
 32
0.0
 13
576.857874167562
 23
66.11271582303075
 33
0.0
  0
MTEXT
  5
18A4E
330
18A46
100
AcDbEntity
  8
WY
 62
     0
100
AcDbMText
 10
575.357874167562
 20
121.7627158230307
 30
0.0
 40
1.5
 41
0.0
 71
     5
 72
     1
  1
\A1;111.3%%p0.2
 11
0.0
 21
1.0
 31
0.0
  0
POINT
  5
18A4F
330
18A46
100
AcDbEntity
  8
DEFPOINTS
 62
     0
100
AcDbPoint
 10
564.8131093424516
 20
177.4127158230307
 30
0.0
  0
POINT
  5
18A50
330
18A46
100
AcDbEntity
  8
DEFPOINTS
 62
     0
100
AcDbPoint
 10
564.8131093424516
 20
66.11271582303075
 30
0.0
  0
POINT
  5
18A51
330
18A46
100
AcDbEntity
  8
DEFPOINTS
 62
     0
100
AcDbPoint
 10
576.857874167562
 20
66.11271582303075
 30
0.0
  0
ENDBLK
  5
18A48
330
18A46
100
AcDbEntity
  8
0
100
AcDbBlockEnd
  0
BLOCK
  5
18A56
330
18A55
100
AcDbEntity
  8
0
100
AcDbBlockBegin
  2
*D200
 70
     1
 10
0.0
 20
0.0
 30
0.0
  3
*D200
  1
*D200
  0
LINE
  5
18A58
330
18A55
100
AcDbEntity
  8
WY
 62
     0
100
AcDbLine
 10
554.8131093424516
 20
176.4127158230307
 30
0.0
 11
554.8131093424516
 21
184.4962807697742
 31
0.0
  0
LINE
  5
18A59
330
18A55
100
AcDbEntity
  8
WY
 62
     0
100
AcDbLine
 10
564.8131093424516
 20
178.9127158230307
 30
0.0
 11
564.8131093424516
 21
184.4962807697742
 31
0.0
  0
LINE
  5
18A5A
330
18A55
100
AcDbEntity
  8
WY
 62
     0
100
AcDbLine
 10
557.3131093424516
 20
182.9962807697742
 30
0.0
 11
562.3131093424516
 21
182.9962807697742
 31
0.0
  0
SOLID
  5
18A5B
330
18A55
100
AcDbEntity
  8
WY
 62
     0
100
AcDbTrace
 10
557.3131093424516
 20
183.4129474364408
 30
0.0
 11
557.3131093424516
 21
182.5796141031075
 31
0.0
 12
554.8131093424516
 22
182.9962807697742
 32
0.0
 13
554.8131093424516
 23
182.9962807697742
 33
0.0
  0
SOLID
  5
18A5C
330
18A55
100
AcDbEntity
  8
WY
 62
     0
100
AcDbTrace
 10
562.3131093424516
 20
182.5796141031075
 30
0.0
 11
562.3131093424516
 21
183.4129474364408
 31
0.0
 12
564.8131093424516
 22
182.9962807697742
 32
0.0
 13
564.8131093424516
 23
182.9962807697742
 33
0.0
  0
MTEXT
  5
18A5D
330
18A55
100
AcDbEntity
  8
WY
 62
     0
100
AcDbMText
 10
559.8131093424516
 20
184.4962807697742
 30
0.0
 40
1.5
 41
0.0
 71
     5
 72
     1
  1
\A1;10
  0
POINT
  5
18A5E
330
18A55
100
AcDbEntity
  8
DEFPOINTS
 62
     0
100
AcDbPoint
 10
554.8131093424516
 20
174.9127158230307
 30
0.0
  0
POINT
  5
18A5F
330
18A55
100
AcDbEntity
  8
DEFPOINTS
 62
     0
100
AcDbPoint
 10
564.8131093424516
 20
177.4127158230307
 30
0.0
  0
POINT
  5
18A60
330
18A55
100
AcDbEntity
  8
DEFPOINTS
 62
     0
100
AcDbPoint
 10
564.8131093424516
 20
182.9962807697742
 30
0.0
  0
ENDBLK
  5
18A57
330
18A55
100
AcDbEntity
  8
0
100
AcDbBlockEnd
  0
BLOCK
  5
18A65
330
18A64
100
AcDbEntity
  8
0
100
AcDbBlockBegin
  2
*D201
 70
     1
 10
0.0
 20
0.0
 30
0.0
  3
*D201
  1
*D201
  0
LINE
  5
18A67
330
18A64
100
AcDbEntity
  8
WY
 62
     0
100
AcDbLine
 10
551.0131093424517
 20
178.9127158230307
 30
0.0
 11
551.0131093424517
 21
187.6871616375475
 31
0.0
  0
LINE
  5
18A68
330
18A64
100
AcDbEntity
  8
WY
 62
     0
100
AcDbLine
 10
564.8131093424516
 20
178.9127158230307
 30
0.0
 11
564.8131093424516
 21
187.6871616375475
 31
0.0
  0
LINE
  5
18A69
330
18A64
100
AcDbEntity
  8
WY
 62
     0
100
AcDbLine
 10
553.5131093424517
 20
186.1871616375475
 30
0.0
 11
562.3131093424516
 21
186.1871616375475
 31
0.0
  0
SOLID
  5
18A6A
330
18A64
100
AcDbEntity
  8
WY
 62
     0
100
AcDbTrace
 10
553.5131093424517
 20
186.6038283042141
 30
0.0
 11
553.5131093424517
 21
185.7704949708808
 31
0.0
 12
551.0131093424517
 22
186.1871616375475
 32
0.0
 13
551.0131093424517
 23
186.1871616375475
 33
0.0
  0
SOLID
  5
18A6B
330
18A64
100
AcDbEntity
  8
WY
 62
     0
100
AcDbTrace
 10
562.3131093424516
 20
185.7704949708808
 30
0.0
 11
562.3131093424516
 21
186.6038283042141
 31
0.0
 12
564.8131093424516
 22
186.1871616375475
 32
0.0
 13
564.8131093424516
 23
186.1871616375475
 33
0.0
  0
MTEXT
  5
18A6C
330
18A64
100
AcDbEntity
  8
WY
 62
     0
100
AcDbMText
 10
557.9131093424517
 20
187.6871616375475
 30
0.0
 40
1.5
 41
0.0
 71
     5
 72
     1
  1
\A1;13.8
  0
POINT
  5
18A6D
330
18A64
100
AcDbEntity
  8
DEFPOINTS
 62
     0
100
AcDbPoint
 10
551.0131093424517
 20
177.4127158230307
 30
0.0
  0
POINT
  5
18A6E
330
18A64
100
AcDbEntity
  8
DEFPOINTS
 62
     0
100
AcDbPoint
 10
564.8131093424516
 20
177.4127158230307
 30
0.0
  0
POINT
  5
18A6F
330
18A64
100
AcDbEntity
  8
DEFPOINTS
 62
     0
100
AcDbPoint
 10
564.8131093424516
 20
186.1871616375475
 30
0.0
  0
ENDBLK
  5
18A66
330
18A64
100
AcDbEntity
  8
0
100
AcDbBlockEnd
  0
BLOCK
  5
18A74
330
18A73
100
AcDbEntity
  8
0
100
AcDbBlockBegin
  2
*D202
 70
     1
 10
0.0
 20
0.0
 30
0.0
  3
*D202
  1
*D202
  0
LINE
  5
18A76
330
18A73
100
AcDbEntity
  8
WY
 62
     0
100
AcDbLine
 10
645.4793534583986
 20
176.2627158230308
 30
0.0
 11
652.5839693652302
 21
176.2627158230308
 31
0.0
  0
LINE
  5
18A77
330
18A73
100
AcDbEntity
  8
WY
 62
     0
100
AcDbLine
 10
645.4793534583986
 20
161.2627158230308
 30
0.0
 11
652.5839693652302
 21
161.2627158230308
 31
0.0
  0
LINE
  5
18A78
330
18A73
100
AcDbEntity
  8
WY
 62
     0
100
AcDbLine
 10
651.0839693652302
 20
173.7627158230308
 30
0.0
 11
651.0839693652302
 21
163.7627158230308
 31
0.0
  0
SOLID
  5
18A79
330
18A73
100
AcDbEntity
  8
WY
 62
     0
100
AcDbTrace
 10
651.5006360318969
 20
173.7627158230308
 30
0.0
 11
650.6673026985636
 21
173.7627158230308
 31
0.0
 12
651.0839693652302
 22
176.2627158230308
 32
0.0
 13
651.0839693652302
 23
176.2627158230308
 33
0.0
  0
SOLID
  5
18A7A
330
18A73
100
AcDbEntity
  8
WY
 62
     0
100
AcDbTrace
 10
650.6673026985636
 20
163.7627158230308
 30
0.0
 11
651.5006360318969
 21
163.7627158230308
 31
0.0
 12
651.0839693652302
 22
161.2627158230308
 32
0.0
 13
651.0839693652302
 23
161.2627158230308
 33
0.0
  0
MTEXT
  5
18A7B
330
18A73
100
AcDbEntity
  8
WY
 62
     0
100
AcDbMText
 10
649.5839693652302
 20
168.7627158230308
 30
0.0
 40
1.5
 41
0.0
 71
     5
 72
     1
  1
\A1;15
 11
0.0
 21
1.0
 31
0.0
  0
POINT
  5
18A7C
330
18A73
100
AcDbEntity
  8
DEFPOINTS
 62
     0
100
AcDbPoint
 10
643.9793534583986
 20
176.2627158230308
 30
0.0
  0
POINT
  5
18A7D
330
18A73
100
AcDbEntity
  8
DEFPOINTS
 62
     0
100
AcDbPoint
 10
643.9793534583986
 20
161.2627158230308
 30
0.0
  0
POINT
  5
18A7E
330
18A73
100
AcDbEntity
  8
DEFPOINTS
 62
     0
100
AcDbPoint
 10
651.0839693652302
 20
161.2627158230308
 30
0.0
  0
ENDBLK
  5
18A75
330
18A73
100
AcDbEntity
  8
0
100
AcDbBlockEnd
  0
BLOCK
  5
18A83
330
18A82
100
AcDbEntity
  8
0
100
AcDbBlockBegin
  2
*D203
 70
     1
 10
0.0
 20
0.0
 30
0.0
  3
*D203
  1
*D203
  0
LINE
  5
18A85
330
18A82
100
AcDbEntity
  8
WY
 62
     0
100
AcDbLine
 10
645.4793534583986
 20
161.2627158230308
 30
0.0
 11
652.5839693652302
 21
161.2627158230308
 31
0.0
  0
LINE
  5
18A86
330
18A82
100
AcDbEntity
  8
WY
 62
     0
100
AcDbLine
 10
645.4793534583986
 20
145.4627158230307
 30
0.0
 11
652.5839693652302
 21
145.4627158230307
 31
0.0
  0
LINE
  5
18A87
330
18A82
100
AcDbEntity
  8
WY
 62
     0
100
AcDbLine
 10
651.0839693652302
 20
158.7627158230308
 30
0.0
 11
651.0839693652302
 21
147.9627158230307
 31
0.0
  0
SOLID
  5
18A88
330
18A82
100
AcDbEntity
  8
WY
 62
     0
100
AcDbTrace
 10
651.5006360318969
 20
158.7627158230308
 30
0.0
 11
650.6673026985636
 21
158.7627158230308
 31
0.0
 12
651.0839693652302
 22
161.2627158230308
 32
0.0
 13
651.0839693652302
 23
161.2627158230308
 33
0.0
  0
SOLID
  5
18A89
330
18A82
100
AcDbEntity
  8
WY
 62
     0
100
AcDbTrace
 10
650.6673026985636
 20
147.9627158230307
 30
0.0
 11
651.5006360318969
 21
147.9627158230307
 31
0.0
 12
651.0839693652302
 22
145.4627158230307
 32
0.0
 13
651.0839693652302
 23
145.4627158230307
 33
0.0
  0
MTEXT
  5
18A8A
330
18A82
100
AcDbEntity
  8
WY
 62
     0
100
AcDbMText
 10
649.5839693652302
 20
153.3627158230308
 30
0.0
 40
1.5
 41
0.0
 71
     5
 72
     1
  1
\A1;15.8
 11
0.0
 21
1.0
 31
0.0
  0
POINT
  5
18A8B
330
18A82
100
AcDbEntity
  8
DEFPOINTS
 62
     0
100
AcDbPoint
 10
643.9793534583986
 20
161.2627158230308
 30
0.0
  0
POINT
  5
18A8C
330
18A82
100
AcDbEntity
  8
DEFPOINTS
 62
     0
100
AcDbPoint
 10
643.9793534583986
 20
145.4627158230307
 30
0.0
  0
POINT
  5
18A8D
330
18A82
100
AcDbEntity
  8
DEFPOINTS
 62
     0
100
AcDbPoint
 10
651.0839693652302
 20
145.4627158230307
 30
0.0
  0
ENDBLK
  5
18A84
330
18A82
100
AcDbEntity
  8
0
100
AcDbBlockEnd
  0
BLOCK
  5
18A92
330
18A91
100
AcDbEntity
  8
0
100
AcDbBlockBegin
  2
*D204
 70
     1
 10
0.0
 20
0.0
 30
0.0
  3
*D204
  1
*D204
  0
LINE
  5
18A94
330
18A91
100
AcDbEntity
  8
WY
 62
     0
100
AcDbLine
 10
645.4793534583986
 20
145.4627158230307
 30
0.0
 11
652.5839693652302
 21
145.4627158230307
 31
0.0
  0
LINE
  5
18A95
330
18A91
100
AcDbEntity
  8
WY
 62
     0
100
AcDbLine
 10
645.4793534583986
 20
129.6627158230308
 30
0.0
 11
652.5839693652302
 21
129.6627158230308
 31
0.0
  0
LINE
  5
18A96
330
18A91
100
AcDbEntity
  8
WY
 62
     0
100
AcDbLine
 10
651.0839693652302
 20
142.9627158230307
 30
0.0
 11
651.0839693652302
 21
132.1627158230308
 31
0.0
  0
SOLID
  5
18A97
330
18A91
100
AcDbEntity
  8
WY
 62
     0
100
AcDbTrace
 10
651.5006360318969
 20
142.9627158230307
 30
0.0
 11
650.6673026985636
 21
142.9627158230307
 31
0.0
 12
651.0839693652302
 22
145.4627158230307
 32
0.0
 13
651.0839693652302
 23
145.4627158230307
 33
0.0
  0
SOLID
  5
18A98
330
18A91
100
AcDbEntity
  8
WY
 62
     0
100
AcDbTrace
 10
650.6673026985636
 20
132.1627158230308
 30
0.0
 11
651.5006360318969
 21
132.1627158230308
 31
0.0
 12
651.0839693652302
 22
129.6627158230308
 32
0.0
 13
651.0839693652302
 23
129.6627158230308
 33
0.0
  0
MTEXT
  5
18A99
330
18A91
100
AcDbEntity
  8
WY
 62
     0
100
AcDbMText
 10
649.5839693652302
 20
137.5627158230307
 30
0.0
 40
1.5
 41
0.0
 71
     5
 72
     1
  1
\A1;15.8
 11
0.0
 21
1.0
 31
0.0
  0
POINT
  5
18A9A
330
18A91
100
AcDbEntity
  8
DEFPOINTS
 62
     0
100
AcDbPoint
 10
643.9793534583986
 20
145.4627158230307
 30
0.0
  0
POINT
  5
18A9B
330
18A91
100
AcDbEntity
  8
DEFPOINTS
 62
     0
100
AcDbPoint
 10
643.9793534583986
 20
129.6627158230308
 30
0.0
  0
POINT
  5
18A9C
330
18A91
100
AcDbEntity
  8
DEFPOINTS
 62
     0
100
AcDbPoint
 10
651.0839693652302
 20
129.6627158230308
 30
0.0
  0
ENDBLK
  5
18A93
330
18A91
100
AcDbEntity
  8
0
100
AcDbBlockEnd
  0
BLOCK
  5
18AA1
330
18AA0
100
AcDbEntity
  8
0
100
AcDbBlockBegin
  2
*D205
 70
     1
 10
0.0
 20
0.0
 30
0.0
  3
*D205
  1
*D205
  0
LINE
  5
18AA3
330
18AA0
100
AcDbEntity
  8
WY
 62
     0
100
AcDbLine
 10
645.4793534583986
 20
129.6627158230308
 30
0.0
 11
652.5839693652302
 21
129.6627158230308
 31
0.0
  0
LINE
  5
18AA4
330
18AA0
100
AcDbEntity
  8
WY
 62
     0
100
AcDbLine
 10
645.4793534583986
 20
113.8627158230308
 30
0.0
 11
652.5839693652302
 21
113.8627158230308
 31
0.0
  0
LINE
  5
18AA5
330
18AA0
100
AcDbEntity
  8
WY
 62
     0
100
AcDbLine
 10
651.0839693652302
 20
127.1627158230308
 30
0.0
 11
651.0839693652302
 21
116.3627158230308
 31
0.0
  0
SOLID
  5
18AA6
330
18AA0
100
AcDbEntity
  8
WY
 62
     0
100
AcDbTrace
 10
651.5006360318969
 20
127.1627158230308
 30
0.0
 11
650.6673026985636
 21
127.1627158230308
 31
0.0
 12
651.0839693652302
 22
129.6627158230308
 32
0.0
 13
651.0839693652302
 23
129.6627158230308
 33
0.0
  0
SOLID
  5
18AA7
330
18AA0
100
AcDbEntity
  8
WY
 62
     0
100
AcDbTrace
 10
650.6673026985636
 20
116.3627158230308
 30
0.0
 11
651.5006360318969
 21
116.3627158230308
 31
0.0
 12
651.0839693652302
 22
113.8627158230308
 32
0.0
 13
651.0839693652302
 23
113.8627158230308
 33
0.0
  0
MTEXT
  5
18AA8
330
18AA0
100
AcDbEntity
  8
WY
 62
     0
100
AcDbMText
 10
649.5839693652302
 20
121.7627158230308
 30
0.0
 40
1.5
 41
0.0
 71
     5
 72
     1
  1
\A1;15.8
 11
0.0
 21
1.0
 31
0.0
  0
POINT
  5
18AA9
330
18AA0
100
AcDbEntity
  8
DEFPOINTS
 62
     0
100
AcDbPoint
 10
643.9793534583986
 20
129.6627158230308
 30
0.0
  0
POINT
  5
18AAA
330
18AA0
100
AcDbEntity
  8
DEFPOINTS
 62
     0
100
AcDbPoint
 10
643.9793534583986
 20
113.8627158230308
 30
0.0
  0
POINT
  5
18AAB
330
18AA0
100
AcDbEntity
  8
DEFPOINTS
 62
     0
100
AcDbPoint
 10
651.0839693652302
 20
113.8627158230308
 30
0.0
  0
ENDBLK
  5
18AA2
330
18AA0
100
AcDbEntity
  8
0
100
AcDbBlockEnd
  0
BLOCK
  5
18AB0
330
18AAF
100
AcDbEntity
  8
0
100
AcDbBlockBegin
  2
*D206
 70
     1
 10
0.0
 20
0.0
 30
0.0
  3
*D206
  1
*D206
  0
LINE
  5
18AB2
330
18AAF
100
AcDbEntity
  8
WY
 62
     0
100
AcDbLine
 10
645.4793534583986
 20
113.8627158230308
 30
0.0
 11
652.5839693652302
 21
113.8627158230308
 31
0.0
  0
LINE
  5
18AB3
330
18AAF
100
AcDbEntity
  8
WY
 62
     0
100
AcDbLine
 10
645.4793534583986
 20
98.06271582303074
 30
0.0
 11
652.5839693652302
 21
98.06271582303074
 31
0.0
  0
LINE
  5
18AB4
330
18AAF
100
AcDbEntity
  8
WY
 62
     0
100
AcDbLine
 10
651.0839693652302
 20
111.3627158230308
 30
0.0
 11
651.0839693652302
 21
100.5627158230307
 31
0.0
  0
SOLID
  5
18AB5
330
18AAF
100
AcDbEntity
  8
WY
 62
     0
100
AcDbTrace
 10
651.5006360318969
 20
111.3627158230308
 30
0.0
 11
650.6673026985636
 21
111.3627158230308
 31
0.0
 12
651.0839693652302
 22
113.8627158230308
 32
0.0
 13
651.0839693652302
 23
113.8627158230308
 33
0.0
  0
SOLID
  5
18AB6
330
18AAF
100
AcDbEntity
  8
WY
 62
     0
100
AcDbTrace
 10
650.6673026985636
 20
100.5627158230307
 30
0.0
 11
651.5006360318969
 21
100.5627158230307
 31
0.0
 12
651.0839693652302
 22
98.06271582303074
 32
0.0
 13
651.0839693652302
 23
98.06271582303074
 33
0.0
  0
MTEXT
  5
18AB7
330
18AAF
100
AcDbEntity
  8
WY
 62
     0
100
AcDbMText
 10
649.5839693652302
 20
105.9627158230308
 30
0.0
 40
1.5
 41
0.0
 71
     5
 72
     1
  1
\A1;15.8
 11
0.0
 21
1.0
 31
0.0
  0
POINT
  5
18AB8
330
18AAF
100
AcDbEntity
  8
DEFPOINTS
 62
     0
100
AcDbPoint
 10
643.9793534583986
 20
113.8627158230308
 30
0.0
  0
POINT
  5
18AB9
330
18AAF
100
AcDbEntity
  8
DEFPOINTS
 62
     0
100
AcDbPoint
 10
643.9793534583986
 20
98.06271582303074
 30
0.0
  0
POINT
  5
18ABA
330
18AAF
100
AcDbEntity
  8
DEFPOINTS
 62
     0
100
AcDbPoint
 10
651.0839693652302
 20
98.06271582303074
 30
0.0
  0
ENDBLK
  5
18AB1
330
18AAF
100
AcDbEntity
  8
0
100
AcDbBlockEnd
  0
BLOCK
  5
18ABF
330
18ABE
100
AcDbEntity
  8
0
100
AcDbBlockBegin
  2
*D207
 70
     1
 10
0.0
 20
0.0
 30
0.0
  3
*D207
  1
*D207
  0
LINE
  5
18AC1
330
18ABE
100
AcDbEntity
  8
WY
 62
     0
100
AcDbLine
 10
645.4793534583986
 20
98.06271582303074
 30
0.0
 11
652.5839693652302
 21
98.06271582303074
 31
0.0
  0
LINE
  5
18AC2
330
18ABE
100
AcDbEntity
  8
WY
 62
     0
100
AcDbLine
 10
645.4793534583986
 20
82.26271582303079
 30
0.0
 11
652.5839693652302
 21
82.26271582303079
 31
0.0
  0
LINE
  5
18AC3
330
18ABE
100
AcDbEntity
  8
WY
 62
     0
100
AcDbLine
 10
651.0839693652302
 20
95.56271582303074
 30
0.0
 11
651.0839693652302
 21
84.76271582303079
 31
0.0
  0
SOLID
  5
18AC4
330
18ABE
100
AcDbEntity
  8
WY
 62
     0
100
AcDbTrace
 10
651.5006360318969
 20
95.56271582303074
 30
0.0
 11
650.6673026985636
 21
95.56271582303074
 31
0.0
 12
651.0839693652302
 22
98.06271582303074
 32
0.0
 13
651.0839693652302
 23
98.06271582303074
 33
0.0
  0
SOLID
  5
18AC5
330
18ABE
100
AcDbEntity
  8
WY
 62
     0
100
AcDbTrace
 10
650.6673026985636
 20
84.76271582303079
 30
0.0
 11
651.5006360318969
 21
84.76271582303079
 31
0.0
 12
651.0839693652302
 22
82.26271582303079
 32
0.0
 13
651.0839693652302
 23
82.26271582303079
 33
0.0
  0
MTEXT
  5
18AC6
330
18ABE
100
AcDbEntity
  8
WY
 62
     0
100
AcDbMText
 10
649.5839693652302
 20
90.16271582303077
 30
0.0
 40
1.5
 41
0.0
 71
     5
 72
     1
  1
\A1;15.8
 11
0.0
 21
1.0
 31
0.0
  0
POINT
  5
18AC7
330
18ABE
100
AcDbEntity
  8
DEFPOINTS
 62
     0
100
AcDbPoint
 10
643.9793534583986
 20
98.06271582303074
 30
0.0
  0
POINT
  5
18AC8
330
18ABE
100
AcDbEntity
  8
DEFPOINTS
 62
     0
100
AcDbPoint
 10
643.9793534583986
 20
82.26271582303079
 30
0.0
  0
POINT
  5
18AC9
330
18ABE
100
AcDbEntity
  8
DEFPOINTS
 62
     0
100
AcDbPoint
 10
651.0839693652302
 20
82.26271582303079
 30
0.0
  0
ENDBLK
  5
18AC0
330
18ABE
100
AcDbEntity
  8
0
100
AcDbBlockEnd
  0
BLOCK
  5
18ACE
330
18ACD
100
AcDbEntity
  8
0
100
AcDbBlockBegin
  2
*D208
 70
     1
 10
0.0
 20
0.0
 30
0.0
  3
*D208
  1
*D208
  0
LINE
  5
18AD0
330
18ACD
100
AcDbEntity
  8
WY
 62
     0
100
AcDbLine
 10
645.4793534583986
 20
82.26271582303079
 30
0.0
 11
652.5839693652302
 21
82.26271582303079
 31
0.0
  0
LINE
  5
18AD1
330
18ACD
100
AcDbEntity
  8
WY
 62
     0
100
AcDbLine
 10
645.4793534583986
 20
67.26271582303079
 30
0.0
 11
652.5839693652302
 21
67.26271582303079
 31
0.0
  0
LINE
  5
18AD2
330
18ACD
100
AcDbEntity
  8
WY
 62
     0
100
AcDbLine
 10
651.0839693652302
 20
79.76271582303079
 30
0.0
 11
651.0839693652302
 21
69.76271582303079
 31
0.0
  0
SOLID
  5
18AD3
330
18ACD
100
AcDbEntity
  8
WY
 62
     0
100
AcDbTrace
 10
651.5006360318969
 20
79.76271582303079
 30
0.0
 11
650.6673026985636
 21
79.76271582303079
 31
0.0
 12
651.0839693652302
 22
82.26271582303079
 32
0.0
 13
651.0839693652302
 23
82.26271582303079
 33
0.0
  0
SOLID
  5
18AD4
330
18ACD
100
AcDbEntity
  8
WY
 62
     0
100
AcDbTrace
 10
650.6673026985636
 20
69.76271582303079
 30
0.0
 11
651.5006360318969
 21
69.76271582303079
 31
0.0
 12
651.0839693652302
 22
67.26271582303079
 32
0.0
 13
651.0839693652302
 23
67.26271582303079
 33
0.0
  0
MTEXT
  5
18AD5
330
18ACD
100
AcDbEntity
  8
WY
 62
     0
100
AcDbMText
 10
649.5839693652302
 20
74.76271582303079
 30
0.0
 40
1.5
 41
0.0
 71
     5
 72
     1
  1
\A1;15
 11
0.0
 21
1.0
 31
0.0
  0
POINT
  5
18AD6
330
18ACD
100
AcDbEntity
  8
DEFPOINTS
 62
     0
100
AcDbPoint
 10
643.9793534583986
 20
82.26271582303079
 30
0.0
  0
POINT
  5
18AD7
330
18ACD
100
AcDbEntity
  8
DEFPOINTS
 62
     0
100
AcDbPoint
 10
643.9793534583986
 20
67.26271582303079
 30
0.0
  0
POINT
  5
18AD8
330
18ACD
100
AcDbEntity
  8
DEFPOINTS
 62
     0
100
AcDbPoint
 10
651.0839693652302
 20
67.26271582303079
 30
0.0
  0
ENDBLK
  5
18ACF
330
18ACD
100
AcDbEntity
  8
0
100
AcDbBlockEnd
  0
BLOCK
  5
18ADD
330
18ADC
100
AcDbEntity
  8
0
100
AcDbBlockBegin
  2
*D209
 70
     1
 10
0.0
 20
0.0
 30
0.0
  3
*D209
  1
*D209
  0
LINE
  5
18ADF
330
18ADC
100
AcDbEntity
  8
WY
 62
     0
100
AcDbLine
 10
636.4158622872864
 20
177.0127158230308
 30
0.0
 11
635.9891415025811
 21
177.0127158230308
 31
0.0
  0
LINE
  5
18AE0
330
18ADC
100
AcDbEntity
  8
WY
 62
     0
100
AcDbLine
 10
636.4158622872864
 20
175.5127158230308
 30
0.0
 11
635.9891415025811
 21
175.5127158230308
 31
0.0
  0
LINE
  5
18AE1
330
18ADC
100
AcDbEntity
  8
WY
 62
     0
100
AcDbLine
 10
637.4891415025811
 20
177.0127158230308
 30
0.0
 11
637.4891415025811
 21
186.0127158230308
 31
0.0
  0
LINE
  5
18AE2
330
18ADC
100
AcDbEntity
  8
WY
 62
     0
100
AcDbLine
 10
637.4891415025811
 20
177.0127158230308
 30
0.0
 11
637.4891415025811
 21
175.5127158230308
 31
0.0
  0
LINE
  5
18AE3
330
18ADC
100
AcDbEntity
  8
WY
 62
     0
100
AcDbLine
 10
637.4891415025811
 20
179.5127158230308
 30
0.0
 11
637.4891415025811
 21
182.0127158230308
 31
0.0
  0
LINE
  5
18AE4
330
18ADC
100
AcDbEntity
  8
WY
 62
     0
100
AcDbLine
 10
637.4891415025811
 20
173.0127158230308
 30
0.0
 11
637.4891415025811
 21
170.5127158230308
 31
0.0
  0
SOLID
  5
18AE5
330
18ADC
100
AcDbEntity
  8
WY
 62
     0
100
AcDbTrace
 10
637.0724748359145
 20
179.5127158230308
 30
0.0
 11
637.9058081692477
 21
179.5127158230308
 31
0.0
 12
637.4891415025811
 22
177.0127158230308
 32
0.0
 13
637.4891415025811
 23
177.0127158230308
 33
0.0
  0
SOLID
  5
18AE6
330
18ADC
100
AcDbEntity
  8
WY
 62
     0
100
AcDbTrace
 10
637.9058081692477
 20
173.0127158230308
 30
0.0
 11
637.0724748359145
 21
173.0127158230308
 31
0.0
 12
637.4891415025811
 22
175.5127158230308
 32
0.0
 13
637.4891415025811
 23
175.5127158230308
 33
0.0
  0
MTEXT
  5
18AE7
330
18ADC
100
AcDbEntity
  8
WY
 62
     0
100
AcDbMText
 10
635.9891415025811
 20
184.0127158230308
 30
0.0
 40
1.5
 41
0.0
 71
     5
 72
     1
  1
\A1;1.5
 11
0.0
 21
1.0
 31
0.0
  0
POINT
  5
18AE8
330
18ADC
100
AcDbEntity
  8
DEFPOINTS
 62
     0
100
AcDbPoint
 10
637.9158622872864
 20
177.0127158230308
 30
0.0
  0
POINT
  5
18AE9
330
18ADC
100
AcDbEntity
  8
DEFPOINTS
 62
     0
100
AcDbPoint
 10
637.9158622872864
 20
175.5127158230308
 30
0.0
  0
POINT
  5
18AEA
330
18ADC
100
AcDbEntity
  8
DEFPOINTS
 62
     0
100
AcDbPoint
 10
637.4891415025811
 20
175.5127158230308
 30
0.0
  0
ENDBLK
  5
18ADE
330
18ADC
100
AcDbEntity
  8
0
100
AcDbBlockEnd
  0
ENDSEC
  0
SECTION
  2
ENTITIES
  0
LINE
  5
2D2D
330
18
100
AcDbEntity
  8
WYMIARY
 62
     6
100
AcDbLine
 10
486.041244
 20
0.0
 30
0.0
 11
486.041244
 21
297.0
 31
0.0
  0
LINE
  5
2D2E
330
18
100
AcDbEntity
  8
WYMIARY
 62
     6
100
AcDbLine
 10
497.671651
 20
292.0
 30
0.0
 11
497.671651
 21
5.0
 31
0.0
  0
LINE
  5
2D34
330
18
100
AcDbEntity
  8
2
100
AcDbLine
 10
682.671651
 20
5.0
 30
0.0
 11
682.671651
 21
292.0
 31
0.0
  0
LINE
  5
2D35
330
18
100
AcDbEntity
  8
2
100
AcDbLine
 10
687.671651
 20
0.0
 30
0.0
 11
687.671651
 21
297.0
 31
0.0
  0
LINE
  5
2D36
330
18
100
AcDbEntity
  8
WY
  6
CONTINUOUS
 62
     3
100
AcDbLine
 10
682.671651
 20
19.689837
 30
0.0
 11
497.671651
 21
19.689837
 31
0.0
  0
LINE
  5
2D38
330
18
100
AcDbEntity
  8
2
100
AcDbLine
 10
497.671651
 20
5.0
 30
0.0
 11
682.671651
 21
5.0
 31
0.0
  0
LINE
  5
2D39
330
18
100
AcDbEntity
  8
2
 62
     6
100
AcDbLine
 10
497.671651
 20
0.0
 30
0.0
 11
687.671651
 21
0.0
 31
0.0
  0
LINE
  5
2D3A
330
18
100
AcDbEntity
  8
0
100
AcDbLine
 10
529.697667
 20
11.742481
 30
0.0
 11
528.795256
 21
11.742481
 31
0.0
  0
ELLIPSE
  5
2D3B
330
18
100
AcDbEntity
  8
0
100
AcDbEllipse
 10
529.697667
 20
11.742481
 30
0.0
 11
-1.203215696869327
 21
1.967000000000000E-13
 31
0.0
210
0.0
220
0.0
230
1.0
 40
0.958812
 41
-1.570796326794739
 42
0.0000000000001705
  0
TEXT
  5
2D3D
330
18
100
AcDbEntity
  8
1
100
AcDbText
 10
515.607578
 20
8.797457
 30
0.0
 40
5.0
  1
A4
 51
15.0
  7
ITALIC
100
AcDbText
  0
LINE
  5
2D40
330
18
100
AcDbEntity
  8
WYMIARY
 62
     6
100
AcDbLine
 10
497.671651
 20
0.0
 30
0.0
 11
486.041244
 21
0.0
 31
0.0
  0
TEXT
  5
2D42
330
18
100
AcDbEntity
  8
WY
100
AcDbText
 10
502.936765
 20
16.373844
 30
0.0
 40
2.0
  1
Skala
 51
15.0
  7
ITALIC
100
AcDbText
  0
TEXT
  5
2D43
330
18
100
AcDbEntity
  8
WY
100
AcDbText
 10
515.042219
 20
16.329369
 30
0.0
 40
2.0
  1
Format
 51
15.0
  7
ITALIC
100
AcDbText
  0
LINE
  5
2D44
330
18
100
AcDbEntity
  8
0
100
AcDbLine
 10
528.494452
 20
11.742481
 30
0.0
 11
528.795256
 21
11.742481
 31
0.0
  0
LINE
  5
2D45
330
18
100
AcDbEntity
  8
0
100
AcDbLine
 10
559.88722
 20
17.211264
 30
0.0
 11
559.88722
 21
9.015264
 31
0.0
  0
LINE
  5
2D46
330
18
100
AcDbEntity
  8
0
100
AcDbLine
 10
550.89322
 20
9.438264
 30
0.0
 11
550.89322
 21
7.416264
 31
0.0
  0
ARC
  5
2D47
330
18
100
AcDbEntity
  8
0
100
AcDbCircle
 10
551.5428
 20
9.724764
 30
0.0
 40
0.709955
100
AcDbArc
 50
203.80008
 51
272.051918
  0
LINE
  5
2D48
330
18
100
AcDbEntity
  8
0
100
AcDbLine
 10
549.34822
 20
7.416264
 30
0.0
 11
549.34822
 21
15.612264
 31
0.0
  0
ARC
  5
2D49
330
18
100
AcDbEntity
  8
0
100
AcDbCircle
 10
551.982126
 20
10.136416
 30
0.0
 40
1.128907
100
AcDbArc
 50
276.719576
 51
2.175194
  0
ARC
  5
2D4A
330
18
100
AcDbEntity
  8
0
100
AcDbCircle
 10
555.243059
 20
10.503572
 30
0.0
 40
1.488419
100
AcDbArc
 50
191.634268
 51
270.699113
  0
ARC
  5
2D4B
330
18
100
AcDbEntity
  8
0
100
AcDbCircle
 10
556.209381
 20
10.503572
 30
0.0
 40
1.488419
100
AcDbArc
 50
269.300887
 51
348.365732
  0
LINE
  5
2D4C
330
18
100
AcDbEntity
  8
0
100
AcDbLine
 10
558.34222
 20
9.015264
 30
0.0
 11
558.34222
 21
17.211264
 31
0.0
  0
ARC
  5
2D4D
330
18
100
AcDbEntity
  8
0
100
AcDbCircle
 10
545.056591
 20
10.472364
 30
0.0
 40
1.425319
100
AcDbArc
 50
269.703671
 51
350.465171
  0
ARC
  5
2D4E
330
18
100
AcDbEntity
  8
0
100
AcDbCircle
 10
544.201848
 20
10.472364
 30
0.0
 40
1.425319
100
AcDbArc
 50
189.534829
 51
270.2963290000001
  0
LINE
  5
2D4F
330
18
100
AcDbEntity
  8
0
100
AcDbLine
 10
547.14922
 20
9.015264
 30
0.0
 11
547.14922
 21
17.211264
 31
0.0
  0
LINE
  5
2D50
330
18
100
AcDbEntity
  8
0
100
AcDbLine
 10
548.69422
 20
17.211264
 30
0.0
 11
548.69422
 21
9.015264
 31
0.0
  0
LINE
  5
2D51
330
18
100
AcDbEntity
  8
0
100
AcDbLine
 10
539.892236
 20
14.361264
 30
0.0
 11
539.903809
 21
9.015264
 31
0.0
  0
LINE
  5
2D52
330
18
100
AcDbEntity
  8
0
100
AcDbLine
 10
538.361694
 20
9.015264
 30
0.0
 11
538.361694
 21
15.60367
 31
0.0
  0
LINE
  5
2D53
330
18
100
AcDbEntity
  8
0
100
AcDbLine
 10
529.697667
 20
9.895061
 30
0.0
 11
529.697667
 21
8.185369
 31
0.0
  0
LINE
  5
2D54
330
18
100
AcDbEntity
  8
0
100
AcDbLine
 10
535.613478
 20
8.185369
 30
0.0
 11
535.613478
 21
11.742481
 31
0.0
  0
LINE
  5
2D55
330
18
100
AcDbEntity
  8
1
100
AcDbLine
 10
563.469863
 20
5.0
 30
0.0
 11
563.469863
 21
19.689837
 31
0.0
  0
LINE
  5
2D56
330
18
100
AcDbEntity
  8
0
100
AcDbLine
 10
530.499811
 20
7.416263
 30
0.0
 11
534.811334
 21
7.416263
 31
0.0
  0
ELLIPSE
  5
2D57
330
18
100
AcDbEntity
  8
0
100
AcDbEllipse
 10
530.499811
 20
8.185369
 30
0.0
 11
-0.8021437979128705
 21
1.540000000000000E-14
 31
0.0
210
0.0
220
0.0
230
1.0
 40
0.958812
 41
0.00000000000002
 42
1.570796326794914
  0
ELLIPSE
  5
2D58
330
18
100
AcDbEntity
  8
0
100
AcDbEllipse
 10
534.811334
 20
8.185369
 30
0.0
 11
0.8021437979128704
 21
1.602000000000000E-13
 31
0.0
210
0.0
220
0.0
230
1.0
 40
0.958812
 41
4.712388980384497
 42
6.283185307179378
  0
LINE
  5
2D59
330
18
100
AcDbEntity
  8
0
100
AcDbLine
 10
539.892236
 20
9.015264
 30
0.0
 11
539.903809
 21
9.022759
 31
0.0
  0
LINE
  5
2D5A
330
18
100
AcDbEntity
  8
0
100
AcDbLine
 10
538.361694
 20
9.015264
 30
0.0
 11
539.903809
 21
9.015264
 31
0.0
  0
LINE
  5
2D5B
330
18
100
AcDbEntity
  8
0
100
AcDbLine
 10
544.194477
 20
9.047064
 30
0.0
 11
545.04922
 21
9.047064
 31
0.0
  0
LINE
  5
2D5C
330
18
100
AcDbEntity
  8
0
100
AcDbLine
 10
550.89322
 20
7.416264
 30
0.0
 11
549.34822
 21
7.416264
 31
0.0
  0
LINE
  5
2D5D
330
18
100
AcDbEntity
  8
0
100
AcDbLine
 10
548.69422
 20
9.015264
 30
0.0
 11
547.14922
 21
9.015264
 31
0.0
  0
LINE
  5
2D5E
330
18
100
AcDbEntity
  8
0
100
AcDbLine
 10
551.576266
 20
9.015264
 30
0.0
 11
552.11422
 21
9.015264
 31
0.0
  0
LINE
  5
2D5F
330
18
100
AcDbEntity
  8
0
100
AcDbLine
 10
555.26122
 20
9.015264
 30
0.0
 11
556.19122
 21
9.015264
 31
0.0
  0
LINE
  5
2D60
330
18
100
AcDbEntity
  8
0
100
AcDbLine
 10
559.88722
 20
9.015264
 30
0.0
 11
558.34222
 21
9.015264
 31
0.0
  0
ARC
  5
2D61
330
18
100
AcDbEntity
  8
0
100
AcDbCircle
 10
545.056591
 20
14.17837
 30
0.0
 40
1.425319
100
AcDbArc
 50
9.534829000000002
 51
90.296329
  0
LINE
  5
2D62
330
18
100
AcDbEntity
  8
0
100
AcDbLine
 10
546.46222
 20
11.81167
 30
0.0
 11
544.33822
 21
11.81167
 31
0.0
  0
LINE
  5
2D63
330
18
100
AcDbEntity
  8
0
100
AcDbLine
 10
545.01322
 20
11.13667
 30
0.0
 11
546.46222
 21
11.13667
 31
0.0
  0
LINE
  5
2D64
330
18
100
AcDbEntity
  8
0
100
AcDbLine
 10
529.697667
 20
13.461283
 30
0.0
 11
529.697667
 21
16.260974
 31
0.0
  0
ELLIPSE
  5
2D65
330
18
100
AcDbEntity
  8
0
100
AcDbEllipse
 10
532.630506
 20
15.17942
 30
0.0
 11
2.983077570132104
 21
2.996000000000000E-13
 31
0.0
210
0.0
220
0.0
230
1.0
 40
0.9588119999999999
 41
-1.562393163247347
 42
0.0084031635475457
  0
ELLIPSE
  5
2D66
330
18
100
AcDbEntity
  8
0
100
AcDbEllipse
 10
532.58733
 20
15.509539
 30
0.0
 11
-4.072692107280919
 21
9.250000000000000E-14
 31
0.0
210
0.0
220
0.0
230
1.0
 40
0.958812
 41
1.587553347046634
 42
2.408388587343224
  0
LINE
  5
2D67
330
18
100
AcDbEntity
  8
0
100
AcDbLine
 10
529.697667
 20
11.742481
 30
0.0
 11
529.697667
 21
11.034514
 31
0.0
  0
LINE
  5
2D68
330
18
100
AcDbEntity
  8
0
100
AcDbLine
 10
529.697667
 20
13.461283
 30
0.0
 11
529.697667
 21
12.896138
 31
0.0
  0
ELLIPSE
  5
2D69
330
18
100
AcDbEntity
  8
0
100
AcDbEllipse
 10
532.249598
 20
9.872487
 30
0.0
 11
2.960559210508897
 21
0.3570763225581005
 31
0.0
210
0.0
220
0.0
230
1.0
 40
0.820999
 41
1.335209029023201
 42
2.503032872947537
  0
ELLIPSE
  5
2D6A
330
18
100
AcDbEntity
  8
0
100
AcDbEllipse
 10
532.480104
 20
8.937306
 30
0.0
 11
3.015746449176215
 21
0.7746519372140024
 31
0.0
210
0.0
220
0.0
230
1.0
 40
0.8467750000000003
 41
1.29973646820557
 42
2.479974117225238
  0
LINE
  5
2D6B
330
18
100
AcDbEntity
  8
0
100
AcDbLine
 10
536.816694
 20
12.896138
 30
0.0
 11
536.51589
 21
12.896138
 31
0.0
  0
LINE
  5
2D6C
330
18
100
AcDbEntity
  8
0
100
AcDbLine
 10
535.613478
 20
12.896138
 30
0.0
 11
536.51589
 21
12.896138
 31
0.0
  0
ELLIPSE
  5
2D6D
330
18
100
AcDbEntity
  8
0
100
AcDbEllipse
 10
535.613478
 20
12.896138
 30
0.0
 11
1.203215696869352
 21
8.930000000000000E-14
 31
0.0
210
0.0
220
0.0
230
1.0
 40
0.9588119999999999
 41
4.712388980384611
 42
6.283185307179508
  0
LINE
  5
2D6E
330
18
100
AcDbEntity
  8
0
100
AcDbLine
 10
530.499811
 20
17.030079
 30
0.0
 11
534.811334
 21
17.030079
 31
0.0
  0
ELLIPSE
  5
2D6F
330
18
100
AcDbEntity
  8
0
100
AcDbEllipse
 10
530.499811
 20
16.260974
 30
0.0
 11
0.8021437979128704
 21
3.800000000000000E-14
 31
0.0
210
0.0
220
0.0
230
1.0
 40
0.958812
 41
1.570796326794851
 42
3.141592653589743
  0
LINE
  5
2D70
330
18
100
AcDbEntity
  8
0
100
AcDbLine
 10
535.613478
 20
15.155385
 30
0.0
 11
535.613478
 21
16.260974
 31
0.0
  0
ELLIPSE
  5
2D71
330
18
100
AcDbEntity
  8
0
100
AcDbEllipse
 10
534.811334
 20
16.260974
 30
0.0
 11
-0.8021437979128705
 21
3.800000000000000E-14
 31
0.0
210
0.0
220
0.0
230
1.0
 40
0.958812
 41
3.141592653589842
 42
4.712388980384734
  0
ARC
  5
2D72
330
18
100
AcDbEntity
  8
0
100
AcDbCircle
 10
540.798894
 20
14.34127
 30
0.0
 40
1.377457
100
AcDbArc
 50
16.265061
 51
130.527299
  0
ARC
  5
2D73
330
18
100
AcDbEntity
  8
0
100
AcDbCircle
 10
544.201848
 20
14.17837
 30
0.0
 40
1.425319
100
AcDbArc
 50
89.703671
 51
170.465171
  0
LINE
  5
2D74
330
18
100
AcDbEntity
  8
0
100
AcDbLine
 10
540.911147
 20
12.93607
 30
0.0
 11
542.12122
 21
12.93607
 31
0.0
  0
LINE
  5
2D75
330
18
100
AcDbEntity
  8
0
100
AcDbLine
 10
540.578809
 20
12.93607
 30
0.0
 11
542.12122
 21
12.93607
 31
0.0
  0
ARC
  5
2D76
330
18
100
AcDbEntity
  8
0
100
AcDbCircle
 10
540.229736
 20
14.361264
 30
0.0
 40
0.3375
100
AcDbArc
 50
360.0
 51
180.0
  0
LINE
  5
2D77
330
18
100
AcDbEntity
  8
0
100
AcDbLine
 10
540.567236
 20
14.361264
 30
0.0
 11
540.578809
 21
12.93607
 31
0.0
  0
ARC
  5
2D78
330
18
100
AcDbEntity
  8
0
100
AcDbCircle
 10
544.67572
 20
14.361264
 30
0.0
 40
0.3375
100
AcDbArc
 50
360.0
 51
180.0
  0
LINE
  5
2D79
330
18
100
AcDbEntity
  8
0
100
AcDbLine
 10
544.33822
 20
11.81167
 30
0.0
 11
544.33822
 21
10.236264
 31
0.0
  0
LINE
  5
2D7A
330
18
100
AcDbEntity
  8
0
100
AcDbLine
 10
544.33822
 20
12.71167
 30
0.0
 11
545.01322
 21
12.71167
 31
0.0
  0
LINE
  5
2D7B
330
18
100
AcDbEntity
  8
0
100
AcDbLine
 10
545.01322
 20
11.13667
 30
0.0
 11
545.01322
 21
10.252764
 31
0.0
  0
LINE
  5
2D7C
330
18
100
AcDbEntity
  8
0
100
AcDbLine
 10
544.33822
 20
11.81167
 30
0.0
 11
544.33822
 21
10.252764
 31
0.0
  0
ARC
  5
2D7D
330
18
100
AcDbEntity
  8
0
100
AcDbCircle
 10
544.67572
 20
10.252764
 30
0.0
 40
0.3375
100
AcDbArc
 50
180.0
 51
0.0
  0
LINE
  5
2D7E
330
18
100
AcDbEntity
  8
0
100
AcDbLine
 10
545.01322
 20
14.361264
 30
0.0
 11
545.01322
 21
12.71167
 31
0.0
  0
LINE
  5
2D7F
330
18
100
AcDbEntity
  8
0
100
AcDbLine
 10
544.33822
 20
14.361264
 30
0.0
 11
544.33822
 21
12.71167
 31
0.0
  0
LINE
  5
2D80
330
18
100
AcDbEntity
  8
0
100
AcDbLine
 10
542.12122
 20
12.93607
 30
0.0
 11
542.12122
 21
14.72707
 31
0.0
  0
LINE
  5
2D81
330
18
100
AcDbEntity
  8
0
100
AcDbLine
 10
542.79622
 20
10.236264
 30
0.0
 11
542.79622
 21
14.41447
 31
0.0
  0
LINE
  5
2D82
330
18
100
AcDbEntity
  8
0
100
AcDbLine
 10
539.903809
 20
15.60367
 30
0.0
 11
539.903809
 21
15.38827
 31
0.0
  0
LINE
  5
2D83
330
18
100
AcDbEntity
  8
0
100
AcDbLine
 10
538.361694
 20
15.60367
 30
0.0
 11
539.903809
 21
15.60367
 31
0.0
  0
LINE
  5
2D84
330
18
100
AcDbEntity
  8
0
100
AcDbLine
 10
544.194477
 20
15.60367
 30
0.0
 11
545.04922
 21
15.60367
 31
0.0
  0
ARC
  5
2D85
330
18
100
AcDbEntity
  8
0
100
AcDbCircle
 10
555.243059
 20
14.124104
 30
0.0
 40
1.488419
100
AcDbArc
 50
89.300887
 51
168.365732
  0
ARC
  5
2D86
330
18
100
AcDbEntity
  8
0
100
AcDbCircle
 10
551.752247
 20
14.207365
 30
0.0
 40
1.409039
100
AcDbArc
 50
15.47255
 51
127.56454
  0
LINE
  5
2D87
330
18
100
AcDbEntity
  8
0
100
AcDbLine
 10
546.46222
 20
11.13667
 30
0.0
 11
546.46222
 21
10.236264
 31
0.0
  0
LINE
  5
2D88
330
18
100
AcDbEntity
  8
0
100
AcDbLine
 10
546.46222
 20
11.81167
 30
0.0
 11
546.46222
 21
14.41447
 31
0.0
  0
LINE
  5
2D89
330
18
100
AcDbEntity
  8
0
100
AcDbLine
 10
553.11022
 20
14.583264
 30
0.0
 11
553.11022
 21
10.179264
 31
0.0
  0
LINE
  5
2D8A
330
18
100
AcDbEntity
  8
0
100
AcDbLine
 10
551.56822
 20
14.361264
 30
0.0
 11
551.56822
 21
10.252764
 31
0.0
  0
LINE
  5
2D8B
330
18
100
AcDbEntity
  8
0
100
AcDbLine
 10
550.89322
 20
14.361264
 30
0.0
 11
550.89322
 21
10.252764
 31
0.0
  0
ARC
  5
2D8C
330
18
100
AcDbEntity
  8
0
100
AcDbCircle
 10
551.23072
 20
10.252764
 30
0.0
 40
0.3375
100
AcDbArc
 50
180.0
 51
0.0
  0
ARC
  5
2D8D
330
18
100
AcDbEntity
  8
0
100
AcDbCircle
 10
551.23072
 20
14.361264
 30
0.0
 40
0.3375
100
AcDbArc
 50
360.0
 51
180.0
  0
LINE
  5
2D8E
330
18
100
AcDbEntity
  8
0
100
AcDbLine
 10
549.34822
 20
15.612264
 30
0.0
 11
550.89322
 21
15.612264
 31
0.0
  0
LINE
  5
2D8F
330
18
100
AcDbEntity
  8
0
100
AcDbLine
 10
547.14922
 20
17.211264
 30
0.0
 11
548.69422
 21
17.211264
 31
0.0
  0
LINE
  5
2D90
330
18
100
AcDbEntity
  8
0
100
AcDbLine
 10
550.89322
 20
15.612264
 30
0.0
 11
550.89322
 21
15.324264
 31
0.0
  0
ARC
  5
2D91
330
18
100
AcDbEntity
  8
0
100
AcDbCircle
 10
556.209381
 20
14.124104
 30
0.0
 40
1.488419
100
AcDbArc
 50
11.634268
 51
90.699113
  0
LINE
  5
2D92
330
18
100
AcDbEntity
  8
0
100
AcDbLine
 10
557.66722
 20
14.424264
 30
0.0
 11
557.66722
 21
10.203412
 31
0.0
  0
ARC
  5
2D93
330
18
100
AcDbEntity
  8
0
100
AcDbCircle
 10
555.72622
 20
14.361264
 30
0.0
 40
0.3375
100
AcDbArc
 50
360.0
 51
180.0
  0
ARC
  5
2D94
330
18
100
AcDbEntity
  8
0
100
AcDbCircle
 10
555.72622
 20
10.252764
 30
0.0
 40
0.3375
100
AcDbArc
 50
180.0
 51
0.0
  0
LINE
  5
2D95
330
18
100
AcDbEntity
  8
0
100
AcDbLine
 10
555.38872
 20
14.361264
 30
0.0
 11
555.38872
 21
10.252764
 31
0.0
  0
LINE
  5
2D96
330
18
100
AcDbEntity
  8
0
100
AcDbLine
 10
556.06372
 20
14.361264
 30
0.0
 11
556.06372
 21
10.252764
 31
0.0
  0
LINE
  5
2D97
330
18
100
AcDbEntity
  8
0
100
AcDbLine
 10
553.78522
 20
10.203412
 30
0.0
 11
553.78522
 21
14.424264
 31
0.0
  0
LINE
  5
2D98
330
18
100
AcDbEntity
  8
0
100
AcDbLine
 10
555.26122
 20
15.612412
 30
0.0
 11
556.19122
 21
15.612412
 31
0.0
  0
LINE
  5
2D99
330
18
100
AcDbEntity
  8
0
100
AcDbLine
 10
558.34222
 20
17.211264
 30
0.0
 11
559.88722
 21
17.211264
 31
0.0
  0
TEXT
  5
2D9A
330
18
100
AcDbEntity
  8
WY
100
AcDbText
 10
564.417407
 20
11.60401
 30
0.0
 40
1.999999999999998
  1
16-06-2016
 41
1.000000000000001
 51
15.0
  7
ITALIC
100
AcDbText
  0
TEXT
  5
2D9B
330
18
100
AcDbEntity
  8
WY
100
AcDbText
 10
568.848776
 20
16.149239
 30
0.0
 40
2.0
  1
Data
 51
15.0
  7
ITALIC
100
AcDbText
  0
TEXT
  5
2D9D
330
18
100
AcDbEntity
  8
1
100
AcDbText
 10
637.422754
 20
9.064009
 30
0.0
 40
5.0
  1
ZGGZ80
 41
0.8
 51
15.0
  7
ITALIC
100
AcDbText
  0
LINE
  5
2D9E
330
18
100
AcDbEntity
  8
1
100
AcDbLine
 10
627.394234
 20
5.0
 30
0.0
 11
627.394234
 21
19.689837
 31
0.0
  0
TEXT
  5
2D9F
330
18
100
AcDbEntity
  8
WY
100
AcDbText
 10
629.585432
 20
16.599248
 30
0.0
 40
2.0
  1
Product type
 51
15.0
  7
ITALIC
100
AcDbText
  0
LINE
  5
2DF2
330
18
100
AcDbEntity
  8
2
100
AcDbLine
 10
682.671651
 20
292.0
 30
0.0
 11
497.671651
 21
292.0
 31
0.0
  0
LINE
  5
2DF3
330
18
100
AcDbEntity
  8
2
100
AcDbLine
 10
687.671651
 20
297.0
 30
0.0
 11
497.671651
 21
297.0
 31
0.0
  0
LINE
  5
2E74
330
18
100
AcDbEntity
  8
WYMIARY
 62
     6
100
AcDbLine
 10
497.671651
 20
297.0
 30
0.0
 11
486.041244
 21
297.0
 31
0.0
  0
MTEXT
  5
31F2
330
18
100
AcDbEntity
  8
WYMIARY
100
AcDbMText
 10
780.543201
 20
224.476865
 30
0.0
 40
3.5
 41
15.6
 71
     1
 72
     5
  1

  7
ITALIC
  0
TEXT
  5
478E
330
18
100
AcDbEntity
  8
1
100
AcDbText
 10
500.301985
 20
8.797457
 30
0.0
 40
5.0
  1
1:1
 51
15.0
  7
ITALIC
100
AcDbText
  0
LINE
  5
482F
330
18
100
AcDbEntity
  8
WYMIARY
 62
     6
100
AcDbLine
 10
687.671651
 20
0.0
 30
0.0
 11
687.671651
 21
297.0
 31
0.0
  0
LINE
  5
4AD7
330
18
100
AcDbEntity
  8
WYMIARY
 62
     3
100
AcDbLine
 10
512.671651
 20
19.689837
 30
0.0
 11
512.671651
 21
5.0
 31
0.0
  0
LINE
  5
4AD9
330
18
100
AcDbEntity
  8
WYMIARY
 62
     3
100
AcDbLine
 10
527.671651
 20
19.689837
 30
0.0
 11
527.671651
 21
5.0
 31
0.0
  0
LINE
  5
4ADA
330
18
100
AcDbEntity
  8
WYMIARY
 62
     3
100
AcDbLine
 10
586.373187
 20
19.689837
 30
0.0
 11
586.373187
 21
5.0
 31
0.0
  0
TEXT
  5
4ADB
330
18
100
AcDbEntity
  8
WY
100
AcDbText
 10
587.562196
 20
16.599248
 30
0.0
 40
2.0
  1
Draw. No.
 51
15.0
  7
ITALIC
100
AcDbText
  0
TEXT
  5
4ADF
330
18
100
AcDbEntity
  8
1
100
AcDbText
 10
590.7724191352855
 20
9.064009
 30
0.0
 40
3.999999999999993
  1
ZGGZ80-01A
 41
0.7000000000000012
 51
15.0
  7
ITALIC
100
AcDbText
  0
LINE
  5
4AE9
330
18
100
AcDbEntity
  8
WYMIARY
 62
     6
100
AcDbLine
 10
687.671651
 20
0.0
 30
0.0
 11
687.671651
 21
297.0
 31
0.0
  0
LINE
  5
6488
330
18
100
AcDbEntity
  8
WYMIARY
 62
     6
100
AcDbLine
 10
687.671651
 20
0.0
 30
0.0
 11
687.671651
 21
297.0
 31
0.0
  0
LINE
  5
648E
330
18
100
AcDbEntity
  8
2
100
AcDbLine
 10
687.671651
 20
0.0
 30
0.0
 11
687.671651
 21
297.0
 31
0.0
  0
LINE
  5
6CB6
330
18
100
AcDbEntity
  8
WYMIARY
 62
     6
100
AcDbLine
 10
687.671651
 20
0.0
 30
0.0
 11
687.671651
 21
297.0
 31
0.0
  0
LINE
  5
6CB8
330
18
100
AcDbEntity
  8
2
100
AcDbLine
 10
687.671651
 20
0.0
 30
0.0
 11
687.671651
 21
297.0
 31
0.0
  0
TEXT
  5
B62D
330
18
100
AcDbEntity
  8
1
100
AcDbText
 10
579.317934
 20
274.3510462125303
 30
0.0
 40
5.0
  1
ZGGZ80
 41
0.8
 51
15.0
  7
ITALIC
100
AcDbText
  0
TEXT
  5
17A04
330
18
100
AcDbEntity
  8
1
100
AcDbText
 10
530.0465885106546
 20
263.3148018483084
 30
0.0
 40
5.0
  1
Złącze grzebieniowe/Interconnection strip 
 41
0.8
 51
15.0
  7
ITALIC
100
AcDbText
  0
LINE
  5
187CB
330
18
100
AcDbEntity
  8
1
  6
CONTINUOUS
 62
     7
100
AcDbLine
 10
630.9725148234088
 20
162.5877158230308
 30
0.0
 11
630.9725148234088
 21
159.9377158230308
 31
0.0
  0
LINE
  5
187CC
330
18
100
AcDbEntity
  8
1
  6
CONTINUOUS
 62
     7
100
AcDbLine
 10
633.9725148234088
 20
162.5877158230308
 30
0.0
 11
633.9725148234088
 21
159.9377158230308
 31
0.0
  0
LINE
  5
187CD
330
18
100
AcDbEntity
  8
1
  6
CONTINUOUS
 62
     7
100
AcDbLine
 10
630.9725148234088
 20
159.9377158230308
 30
0.0
 11
633.9725148234088
 21
159.9377158230308
 31
0.0
  0
LINE
  5
187CE
330
18
100
AcDbEntity
  8
1
  6
CONTINUOUS
 62
     7
100
AcDbLine
 10
630.9725148234088
 20
162.5877158230308
 30
0.0
 11
633.9725148234088
 21
162.5877158230308
 31
0.0
  0
LINE
  5
187CF
330
18
100
AcDbEntity
  8
1
  6
CONTINUOUS
 62
     7
100
AcDbLine
 10
630.9725148234088
 20
146.7877158230307
 30
0.0
 11
630.9725148234088
 21
144.1377158230308
 31
0.0
  0
LINE
  5
187D0
330
18
100
AcDbEntity
  8
1
  6
CONTINUOUS
 62
     7
100
AcDbLine
 10
630.9725148234088
 20
146.7877158230307
 30
0.0
 11
633.9725148234088
 21
146.7877158230307
 31
0.0
  0
LINE
  5
187D1
330
18
100
AcDbEntity
  8
1
  6
CONTINUOUS
 62
     7
100
AcDbLine
 10
633.9725148234088
 20
146.7877158230307
 30
0.0
 11
633.9725148234088
 21
144.1377158230308
 31
0.0
  0
LINE
  5
187D2
330
18
100
AcDbEntity
  8
1
  6
CONTINUOUS
 62
     7
100
AcDbLine
 10
630.9725148234088
 20
144.1377158230308
 30
0.0
 11
633.9725148234088
 21
144.1377158230308
 31
0.0
  0
LINE
  5
187D3
330
18
100
AcDbEntity
  8
1
  6
CONTINUOUS
 62
     7
100
AcDbLine
 10
630.9725148234088
 20
177.4127158230307
 30
0.0
 11
630.9725148234088
 21
174.9127158230307
 31
0.0
  0
LINE
  5
187D4
330
18
100
AcDbEntity
  8
1
  6
CONTINUOUS
 62
     7
100
AcDbLine
 10
630.9725148234088
 20
177.4127158230307
 30
0.0
 11
633.9725148234088
 21
177.4127158230307
 31
0.0
  0
LINE
  5
187D5
330
18
100
AcDbEntity
  8
1
  6
CONTINUOUS
 62
     7
100
AcDbLine
 10
630.9725148234088
 20
174.9127158230307
 30
0.0
 11
633.9725148234088
 21
174.9127158230307
 31
0.0
  0
LINE
  5
187D6
330
18
100
AcDbEntity
  8
1
  6
CONTINUOUS
 62
     7
100
AcDbLine
 10
633.9725148234088
 20
177.4127158230307
 30
0.0
 11
633.9725148234088
 21
174.9127158230307
 31
0.0
  0
LINE
  5
187D7
330
18
100
AcDbEntity
  8
1
  6
CONTINUOUS
 62
     7
100
AcDbLine
 10
630.9725148234088
 20
115.1877158230308
 30
0.0
 11
630.9725148234088
 21
112.5377158230307
 31
0.0
  0
LINE
  5
187D8
330
18
100
AcDbEntity
  8
1
  6
CONTINUOUS
 62
     7
100
AcDbLine
 10
630.9725148234088
 20
115.1877158230308
 30
0.0
 11
633.9725148234088
 21
115.1877158230308
 31
0.0
  0
LINE
  5
187D9
330
18
100
AcDbEntity
  8
1
  6
CONTINUOUS
 62
     7
100
AcDbLine
 10
630.9725148234088
 20
112.5377158230307
 30
0.0
 11
633.9725148234088
 21
112.5377158230307
 31
0.0
  0
LINE
  5
187DA
330
18
100
AcDbEntity
  8
1
  6
CONTINUOUS
 62
     7
100
AcDbLine
 10
633.9725148234088
 20
115.1877158230308
 30
0.0
 11
633.9725148234088
 21
112.5377158230307
 31
0.0
  0
LINE
  5
187DB
330
18
100
AcDbEntity
  8
1
  6
CONTINUOUS
 62
     7
100
AcDbLine
 10
630.9725148234088
 20
130.9877158230308
 30
0.0
 11
630.9725148234088
 21
128.3377158230308
 31
0.0
  0
LINE
  5
187DC
330
18
100
AcDbEntity
  8
1
  6
CONTINUOUS
 62
     7
100
AcDbLine
 10
630.9725148234088
 20
130.9877158230308
 30
0.0
 11
633.9725148234088
 21
130.9877158230308
 31
0.0
  0
LINE
  5
187DD
330
18
100
AcDbEntity
  8
1
  6
CONTINUOUS
 62
     7
100
AcDbLine
 10
630.9725148234088
 20
128.3377158230308
 30
0.0
 11
633.9725148234088
 21
128.3377158230308
 31
0.0
  0
LINE
  5
187DE
330
18
100
AcDbEntity
  8
1
  6
CONTINUOUS
 62
     7
100
AcDbLine
 10
633.9725148234088
 20
130.9877158230308
 30
0.0
 11
633.9725148234088
 21
128.3377158230308
 31
0.0
  0
LINE
  5
187DF
330
18
100
AcDbEntity
  8
1
  6
CONTINUOUS
 62
     7
100
AcDbLine
 10
630.9725148234088
 20
83.58771582303078
 30
0.0
 11
630.9725148234088
 21
80.9377158230308
 31
0.0
  0
LINE
  5
187E0
330
18
100
AcDbEntity
  8
1
  6
CONTINUOUS
 62
     7
100
AcDbLine
 10
630.9725148234088
 20
83.58771582303078
 30
0.0
 11
633.9725148234088
 21
83.58771582303078
 31
0.0
  0
LINE
  5
187E1
330
18
100
AcDbEntity
  8
1
  6
CONTINUOUS
 62
     7
100
AcDbLine
 10
633.9725148234088
 20
83.58771582303078
 30
0.0
 11
633.9725148234088
 21
80.9377158230308
 31
0.0
  0
LINE
  5
187E2
330
18
100
AcDbEntity
  8
1
  6
CONTINUOUS
 62
     7
100
AcDbLine
 10
630.9725148234088
 20
80.9377158230308
 30
0.0
 11
633.9725148234088
 21
80.9377158230308
 31
0.0
  0
LINE
  5
187E3
330
18
100
AcDbEntity
  8
1
  6
CONTINUOUS
 62
     7
100
AcDbLine
 10
630.9725148234088
 20
99.38771582303073
 30
0.0
 11
630.9725148234088
 21
96.73771582303075
 31
0.0
  0
LINE
  5
187E4
330
18
100
AcDbEntity
  8
1
  6
CONTINUOUS
 62
     7
100
AcDbLine
 10
633.9725148234088
 20
99.38771582303073
 30
0.0
 11
633.9725148234088
 21
96.73771582303075
 31
0.0
  0
LINE
  5
187E5
330
18
100
AcDbEntity
  8
1
  6
CONTINUOUS
 62
     7
100
AcDbLine
 10
630.9725148234088
 20
99.38771582303073
 30
0.0
 11
633.9725148234088
 21
99.38771582303073
 31
0.0
  0
LINE
  5
187E6
330
18
100
AcDbEntity
  8
1
  6
CONTINUOUS
 62
     7
100
AcDbLine
 10
630.9725148234088
 20
96.73771582303075
 30
0.0
 11
633.9725148234088
 21
96.73771582303075
 31
0.0
  0
LINE
  5
187E7
330
18
100
AcDbEntity
  8
1
  6
CONTINUOUS
 62
     7
100
AcDbLine
 10
630.9725148234088
 20
68.61271582303075
 30
0.0
 11
630.9725148234088
 21
66.11271582303075
 31
0.0
  0
LINE
  5
187E8
330
18
100
AcDbEntity
  8
1
  6
CONTINUOUS
 62
     7
100
AcDbLine
 10
633.9725148234088
 20
68.61271582303075
 30
0.0
 11
633.9725148234088
 21
66.11271582303075
 31
0.0
  0
LINE
  5
187E9
330
18
100
AcDbEntity
  8
1
  6
CONTINUOUS
 62
     7
100
AcDbLine
 10
630.9725148234088
 20
66.11271582303075
 30
0.0
 11
633.9725148234088
 21
66.11271582303075
 31
0.0
  0
LINE
  5
187EA
330
18
100
AcDbEntity
  8
1
  6
CONTINUOUS
 62
     7
100
AcDbLine
 10
630.9725148234088
 20
68.61271582303075
 30
0.0
 11
633.9725148234088
 21
68.61271582303075
 31
0.0
  0
LINE
  5
187EB
330
18
100
AcDbEntity
  8
1
  6
CONTINUOUS
 62
     7
100
AcDbLine
 10
632.9725148234088
 20
174.9127158230307
 30
0.0
 11
632.9725148234088
 21
162.5877158230308
 31
0.0
  0
LINE
  5
187EC
330
18
100
AcDbEntity
  8
1
  6
CONTINUOUS
 62
     7
100
AcDbLine
 10
631.9725148234088
 20
162.5877158230308
 30
0.0
 11
631.9725148234088
 21
174.9127158230307
 31
0.0
  0
LINE
  5
187ED
330
18
100
AcDbEntity
  8
1
  6
CONTINUOUS
 62
     7
100
AcDbLine
 10
631.9725148234088
 20
106.6627158230307
 30
0.0
 11
631.9725148234088
 21
112.5377158230307
 31
0.0
  0
LINE
  5
187EE
330
18
100
AcDbEntity
  8
1
  6
CONTINUOUS
 62
     7
100
AcDbLine
 10
632.9725148234088
 20
112.5377158230307
 30
0.0
 11
632.9725148234088
 21
106.6627158230307
 31
0.0
  0
LINE
  5
187EF
330
18
100
AcDbEntity
  8
1
  6
CONTINUOUS
 62
     7
100
AcDbLine
 10
631.9725148234088
 20
106.6627158230307
 30
0.0
 11
632.9725148234088
 21
106.6627158230307
 31
0.0
  0
LINE
  5
187F0
330
18
100
AcDbEntity
  8
1
  6
CONTINUOUS
 62
     7
100
AcDbLine
 10
632.9725148234088
 20
152.6627158230307
 30
0.0
 11
632.9725148234088
 21
146.7877158230307
 31
0.0
  0
LINE
  5
187F1
330
18
100
AcDbEntity
  8
1
  6
CONTINUOUS
 62
     7
100
AcDbLine
 10
631.9725148234088
 20
146.7877158230307
 30
0.0
 11
631.9725148234088
 21
152.6627158230307
 31
0.0
  0
LINE
  5
187F2
330
18
100
AcDbEntity
  8
1
  6
CONTINUOUS
 62
     7
100
AcDbLine
 10
631.9725148234088
 20
152.6627158230307
 30
0.0
 11
632.9725148234088
 21
152.6627158230307
 31
0.0
  0
LINE
  5
187F3
330
18
100
AcDbEntity
  8
1
  6
CONTINUOUS
 62
     7
100
AcDbLine
 10
632.9725148234088
 20
89.46271582303078
 30
0.0
 11
632.9725148234088
 21
83.58771582303078
 31
0.0
  0
LINE
  5
187F4
330
18
100
AcDbEntity
  8
1
  6
CONTINUOUS
 62
     7
100
AcDbLine
 10
631.9725148234088
 20
83.58771582303078
 30
0.0
 11
631.9725148234088
 21
89.46271582303078
 31
0.0
  0
LINE
  5
187F5
330
18
100
AcDbEntity
  8
1
  6
CONTINUOUS
 62
     7
100
AcDbLine
 10
631.9725148234088
 20
89.46271582303078
 30
0.0
 11
632.9725148234088
 21
89.46271582303078
 31
0.0
  0
LINE
  5
187F6
330
18
100
AcDbEntity
  8
1
  6
CONTINUOUS
 62
     7
100
AcDbLine
 10
632.9725148234088
 20
105.2627158230308
 30
0.0
 11
632.9725148234088
 21
99.38771582303073
 31
0.0
  0
LINE
  5
187F7
330
18
100
AcDbEntity
  8
1
  6
CONTINUOUS
 62
     7
100
AcDbLine
 10
631.9725148234088
 20
99.38771582303073
 30
0.0
 11
631.9725148234088
 21
105.2627158230308
 31
0.0
  0
LINE
  5
187F8
330
18
100
AcDbEntity
  8
1
  6
CONTINUOUS
 62
     7
100
AcDbLine
 10
631.9725148234088
 20
105.2627158230308
 30
0.0
 11
632.9725148234088
 21
105.2627158230308
 31
0.0
  0
LINE
  5
187F9
330
18
100
AcDbEntity
  8
1
  6
CONTINUOUS
 62
     7
100
AcDbLine
 10
631.9725148234088
 20
122.4627158230308
 30
0.0
 11
631.9725148234088
 21
128.3377158230308
 31
0.0
  0
LINE
  5
187FA
330
18
100
AcDbEntity
  8
1
  6
CONTINUOUS
 62
     7
100
AcDbLine
 10
632.9725148234088
 20
128.3377158230308
 30
0.0
 11
632.9725148234088
 21
122.4627158230308
 31
0.0
  0
LINE
  5
187FB
330
18
100
AcDbEntity
  8
1
  6
CONTINUOUS
 62
     7
100
AcDbLine
 10
631.9725148234088
 20
122.4627158230308
 30
0.0
 11
632.9725148234088
 21
122.4627158230308
 31
0.0
  0
LINE
  5
187FC
330
18
100
AcDbEntity
  8
1
  6
CONTINUOUS
 62
     7
100
AcDbLine
 10
631.9725148234088
 20
90.86271582303075
 30
0.0
 11
631.9725148234088
 21
96.73771582303075
 31
0.0
  0
LINE
  5
187FD
330
18
100
AcDbEntity
  8
1
  6
CONTINUOUS
 62
     7
100
AcDbLine
 10
631.9725148234088
 20
90.86271582303075
 30
0.0
 11
632.9725148234088
 21
90.86271582303075
 31
0.0
  0
LINE
  5
187FE
330
18
100
AcDbEntity
  8
1
  6
CONTINUOUS
 62
     7
100
AcDbLine
 10
632.9725148234088
 20
96.73771582303075
 30
0.0
 11
632.9725148234088
 21
90.86271582303075
 31
0.0
  0
LINE
  5
187FF
330
18
100
AcDbEntity
  8
1
  6
CONTINUOUS
 62
     7
100
AcDbLine
 10
631.9725148234088
 20
130.9877158230308
 30
0.0
 11
631.9725148234088
 21
136.8627158230308
 31
0.0
  0
LINE
  5
18800
330
18
100
AcDbEntity
  8
1
  6
CONTINUOUS
 62
     7
100
AcDbLine
 10
631.9725148234088
 20
136.8627158230308
 30
0.0
 11
632.9725148234088
 21
136.8627158230308
 31
0.0
  0
LINE
  5
18801
330
18
100
AcDbEntity
  8
1
  6
CONTINUOUS
 62
     7
100
AcDbLine
 10
632.9725148234088
 20
136.8627158230308
 30
0.0
 11
632.9725148234088
 21
130.9877158230308
 31
0.0
  0
LINE
  5
18802
330
18
100
AcDbEntity
  8
1
  6
CONTINUOUS
 62
     7
100
AcDbLine
 10
631.9725148234088
 20
154.0627158230308
 30
0.0
 11
631.9725148234088
 21
159.9377158230308
 31
0.0
  0
LINE
  5
18803
330
18
100
AcDbEntity
  8
1
  6
CONTINUOUS
 62
     7
100
AcDbLine
 10
632.9725148234088
 20
159.9377158230308
 30
0.0
 11
632.9725148234088
 21
154.0627158230308
 31
0.0
  0
LINE
  5
18804
330
18
100
AcDbEntity
  8
1
  6
CONTINUOUS
 62
     7
100
AcDbLine
 10
631.9725148234088
 20
154.0627158230308
 30
0.0
 11
632.9725148234088
 21
154.0627158230308
 31
0.0
  0
LINE
  5
18805
330
18
100
AcDbEntity
  8
1
  6
CONTINUOUS
 62
     7
100
AcDbLine
 10
631.9725148234088
 20
138.2627158230308
 30
0.0
 11
631.9725148234088
 21
144.1377158230308
 31
0.0
  0
LINE
  5
18806
330
18
100
AcDbEntity
  8
1
  6
CONTINUOUS
 62
     7
100
AcDbLine
 10
631.9725148234088
 20
138.2627158230308
 30
0.0
 11
632.9725148234088
 21
138.2627158230308
 31
0.0
  0
LINE
  5
18807
330
18
100
AcDbEntity
  8
1
  6
CONTINUOUS
 62
     7
100
AcDbLine
 10
632.9725148234088
 20
144.1377158230308
 30
0.0
 11
632.9725148234088
 21
138.2627158230308
 31
0.0
  0
LINE
  5
18808
330
18
100
AcDbEntity
  8
1
  6
CONTINUOUS
 62
     7
100
AcDbLine
 10
631.9725148234088
 20
68.61271582303075
 30
0.0
 11
631.9725148234088
 21
80.9377158230308
 31
0.0
  0
LINE
  5
18809
330
18
100
AcDbEntity
  8
1
  6
CONTINUOUS
 62
     7
100
AcDbLine
 10
632.9725148234088
 20
80.9377158230308
 30
0.0
 11
632.9725148234088
 21
68.61271582303075
 31
0.0
  0
LINE
  5
1880A
330
18
100
AcDbEntity
  8
1
  6
CONTINUOUS
 62
     7
100
AcDbLine
 10
631.9725148234088
 20
115.1877158230308
 30
0.0
 11
631.9725148234088
 21
121.0627158230308
 31
0.0
  0
LINE
  5
1880B
330
18
100
AcDbEntity
  8
1
  6
CONTINUOUS
 62
     7
100
AcDbLine
 10
631.9725148234088
 20
121.0627158230308
 30
0.0
 11
632.9725148234088
 21
121.0627158230308
 31
0.0
  0
LINE
  5
1880C
330
18
100
AcDbEntity
  8
1
  6
CONTINUOUS
 62
     7
100
AcDbLine
 10
632.9725148234088
 20
121.0627158230308
 30
0.0
 11
632.9725148234088
 21
115.1877158230308
 31
0.0
  0
LINE
  5
1880D
330
18
100
AcDbEntity
  8
1
  6
CONTINUOUS
 62
     7
100
AcDbLine
 10
633.9725148234088
 20
162.5877158230308
 30
0.0
 11
633.9725148234088
 21
174.9127158230307
 31
0.0
  0
LINE
  5
1880E
330
18
100
AcDbEntity
  8
1
  6
CONTINUOUS
 62
     7
100
AcDbLine
 10
633.9725148234088
 20
152.7333910996478
 30
0.0
 11
633.2225148234088
 21
153.3627158230308
 31
0.0
  0
LINE
  5
1880F
330
18
100
AcDbEntity
  8
1
  6
CONTINUOUS
 62
     7
100
AcDbLine
 10
631.7225148234088
 20
153.3627158230308
 30
0.0
 11
630.9725148234088
 21
152.7333910996478
 31
0.0
  0
LINE
  5
18810
330
18
100
AcDbEntity
  8
1
  6
CONTINUOUS
 62
     7
100
AcDbLine
 10
630.9725148234088
 20
153.9920405464137
 30
0.0
 11
631.7225148234088
 21
153.3627158230308
 31
0.0
  0
LINE
  5
18811
330
18
100
AcDbEntity
  8
1
  6
CONTINUOUS
 62
     7
100
AcDbLine
 10
633.2225148234088
 20
153.3627158230308
 30
0.0
 11
633.9725148234088
 21
153.9920405464137
 31
0.0
  0
LINE
  5
18812
330
18
100
AcDbEntity
  8
1
  6
CONTINUOUS
 62
     7
100
AcDbLine
 10
630.9725148234088
 20
152.7333910996478
 30
0.0
 11
630.9725148234088
 21
146.7877158230307
 31
0.0
  0
LINE
  5
18813
330
18
100
AcDbEntity
  8
1
  6
CONTINUOUS
 62
     7
100
AcDbLine
 10
630.9725148234088
 20
159.9377158230308
 30
0.0
 11
630.9725148234088
 21
153.9920405464137
 31
0.0
  0
LINE
  5
18814
330
18
100
AcDbEntity
  8
1
  6
CONTINUOUS
 62
     7
100
AcDbLine
 10
633.9725148234088
 20
146.7877158230307
 30
0.0
 11
633.9725148234088
 21
152.7333910996478
 31
0.0
  0
LINE
  5
18815
330
18
100
AcDbEntity
  8
1
  6
CONTINUOUS
 62
     7
100
AcDbLine
 10
633.9725148234088
 20
153.9920405464137
 30
0.0
 11
633.9725148234088
 21
159.9377158230308
 31
0.0
  0
LINE
  5
18816
330
18
100
AcDbEntity
  8
1
  6
CONTINUOUS
 62
     7
100
AcDbLine
 10
633.2225148234088
 20
121.7627158230307
 30
0.0
 11
633.9725148234088
 21
122.3920405464138
 31
0.0
  0
LINE
  5
18817
330
18
100
AcDbEntity
  8
1
  6
CONTINUOUS
 62
     7
100
AcDbLine
 10
631.7225148234088
 20
121.7627158230307
 30
0.0
 11
630.9725148234088
 21
121.1333910996479
 31
0.0
  0
LINE
  5
18818
330
18
100
AcDbEntity
  8
1
  6
CONTINUOUS
 62
     7
100
AcDbLine
 10
630.9725148234088
 20
122.3920405464138
 30
0.0
 11
631.7225148234088
 21
121.7627158230307
 31
0.0
  0
LINE
  5
18819
330
18
100
AcDbEntity
  8
1
  6
CONTINUOUS
 62
     7
100
AcDbLine
 10
633.9725148234088
 20
121.1333910996479
 30
0.0
 11
633.2225148234088
 21
121.7627158230307
 31
0.0
  0
LINE
  5
1881A
330
18
100
AcDbEntity
  8
1
  6
CONTINUOUS
 62
     7
100
AcDbLine
 10
630.9725148234088
 20
121.1333910996479
 30
0.0
 11
630.9725148234088
 21
115.1877158230308
 31
0.0
  0
LINE
  5
1881B
330
18
100
AcDbEntity
  8
1
  6
CONTINUOUS
 62
     7
100
AcDbLine
 10
630.9725148234088
 20
128.3377158230308
 30
0.0
 11
630.9725148234088
 21
122.3920405464138
 31
0.0
  0
LINE
  5
1881C
330
18
100
AcDbEntity
  8
1
  6
CONTINUOUS
 62
     7
100
AcDbLine
 10
633.9725148234088
 20
122.3920405464138
 30
0.0
 11
633.9725148234088
 21
128.3377158230308
 31
0.0
  0
LINE
  5
1881D
330
18
100
AcDbEntity
  8
1
  6
CONTINUOUS
 62
     7
100
AcDbLine
 10
633.9725148234088
 20
115.1877158230308
 30
0.0
 11
633.9725148234088
 21
121.1333910996479
 31
0.0
  0
LINE
  5
1881E
330
18
100
AcDbEntity
  8
1
  6
CONTINUOUS
 62
     7
100
AcDbLine
 10
633.2225148234088
 20
137.5627158230308
 30
0.0
 11
633.9725148234088
 21
138.1920405464138
 31
0.0
  0
LINE
  5
1881F
330
18
100
AcDbEntity
  8
1
  6
CONTINUOUS
 62
     7
100
AcDbLine
 10
633.9725148234088
 20
136.9333910996478
 30
0.0
 11
633.2225148234088
 21
137.5627158230308
 31
0.0
  0
LINE
  5
18820
330
18
100
AcDbEntity
  8
1
  6
CONTINUOUS
 62
     7
100
AcDbLine
 10
631.7225148234088
 20
137.5627158230308
 30
0.0
 11
630.9725148234088
 21
136.9333910996478
 31
0.0
  0
LINE
  5
18821
330
18
100
AcDbEntity
  8
1
  6
CONTINUOUS
 62
     7
100
AcDbLine
 10
630.9725148234088
 20
138.1920405464138
 30
0.0
 11
631.7225148234088
 21
137.5627158230308
 31
0.0
  0
LINE
  5
18822
330
18
100
AcDbEntity
  8
1
  6
CONTINUOUS
 62
     7
100
AcDbLine
 10
630.9725148234088
 20
144.1377158230308
 30
0.0
 11
630.9725148234088
 21
138.1920405464138
 31
0.0
  0
LINE
  5
18823
330
18
100
AcDbEntity
  8
1
  6
CONTINUOUS
 62
     7
100
AcDbLine
 10
630.9725148234088
 20
136.9333910996478
 30
0.0
 11
630.9725148234088
 21
130.9877158230308
 31
0.0
  0
LINE
  5
18824
330
18
100
AcDbEntity
  8
1
  6
CONTINUOUS
 62
     7
100
AcDbLine
 10
633.9725148234088
 20
130.9877158230308
 30
0.0
 11
633.9725148234088
 21
136.9333910996478
 31
0.0
  0
LINE
  5
18825
330
18
100
AcDbEntity
  8
1
  6
CONTINUOUS
 62
     7
100
AcDbLine
 10
633.9725148234088
 20
138.1920405464138
 30
0.0
 11
633.9725148234088
 21
144.1377158230308
 31
0.0
  0
LINE
  5
18826
330
18
100
AcDbEntity
  8
1
  6
CONTINUOUS
 62
     7
100
AcDbLine
 10
633.2225148234088
 20
105.9627158230308
 30
0.0
 11
633.9725148234088
 21
106.5920405464138
 31
0.0
  0
LINE
  5
18827
330
18
100
AcDbEntity
  8
1
  6
CONTINUOUS
 62
     7
100
AcDbLine
 10
633.9725148234088
 20
105.3333910996478
 30
0.0
 11
633.2225148234088
 21
105.9627158230308
 31
0.0
  0
LINE
  5
18828
330
18
100
AcDbEntity
  8
1
  6
CONTINUOUS
 62
     7
100
AcDbLine
 10
631.7225148234088
 20
105.9627158230308
 30
0.0
 11
630.9725148234088
 21
105.3333910996478
 31
0.0
  0
LINE
  5
18829
330
18
100
AcDbEntity
  8
1
  6
CONTINUOUS
 62
     7
100
AcDbLine
 10
630.9725148234088
 20
106.5920405464138
 30
0.0
 11
631.7225148234088
 21
105.9627158230308
 31
0.0
  0
LINE
  5
1882A
330
18
100
AcDbEntity
  8
1
  6
CONTINUOUS
 62
     7
100
AcDbLine
 10
630.9725148234088
 20
112.5377158230307
 30
0.0
 11
630.9725148234088
 21
106.5920405464138
 31
0.0
  0
LINE
  5
1882B
330
18
100
AcDbEntity
  8
1
  6
CONTINUOUS
 62
     7
100
AcDbLine
 10
630.9725148234088
 20
105.3333910996478
 30
0.0
 11
630.9725148234088
 21
99.38771582303073
 31
0.0
  0
LINE
  5
1882C
330
18
100
AcDbEntity
  8
1
  6
CONTINUOUS
 62
     7
100
AcDbLine
 10
633.9725148234088
 20
99.38771582303073
 30
0.0
 11
633.9725148234088
 21
105.3333910996478
 31
0.0
  0
LINE
  5
1882D
330
18
100
AcDbEntity
  8
1
  6
CONTINUOUS
 62
     7
100
AcDbLine
 10
633.9725148234088
 20
106.5920405464138
 30
0.0
 11
633.9725148234088
 21
112.5377158230307
 31
0.0
  0
LINE
  5
1882E
330
18
100
AcDbEntity
  8
1
  6
CONTINUOUS
 62
     7
100
AcDbLine
 10
633.9725148234088
 20
68.61271582303075
 30
0.0
 11
633.9725148234088
 21
80.9377158230308
 31
0.0
  0
LINE
  5
1882F
330
18
100
AcDbEntity
  8
1
  6
CONTINUOUS
 62
     7
100
AcDbLine
 10
633.2225148234088
 20
90.16271582303082
 30
0.0
 11
633.9725148234088
 21
90.79204054641369
 31
0.0
  0
LINE
  5
18830
330
18
100
AcDbEntity
  8
1
  6
CONTINUOUS
 62
     7
100
AcDbLine
 10
631.7225148234088
 20
90.16271582303082
 30
0.0
 11
630.9725148234088
 21
89.53339109964784
 31
0.0
  0
LINE
  5
18831
330
18
100
AcDbEntity
  8
1
  6
CONTINUOUS
 62
     7
100
AcDbLine
 10
630.9725148234088
 20
90.79204054641369
 30
0.0
 11
631.7225148234088
 21
90.16271582303082
 31
0.0
  0
LINE
  5
18832
330
18
100
AcDbEntity
  8
1
  6
CONTINUOUS
 62
     7
100
AcDbLine
 10
633.9725148234088
 20
89.53339109964784
 30
0.0
 11
633.2225148234088
 21
90.16271582303082
 31
0.0
  0
LINE
  5
18833
330
18
100
AcDbEntity
  8
1
  6
CONTINUOUS
 62
     7
100
AcDbLine
 10
630.9725148234088
 20
96.73771582303075
 30
0.0
 11
630.9725148234088
 21
90.79204054641369
 31
0.0
  0
LINE
  5
18834
330
18
100
AcDbEntity
  8
1
  6
CONTINUOUS
 62
     7
100
AcDbLine
 10
630.9725148234088
 20
89.53339109964784
 30
0.0
 11
630.9725148234088
 21
83.58771582303078
 31
0.0
  0
LINE
  5
18835
330
18
100
AcDbEntity
  8
1
  6
CONTINUOUS
 62
     7
100
AcDbLine
 10
633.9725148234088
 20
83.58771582303078
 30
0.0
 11
633.9725148234088
 21
89.53339109964784
 31
0.0
  0
LINE
  5
18836
330
18
100
AcDbEntity
  8
1
  6
CONTINUOUS
 62
     7
100
AcDbLine
 10
633.9725148234088
 20
90.79204054641369
 30
0.0
 11
633.9725148234088
 21
96.73771582303075
 31
0.0
  0
LINE
  5
18837
330
18
100
AcDbEntity
  8
1
  6
CONTINUOUS
 62
     7
100
AcDbLine
 10
630.9725148234088
 20
174.9127158230307
 30
0.0
 11
630.9725148234088
 21
162.5877158230308
 31
0.0
  0
LINE
  5
18838
330
18
100
AcDbEntity
  8
1
  6
CONTINUOUS
 62
     7
100
AcDbLine
 10
630.9725148234088
 20
80.9377158230308
 30
0.0
 11
630.9725148234088
 21
68.61271582303075
 31
0.0
  0
LINE
  5
188B2
330
18
100
AcDbEntity
  8
1
  6
CONTINUOUS
 62
     7
100
AcDbLine
 10
642.2164312708912
 20
67.4377158230308
 30
0.0
 11
641.1164312708913
 21
68.01271582303085
 31
0.0
  0
LINE
  5
188B3
330
18
100
AcDbEntity
  8
1
  6
CONTINUOUS
 62
     7
100
AcDbLine
 10
642.2164312708912
 20
67.08771582303078
 30
0.0
 11
642.2164312708912
 21
67.4377158230308
 31
0.0
  0
LINE
  5
188B4
330
18
100
AcDbEntity
  8
1
  6
CONTINUOUS
 62
     7
100
AcDbLine
 10
641.1164312708913
 20
66.51271582303085
 30
0.0
 11
642.2164312708912
 21
67.08771582303078
 31
0.0
  0
LINE
  5
188B5
330
18
100
AcDbEntity
  8
1
  6
CONTINUOUS
 62
     7
100
AcDbLine
 10
641.1164312708913
 20
66.51271582303085
 30
0.0
 11
633.9725148234088
 21
66.51271582303085
 31
0.0
  0
LINE
  5
188B6
330
18
100
AcDbEntity
  8
1
  6
CONTINUOUS
 62
     7
100
AcDbLine
 10
641.1164312708913
 20
68.01271582303085
 30
0.0
 11
633.9725148234088
 21
68.01271582303085
 31
0.0
  0
LINE
  5
188B7
330
18
100
AcDbEntity
  8
1
  6
CONTINUOUS
 62
     7
100
AcDbLine
 10
641.1164312708913
 20
162.0127158230307
 30
0.0
 11
642.2164312708912
 21
161.4377158230308
 31
0.0
  0
LINE
  5
188B8
330
18
100
AcDbEntity
  8
1
  6
CONTINUOUS
 62
     7
100
AcDbLine
 10
642.2164312708912
 20
161.4377158230308
 30
0.0
 11
642.2164312708912
 21
161.0877158230308
 31
0.0
  0
LINE
  5
188B9
330
18
100
AcDbEntity
  8
1
  6
CONTINUOUS
 62
     7
100
AcDbLine
 10
642.2164312708912
 20
161.0877158230308
 30
0.0
 11
641.1164312708913
 21
160.5127158230308
 31
0.0
  0
LINE
  5
188BA
330
18
100
AcDbEntity
  8
1
  6
CONTINUOUS
 62
     7
100
AcDbLine
 10
641.1164312708913
 20
160.5127158230308
 30
0.0
 11
633.9725148234088
 21
160.5127158230308
 31
0.0
  0
LINE
  5
188BB
330
18
100
AcDbEntity
  8
1
  6
CONTINUOUS
 62
     7
100
AcDbLine
 10
633.9725148234088
 20
162.0127158230307
 30
0.0
 11
641.1164312708913
 21
162.0127158230307
 31
0.0
  0
LINE
  5
188BC
330
18
100
AcDbEntity
  8
1
  6
CONTINUOUS
 62
     7
100
AcDbLine
 10
641.1164312708913
 20
83.01271582303073
 30
0.0
 11
642.2164312708912
 21
82.4377158230308
 31
0.0
  0
LINE
  5
188BD
330
18
100
AcDbEntity
  8
1
  6
CONTINUOUS
 62
     7
100
AcDbLine
 10
642.2164312708912
 20
82.4377158230308
 30
0.0
 11
642.2164312708912
 21
82.08771582303078
 31
0.0
  0
LINE
  5
188BE
330
18
100
AcDbEntity
  8
1
  6
CONTINUOUS
 62
     7
100
AcDbLine
 10
642.2164312708912
 20
82.08771582303078
 30
0.0
 11
641.1164312708913
 21
81.51271582303085
 31
0.0
  0
LINE
  5
188BF
330
18
100
AcDbEntity
  8
1
  6
CONTINUOUS
 62
     7
100
AcDbLine
 10
641.1164312708913
 20
81.51271582303085
 30
0.0
 11
633.9725148234088
 21
81.51271582303073
 31
0.0
  0
LINE
  5
188C0
330
18
100
AcDbEntity
  8
1
  6
CONTINUOUS
 62
     7
100
AcDbLine
 10
633.9725148234088
 20
83.01271582303073
 30
0.0
 11
641.1164312708913
 21
83.01271582303073
 31
0.0
  0
LINE
  5
188C1
330
18
100
AcDbEntity
  8
1
  6
CONTINUOUS
 62
     7
100
AcDbLine
 10
641.1164312708913
 20
146.2127158230308
 30
0.0
 11
642.2164312708912
 21
145.6377158230308
 31
0.0
  0
LINE
  5
188C2
330
18
100
AcDbEntity
  8
1
  6
CONTINUOUS
 62
     7
100
AcDbLine
 10
642.2164312708912
 20
145.6377158230308
 30
0.0
 11
642.2164312708912
 21
145.2877158230307
 31
0.0
  0
LINE
  5
188C3
330
18
100
AcDbEntity
  8
1
  6
CONTINUOUS
 62
     7
100
AcDbLine
 10
642.2164312708912
 20
145.2877158230307
 30
0.0
 11
641.1164312708913
 21
144.7127158230308
 31
0.0
  0
LINE
  5
188C4
330
18
100
AcDbEntity
  8
1
  6
CONTINUOUS
 62
     7
100
AcDbLine
 10
641.1164312708913
 20
144.7127158230308
 30
0.0
 11
633.9725148234088
 21
144.7127158230308
 31
0.0
  0
LINE
  5
188C5
330
18
100
AcDbEntity
  8
1
  6
CONTINUOUS
 62
     7
100
AcDbLine
 10
633.9725148234088
 20
146.2127158230308
 30
0.0
 11
641.1164312708913
 21
146.2127158230308
 31
0.0
  0
LINE
  5
188C6
330
18
100
AcDbEntity
  8
1
  6
CONTINUOUS
 62
     7
100
AcDbLine
 10
641.1164312708913
 20
98.8127158230308
 30
0.0
 11
642.2164312708912
 21
98.23771582303075
 31
0.0
  0
LINE
  5
188C7
330
18
100
AcDbEntity
  8
1
  6
CONTINUOUS
 62
     7
100
AcDbLine
 10
642.2164312708912
 20
98.23771582303075
 30
0.0
 11
642.2164312708912
 21
97.88771582303073
 31
0.0
  0
LINE
  5
188C8
330
18
100
AcDbEntity
  8
1
  6
CONTINUOUS
 62
     7
100
AcDbLine
 10
642.2164312708912
 20
97.88771582303073
 30
0.0
 11
641.1164312708913
 21
97.3127158230308
 31
0.0
  0
LINE
  5
188C9
330
18
100
AcDbEntity
  8
1
  6
CONTINUOUS
 62
     7
100
AcDbLine
 10
641.1164312708913
 20
97.3127158230308
 30
0.0
 11
633.9725148234088
 21
97.3127158230308
 31
0.0
  0
LINE
  5
188CA
330
18
100
AcDbEntity
  8
1
  6
CONTINUOUS
 62
     7
100
AcDbLine
 10
633.9725148234088
 20
98.8127158230308
 30
0.0
 11
641.1164312708913
 21
98.8127158230308
 31
0.0
  0
LINE
  5
188CB
330
18
100
AcDbEntity
  8
1
  6
CONTINUOUS
 62
     7
100
AcDbLine
 10
641.1164312708913
 20
177.0127158230308
 30
0.0
 11
642.2164312708912
 21
176.4377158230308
 31
0.0
  0
LINE
  5
188CC
330
18
100
AcDbEntity
  8
1
  6
CONTINUOUS
 62
     7
100
AcDbLine
 10
642.2164312708912
 20
176.4377158230308
 30
0.0
 11
642.2164312708912
 21
176.0877158230308
 31
0.0
  0
LINE
  5
188CD
330
18
100
AcDbEntity
  8
1
  6
CONTINUOUS
 62
     7
100
AcDbLine
 10
642.2164312708912
 20
176.0877158230308
 30
0.0
 11
641.1164312708913
 21
175.5127158230308
 31
0.0
  0
LINE
  5
188CE
102
{ACAD_REACTORS
102
}
330
18
100
AcDbEntity
  8
1
  6
CONTINUOUS
 62
     7
100
AcDbLine
 10
641.1164312708913
 20
175.5127158230308
 30
0.0
 11
633.9725148234088
 21
175.5127158230308
 31
0.0
  0
LINE
  5
188CF
102
{ACAD_REACTORS
102
}
330
18
100
AcDbEntity
  8
1
  6
CONTINUOUS
 62
     7
100
AcDbLine
 10
633.9725148234088
 20
177.0127158230308
 30
0.0
 11
641.1164312708913
 21
177.0127158230308
 31
0.0
  0
LINE
  5
188D0
330
18
100
AcDbEntity
  8
1
  6
CONTINUOUS
 62
     7
100
AcDbLine
 10
641.1164312708913
 20
114.6127158230308
 30
0.0
 11
642.2164312708912
 21
114.0377158230307
 31
0.0
  0
LINE
  5
188D1
330
18
100
AcDbEntity
  8
1
  6
CONTINUOUS
 62
     7
100
AcDbLine
 10
642.2164312708912
 20
114.0377158230307
 30
0.0
 11
642.2164312708912
 21
113.6877158230308
 31
0.0
  0
LINE
  5
188D2
330
18
100
AcDbEntity
  8
1
  6
CONTINUOUS
 62
     7
100
AcDbLine
 10
642.2164312708912
 20
113.6877158230308
 30
0.0
 11
641.1164312708913
 21
113.1127158230308
 31
0.0
  0
LINE
  5
188D3
330
18
100
AcDbEntity
  8
1
  6
CONTINUOUS
 62
     7
100
AcDbLine
 10
641.1164312708913
 20
113.1127158230308
 30
0.0
 11
633.9725148234088
 21
113.1127158230308
 31
0.0
  0
LINE
  5
188D4
330
18
100
AcDbEntity
  8
1
  6
CONTINUOUS
 62
     7
100
AcDbLine
 10
633.9725148234088
 20
114.6127158230308
 30
0.0
 11
641.1164312708913
 21
114.6127158230308
 31
0.0
  0
LINE
  5
188D5
330
18
100
AcDbEntity
  8
1
  6
CONTINUOUS
 62
     7
100
AcDbLine
 10
641.1164312708913
 20
130.4127158230307
 30
0.0
 11
642.2164312708912
 21
129.8377158230308
 31
0.0
  0
LINE
  5
188D6
330
18
100
AcDbEntity
  8
1
  6
CONTINUOUS
 62
     7
100
AcDbLine
 10
642.2164312708912
 20
129.8377158230308
 30
0.0
 11
642.2164312708912
 21
129.4877158230308
 31
0.0
  0
LINE
  5
188D7
330
18
100
AcDbEntity
  8
1
  6
CONTINUOUS
 62
     7
100
AcDbLine
 10
642.2164312708912
 20
129.4877158230308
 30
0.0
 11
641.1164312708913
 21
128.9127158230307
 31
0.0
  0
LINE
  5
188D8
330
18
100
AcDbEntity
  8
1
  6
CONTINUOUS
 62
     7
100
AcDbLine
 10
641.1164312708913
 20
128.9127158230307
 30
0.0
 11
633.9725148234088
 21
128.9127158230307
 31
0.0
  0
LINE
  5
188D9
330
18
100
AcDbEntity
  8
1
  6
CONTINUOUS
 62
     7
100
AcDbLine
 10
633.9725148234088
 20
130.4127158230307
 30
0.0
 11
641.1164312708913
 21
130.4127158230307
 31
0.0
  0
LINE
  5
188DA
330
18
100
AcDbEntity
  8
1
  6
CONTINUOUS
 62
     7
100
AcDbLine
 10
551.0131093424516
 20
159.9377158230308
 30
0.0
 11
557.8131093424516
 21
159.9377158230308
 31
0.0
  0
LINE
  5
188DB
330
18
100
AcDbEntity
  8
1
  6
CONTINUOUS
 62
     7
100
AcDbLine
 10
551.0131093424516
 20
162.5877158230308
 30
0.0
 11
551.0131093424516
 21
159.9377158230308
 31
0.0
  0
LINE
  5
188DC
330
18
100
AcDbEntity
  8
1
  6
CONTINUOUS
 62
     7
100
AcDbLine
 10
557.8131093424516
 20
162.5877158230308
 30
0.0
 11
551.0131093424516
 21
162.5877158230308
 31
0.0
  0
LINE
  5
188DD
330
18
100
AcDbEntity
  8
1
  6
CONTINUOUS
 62
     7
100
AcDbLine
 10
557.8131093424516
 20
162.5877158230308
 30
0.0
 11
557.8131093424516
 21
174.9127158230307
 31
0.0
  0
LINE
  5
188DE
330
18
100
AcDbEntity
  8
1
  6
CONTINUOUS
 62
     7
100
AcDbLine
 10
551.0131093424517
 20
174.9127158230307
 30
0.0
 11
557.8131093424516
 21
174.9127158230307
 31
0.0
  0
LINE
  5
188DF
102
{ACAD_REACTORS
102
}
330
18
100
AcDbEntity
  8
1
  6
CONTINUOUS
 62
     7
100
AcDbLine
 10
551.0131093424517
 20
177.4127158230307
 30
0.0
 11
551.0131093424517
 21
174.9127158230307
 31
0.0
  0
LINE
  5
188E0
330
18
100
AcDbEntity
  8
1
  6
CONTINUOUS
 62
     7
100
AcDbLine
 10
561.8131093424516
 20
177.4127158230307
 30
0.0
 11
551.0131093424517
 21
177.4127158230307
 31
0.0
  0
LINE
  5
188E1
330
18
100
AcDbEntity
  8
1
  6
CONTINUOUS
 62
     7
100
AcDbLine
 10
561.8131093424516
 20
177.4127158230307
 30
0.0
 11
561.8131093424516
 21
164.2627158230308
 31
0.0
  0
LINE
  5
188E2
330
18
100
AcDbEntity
  8
1
  6
CONTINUOUS
 62
     7
100
AcDbLine
 10
561.8131093424516
 20
164.2627158230308
 30
0.0
 11
564.8131093424516
 21
164.2627158230308
 31
0.0
  0
LINE
  5
188E3
330
18
100
AcDbEntity
  8
1
  6
CONTINUOUS
 62
     7
100
AcDbLine
 10
564.8131093424516
 20
158.2627158230308
 30
0.0
 11
564.8131093424516
 21
164.2627158230308
 31
0.0
  0
LINE
  5
188E4
330
18
100
AcDbEntity
  8
1
  6
CONTINUOUS
 62
     7
100
AcDbLine
 10
564.8131093424516
 20
158.2627158230308
 30
0.0
 11
561.8131093424516
 21
158.2627158230308
 31
0.0
  0
LINE
  5
188E5
330
18
100
AcDbEntity
  8
1
  6
CONTINUOUS
 62
     7
100
AcDbLine
 10
561.8131093424516
 20
158.2627158230308
 30
0.0
 11
561.8131093424516
 21
153.9920405464137
 31
0.0
  0
LINE
  5
188E6
330
18
100
AcDbEntity
  8
1
  6
CONTINUOUS
 62
     7
100
AcDbLine
 10
557.8131093424516
 20
153.9920405464137
 30
0.0
 11
561.8131093424516
 21
153.9920405464137
 31
0.0
  0
LINE
  5
188E7
330
18
100
AcDbEntity
  8
1
  6
CONTINUOUS
 62
     7
100
AcDbLine
 10
557.8131093424516
 20
153.9920405464137
 30
0.0
 11
557.8131093424516
 21
159.9377158230308
 31
0.0
  0
CIRCLE
  5
188E8
330
18
100
AcDbEntity
  8
1
  6
CONTINUOUS
 62
     7
100
AcDbCircle
 10
557.3131093424516
 20
176.0127158230308
 30
0.0
 40
0.5
  0
CIRCLE
  5
188E9
330
18
100
AcDbEntity
  8
1
  6
CONTINUOUS
 62
     7
100
AcDbCircle
 10
559.8131093424516
 20
169.1627158230308
 30
0.0
 40
0.5
  0
CIRCLE
  5
188EA
330
18
100
AcDbEntity
  8
1
  6
CONTINUOUS
 62
     7
100
AcDbCircle
 10
557.3131093424516
 20
161.2627158230308
 30
0.0
 40
0.5
  0
LINE
  5
188EB
330
18
100
AcDbEntity
  8
1
  6
CONTINUOUS
 62
     7
100
AcDbLine
 10
551.0131093424517
 20
144.1377158230308
 30
0.0
 11
557.8131093424516
 21
144.1377158230308
 31
0.0
  0
LINE
  5
188EC
330
18
100
AcDbEntity
  8
1
  6
CONTINUOUS
 62
     7
100
AcDbLine
 10
551.0131093424517
 20
146.7877158230307
 30
0.0
 11
551.0131093424517
 21
144.1377158230308
 31
0.0
  0
LINE
  5
188ED
330
18
100
AcDbEntity
  8
1
  6
CONTINUOUS
 62
     7
100
AcDbLine
 10
557.8131093424516
 20
146.7877158230307
 30
0.0
 11
551.0131093424517
 21
146.7877158230307
 31
0.0
  0
LINE
  5
188EE
330
18
100
AcDbEntity
  8
1
  6
CONTINUOUS
 62
     7
100
AcDbLine
 10
557.8131093424516
 20
152.7333910996478
 30
0.0
 11
561.8131093424516
 21
152.7333910996478
 31
0.0
  0
LINE
  5
188EF
330
18
100
AcDbEntity
  8
1
  6
CONTINUOUS
 62
     7
100
AcDbLine
 10
561.8131093424516
 20
148.4627158230308
 30
0.0
 11
564.8131093424516
 21
148.4627158230308
 31
0.0
  0
LINE
  5
188F0
330
18
100
AcDbEntity
  8
1
  6
CONTINUOUS
 62
     7
100
AcDbLine
 10
564.8131093424516
 20
142.4627158230308
 30
0.0
 11
564.8131093424516
 21
148.4627158230308
 31
0.0
  0
LINE
  5
188F1
330
18
100
AcDbEntity
  8
1
  6
CONTINUOUS
 62
     7
100
AcDbLine
 10
564.8131093424516
 20
142.4627158230308
 30
0.0
 11
561.8131093424516
 21
142.4627158230308
 31
0.0
  0
LINE
  5
188F2
330
18
100
AcDbEntity
  8
1
  6
CONTINUOUS
 62
     7
100
AcDbLine
 10
561.8131093424516
 20
142.4627158230308
 30
0.0
 11
561.8131093424516
 21
138.1920405464138
 31
0.0
  0
LINE
  5
188F3
330
18
100
AcDbEntity
  8
1
  6
CONTINUOUS
 62
     7
100
AcDbLine
 10
557.8131093424516
 20
138.1920405464138
 30
0.0
 11
561.8131093424516
 21
138.1920405464138
 31
0.0
  0
LINE
  5
188F4
330
18
100
AcDbEntity
  8
1
  6
CONTINUOUS
 62
     7
100
AcDbLine
 10
557.8131093424516
 20
138.1920405464138
 30
0.0
 11
557.8131093424516
 21
144.1377158230308
 31
0.0
  0
CIRCLE
  5
188F5
330
18
100
AcDbEntity
  8
1
  6
CONTINUOUS
 62
     7
100
AcDbCircle
 10
557.3131093424516
 20
145.4627158230308
 30
0.0
 40
0.5
  0
LINE
  5
188F6
330
18
100
AcDbEntity
  8
1
  6
CONTINUOUS
 62
     7
100
AcDbLine
 10
557.8131093424516
 20
146.7877158230307
 30
0.0
 11
557.8131093424516
 21
152.7333910996478
 31
0.0
  0
LINE
  5
188F7
330
18
100
AcDbEntity
  8
1
  6
CONTINUOUS
 62
     7
100
AcDbLine
 10
561.8131093424516
 20
152.7333910996478
 30
0.0
 11
561.8131093424516
 21
148.4627158230308
 31
0.0
  0
LINE
  5
188F8
330
18
100
AcDbEntity
  8
1
  6
CONTINUOUS
 62
     7
100
AcDbLine
 10
560.3131093424516
 20
153.3627158230308
 30
0.0
 11
561.8131093424516
 21
153.3627158230308
 31
0.0
  0
ARC
  5
188F9
330
18
100
AcDbEntity
  8
1
  6
CONTINUOUS
 62
     7
100
AcDbCircle
 10
559.8131093424516
 20
153.3627158230308
 30
0.0
 40
0.5
100
AcDbArc
 50
0.0
 51
180.0
  0
LINE
  5
188FA
330
18
100
AcDbEntity
  8
1
  6
CONTINUOUS
 62
     7
100
AcDbLine
 10
557.8131093424516
 20
153.3627158230308
 30
0.0
 11
559.3131093424516
 21
153.3627158230308
 31
0.0
  0
LINE
  5
188FB
330
18
100
AcDbEntity
  8
1
  6
CONTINUOUS
 62
     7
100
AcDbLine
 10
557.8131093424516
 20
153.3627158230308
 30
0.0
 11
557.8131093424516
 21
153.9920405464137
 31
0.0
  0
LINE
  5
188FC
330
18
100
AcDbEntity
  8
1
  6
CONTINUOUS
 62
     7
100
AcDbLine
 10
561.8131093424516
 20
153.3627158230308
 30
0.0
 11
561.8131093424516
 21
153.9920405464137
 31
0.0
  0
ARC
  5
188FD
330
18
100
AcDbEntity
  8
1
  6
CONTINUOUS
 62
     7
100
AcDbCircle
 10
559.8131093424516
 20
153.3627158230308
 30
0.0
 40
0.5
100
AcDbArc
 50
180.0
 51
0.0
  0
LINE
  5
188FE
330
18
100
AcDbEntity
  8
1
  6
CONTINUOUS
 62
     7
100
AcDbLine
 10
557.8131093424516
 20
152.7333910996478
 30
0.0
 11
557.8131093424516
 21
153.3627158230308
 31
0.0
  0
LINE
  5
188FF
330
18
100
AcDbEntity
  8
1
  6
CONTINUOUS
 62
     7
100
AcDbLine
 10
561.8131093424516
 20
152.7333910996478
 30
0.0
 11
561.8131093424516
 21
153.3627158230308
 31
0.0
  0
LINE
  5
18900
330
18
100
AcDbEntity
  8
1
  6
CONTINUOUS
 62
     7
100
AcDbLine
 10
551.0131093424517
 20
128.3377158230308
 30
0.0
 11
557.8131093424516
 21
128.3377158230308
 31
0.0
  0
LINE
  5
18901
330
18
100
AcDbEntity
  8
1
  6
CONTINUOUS
 62
     7
100
AcDbLine
 10
551.0131093424517
 20
130.9877158230308
 30
0.0
 11
551.0131093424517
 21
128.3377158230308
 31
0.0
  0
LINE
  5
18902
330
18
100
AcDbEntity
  8
1
  6
CONTINUOUS
 62
     7
100
AcDbLine
 10
557.8131093424516
 20
130.9877158230308
 30
0.0
 11
551.0131093424517
 21
130.9877158230308
 31
0.0
  0
LINE
  5
18903
330
18
100
AcDbEntity
  8
1
  6
CONTINUOUS
 62
     7
100
AcDbLine
 10
557.8131093424516
 20
130.9877158230308
 30
0.0
 11
557.8131093424516
 21
136.9333910996478
 31
0.0
  0
LINE
  5
18904
330
18
100
AcDbEntity
  8
1
  6
CONTINUOUS
 62
     7
100
AcDbLine
 10
557.8131093424516
 20
136.9333910996478
 30
0.0
 11
561.8131093424516
 21
136.9333910996478
 31
0.0
  0
LINE
  5
18905
330
18
100
AcDbEntity
  8
1
  6
CONTINUOUS
 62
     7
100
AcDbLine
 10
561.8131093424516
 20
132.6627158230307
 30
0.0
 11
564.8131093424516
 21
132.6627158230307
 31
0.0
  0
LINE
  5
18906
330
18
100
AcDbEntity
  8
1
  6
CONTINUOUS
 62
     7
100
AcDbLine
 10
564.8131093424516
 20
126.6627158230307
 30
0.0
 11
564.8131093424516
 21
132.6627158230307
 31
0.0
  0
LINE
  5
18907
330
18
100
AcDbEntity
  8
1
  6
CONTINUOUS
 62
     7
100
AcDbLine
 10
564.8131093424516
 20
126.6627158230307
 30
0.0
 11
561.8131093424516
 21
126.6627158230307
 31
0.0
  0
LINE
  5
18908
330
18
100
AcDbEntity
  8
1
  6
CONTINUOUS
 62
     7
100
AcDbLine
 10
561.8131093424516
 20
126.6627158230307
 30
0.0
 11
561.8131093424516
 21
122.3920405464138
 31
0.0
  0
LINE
  5
18909
330
18
100
AcDbEntity
  8
1
  6
CONTINUOUS
 62
     7
100
AcDbLine
 10
557.8131093424516
 20
122.3920405464138
 30
0.0
 11
561.8131093424516
 21
122.3920405464138
 31
0.0
  0
LINE
  5
1890A
330
18
100
AcDbEntity
  8
1
  6
CONTINUOUS
 62
     7
100
AcDbLine
 10
557.8131093424516
 20
122.3920405464138
 30
0.0
 11
557.8131093424516
 21
128.3377158230308
 31
0.0
  0
CIRCLE
  5
1890B
330
18
100
AcDbEntity
  8
1
  6
CONTINUOUS
 62
     7
100
AcDbCircle
 10
557.3131093424516
 20
129.6627158230307
 30
0.0
 40
0.5
  0
LINE
  5
1890C
330
18
100
AcDbEntity
  8
1
  6
CONTINUOUS
 62
     7
100
AcDbLine
 10
561.8131093424516
 20
136.9333910996478
 30
0.0
 11
561.8131093424516
 21
132.6627158230307
 31
0.0
  0
LINE
  5
1890D
330
18
100
AcDbEntity
  8
1
  6
CONTINUOUS
 62
     7
100
AcDbLine
 10
560.3131093424516
 20
137.5627158230308
 30
0.0
 11
561.8131093424516
 21
137.5627158230308
 31
0.0
  0
ARC
  5
1890E
330
18
100
AcDbEntity
  8
1
  6
CONTINUOUS
 62
     7
100
AcDbCircle
 10
559.8131093424516
 20
137.5627158230308
 30
0.0
 40
0.5
100
AcDbArc
 50
0.0
 51
180.0
  0
LINE
  5
1890F
330
18
100
AcDbEntity
  8
1
  6
CONTINUOUS
 62
     7
100
AcDbLine
 10
557.8131093424516
 20
137.5627158230308
 30
0.0
 11
559.3131093424516
 21
137.5627158230308
 31
0.0
  0
LINE
  5
18910
330
18
100
AcDbEntity
  8
1
  6
CONTINUOUS
 62
     7
100
AcDbLine
 10
557.8131093424516
 20
137.5627158230308
 30
0.0
 11
557.8131093424516
 21
138.1920405464138
 31
0.0
  0
LINE
  5
18911
330
18
100
AcDbEntity
  8
1
  6
CONTINUOUS
 62
     7
100
AcDbLine
 10
561.8131093424516
 20
137.5627158230308
 30
0.0
 11
561.8131093424516
 21
138.1920405464138
 31
0.0
  0
ARC
  5
18912
330
18
100
AcDbEntity
  8
1
  6
CONTINUOUS
 62
     7
100
AcDbCircle
 10
559.8131093424516
 20
137.5627158230308
 30
0.0
 40
0.5
100
AcDbArc
 50
180.0
 51
0.0
  0
LINE
  5
18913
330
18
100
AcDbEntity
  8
1
  6
CONTINUOUS
 62
     7
100
AcDbLine
 10
557.8131093424516
 20
136.9333910996478
 30
0.0
 11
557.8131093424516
 21
137.5627158230308
 31
0.0
  0
LINE
  5
18914
330
18
100
AcDbEntity
  8
1
  6
CONTINUOUS
 62
     7
100
AcDbLine
 10
561.8131093424516
 20
136.9333910996478
 30
0.0
 11
561.8131093424516
 21
137.5627158230308
 31
0.0
  0
LINE
  5
18915
330
18
100
AcDbEntity
  8
1
  6
CONTINUOUS
 62
     7
100
AcDbLine
 10
551.0131093424517
 20
112.5377158230307
 30
0.0
 11
557.8131093424516
 21
112.5377158230307
 31
0.0
  0
LINE
  5
18916
330
18
100
AcDbEntity
  8
1
  6
CONTINUOUS
 62
     7
100
AcDbLine
 10
551.0131093424517
 20
115.1877158230308
 30
0.0
 11
551.0131093424517
 21
112.5377158230307
 31
0.0
  0
LINE
  5
18917
330
18
100
AcDbEntity
  8
1
  6
CONTINUOUS
 62
     7
100
AcDbLine
 10
557.8131093424516
 20
115.1877158230308
 30
0.0
 11
551.0131093424517
 21
115.1877158230308
 31
0.0
  0
LINE
  5
18918
330
18
100
AcDbEntity
  8
1
  6
CONTINUOUS
 62
     7
100
AcDbLine
 10
557.8131093424516
 20
115.1877158230308
 30
0.0
 11
557.8131093424516
 21
121.1333910996479
 31
0.0
  0
LINE
  5
18919
330
18
100
AcDbEntity
  8
1
  6
CONTINUOUS
 62
     7
100
AcDbLine
 10
557.8131093424516
 20
121.1333910996479
 30
0.0
 11
561.8131093424516
 21
121.1333910996479
 31
0.0
  0
LINE
  5
1891A
330
18
100
AcDbEntity
  8
1
  6
CONTINUOUS
 62
     7
100
AcDbLine
 10
561.8131093424516
 20
116.8627158230308
 30
0.0
 11
564.8131093424516
 21
116.8627158230308
 31
0.0
  0
LINE
  5
1891B
330
18
100
AcDbEntity
  8
1
  6
CONTINUOUS
 62
     7
100
AcDbLine
 10
564.8131093424516
 20
110.8627158230308
 30
0.0
 11
564.8131093424516
 21
116.8627158230308
 31
0.0
  0
LINE
  5
1891C
330
18
100
AcDbEntity
  8
1
  6
CONTINUOUS
 62
     7
100
AcDbLine
 10
564.8131093424516
 20
110.8627158230308
 30
0.0
 11
561.8131093424516
 21
110.8627158230308
 31
0.0
  0
LINE
  5
1891D
330
18
100
AcDbEntity
  8
1
  6
CONTINUOUS
 62
     7
100
AcDbLine
 10
561.8131093424516
 20
110.8627158230308
 30
0.0
 11
561.8131093424516
 21
106.5920405464138
 31
0.0
  0
LINE
  5
1891E
330
18
100
AcDbEntity
  8
1
  6
CONTINUOUS
 62
     7
100
AcDbLine
 10
557.8131093424516
 20
106.5920405464138
 30
0.0
 11
561.8131093424516
 21
106.5920405464138
 31
0.0
  0
LINE
  5
1891F
330
18
100
AcDbEntity
  8
1
  6
CONTINUOUS
 62
     7
100
AcDbLine
 10
557.8131093424516
 20
106.5920405464138
 30
0.0
 11
557.8131093424516
 21
112.5377158230307
 31
0.0
  0
CIRCLE
  5
18920
330
18
100
AcDbEntity
  8
1
  6
CONTINUOUS
 62
     7
100
AcDbCircle
 10
557.3131093424516
 20
113.8627158230308
 30
0.0
 40
0.5
  0
LINE
  5
18921
330
18
100
AcDbEntity
  8
1
  6
CONTINUOUS
 62
     7
100
AcDbLine
 10
561.8131093424516
 20
121.1333910996479
 30
0.0
 11
561.8131093424516
 21
116.8627158230308
 31
0.0
  0
LINE
  5
18922
330
18
100
AcDbEntity
  8
1
  6
CONTINUOUS
 62
     7
100
AcDbLine
 10
560.3131093424516
 20
121.7627158230307
 30
0.0
 11
561.8131093424516
 21
121.7627158230307
 31
0.0
  0
ARC
  5
18923
330
18
100
AcDbEntity
  8
1
  6
CONTINUOUS
 62
     7
100
AcDbCircle
 10
559.8131093424516
 20
121.7627158230307
 30
0.0
 40
0.5
100
AcDbArc
 50
0.0
 51
180.0
  0
LINE
  5
18924
330
18
100
AcDbEntity
  8
1
  6
CONTINUOUS
 62
     7
100
AcDbLine
 10
557.8131093424516
 20
121.7627158230307
 30
0.0
 11
559.3131093424516
 21
121.7627158230307
 31
0.0
  0
LINE
  5
18925
330
18
100
AcDbEntity
  8
1
  6
CONTINUOUS
 62
     7
100
AcDbLine
 10
557.8131093424516
 20
121.7627158230307
 30
0.0
 11
557.8131093424516
 21
122.3920405464138
 31
0.0
  0
LINE
  5
18926
330
18
100
AcDbEntity
  8
1
  6
CONTINUOUS
 62
     7
100
AcDbLine
 10
561.8131093424516
 20
121.7627158230307
 30
0.0
 11
561.8131093424516
 21
122.3920405464138
 31
0.0
  0
ARC
  5
18927
330
18
100
AcDbEntity
  8
1
  6
CONTINUOUS
 62
     7
100
AcDbCircle
 10
559.8131093424516
 20
121.7627158230307
 30
0.0
 40
0.5
100
AcDbArc
 50
180.0
 51
0.0
  0
LINE
  5
18928
330
18
100
AcDbEntity
  8
1
  6
CONTINUOUS
 62
     7
100
AcDbLine
 10
557.8131093424516
 20
121.1333910996479
 30
0.0
 11
557.8131093424516
 21
121.7627158230307
 31
0.0
  0
LINE
  5
18929
330
18
100
AcDbEntity
  8
1
  6
CONTINUOUS
 62
     7
100
AcDbLine
 10
561.8131093424516
 20
121.1333910996479
 30
0.0
 11
561.8131093424516
 21
121.7627158230307
 31
0.0
  0
LINE
  5
1892A
330
18
100
AcDbEntity
  8
1
  6
CONTINUOUS
 62
     7
100
AcDbLine
 10
551.0131093424517
 20
96.73771582303075
 30
0.0
 11
557.8131093424516
 21
96.73771582303075
 31
0.0
  0
LINE
  5
1892B
330
18
100
AcDbEntity
  8
1
  6
CONTINUOUS
 62
     7
100
AcDbLine
 10
551.0131093424517
 20
99.38771582303073
 30
0.0
 11
551.0131093424517
 21
96.73771582303075
 31
0.0
  0
LINE
  5
1892C
330
18
100
AcDbEntity
  8
1
  6
CONTINUOUS
 62
     7
100
AcDbLine
 10
557.8131093424516
 20
99.38771582303073
 30
0.0
 11
551.0131093424517
 21
99.38771582303073
 31
0.0
  0
LINE
  5
1892D
330
18
100
AcDbEntity
  8
1
  6
CONTINUOUS
 62
     7
100
AcDbLine
 10
557.8131093424516
 20
99.38771582303073
 30
0.0
 11
557.8131093424516
 21
105.3333910996478
 31
0.0
  0
LINE
  5
1892E
330
18
100
AcDbEntity
  8
1
  6
CONTINUOUS
 62
     7
100
AcDbLine
 10
557.8131093424516
 20
105.3333910996478
 30
0.0
 11
561.8131093424516
 21
105.3333910996478
 31
0.0
  0
LINE
  5
1892F
330
18
100
AcDbEntity
  8
1
  6
CONTINUOUS
 62
     7
100
AcDbLine
 10
561.8131093424516
 20
101.0627158230308
 30
0.0
 11
564.8131093424516
 21
101.0627158230308
 31
0.0
  0
LINE
  5
18930
330
18
100
AcDbEntity
  8
1
  6
CONTINUOUS
 62
     7
100
AcDbLine
 10
564.8131093424516
 20
95.0627158230308
 30
0.0
 11
564.8131093424516
 21
101.0627158230308
 31
0.0
  0
LINE
  5
18931
330
18
100
AcDbEntity
  8
1
  6
CONTINUOUS
 62
     7
100
AcDbLine
 10
564.8131093424516
 20
95.0627158230308
 30
0.0
 11
561.8131093424516
 21
95.0627158230308
 31
0.0
  0
LINE
  5
18932
330
18
100
AcDbEntity
  8
1
  6
CONTINUOUS
 62
     7
100
AcDbLine
 10
561.8131093424516
 20
95.0627158230308
 30
0.0
 11
561.8131093424516
 21
90.79204054641369
 31
0.0
  0
LINE
  5
18933
330
18
100
AcDbEntity
  8
1
  6
CONTINUOUS
 62
     7
100
AcDbLine
 10
557.8131093424516
 20
90.79204054641369
 30
0.0
 11
561.8131093424516
 21
90.79204054641369
 31
0.0
  0
LINE
  5
18934
330
18
100
AcDbEntity
  8
1
  6
CONTINUOUS
 62
     7
100
AcDbLine
 10
557.8131093424516
 20
90.79204054641369
 30
0.0
 11
557.8131093424516
 21
96.73771582303075
 31
0.0
  0
CIRCLE
  5
18935
330
18
100
AcDbEntity
  8
1
  6
CONTINUOUS
 62
     7
100
AcDbCircle
 10
557.3131093424516
 20
98.0627158230308
 30
0.0
 40
0.5
  0
LINE
  5
18936
330
18
100
AcDbEntity
  8
1
  6
CONTINUOUS
 62
     7
100
AcDbLine
 10
561.8131093424516
 20
105.3333910996478
 30
0.0
 11
561.8131093424516
 21
101.0627158230308
 31
0.0
  0
LINE
  5
18937
330
18
100
AcDbEntity
  8
1
  6
CONTINUOUS
 62
     7
100
AcDbLine
 10
560.3131093424516
 20
105.9627158230308
 30
0.0
 11
561.8131093424516
 21
105.9627158230308
 31
0.0
  0
ARC
  5
18938
330
18
100
AcDbEntity
  8
1
  6
CONTINUOUS
 62
     7
100
AcDbCircle
 10
559.8131093424516
 20
105.9627158230308
 30
0.0
 40
0.5
100
AcDbArc
 50
0.0
 51
180.0
  0
LINE
  5
18939
330
18
100
AcDbEntity
  8
1
  6
CONTINUOUS
 62
     7
100
AcDbLine
 10
557.8131093424516
 20
105.9627158230308
 30
0.0
 11
559.3131093424516
 21
105.9627158230308
 31
0.0
  0
LINE
  5
1893A
330
18
100
AcDbEntity
  8
1
  6
CONTINUOUS
 62
     7
100
AcDbLine
 10
557.8131093424516
 20
105.9627158230308
 30
0.0
 11
557.8131093424516
 21
106.5920405464138
 31
0.0
  0
LINE
  5
1893B
330
18
100
AcDbEntity
  8
1
  6
CONTINUOUS
 62
     7
100
AcDbLine
 10
561.8131093424516
 20
105.9627158230308
 30
0.0
 11
561.8131093424516
 21
106.5920405464138
 31
0.0
  0
ARC
  5
1893C
330
18
100
AcDbEntity
  8
1
  6
CONTINUOUS
 62
     7
100
AcDbCircle
 10
559.8131093424516
 20
105.9627158230308
 30
0.0
 40
0.5
100
AcDbArc
 50
180.0
 51
0.0
  0
LINE
  5
1893D
330
18
100
AcDbEntity
  8
1
  6
CONTINUOUS
 62
     7
100
AcDbLine
 10
557.8131093424516
 20
105.3333910996478
 30
0.0
 11
557.8131093424516
 21
105.9627158230308
 31
0.0
  0
LINE
  5
1893E
330
18
100
AcDbEntity
  8
1
  6
CONTINUOUS
 62
     7
100
AcDbLine
 10
561.8131093424516
 20
105.3333910996478
 30
0.0
 11
561.8131093424516
 21
105.9627158230308
 31
0.0
  0
CIRCLE
  5
1893F
330
18
100
AcDbEntity
  8
1
  6
CONTINUOUS
 62
     7
100
AcDbCircle
 10
559.8131093424516
 20
74.36271582303075
 30
0.0
 40
0.5
  0
LINE
  5
18940
330
18
100
AcDbEntity
  8
1
  6
CONTINUOUS
 62
     7
100
AcDbLine
 10
561.8131093424516
 20
85.26271582303073
 30
0.0
 11
564.8131093424516
 21
85.26271582303073
 31
0.0
  0
LINE
  5
18941
330
18
100
AcDbEntity
  8
1
  6
CONTINUOUS
 62
     7
100
AcDbLine
 10
564.8131093424516
 20
79.26271582303073
 30
0.0
 11
564.8131093424516
 21
85.26271582303073
 31
0.0
  0
LINE
  5
18942
330
18
100
AcDbEntity
  8
1
  6
CONTINUOUS
 62
     7
100
AcDbLine
 10
564.8131093424516
 20
79.26271582303073
 30
0.0
 11
561.8131093424516
 21
79.26271582303073
 31
0.0
  0
LINE
  5
18943
330
18
100
AcDbEntity
  8
1
  6
CONTINUOUS
 62
     7
100
AcDbLine
 10
561.8131093424516
 20
79.26271582303073
 30
0.0
 11
561.8131093424516
 21
66.11271582303075
 31
0.0
  0
LINE
  5
18944
330
18
100
AcDbEntity
  8
1
  6
CONTINUOUS
 62
     7
100
AcDbLine
 10
551.0131093424517
 20
66.11271582303075
 30
0.0
 11
561.8131093424516
 21
66.11271582303075
 31
0.0
  0
LINE
  5
18945
330
18
100
AcDbEntity
  8
1
  6
CONTINUOUS
 62
     7
100
AcDbLine
 10
551.0131093424517
 20
68.61271582303075
 30
0.0
 11
551.0131093424517
 21
66.11271582303075
 31
0.0
  0
LINE
  5
18946
330
18
100
AcDbEntity
  8
1
  6
CONTINUOUS
 62
     7
100
AcDbLine
 10
557.8131093424516
 20
68.61271582303075
 30
0.0
 11
551.0131093424517
 21
68.61271582303075
 31
0.0
  0
LINE
  5
18947
330
18
100
AcDbEntity
  8
1
  6
CONTINUOUS
 62
     7
100
AcDbLine
 10
557.8131093424516
 20
68.61271582303075
 30
0.0
 11
557.8131093424516
 21
80.9377158230308
 31
0.0
  0
LINE
  5
18948
330
18
100
AcDbEntity
  8
1
  6
CONTINUOUS
 62
     7
100
AcDbLine
 10
551.0131093424517
 20
80.9377158230308
 30
0.0
 11
557.8131093424516
 21
80.9377158230308
 31
0.0
  0
LINE
  5
18949
330
18
100
AcDbEntity
  8
1
  6
CONTINUOUS
 62
     7
100
AcDbLine
 10
551.0131093424517
 20
83.58771582303078
 30
0.0
 11
551.0131093424517
 21
80.9377158230308
 31
0.0
  0
LINE
  5
1894A
330
18
100
AcDbEntity
  8
1
  6
CONTINUOUS
 62
     7
100
AcDbLine
 10
557.8131093424516
 20
83.58771582303078
 30
0.0
 11
551.0131093424517
 21
83.58771582303078
 31
0.0
  0
LINE
  5
1894B
330
18
100
AcDbEntity
  8
1
  6
CONTINUOUS
 62
     7
100
AcDbLine
 10
557.8131093424516
 20
83.58771582303078
 30
0.0
 11
557.8131093424516
 21
89.53339109964784
 31
0.0
  0
LINE
  5
1894C
330
18
100
AcDbEntity
  8
1
  6
CONTINUOUS
 62
     7
100
AcDbLine
 10
557.8131093424516
 20
89.53339109964784
 30
0.0
 11
561.8131093424516
 21
89.53339109964784
 31
0.0
  0
CIRCLE
  5
1894D
330
18
100
AcDbEntity
  8
1
  6
CONTINUOUS
 62
     7
100
AcDbCircle
 10
557.3131093424516
 20
67.51271582303085
 30
0.0
 40
0.5
  0
CIRCLE
  5
1894E
330
18
100
AcDbEntity
  8
1
  6
CONTINUOUS
 62
     7
100
AcDbCircle
 10
557.3131093424516
 20
82.26271582303073
 30
0.0
 40
0.5
  0
LINE
  5
1894F
330
18
100
AcDbEntity
  8
1
  6
CONTINUOUS
 62
     7
100
AcDbLine
 10
561.8131093424516
 20
89.53339109964784
 30
0.0
 11
561.8131093424516
 21
85.26271582303073
 31
0.0
  0
LINE
  5
18950
330
18
100
AcDbEntity
  8
1
  6
CONTINUOUS
 62
     7
100
AcDbLine
 10
560.3131093424516
 20
90.16271582303082
 30
0.0
 11
561.8131093424516
 21
90.16271582303082
 31
0.0
  0
ARC
  5
18951
330
18
100
AcDbEntity
  8
1
  6
CONTINUOUS
 62
     7
100
AcDbCircle
 10
559.8131093424516
 20
90.16271582303082
 30
0.0
 40
0.5
100
AcDbArc
 50
0.0
 51
180.0
  0
LINE
  5
18952
330
18
100
AcDbEntity
  8
1
  6
CONTINUOUS
 62
     7
100
AcDbLine
 10
557.8131093424516
 20
90.16271582303082
 30
0.0
 11
559.3131093424516
 21
90.16271582303082
 31
0.0
  0
LINE
  5
18953
330
18
100
AcDbEntity
  8
1
  6
CONTINUOUS
 62
     7
100
AcDbLine
 10
557.8131093424516
 20
90.16271582303082
 30
0.0
 11
557.8131093424516
 21
90.79204054641369
 31
0.0
  0
LINE
  5
18954
330
18
100
AcDbEntity
  8
1
  6
CONTINUOUS
 62
     7
100
AcDbLine
 10
561.8131093424516
 20
90.16271582303082
 30
0.0
 11
561.8131093424516
 21
90.79204054641369
 31
0.0
  0
ARC
  5
18955
330
18
100
AcDbEntity
  8
1
  6
CONTINUOUS
 62
     7
100
AcDbCircle
 10
559.8131093424516
 20
90.16271582303082
 30
0.0
 40
0.5
100
AcDbArc
 50
180.0
 51
0.0
  0
LINE
  5
18956
330
18
100
AcDbEntity
  8
1
  6
CONTINUOUS
 62
     7
100
AcDbLine
 10
557.8131093424516
 20
89.53339109964784
 30
0.0
 11
557.8131093424516
 21
90.16271582303082
 31
0.0
  0
LINE
  5
18957
330
18
100
AcDbEntity
  8
1
  6
CONTINUOUS
 62
     7
100
AcDbLine
 10
561.8131093424516
 20
89.53339109964784
 30
0.0
 11
561.8131093424516
 21
90.16271582303082
 31
0.0
  0
LINE
  5
18958
102
{ACAD_REACTORS
102
}
330
18
100
AcDbEntity
  8
1
  6
CONTINUOUS
 62
     7
100
AcDbLine
 10
564.8131093424516
 20
164.2627158230308
 30
0.0
 11
564.8131093424516
 21
177.4127158230307
 31
0.0
  0
LINE
  5
18959
330
18
100
AcDbEntity
  8
1
  6
CONTINUOUS
 62
     7
100
AcDbLine
 10
564.8131093424516
 20
177.4127158230307
 30
0.0
 11
561.8131093424516
 21
177.4127158230307
 31
0.0
  0
LINE
  5
1895A
102
{ACAD_REACTORS
102
}
330
18
100
AcDbEntity
  8
1
  6
CONTINUOUS
 62
     7
100
AcDbLine
 10
554.8131093424516
 20
174.9127158230307
 30
0.0
 11
554.8131093424516
 21
162.5877158230308
 31
0.0
  0
LINE
  5
1895B
330
18
100
AcDbEntity
  8
1
  6
CONTINUOUS
 62
     7
100
AcDbLine
 10
561.8131093424516
 20
154.0627158230308
 30
0.0
 11
564.8131093424516
 21
154.0627158230308
 31
0.0
  0
LINE
  5
1895C
330
18
100
AcDbEntity
  8
1
  6
CONTINUOUS
 62
     7
100
AcDbLine
 10
564.8131093424516
 20
154.0627158230308
 30
0.0
 11
564.8131093424516
 21
158.2627158230308
 31
0.0
  0
LINE
  5
1895D
330
18
100
AcDbEntity
  8
1
  6
CONTINUOUS
 62
     7
100
AcDbLine
 10
554.8131093424516
 20
154.0627158230308
 30
0.0
 11
557.8131093424516
 21
154.0627158230308
 31
0.0
  0
LINE
  5
1895E
330
18
100
AcDbEntity
  8
1
  6
CONTINUOUS
 62
     7
100
AcDbLine
 10
554.8131093424516
 20
159.9377158230308
 30
0.0
 11
554.8131093424516
 21
154.0627158230308
 31
0.0
  0
LINE
  5
1895F
330
18
100
AcDbEntity
  8
1
  6
CONTINUOUS
 62
     7
100
AcDbLine
 10
564.8131093424516
 20
152.6627158230307
 30
0.0
 11
561.8131093424516
 21
152.6627158230307
 31
0.0
  0
LINE
  5
18960
330
18
100
AcDbEntity
  8
1
  6
CONTINUOUS
 62
     7
100
AcDbLine
 10
564.8131093424516
 20
148.4627158230308
 30
0.0
 11
564.8131093424516
 21
152.6627158230307
 31
0.0
  0
LINE
  5
18961
330
18
100
AcDbEntity
  8
1
  6
CONTINUOUS
 62
     7
100
AcDbLine
 10
554.8131093424516
 20
152.6627158230307
 30
0.0
 11
554.8131093424516
 21
146.7877158230307
 31
0.0
  0
LINE
  5
18962
330
18
100
AcDbEntity
  8
1
  6
CONTINUOUS
 62
     7
100
AcDbLine
 10
557.8131093424516
 20
152.6627158230307
 30
0.0
 11
554.8131093424516
 21
152.6627158230307
 31
0.0
  0
LINE
  5
18963
330
18
100
AcDbEntity
  8
1
  6
CONTINUOUS
 62
     7
100
AcDbLine
 10
561.8131093424516
 20
138.2627158230308
 30
0.0
 11
564.8131093424516
 21
138.2627158230308
 31
0.0
  0
LINE
  5
18964
330
18
100
AcDbEntity
  8
1
  6
CONTINUOUS
 62
     7
100
AcDbLine
 10
564.8131093424516
 20
138.2627158230308
 30
0.0
 11
564.8131093424516
 21
142.4627158230308
 31
0.0
  0
LINE
  5
18965
330
18
100
AcDbEntity
  8
1
  6
CONTINUOUS
 62
     7
100
AcDbLine
 10
554.8131093424516
 20
138.2627158230308
 30
0.0
 11
557.8131093424516
 21
138.2627158230308
 31
0.0
  0
LINE
  5
18966
330
18
100
AcDbEntity
  8
1
  6
CONTINUOUS
 62
     7
100
AcDbLine
 10
554.8131093424516
 20
144.1377158230308
 30
0.0
 11
554.8131093424516
 21
138.2627158230308
 31
0.0
  0
LINE
  5
18967
330
18
100
AcDbEntity
  8
1
  6
CONTINUOUS
 62
     7
100
AcDbLine
 10
564.8131093424516
 20
136.8627158230308
 30
0.0
 11
561.8131093424516
 21
136.8627158230308
 31
0.0
  0
LINE
  5
18968
330
18
100
AcDbEntity
  8
1
  6
CONTINUOUS
 62
     7
100
AcDbLine
 10
564.8131093424516
 20
132.6627158230307
 30
0.0
 11
564.8131093424516
 21
136.8627158230308
 31
0.0
  0
LINE
  5
18969
330
18
100
AcDbEntity
  8
1
  6
CONTINUOUS
 62
     7
100
AcDbLine
 10
554.8131093424516
 20
136.8627158230308
 30
0.0
 11
554.8131093424516
 21
130.9877158230308
 31
0.0
  0
LINE
  5
1896A
330
18
100
AcDbEntity
  8
1
  6
CONTINUOUS
 62
     7
100
AcDbLine
 10
557.8131093424516
 20
136.8627158230308
 30
0.0
 11
554.8131093424516
 21
136.8627158230308
 31
0.0
  0
LINE
  5
1896B
330
18
100
AcDbEntity
  8
1
  6
CONTINUOUS
 62
     7
100
AcDbLine
 10
561.8131093424516
 20
122.4627158230308
 30
0.0
 11
564.8131093424516
 21
122.4627158230308
 31
0.0
  0
LINE
  5
1896C
330
18
100
AcDbEntity
  8
1
  6
CONTINUOUS
 62
     7
100
AcDbLine
 10
564.8131093424516
 20
122.4627158230308
 30
0.0
 11
564.8131093424516
 21
126.6627158230307
 31
0.0
  0
LINE
  5
1896D
330
18
100
AcDbEntity
  8
1
  6
CONTINUOUS
 62
     7
100
AcDbLine
 10
554.8131093424516
 20
122.4627158230308
 30
0.0
 11
557.8131093424516
 21
122.4627158230308
 31
0.0
  0
LINE
  5
1896E
330
18
100
AcDbEntity
  8
1
  6
CONTINUOUS
 62
     7
100
AcDbLine
 10
554.8131093424516
 20
128.3377158230308
 30
0.0
 11
554.8131093424516
 21
122.4627158230308
 31
0.0
  0
LINE
  5
1896F
330
18
100
AcDbEntity
  8
1
  6
CONTINUOUS
 62
     7
100
AcDbLine
 10
564.8131093424516
 20
121.0627158230308
 30
0.0
 11
561.8131093424516
 21
121.0627158230308
 31
0.0
  0
LINE
  5
18970
330
18
100
AcDbEntity
  8
1
  6
CONTINUOUS
 62
     7
100
AcDbLine
 10
564.8131093424516
 20
116.8627158230308
 30
0.0
 11
564.8131093424516
 21
121.0627158230308
 31
0.0
  0
LINE
  5
18971
330
18
100
AcDbEntity
  8
1
  6
CONTINUOUS
 62
     7
100
AcDbLine
 10
554.8131093424516
 20
121.0627158230308
 30
0.0
 11
554.8131093424516
 21
115.1877158230308
 31
0.0
  0
LINE
  5
18972
330
18
100
AcDbEntity
  8
1
  6
CONTINUOUS
 62
     7
100
AcDbLine
 10
557.8131093424516
 20
121.0627158230308
 30
0.0
 11
554.8131093424516
 21
121.0627158230308
 31
0.0
  0
LINE
  5
18973
330
18
100
AcDbEntity
  8
1
  6
CONTINUOUS
 62
     7
100
AcDbLine
 10
561.8131093424516
 20
106.6627158230307
 30
0.0
 11
564.8131093424516
 21
106.6627158230307
 31
0.0
  0
LINE
  5
18974
330
18
100
AcDbEntity
  8
1
  6
CONTINUOUS
 62
     7
100
AcDbLine
 10
564.8131093424516
 20
106.6627158230307
 30
0.0
 11
564.8131093424516
 21
110.8627158230308
 31
0.0
  0
LINE
  5
18975
330
18
100
AcDbEntity
  8
1
  6
CONTINUOUS
 62
     7
100
AcDbLine
 10
554.8131093424516
 20
106.6627158230307
 30
0.0
 11
557.8131093424516
 21
106.6627158230307
 31
0.0
  0
LINE
  5
18976
330
18
100
AcDbEntity
  8
1
  6
CONTINUOUS
 62
     7
100
AcDbLine
 10
554.8131093424516
 20
112.5377158230307
 30
0.0
 11
554.8131093424516
 21
106.6627158230307
 31
0.0
  0
LINE
  5
18977
330
18
100
AcDbEntity
  8
1
  6
CONTINUOUS
 62
     7
100
AcDbLine
 10
564.8131093424516
 20
105.2627158230308
 30
0.0
 11
561.8131093424516
 21
105.2627158230308
 31
0.0
  0
LINE
  5
18978
330
18
100
AcDbEntity
  8
1
  6
CONTINUOUS
 62
     7
100
AcDbLine
 10
564.8131093424516
 20
101.0627158230308
 30
0.0
 11
564.8131093424516
 21
105.2627158230308
 31
0.0
  0
LINE
  5
18979
330
18
100
AcDbEntity
  8
1
  6
CONTINUOUS
 62
     7
100
AcDbLine
 10
554.8131093424516
 20
105.2627158230308
 30
0.0
 11
554.8131093424516
 21
99.38771582303073
 31
0.0
  0
LINE
  5
1897A
330
18
100
AcDbEntity
  8
1
  6
CONTINUOUS
 62
     7
100
AcDbLine
 10
557.8131093424516
 20
105.2627158230308
 30
0.0
 11
554.8131093424516
 21
105.2627158230308
 31
0.0
  0
LINE
  5
1897B
330
18
100
AcDbEntity
  8
1
  6
CONTINUOUS
 62
     7
100
AcDbLine
 10
561.8131093424516
 20
90.86271582303075
 30
0.0
 11
564.8131093424516
 21
90.86271582303075
 31
0.0
  0
LINE
  5
1897C
330
18
100
AcDbEntity
  8
1
  6
CONTINUOUS
 62
     7
100
AcDbLine
 10
564.8131093424516
 20
90.86271582303075
 30
0.0
 11
564.8131093424516
 21
95.0627158230308
 31
0.0
  0
LINE
  5
1897D
330
18
100
AcDbEntity
  8
1
  6
CONTINUOUS
 62
     7
100
AcDbLine
 10
554.8131093424516
 20
90.86271582303075
 30
0.0
 11
557.8131093424516
 21
90.86271582303075
 31
0.0
  0
LINE
  5
1897E
330
18
100
AcDbEntity
  8
1
  6
CONTINUOUS
 62
     7
100
AcDbLine
 10
554.8131093424516
 20
96.73771582303075
 30
0.0
 11
554.8131093424516
 21
90.86271582303075
 31
0.0
  0
LINE
  5
1897F
330
18
100
AcDbEntity
  8
1
  6
CONTINUOUS
 62
     7
100
AcDbLine
 10
564.8131093424516
 20
89.46271582303078
 30
0.0
 11
561.8131093424516
 21
89.46271582303078
 31
0.0
  0
LINE
  5
18980
330
18
100
AcDbEntity
  8
1
  6
CONTINUOUS
 62
     7
100
AcDbLine
 10
564.8131093424516
 20
85.26271582303073
 30
0.0
 11
564.8131093424516
 21
89.46271582303078
 31
0.0
  0
LINE
  5
18981
330
18
100
AcDbEntity
  8
1
  6
CONTINUOUS
 62
     7
100
AcDbLine
 10
554.8131093424516
 20
89.46271582303078
 30
0.0
 11
554.8131093424516
 21
83.58771582303078
 31
0.0
  0
LINE
  5
18982
330
18
100
AcDbEntity
  8
1
  6
CONTINUOUS
 62
     7
100
AcDbLine
 10
557.8131093424516
 20
89.46271582303078
 30
0.0
 11
554.8131093424516
 21
89.46271582303078
 31
0.0
  0
LINE
  5
18983
330
18
100
AcDbEntity
  8
1
  6
CONTINUOUS
 62
     7
100
AcDbLine
 10
561.8131093424516
 20
66.11271582303075
 30
0.0
 11
564.8131093424516
 21
66.11271582303075
 31
0.0
  0
LINE
  5
18984
102
{ACAD_REACTORS
102
}
330
18
100
AcDbEntity
  8
1
  6
CONTINUOUS
 62
     7
100
AcDbLine
 10
564.8131093424516
 20
66.11271582303075
 30
0.0
 11
564.8131093424516
 21
79.26271582303073
 31
0.0
  0
LINE
  5
18985
330
18
100
AcDbEntity
  8
1
  6
CONTINUOUS
 62
     7
100
AcDbLine
 10
554.8131093424516
 20
80.9377158230308
 30
0.0
 11
554.8131093424516
 21
68.61271582303075
 31
0.0
  0
LINE
  5
18986
330
18
100
AcDbEntity
  8
1
  6
CONTINUOUS
 62
     7
100
AcDbLine
 10
552.3131093424516
 20
177.0127158230308
 30
0.0
 11
552.3131093424516
 21
176.4377158230308
 31
0.0
  0
LINE
  5
18987
330
18
100
AcDbEntity
  8
1
  6
CONTINUOUS
 62
     7
100
AcDbLine
 10
551.5131093424517
 20
176.4377158230308
 30
0.0
 11
552.3131093424516
 21
176.4377158230308
 31
0.0
  0
LINE
  5
18988
330
18
100
AcDbEntity
  8
1
  6
CONTINUOUS
 62
     7
100
AcDbLine
 10
551.5131093424517
 20
177.0127158230308
 30
0.0
 11
551.5131093424517
 21
176.4377158230308
 31
0.0
  0
LINE
  5
18989
330
18
100
AcDbEntity
  8
1
  6
CONTINUOUS
 62
     7
100
AcDbLine
 10
551.5131093424517
 20
177.0127158230308
 30
0.0
 11
552.3131093424516
 21
177.0127158230308
 31
0.0
  0
LINE
  5
1898A
330
18
100
AcDbEntity
  8
1
  6
CONTINUOUS
 62
     7
100
AcDbLine
 10
552.3131093424516
 20
176.4377158230308
 30
0.0
 11
552.3131093424516
 21
176.0877158230308
 31
0.0
  0
LINE
  5
1898B
330
18
100
AcDbEntity
  8
1
  6
CONTINUOUS
 62
     7
100
AcDbLine
 10
551.5131093424517
 20
176.0877158230308
 30
0.0
 11
552.3131093424516
 21
176.0877158230308
 31
0.0
  0
LINE
  5
1898C
330
18
100
AcDbEntity
  8
1
  6
CONTINUOUS
 62
     7
100
AcDbLine
 10
551.5131093424517
 20
176.4377158230308
 30
0.0
 11
551.5131093424517
 21
176.0877158230308
 31
0.0
  0
LINE
  5
1898D
330
18
100
AcDbEntity
  8
1
  6
CONTINUOUS
 62
     7
100
AcDbLine
 10
551.5131093424517
 20
175.5127158230308
 30
0.0
 11
552.3131093424516
 21
175.5127158230308
 31
0.0
  0
LINE
  5
1898E
330
18
100
AcDbEntity
  8
1
  6
CONTINUOUS
 62
     7
100
AcDbLine
 10
551.5131093424517
 20
176.0877158230308
 30
0.0
 11
551.5131093424517
 21
175.5127158230308
 31
0.0
  0
LINE
  5
1898F
330
18
100
AcDbEntity
  8
1
  6
CONTINUOUS
 62
     7
100
AcDbLine
 10
552.3131093424516
 20
176.0877158230308
 30
0.0
 11
552.3131093424516
 21
175.5127158230308
 31
0.0
  0
LINE
  5
18990
330
18
100
AcDbEntity
  8
1
  6
CONTINUOUS
 62
     7
100
AcDbLine
 10
552.3131093424516
 20
162.0127158230307
 30
0.0
 11
552.3131093424516
 21
161.4377158230308
 31
0.0
  0
LINE
  5
18991
330
18
100
AcDbEntity
  8
1
  6
CONTINUOUS
 62
     7
100
AcDbLine
 10
551.5131093424517
 20
161.4377158230308
 30
0.0
 11
552.3131093424516
 21
161.4377158230308
 31
0.0
  0
LINE
  5
18992
330
18
100
AcDbEntity
  8
1
  6
CONTINUOUS
 62
     7
100
AcDbLine
 10
551.5131093424517
 20
162.0127158230307
 30
0.0
 11
551.5131093424517
 21
161.4377158230308
 31
0.0
  0
LINE
  5
18993
330
18
100
AcDbEntity
  8
1
  6
CONTINUOUS
 62
     7
100
AcDbLine
 10
551.5131093424517
 20
162.0127158230307
 30
0.0
 11
552.3131093424516
 21
162.0127158230307
 31
0.0
  0
LINE
  5
18994
330
18
100
AcDbEntity
  8
1
  6
CONTINUOUS
 62
     7
100
AcDbLine
 10
552.3131093424516
 20
161.4377158230308
 30
0.0
 11
552.3131093424516
 21
161.0877158230308
 31
0.0
  0
LINE
  5
18995
330
18
100
AcDbEntity
  8
1
  6
CONTINUOUS
 62
     7
100
AcDbLine
 10
551.5131093424517
 20
161.0877158230308
 30
0.0
 11
552.3131093424516
 21
161.0877158230308
 31
0.0
  0
LINE
  5
18996
330
18
100
AcDbEntity
  8
1
  6
CONTINUOUS
 62
     7
100
AcDbLine
 10
551.5131093424517
 20
161.4377158230308
 30
0.0
 11
551.5131093424517
 21
161.0877158230308
 31
0.0
  0
LINE
  5
18997
330
18
100
AcDbEntity
  8
1
  6
CONTINUOUS
 62
     7
100
AcDbLine
 10
551.5131093424517
 20
160.5127158230308
 30
0.0
 11
552.3131093424516
 21
160.5127158230308
 31
0.0
  0
LINE
  5
18998
330
18
100
AcDbEntity
  8
1
  6
CONTINUOUS
 62
     7
100
AcDbLine
 10
551.5131093424517
 20
161.0877158230308
 30
0.0
 11
551.5131093424517
 21
160.5127158230308
 31
0.0
  0
LINE
  5
18999
330
18
100
AcDbEntity
  8
1
  6
CONTINUOUS
 62
     7
100
AcDbLine
 10
552.3131093424516
 20
161.0877158230308
 30
0.0
 11
552.3131093424516
 21
160.5127158230308
 31
0.0
  0
LINE
  5
1899A
330
18
100
AcDbEntity
  8
1
  6
CONTINUOUS
 62
     7
100
AcDbLine
 10
552.3131093424516
 20
146.2127158230308
 30
0.0
 11
552.3131093424516
 21
145.6377158230308
 31
0.0
  0
LINE
  5
1899B
330
18
100
AcDbEntity
  8
1
  6
CONTINUOUS
 62
     7
100
AcDbLine
 10
551.5131093424517
 20
145.6377158230308
 30
0.0
 11
552.3131093424516
 21
145.6377158230308
 31
0.0
  0
LINE
  5
1899C
330
18
100
AcDbEntity
  8
1
  6
CONTINUOUS
 62
     7
100
AcDbLine
 10
551.5131093424517
 20
146.2127158230308
 30
0.0
 11
551.5131093424517
 21
145.6377158230308
 31
0.0
  0
LINE
  5
1899D
330
18
100
AcDbEntity
  8
1
  6
CONTINUOUS
 62
     7
100
AcDbLine
 10
551.5131093424517
 20
146.2127158230308
 30
0.0
 11
552.3131093424516
 21
146.2127158230308
 31
0.0
  0
LINE
  5
1899E
330
18
100
AcDbEntity
  8
1
  6
CONTINUOUS
 62
     7
100
AcDbLine
 10
552.3131093424516
 20
145.6377158230308
 30
0.0
 11
552.3131093424516
 21
145.2877158230307
 31
0.0
  0
LINE
  5
1899F
330
18
100
AcDbEntity
  8
1
  6
CONTINUOUS
 62
     7
100
AcDbLine
 10
551.5131093424517
 20
145.2877158230307
 30
0.0
 11
552.3131093424516
 21
145.2877158230307
 31
0.0
  0
LINE
  5
189A0
330
18
100
AcDbEntity
  8
1
  6
CONTINUOUS
 62
     7
100
AcDbLine
 10
551.5131093424517
 20
145.6377158230308
 30
0.0
 11
551.5131093424517
 21
145.2877158230307
 31
0.0
  0
LINE
  5
189A1
330
18
100
AcDbEntity
  8
1
  6
CONTINUOUS
 62
     7
100
AcDbLine
 10
551.5131093424517
 20
144.7127158230308
 30
0.0
 11
552.3131093424516
 21
144.7127158230308
 31
0.0
  0
LINE
  5
189A2
330
18
100
AcDbEntity
  8
1
  6
CONTINUOUS
 62
     7
100
AcDbLine
 10
551.5131093424517
 20
145.2877158230307
 30
0.0
 11
551.5131093424517
 21
144.7127158230308
 31
0.0
  0
LINE
  5
189A3
330
18
100
AcDbEntity
  8
1
  6
CONTINUOUS
 62
     7
100
AcDbLine
 10
552.3131093424516
 20
145.2877158230307
 30
0.0
 11
552.3131093424516
 21
144.7127158230308
 31
0.0
  0
LINE
  5
189A4
330
18
100
AcDbEntity
  8
1
  6
CONTINUOUS
 62
     7
100
AcDbLine
 10
552.3131093424516
 20
130.4127158230307
 30
0.0
 11
552.3131093424516
 21
129.8377158230308
 31
0.0
  0
LINE
  5
189A5
330
18
100
AcDbEntity
  8
1
  6
CONTINUOUS
 62
     7
100
AcDbLine
 10
551.5131093424517
 20
129.8377158230308
 30
0.0
 11
552.3131093424516
 21
129.8377158230308
 31
0.0
  0
LINE
  5
189A6
330
18
100
AcDbEntity
  8
1
  6
CONTINUOUS
 62
     7
100
AcDbLine
 10
551.5131093424517
 20
130.4127158230307
 30
0.0
 11
551.5131093424517
 21
129.8377158230308
 31
0.0
  0
LINE
  5
189A7
330
18
100
AcDbEntity
  8
1
  6
CONTINUOUS
 62
     7
100
AcDbLine
 10
551.5131093424517
 20
130.4127158230307
 30
0.0
 11
552.3131093424516
 21
130.4127158230307
 31
0.0
  0
LINE
  5
189A8
330
18
100
AcDbEntity
  8
1
  6
CONTINUOUS
 62
     7
100
AcDbLine
 10
552.3131093424516
 20
129.8377158230308
 30
0.0
 11
552.3131093424516
 21
129.4877158230308
 31
0.0
  0
LINE
  5
189A9
330
18
100
AcDbEntity
  8
1
  6
CONTINUOUS
 62
     7
100
AcDbLine
 10
551.5131093424517
 20
129.4877158230308
 30
0.0
 11
552.3131093424516
 21
129.4877158230308
 31
0.0
  0
LINE
  5
189AA
330
18
100
AcDbEntity
  8
1
  6
CONTINUOUS
 62
     7
100
AcDbLine
 10
551.5131093424517
 20
129.8377158230308
 30
0.0
 11
551.5131093424517
 21
129.4877158230308
 31
0.0
  0
LINE
  5
189AB
330
18
100
AcDbEntity
  8
1
  6
CONTINUOUS
 62
     7
100
AcDbLine
 10
551.5131093424517
 20
128.9127158230307
 30
0.0
 11
552.3131093424516
 21
128.9127158230307
 31
0.0
  0
LINE
  5
189AC
330
18
100
AcDbEntity
  8
1
  6
CONTINUOUS
 62
     7
100
AcDbLine
 10
551.5131093424517
 20
129.4877158230308
 30
0.0
 11
551.5131093424517
 21
128.9127158230307
 31
0.0
  0
LINE
  5
189AD
330
18
100
AcDbEntity
  8
1
  6
CONTINUOUS
 62
     7
100
AcDbLine
 10
552.3131093424516
 20
129.4877158230308
 30
0.0
 11
552.3131093424516
 21
128.9127158230307
 31
0.0
  0
LINE
  5
189AE
330
18
100
AcDbEntity
  8
1
  6
CONTINUOUS
 62
     7
100
AcDbLine
 10
552.3131093424516
 20
114.6127158230308
 30
0.0
 11
552.3131093424516
 21
114.0377158230307
 31
0.0
  0
LINE
  5
189AF
330
18
100
AcDbEntity
  8
1
  6
CONTINUOUS
 62
     7
100
AcDbLine
 10
551.5131093424517
 20
114.0377158230307
 30
0.0
 11
552.3131093424516
 21
114.0377158230307
 31
0.0
  0
LINE
  5
189B0
330
18
100
AcDbEntity
  8
1
  6
CONTINUOUS
 62
     7
100
AcDbLine
 10
551.5131093424517
 20
114.6127158230308
 30
0.0
 11
551.5131093424517
 21
114.0377158230307
 31
0.0
  0
LINE
  5
189B1
330
18
100
AcDbEntity
  8
1
  6
CONTINUOUS
 62
     7
100
AcDbLine
 10
551.5131093424517
 20
114.6127158230308
 30
0.0
 11
552.3131093424516
 21
114.6127158230308
 31
0.0
  0
LINE
  5
189B2
330
18
100
AcDbEntity
  8
1
  6
CONTINUOUS
 62
     7
100
AcDbLine
 10
551.5131093424517
 20
113.6877158230308
 30
0.0
 11
552.3131093424516
 21
113.6877158230308
 31
0.0
  0
LINE
  5
189B3
330
18
100
AcDbEntity
  8
1
  6
CONTINUOUS
 62
     7
100
AcDbLine
 10
551.5131093424517
 20
114.0377158230307
 30
0.0
 11
551.5131093424517
 21
113.6877158230308
 31
0.0
  0
LINE
  5
189B4
330
18
100
AcDbEntity
  8
1
  6
CONTINUOUS
 62
     7
100
AcDbLine
 10
552.3131093424516
 20
114.0377158230307
 30
0.0
 11
552.3131093424516
 21
113.6877158230308
 31
0.0
  0
LINE
  5
189B5
330
18
100
AcDbEntity
  8
1
  6
CONTINUOUS
 62
     7
100
AcDbLine
 10
551.5131093424517
 20
113.1127158230308
 30
0.0
 11
552.3131093424516
 21
113.1127158230308
 31
0.0
  0
LINE
  5
189B6
330
18
100
AcDbEntity
  8
1
  6
CONTINUOUS
 62
     7
100
AcDbLine
 10
551.5131093424517
 20
113.6877158230308
 30
0.0
 11
551.5131093424517
 21
113.1127158230308
 31
0.0
  0
LINE
  5
189B7
330
18
100
AcDbEntity
  8
1
  6
CONTINUOUS
 62
     7
100
AcDbLine
 10
552.3131093424516
 20
113.6877158230308
 30
0.0
 11
552.3131093424516
 21
113.1127158230308
 31
0.0
  0
LINE
  5
189B8
330
18
100
AcDbEntity
  8
1
  6
CONTINUOUS
 62
     7
100
AcDbLine
 10
552.3131093424516
 20
98.8127158230308
 30
0.0
 11
552.3131093424516
 21
98.23771582303075
 31
0.0
  0
LINE
  5
189B9
330
18
100
AcDbEntity
  8
1
  6
CONTINUOUS
 62
     7
100
AcDbLine
 10
551.5131093424517
 20
98.23771582303075
 30
0.0
 11
552.3131093424516
 21
98.23771582303075
 31
0.0
  0
LINE
  5
189BA
330
18
100
AcDbEntity
  8
1
  6
CONTINUOUS
 62
     7
100
AcDbLine
 10
551.5131093424517
 20
98.8127158230308
 30
0.0
 11
551.5131093424517
 21
98.23771582303075
 31
0.0
  0
LINE
  5
189BB
330
18
100
AcDbEntity
  8
1
  6
CONTINUOUS
 62
     7
100
AcDbLine
 10
551.5131093424517
 20
98.8127158230308
 30
0.0
 11
552.3131093424516
 21
98.8127158230308
 31
0.0
  0
LINE
  5
189BC
330
18
100
AcDbEntity
  8
1
  6
CONTINUOUS
 62
     7
100
AcDbLine
 10
552.3131093424516
 20
98.23771582303075
 30
0.0
 11
552.3131093424516
 21
97.88771582303073
 31
0.0
  0
LINE
  5
189BD
330
18
100
AcDbEntity
  8
1
  6
CONTINUOUS
 62
     7
100
AcDbLine
 10
551.5131093424517
 20
97.88771582303073
 30
0.0
 11
552.3131093424516
 21
97.88771582303073
 31
0.0
  0
LINE
  5
189BE
330
18
100
AcDbEntity
  8
1
  6
CONTINUOUS
 62
     7
100
AcDbLine
 10
551.5131093424517
 20
98.23771582303075
 30
0.0
 11
551.5131093424517
 21
97.88771582303073
 31
0.0
  0
LINE
  5
189BF
330
18
100
AcDbEntity
  8
1
  6
CONTINUOUS
 62
     7
100
AcDbLine
 10
551.5131093424517
 20
97.3127158230308
 30
0.0
 11
552.3131093424516
 21
97.3127158230308
 31
0.0
  0
LINE
  5
189C0
330
18
100
AcDbEntity
  8
1
  6
CONTINUOUS
 62
     7
100
AcDbLine
 10
551.5131093424517
 20
97.88771582303073
 30
0.0
 11
551.5131093424517
 21
97.3127158230308
 31
0.0
  0
LINE
  5
189C1
330
18
100
AcDbEntity
  8
1
  6
CONTINUOUS
 62
     7
100
AcDbLine
 10
552.3131093424516
 20
97.88771582303073
 30
0.0
 11
552.3131093424516
 21
97.3127158230308
 31
0.0
  0
LINE
  5
189C2
330
18
100
AcDbEntity
  8
1
  6
CONTINUOUS
 62
     7
100
AcDbLine
 10
552.3131093424516
 20
83.01271582303073
 30
0.0
 11
552.3131093424516
 21
82.4377158230308
 31
0.0
  0
LINE
  5
189C3
330
18
100
AcDbEntity
  8
1
  6
CONTINUOUS
 62
     7
100
AcDbLine
 10
551.5131093424517
 20
82.4377158230308
 30
0.0
 11
552.3131093424516
 21
82.4377158230308
 31
0.0
  0
LINE
  5
189C4
330
18
100
AcDbEntity
  8
1
  6
CONTINUOUS
 62
     7
100
AcDbLine
 10
551.5131093424517
 20
83.01271582303073
 30
0.0
 11
551.5131093424517
 21
82.4377158230308
 31
0.0
  0
LINE
  5
189C5
330
18
100
AcDbEntity
  8
1
  6
CONTINUOUS
 62
     7
100
AcDbLine
 10
551.5131093424517
 20
83.01271582303073
 30
0.0
 11
552.3131093424516
 21
83.01271582303073
 31
0.0
  0
LINE
  5
189C6
330
18
100
AcDbEntity
  8
1
  6
CONTINUOUS
 62
     7
100
AcDbLine
 10
551.5131093424517
 20
82.08771582303078
 30
0.0
 11
552.3131093424516
 21
82.08771582303078
 31
0.0
  0
LINE
  5
189C7
330
18
100
AcDbEntity
  8
1
  6
CONTINUOUS
 62
     7
100
AcDbLine
 10
551.5131093424517
 20
82.4377158230308
 30
0.0
 11
551.5131093424517
 21
82.08771582303078
 31
0.0
  0
LINE
  5
189C8
330
18
100
AcDbEntity
  8
1
  6
CONTINUOUS
 62
     7
100
AcDbLine
 10
552.3131093424516
 20
82.4377158230308
 30
0.0
 11
552.3131093424516
 21
82.08771582303078
 31
0.0
  0
LINE
  5
189C9
330
18
100
AcDbEntity
  8
1
  6
CONTINUOUS
 62
     7
100
AcDbLine
 10
551.5131093424517
 20
81.51271582303085
 30
0.0
 11
552.3131093424516
 21
81.51271582303073
 31
0.0
  0
LINE
  5
189CA
330
18
100
AcDbEntity
  8
1
  6
CONTINUOUS
 62
     7
100
AcDbLine
 10
551.5131093424517
 20
82.08771582303078
 30
0.0
 11
551.5131093424517
 21
81.51271582303085
 31
0.0
  0
LINE
  5
189CB
330
18
100
AcDbEntity
  8
1
  6
CONTINUOUS
 62
     7
100
AcDbLine
 10
552.3131093424516
 20
82.08771582303078
 30
0.0
 11
552.3131093424516
 21
81.51271582303073
 31
0.0
  0
LINE
  5
189CC
330
18
100
AcDbEntity
  8
1
  6
CONTINUOUS
 62
     7
100
AcDbLine
 10
551.5131093424517
 20
68.01271582303085
 30
0.0
 11
552.3131093424516
 21
68.01271582303085
 31
0.0
  0
LINE
  5
189CD
330
18
100
AcDbEntity
  8
1
  6
CONTINUOUS
 62
     7
100
AcDbLine
 10
552.3131093424516
 20
67.4377158230308
 30
0.0
 11
552.3131093424516
 21
68.01271582303085
 31
0.0
  0
LINE
  5
189CE
330
18
100
AcDbEntity
  8
1
  6
CONTINUOUS
 62
     7
100
AcDbLine
 10
551.5131093424517
 20
67.4377158230308
 30
0.0
 11
552.3131093424516
 21
67.4377158230308
 31
0.0
  0
LINE
  5
189CF
330
18
100
AcDbEntity
  8
1
  6
CONTINUOUS
 62
     7
100
AcDbLine
 10
551.5131093424517
 20
67.4377158230308
 30
0.0
 11
551.5131093424517
 21
68.01271582303085
 31
0.0
  0
LINE
  5
189D0
330
18
100
AcDbEntity
  8
1
  6
CONTINUOUS
 62
     7
100
AcDbLine
 10
552.3131093424516
 20
67.08771582303078
 30
0.0
 11
552.3131093424516
 21
67.4377158230308
 31
0.0
  0
LINE
  5
189D1
330
18
100
AcDbEntity
  8
1
  6
CONTINUOUS
 62
     7
100
AcDbLine
 10
551.5131093424517
 20
67.08771582303078
 30
0.0
 11
552.3131093424516
 21
67.08771582303078
 31
0.0
  0
LINE
  5
189D2
330
18
100
AcDbEntity
  8
1
  6
CONTINUOUS
 62
     7
100
AcDbLine
 10
551.5131093424517
 20
67.08771582303078
 30
0.0
 11
551.5131093424517
 21
67.4377158230308
 31
0.0
  0
LINE
  5
189D3
330
18
100
AcDbEntity
  8
1
  6
CONTINUOUS
 62
     7
100
AcDbLine
 10
551.5131093424517
 20
66.51271582303085
 30
0.0
 11
552.3131093424516
 21
66.51271582303085
 31
0.0
  0
LINE
  5
189D4
330
18
100
AcDbEntity
  8
1
  6
CONTINUOUS
 62
     7
100
AcDbLine
 10
551.5131093424517
 20
66.51271582303085
 30
0.0
 11
551.5131093424517
 21
67.08771582303078
 31
0.0
  0
LINE
  5
189D5
330
18
100
AcDbEntity
  8
1
  6
CONTINUOUS
 62
     7
100
AcDbLine
 10
552.3131093424516
 20
66.51271582303085
 30
0.0
 11
552.3131093424516
 21
67.08771582303078
 31
0.0
  0
LINE
  5
189D6
330
18
100
AcDbEntity
  8
1
  6
CONTINUOUS
 62
     7
100
AcDbLine
 10
551.0131093424517
 20
222.2855851713645
 30
0.0
 11
551.0131093424517
 21
225.2855851713645
 31
0.0
  0
LINE
  5
189D7
330
18
100
AcDbEntity
  8
1
  6
CONTINUOUS
 62
     7
100
AcDbLine
 10
564.8131093424516
 20
223.2855851713645
 30
0.0
 11
561.8131093424516
 21
223.2855851713645
 31
0.0
  0
LINE
  5
189D8
330
18
100
AcDbEntity
  8
1
  6
CONTINUOUS
 62
     7
100
AcDbLine
 10
561.8131093424516
 20
224.2855851713645
 30
0.0
 11
564.8131093424516
 21
224.2855851713645
 31
0.0
  0
LINE
  5
189D9
330
18
100
AcDbEntity
  8
1
  6
CONTINUOUS
 62
     7
100
AcDbLine
 10
561.8131093424516
 20
224.2855851713645
 30
0.0
 11
561.8131093424516
 21
225.2855851713645
 31
0.0
  0
LINE
  5
189DA
330
18
100
AcDbEntity
  8
1
  6
CONTINUOUS
 62
     7
100
AcDbLine
 10
551.0131093424517
 20
225.2855851713645
 30
0.0
 11
561.8131093424516
 21
225.2855851713645
 31
0.0
  0
LINE
  5
189DB
330
18
100
AcDbEntity
  8
1
  6
CONTINUOUS
 62
     7
100
AcDbLine
 10
551.0131093424517
 20
222.2855851713645
 30
0.0
 11
561.8131093424516
 21
222.2855851713645
 31
0.0
  0
LINE
  5
189DC
330
18
100
AcDbEntity
  8
1
  6
CONTINUOUS
 62
     7
100
AcDbLine
 10
564.8131093424516
 20
223.2855851713645
 30
0.0
 11
564.8131093424516
 21
224.2855851713645
 31
0.0
  0
LINE
  5
189DD
330
18
100
AcDbEntity
  8
1
  6
CONTINUOUS
 62
     7
100
AcDbLine
 10
561.8131093424516
 20
223.2855851713645
 30
0.0
 11
561.8131093424516
 21
222.2855851713645
 31
0.0
  0
LINE
  5
189DE
330
18
100
AcDbEntity
  8
1
  6
CONTINUOUS
 62
     7
100
AcDbLine
 10
564.8131093424516
 20
225.2855851713645
 30
0.0
 11
561.8131093424516
 21
225.2855851713645
 31
0.0
  0
LINE
  5
189DF
330
18
100
AcDbEntity
  8
1
  6
CONTINUOUS
 62
     7
100
AcDbLine
 10
564.8131093424516
 20
224.2855851713645
 30
0.0
 11
564.8131093424516
 21
225.2855851713645
 31
0.0
  0
LINE
  5
189E0
330
18
100
AcDbEntity
  8
1
  6
CONTINUOUS
 62
     7
100
AcDbLine
 10
561.8131093424516
 20
222.2855851713645
 30
0.0
 11
564.8131093424516
 21
222.2855851713645
 31
0.0
  0
LINE
  5
189E1
330
18
100
AcDbEntity
  8
1
  6
CONTINUOUS
 62
     7
100
AcDbLine
 10
564.8131093424516
 20
223.2855851713645
 30
0.0
 11
564.8131093424516
 21
222.2855851713645
 31
0.0
  0
LINE
  5
189EB
330
18
100
AcDbEntity
  8
1
  6
CONTINUOUS
 62
     7
100
AcDbLine
 10
551.5131093424517
 20
232.429501618847
 30
0.0
 11
552.3131093424516
 21
232.429501618847
 31
0.0
  0
LINE
  5
189EC
330
18
100
AcDbEntity
  8
1
  6
CONTINUOUS
 62
     7
100
AcDbLine
 10
551.5131093424517
 20
232.429501618847
 30
0.0
 11
551.5131093424517
 21
225.2855851713645
 31
0.0
  0
LINE
  5
189ED
330
18
100
AcDbEntity
  8
1
  6
CONTINUOUS
 62
     7
100
AcDbLine
 10
552.3131093424516
 20
232.429501618847
 30
0.0
 11
552.3131093378839
 21
225.2855851713645
 31
0.0
  0
LINE
  5
189EE
330
18
100
AcDbEntity
  8
1
  6
CONTINUOUS
 62
     7
100
AcDbLine
 10
551.5131093424517
 20
233.529501618847
 30
0.0
 11
552.3131093424516
 21
233.5295016188469
 31
0.0
  0
LINE
  5
189EF
330
18
100
AcDbEntity
  8
1
  6
CONTINUOUS
 62
     7
100
AcDbLine
 10
551.5131093424517
 20
232.429501618847
 30
0.0
 11
551.5131093424517
 21
233.529501618847
 31
0.0
  0
LINE
  5
189F0
330
18
100
AcDbEntity
  8
1
  6
CONTINUOUS
 62
     7
100
AcDbLine
 10
552.3131093424516
 20
232.429501618847
 30
0.0
 11
552.3131093424516
 21
233.5295016188469
 31
0.0
  0
LINE
  5
189F1
330
18
100
AcDbEntity
  8
OSIE
100
AcDbLine
 10
570.9428597308496
 20
121.7627158230307
 30
0.0
 11
546.8921905036032
 21
121.7627158230307
 31
0.0
  0
LINE
  5
189F2
330
18
100
AcDbEntity
  8
OSIE
100
AcDbLine
 10
556.3093450134097
 20
67.51271582303085
 30
0.0
 11
558.3168736714935
 21
67.51271582303085
 31
0.0
  0
LINE
  5
189F3
330
18
100
AcDbEntity
  8
OSIE
100
AcDbLine
 10
557.3131093424516
 20
68.51648015207272
 30
0.0
 11
557.3131093424516
 21
66.50895149398897
 31
0.0
  0
LINE
  5
189F4
330
18
100
AcDbEntity
  8
OSIE
100
AcDbLine
 10
558.8093450134097
 20
74.36271582303075
 30
0.0
 11
560.8168736714935
 21
74.36271582303075
 31
0.0
  0
LINE
  5
189F5
330
18
100
AcDbEntity
  8
OSIE
100
AcDbLine
 10
559.8131093424516
 20
75.36648015207263
 30
0.0
 11
559.8131093424516
 21
73.35895149398888
 31
0.0
  0
LINE
  5
189F8
330
18
100
AcDbEntity
  8
OSIE
100
AcDbLine
 10
556.3093450134097
 20
82.26271582303073
 30
0.0
 11
558.3168736714935
 21
82.26271582303073
 31
0.0
  0
LINE
  5
189F9
330
18
100
AcDbEntity
  8
OSIE
100
AcDbLine
 10
557.3131093424516
 20
83.2664801520726
 30
0.0
 11
557.3131093424516
 21
81.25895149398886
 31
0.0
  0
LINE
  5
189FA
330
18
100
AcDbEntity
  8
OSIE
100
AcDbLine
 10
558.8093450134097
 20
90.16271582303082
 30
0.0
 11
560.8168736714935
 21
90.16271582303082
 31
0.0
  0
LINE
  5
189FB
330
18
100
AcDbEntity
  8
OSIE
100
AcDbLine
 10
559.8131093424516
 20
91.1664801520727
 30
0.0
 11
559.8131093424516
 21
89.15895149398895
 31
0.0
  0
LINE
  5
189FC
330
18
100
AcDbEntity
  8
OSIE
100
AcDbLine
 10
556.3093450134097
 20
98.0627158230308
 30
0.0
 11
558.3168736714935
 21
98.0627158230308
 31
0.0
  0
LINE
  5
189FD
330
18
100
AcDbEntity
  8
OSIE
100
AcDbLine
 10
557.3131093424516
 20
99.06648015207267
 30
0.0
 11
557.3131093424516
 21
97.05895149398893
 31
0.0
  0
LINE
  5
189FE
330
18
100
AcDbEntity
  8
OSIE
100
AcDbLine
 10
558.8093450134097
 20
105.9627158230308
 30
0.0
 11
560.8168736714935
 21
105.9627158230308
 31
0.0
  0
LINE
  5
189FF
330
18
100
AcDbEntity
  8
OSIE
100
AcDbLine
 10
559.8131093424516
 20
106.9664801520726
 30
0.0
 11
559.8131093424516
 21
104.9589514939889
 31
0.0
  0
LINE
  5
18A00
330
18
100
AcDbEntity
  8
OSIE
100
AcDbLine
 10
556.3093450134097
 20
113.8627158230308
 30
0.0
 11
558.3168736714935
 21
113.8627158230308
 31
0.0
  0
LINE
  5
18A01
330
18
100
AcDbEntity
  8
OSIE
100
AcDbLine
 10
557.3131093424516
 20
114.8664801520726
 30
0.0
 11
557.3131093424516
 21
112.8589514939889
 31
0.0
  0
LINE
  5
18A02
330
18
100
AcDbEntity
  8
OSIE
100
AcDbLine
 10
558.8093450134097
 20
121.7627158230307
 30
0.0
 11
560.8168736714935
 21
121.7627158230307
 31
0.0
  0
LINE
  5
18A03
330
18
100
AcDbEntity
  8
OSIE
100
AcDbLine
 10
559.8131093424516
 20
122.7664801520726
 30
0.0
 11
559.8131093424516
 21
120.7589514939889
 31
0.0
  0
LINE
  5
18A04
330
18
100
AcDbEntity
  8
OSIE
100
AcDbLine
 10
556.3093450134097
 20
129.6627158230307
 30
0.0
 11
558.3168736714935
 21
129.6627158230307
 31
0.0
  0
LINE
  5
18A05
330
18
100
AcDbEntity
  8
OSIE
100
AcDbLine
 10
557.3131093424516
 20
130.6664801520726
 30
0.0
 11
557.3131093424516
 21
128.6589514939888
 31
0.0
  0
LINE
  5
18A06
330
18
100
AcDbEntity
  8
OSIE
100
AcDbLine
 10
558.8093450134097
 20
137.5627158230308
 30
0.0
 11
560.8168736714935
 21
137.5627158230308
 31
0.0
  0
LINE
  5
18A07
330
18
100
AcDbEntity
  8
OSIE
100
AcDbLine
 10
559.8131093424516
 20
138.5664801520727
 30
0.0
 11
559.8131093424516
 21
136.5589514939889
 31
0.0
  0
LINE
  5
18A08
330
18
100
AcDbEntity
  8
OSIE
100
AcDbLine
 10
556.3093450134097
 20
145.4627158230308
 30
0.0
 11
558.3168736714935
 21
145.4627158230308
 31
0.0
  0
LINE
  5
18A09
330
18
100
AcDbEntity
  8
OSIE
100
AcDbLine
 10
557.3131093424516
 20
146.4664801520726
 30
0.0
 11
557.3131093424516
 21
144.4589514939889
 31
0.0
  0
LINE
  5
18A0A
330
18
100
AcDbEntity
  8
OSIE
100
AcDbLine
 10
558.8093450134097
 20
153.3627158230308
 30
0.0
 11
560.8168736714935
 21
153.3627158230308
 31
0.0
  0
LINE
  5
18A0B
330
18
100
AcDbEntity
  8
OSIE
100
AcDbLine
 10
559.8131093424516
 20
154.3664801520726
 30
0.0
 11
559.8131093424516
 21
152.3589514939889
 31
0.0
  0
LINE
  5
18A0C
330
18
100
AcDbEntity
  8
OSIE
100
AcDbLine
 10
556.3093450134097
 20
161.2627158230308
 30
0.0
 11
558.3168736714935
 21
161.2627158230308
 31
0.0
  0
LINE
  5
18A0D
330
18
100
AcDbEntity
  8
OSIE
100
AcDbLine
 10
557.3131093424516
 20
162.2664801520727
 30
0.0
 11
557.3131093424516
 21
160.258951493989
 31
0.0
  0
LINE
  5
18A0E
330
18
100
AcDbEntity
  8
OSIE
100
AcDbLine
 10
558.8093450134097
 20
169.1627158230308
 30
0.0
 11
560.8168736714935
 21
169.1627158230308
 31
0.0
  0
LINE
  5
18A0F
330
18
100
AcDbEntity
  8
OSIE
100
AcDbLine
 10
559.8131093424516
 20
170.1664801520727
 30
0.0
 11
559.8131093424516
 21
168.158951493989
 31
0.0
  0
LINE
  5
18A10
330
18
100
AcDbEntity
  8
OSIE
100
AcDbLine
 10
556.3093450134097
 20
176.0127158230308
 30
0.0
 11
558.3168736714935
 21
176.0127158230308
 31
0.0
  0
LINE
  5
18A11
330
18
100
AcDbEntity
  8
OSIE
100
AcDbLine
 10
557.3131093424516
 20
177.0164801520727
 30
0.0
 11
557.3131093424516
 21
175.008951493989
 31
0.0
  0
LINE
  5
18A12
330
18
100
AcDbEntity
  8
OSIE
100
AcDbLine
 10
550.3550273988643
 20
67.26271582303079
 30
0.0
 11
553.471191286039
 21
67.26271582303079
 31
0.0
  0
LINE
  5
18A14
330
18
100
AcDbEntity
  8
OSIE
100
AcDbLine
 10
550.3550273988643
 20
82.26271582303067
 30
0.0
 11
553.471191286039
 21
82.26271582303067
 31
0.0
  0
LINE
  5
18A15
330
18
100
AcDbEntity
  8
OSIE
100
AcDbLine
 10
550.3550273988643
 20
98.06271582303074
 30
0.0
 11
553.471191286039
 21
98.06271582303074
 31
0.0
  0
LINE
  5
18A16
330
18
100
AcDbEntity
  8
OSIE
100
AcDbLine
 10
550.3550273988643
 20
113.8627158230307
 30
0.0
 11
553.471191286039
 21
113.8627158230307
 31
0.0
  0
LINE
  5
18A17
330
18
100
AcDbEntity
  8
OSIE
100
AcDbLine
 10
550.3550273988643
 20
129.6627158230307
 30
0.0
 11
553.471191286039
 21
129.6627158230307
 31
0.0
  0
LINE
  5
18A18
330
18
100
AcDbEntity
  8
OSIE
100
AcDbLine
 10
550.3550273988643
 20
145.4627158230307
 30
0.0
 11
553.471191286039
 21
145.4627158230307
 31
0.0
  0
LINE
  5
18A19
330
18
100
AcDbEntity
  8
OSIE
100
AcDbLine
 10
550.3550273988643
 20
161.2627158230307
 30
0.0
 11
553.471191286039
 21
161.2627158230307
 31
0.0
  0
LINE
  5
18A1A
330
18
100
AcDbEntity
  8
OSIE
100
AcDbLine
 10
550.3550273988643
 20
176.2627158230308
 30
0.0
 11
553.471191286039
 21
176.2627158230308
 31
0.0
  0
LINE
  5
18A1B
330
18
100
AcDbEntity
  8
OSIE
100
AcDbLine
 10
628.7332487845772
 20
121.7627158230307
 30
0.0
 11
646.350721181692
 21
121.7627158230307
 31
0.0
  0
LINE
  5
18A1C
102
{ACAD_REACTORS
102
}
330
18
100
AcDbEntity
  8
OSIE
100
AcDbLine
 10
643.9793534583986
 20
67.26271582303079
 30
0.0
 11
631.744415119331
 21
67.26271582303079
 31
0.0
  0
LINE
  5
18A1D
102
{ACAD_REACTORS
102
}
330
18
100
AcDbEntity
  8
OSIE
100
AcDbLine
 10
643.9793534583986
 20
82.26271582303079
 30
0.0
 11
631.744415119331
 21
82.26271582303079
 31
0.0
  0
LINE
  5
18A1E
102
{ACAD_REACTORS
102
}
330
18
100
AcDbEntity
  8
OSIE
100
AcDbLine
 10
643.9793534583986
 20
98.06271582303074
 30
0.0
 11
631.744415119331
 21
98.06271582303074
 31
0.0
  0
LINE
  5
18A1F
102
{ACAD_REACTORS
102
}
330
18
100
AcDbEntity
  8
OSIE
100
AcDbLine
 10
643.9793534583986
 20
113.8627158230308
 30
0.0
 11
631.744415119331
 21
113.8627158230308
 31
0.0
  0
LINE
  5
18A20
102
{ACAD_REACTORS
102
}
330
18
100
AcDbEntity
  8
OSIE
100
AcDbLine
 10
643.9793534583986
 20
129.6627158230308
 30
0.0
 11
631.744415119331
 21
129.6627158230308
 31
0.0
  0
LINE
  5
18A21
102
{ACAD_REACTORS
102
}
330
18
100
AcDbEntity
  8
OSIE
100
AcDbLine
 10
643.9793534583986
 20
145.4627158230307
 30
0.0
 11
631.744415119331
 21
145.4627158230307
 31
0.0
  0
LINE
  5
18A22
102
{ACAD_REACTORS
102
}
330
18
100
AcDbEntity
  8
OSIE
100
AcDbLine
 10
643.9793534583986
 20
161.2627158230308
 30
0.0
 11
631.744415119331
 21
161.2627158230308
 31
0.0
  0
LINE
  5
18A23
102
{ACAD_REACTORS
102
}
330
18
100
AcDbEntity
  8
OSIE
100
AcDbLine
 10
643.9793534583986
 20
176.2627158230308
 30
0.0
 11
631.744415119331
 21
176.2627158230308
 31
0.0
  0
LINE
  5
18A24
330
18
100
AcDbEntity
  8
OSIE
100
AcDbLine
 10
551.9131093424517
 20
234.9807473119627
 30
0.0
 11
551.9131093424517
 21
223.6421664612244
 31
0.0
  0
LINE
  5
18A25
330
18
100
AcDbEntity
  8
OSIE
100
AcDbLine
 10
549.4063197596712
 20
223.7855851713645
 30
0.0
 11
566.9018719325845
 21
223.7855851713645
 31
0.0
  0
DIMENSION
  5
18A26
330
18
100
AcDbEntity
  8
WY
100
AcDbDimension
  2
*D197
 10
575.318074509442
 20
222.2855851713645
 30
0.0
 11
573.818074509442
 21
223.7855851713645
 31
0.0
 70
    32
  3
STANDARD
100
AcDbAlignedDimension
 13
564.8131093424516
 23
225.2855851713645
 33
0.0
 14
564.8131093424516
 24
222.2855851713645
 34
0.0
 50
90.0
100
AcDbRotatedDimension
1001
ACAD
1000
DSTYLE
1002
{
1070
   287
1070
     4
1070
    41
1040
2.5
1070
   147
1040
0.75
1070
   174
1070
     1
1070
   279
1070
     1
1070
   172
1070
     1
1070
    74
1070
     1
1070
   140
1040
1.5
1070
   284
1070
     8
1070
    78
1070
     8
1002
}
  0
DIMENSION
  5
18A27
330
18
100
AcDbEntity
  8
WY
100
AcDbDimension
  2
*D198
 10
580.806817037173
 20
233.5295016188469
 30
0.0
 11
579.306817037173
 21
227.9075433951057
 31
0.0
 70
    32
  3
STANDARD
100
AcDbAlignedDimension
 13
564.8131093424516
 23
222.2855851713645
 33
0.0
 14
552.3131093424516
 24
233.5295016188469
 34
0.0
 50
90.0
100
AcDbRotatedDimension
1001
ACAD
1000
DSTYLE
1002
{
1070
   287
1070
     4
1070
     3
1000
%%p0.1
1070
   271
1070
     1
1070
    41
1040
2.5
1070
   147
1040
0.75
1070
   174
1070
     1
1070
   279
1070
     1
1070
   172
1070
     1
1070
    74
1070
     1
1070
   140
1040
1.5
1070
   284
1070
     8
1070
    78
1070
     8
1002
}
  0
DIMENSION
  5
18A43
102
{ACAD_REACTORS
102
}
102
{ACAD_XDICTIONARY
360
18A44
102
}
330
18
100
AcDbEntity
  8
WY
100
AcDbDimension
  2
*D199
 10
576.857874167562
 20
66.11271582303075
 30
0.0
 11
575.357874167562
 21
121.7627158230307
 31
0.0
 70
    32
  3
STANDARD
100
AcDbAlignedDimension
 13
564.8131093424516
 23
177.4127158230307
 33
0.0
 14
564.8131093424516
 24
66.11271582303075
 34
0.0
 50
90.0
100
AcDbRotatedDimension
1001
ACAD
1000
DSTYLE
1002
{
1070
   287
1070
     4
1070
     3
1000
%%p0.2
1070
    41
1040
2.5
1070
   147
1040
0.75
1070
   174
1070
     1
1070
   279
1070
     1
1070
   172
1070
     1
1070
    74
1070
     1
1070
   140
1040
1.5
1070
   284
1070
     8
1070
    78
1070
     8
1002
}
  0
DIMENSION
  5
18A52
102
{ACAD_REACTORS
102
}
102
{ACAD_XDICTIONARY
360
18A53
102
}
330
18
100
AcDbEntity
  8
WY
100
AcDbDimension
  2
*D200
 10
564.8131093424516
 20
182.9962807697742
 30
0.0
 11
559.8131093424516
 21
184.4962807697742
 31
0.0
 70
    32
  3
STANDARD
100
AcDbAlignedDimension
 13
554.8131093424516
 23
174.9127158230307
 33
0.0
 14
564.8131093424516
 24
177.4127158230307
 34
0.0
100
AcDbRotatedDimension
1001
ACAD
1000
DSTYLE
1002
{
1070
   287
1070
     4
1070
    41
1040
2.5
1070
   147
1040
0.75
1070
   174
1070
     1
1070
   279
1070
     1
1070
   172
1070
     1
1070
    74
1070
     1
1070
   140
1040
1.5
1070
   284
1070
     8
1070
    78
1070
     8
1002
}
  0
DIMENSION
  5
18A61
102
{ACAD_REACTORS
102
}
102
{ACAD_XDICTIONARY
360
18A62
102
}
330
18
100
AcDbEntity
  8
WY
100
AcDbDimension
  2
*D201
 10
564.8131093424516
 20
186.1871616375475
 30
0.0
 11
557.9131093424517
 21
187.6871616375475
 31
0.0
 70
    32
  3
STANDARD
100
AcDbAlignedDimension
 13
551.0131093424517
 23
177.4127158230307
 33
0.0
 14
564.8131093424516
 24
177.4127158230307
 34
0.0
100
AcDbRotatedDimension
1001
ACAD
1000
DSTYLE
1002
{
1070
   287
1070
     4
1070
    41
1040
2.5
1070
   147
1040
0.75
1070
   174
1070
     1
1070
   279
1070
     1
1070
   172
1070
     1
1070
    74
1070
     1
1070
   140
1040
1.5
1070
   284
1070
     8
1070
    78
1070
     8
1002
}
  0
DIMENSION
  5
18A70
102
{ACAD_REACTORS
102
}
102
{ACAD_XDICTIONARY
360
18A71
102
}
330
18
100
AcDbEntity
  8
WY
100
AcDbDimension
  2
*D202
 10
651.0839693652302
 20
161.2627158230308
 30
0.0
 11
649.5839693652302
 21
168.7627158230308
 31
0.0
 70
    32
  3
STANDARD
100
AcDbAlignedDimension
 13
643.9793534583986
 23
176.2627158230308
 33
0.0
 14
643.9793534583986
 24
161.2627158230308
 34
0.0
 50
90.0
100
AcDbRotatedDimension
1001
ACAD
1000
DSTYLE
1002
{
1070
   287
1070
     4
1070
    41
1040
2.5
1070
   147
1040
0.75
1070
   174
1070
     1
1070
   279
1070
     1
1070
   172
1070
     1
1070
    74
1070
     1
1070
   140
1040
1.5
1070
   284
1070
     8
1070
    78
1070
     8
1002
}
  0
DIMENSION
  5
18A7F
102
{ACAD_REACTORS
102
}
102
{ACAD_XDICTIONARY
360
18A80
102
}
330
18
100
AcDbEntity
  8
WY
100
AcDbDimension
  2
*D203
 10
651.0839693652302
 20
145.4627158230307
 30
0.0
 11
649.5839693652302
 21
153.3627158230308
 31
0.0
 70
    32
  3
STANDARD
100
AcDbAlignedDimension
 13
643.9793534583986
 23
161.2627158230308
 33
0.0
 14
643.9793534583986
 24
145.4627158230307
 34
0.0
 50
90.0
100
AcDbRotatedDimension
1001
ACAD
1000
DSTYLE
1002
{
1070
   287
1070
     4
1070
    41
1040
2.5
1070
   147
1040
0.75
1070
   174
1070
     1
1070
   279
1070
     1
1070
   172
1070
     1
1070
    74
1070
     1
1070
   140
1040
1.5
1070
   284
1070
     8
1070
    78
1070
     8
1002
}
  0
DIMENSION
  5
18A8E
102
{ACAD_REACTORS
102
}
102
{ACAD_XDICTIONARY
360
18A8F
102
}
330
18
100
AcDbEntity
  8
WY
100
AcDbDimension
  2
*D204
 10
651.0839693652302
 20
129.6627158230308
 30
0.0
 11
649.5839693652302
 21
137.5627158230307
 31
0.0
 70
    32
  3
STANDARD
100
AcDbAlignedDimension
 13
643.9793534583986
 23
145.4627158230307
 33
0.0
 14
643.9793534583986
 24
129.6627158230308
 34
0.0
 50
90.0
100
AcDbRotatedDimension
1001
ACAD
1000
DSTYLE
1002
{
1070
   287
1070
     4
1070
    41
1040
2.5
1070
   147
1040
0.75
1070
   174
1070
     1
1070
   279
1070
     1
1070
   172
1070
     1
1070
    74
1070
     1
1070
   140
1040
1.5
1070
   284
1070
     8
1070
    78
1070
     8
1002
}
  0
DIMENSION
  5
18A9D
102
{ACAD_REACTORS
102
}
102
{ACAD_XDICTIONARY
360
18A9E
102
}
330
18
100
AcDbEntity
  8
WY
100
AcDbDimension
  2
*D205
 10
651.0839693652302
 20
113.8627158230308
 30
0.0
 11
649.5839693652302
 21
121.7627158230308
 31
0.0
 70
    32
  3
STANDARD
100
AcDbAlignedDimension
 13
643.9793534583986
 23
129.6627158230308
 33
0.0
 14
643.9793534583986
 24
113.8627158230308
 34
0.0
 50
90.0
100
AcDbRotatedDimension
1001
ACAD
1000
DSTYLE
1002
{
1070
   287
1070
     4
1070
    41
1040
2.5
1070
   147
1040
0.75
1070
   174
1070
     1
1070
   279
1070
     1
1070
   172
1070
     1
1070
    74
1070
     1
1070
   140
1040
1.5
1070
   284
1070
     8
1070
    78
1070
     8
1002
}
  0
DIMENSION
  5
18AAC
102
{ACAD_REACTORS
102
}
102
{ACAD_XDICTIONARY
360
18AAD
102
}
330
18
100
AcDbEntity
  8
WY
100
AcDbDimension
  2
*D206
 10
651.0839693652302
 20
98.06271582303074
 30
0.0
 11
649.5839693652302
 21
105.9627158230308
 31
0.0
 70
    32
  3
STANDARD
100
AcDbAlignedDimension
 13
643.9793534583986
 23
113.8627158230308
 33
0.0
 14
643.9793534583986
 24
98.06271582303074
 34
0.0
 50
90.0
100
AcDbRotatedDimension
1001
ACAD
1000
DSTYLE
1002
{
1070
   287
1070
     4
1070
    41
1040
2.5
1070
   147
1040
0.75
1070
   174
1070
     1
1070
   279
1070
     1
1070
   172
1070
     1
1070
    74
1070
     1
1070
   140
1040
1.5
1070
   284
1070
     8
1070
    78
1070
     8
1002
}
  0
DIMENSION
  5
18ABB
102
{ACAD_REACTORS
102
}
102
{ACAD_XDICTIONARY
360
18ABC
102
}
330
18
100
AcDbEntity
  8
WY
100
AcDbDimension
  2
*D207
 10
651.0839693652302
 20
82.26271582303079
 30
0.0
 11
649.5839693652302
 21
90.16271582303077
 31
0.0
 70
    32
  3
STANDARD
100
AcDbAlignedDimension
 13
643.9793534583986
 23
98.06271582303074
 33
0.0
 14
643.9793534583986
 24
82.26271582303079
 34
0.0
 50
90.0
100
AcDbRotatedDimension
1001
ACAD
1000
DSTYLE
1002
{
1070
   287
1070
     4
1070
    41
1040
2.5
1070
   147
1040
0.75
1070
   174
1070
     1
1070
   279
1070
     1
1070
   172
1070
     1
1070
    74
1070
     1
1070
   140
1040
1.5
1070
   284
1070
     8
1070
    78
1070
     8
1002
}
  0
DIMENSION
  5
18ACA
102
{ACAD_REACTORS
102
}
102
{ACAD_XDICTIONARY
360
18ACB
102
}
330
18
100
AcDbEntity
  8
WY
100
AcDbDimension
  2
*D208
 10
651.0839693652302
 20
67.26271582303079
 30
0.0
 11
649.5839693652302
 21
74.76271582303079
 31
0.0
 70
    32
  3
STANDARD
100
AcDbAlignedDimension
 13
643.9793534583986
 23
82.26271582303079
 33
0.0
 14
643.9793534583986
 24
67.26271582303079
 34
0.0
 50
90.0
100
AcDbRotatedDimension
1001
ACAD
1000
DSTYLE
1002
{
1070
   287
1070
     4
1070
    41
1040
2.5
1070
   147
1040
0.75
1070
   174
1070
     1
1070
   279
1070
     1
1070
   172
1070
     1
1070
    74
1070
     1
1070
   140
1040
1.5
1070
   284
1070
     8
1070
    78
1070
     8
1002
}
  0
DIMENSION
  5
18AD9
102
{ACAD_REACTORS
102
}
102
{ACAD_XDICTIONARY
360
18ADA
102
}
330
18
100
AcDbEntity
  8
WY
100
AcDbDimension
  2
*D209
 10
637.4891415025811
 20
175.5127158230308
 30
0.0
 11
637.4891415025811
 21
184.0127158230308
 31
0.0
 70
   160
  3
STANDARD
100
AcDbAlignedDimension
 13
637.9158622872864
 23
177.0127158230308
 33
0.0
 14
637.9158622872864
 24
175.5127158230308
 34
0.0
 50
90.0
100
AcDbRotatedDimension
1001
ACAD
1000
DSTYLE
1002
{
1070
   287
1070
     3
1070
    41
1040
2.5
1070
   147
1040
0.75
1070
   174
1070
     1
1070
   279
1070
     0
1070
   172
1070
     1
1070
    74
1070
     0
1070
   140
1040
1.5
1070
   284
1070
     8
1070
    78
1070
     8
1002
}
  0
ENDSEC
  0
SECTION
  2
OBJECTS
  0
DICTIONARY
  5
C
330
0
100
AcDbDictionary
  3
ACAD_DETAILVIEWSTYLE
350
F5C4
  3
ACAD_GROUP
350
D
  3
ACAD_IMAGE_VARS
350
F140
  3
ACAD_MLINESTYLE
350
E
  3
ACAD_SCALELIST
350
1854B
  3
ACAD_SECTIONVIEWSTYLE
350
F5C5
  3
ACDBVARIABLEDICTIONARY
350
C1B
  3
APPDATA
350
F13E
  3
DIMOFFSETDICTIONARY
350
13296
  3
DWGPROPS
350
18AEC
  0
DICTIONARY
  5
13241
330
2
100
AcDbDictionary
280
     1
  3
ACAD_LAYERSTATES
360
13242
  0
DICTIONARY
  5
18A44
330
18A43
100
AcDbDictionary
280
     1
  0
DICTIONARY
  5
18A53
330
18A52
100
AcDbDictionary
280
     1
  0
DICTIONARY
  5
18A62
330
18A61
100
AcDbDictionary
280
     1
  0
DICTIONARY
  5
18A71
330
18A70
100
AcDbDictionary
280
     1
  0
DICTIONARY
  5
18A80
330
18A7F
100
AcDbDictionary
280
     1
  0
DICTIONARY
  5
18A8F
330
18A8E
100
AcDbDictionary
280
     1
  0
DICTIONARY
  5
18A9E
330
18A9D
100
AcDbDictionary
280
     1
  0
DICTIONARY
  5
18AAD
330
18AAC
100
AcDbDictionary
280
     1
  0
DICTIONARY
  5
18ABC
330
18ABB
100
AcDbDictionary
280
     1
  0
DICTIONARY
  5
18ACB
330
18ACA
100
AcDbDictionary
280
     1
  0
DICTIONARY
  5
18ADA
330
18AD9
100
AcDbDictionary
280
     1
  0
DICTIONARY
  5
F5C4
102
{ACAD_REACTORS
330
C
102
}
330
C
100
AcDbDictionary
  0
DICTIONARY
  5
D
102
{ACAD_REACTORS
330
C
102
}
330
C
100
AcDbDictionary
  0
RASTERVARIABLES
  5
F140
102
{ACAD_REACTORS
330
C
102
}
330
C
100
AcDbRasterVariables
 90
        0
 70
     1
 71
     1
 72
     0
  0
DICTIONARY
  5
E
102
{ACAD_REACTORS
330
C
102
}
330
C
100
AcDbDictionary
  3
STANDARD
350
1B
  0
DICTIONARY
  5
1854B
102
{ACAD_REACTORS
330
C
102
}
330
C
100
AcDbDictionary
  0
DICTIONARY
  5
F5C5
102
{ACAD_REACTORS
330
C
102
}
330
C
100
AcDbDictionary
  0
DICTIONARY
  5
C1B
102
{ACAD_REACTORS
330
C
102
}
330
C
100
AcDbDictionary
  3
HPTRANSPARENCY
350
13295
  3
SORTENTS
350
C1C
  0
DICTIONARY
  5
F13E
102
{ACAD_REACTORS
330
C
102
}
330
C
100
AcDbDictionary
  0
DICTIONARY
  5
13296
102
{ACAD_REACTORS
330
C
102
}
330
C
100
AcDbDictionary
  3
DIMRAILANGLE
350
17EB8
  3
DIMRAILFIRSTOFFSET
350
17EB6
  3
DIMRAILOFFSET
350
17EB7
  3
DIMRAILSENABLED
350
17EB9
  0
XRECORD
  5
18AEC
102
{ACAD_REACTORS
330
C
102
}
330
C
100
AcDbXrecord
  1
DWGPROPS COOKIE
  2

  3

  4

  6

  7

  8
pikusl
  9

300
=
301
=
302
=
303
=
304
=
305
=
306
=
307
=
308
=
309
=
 40
0.0
 41
2448721.315803356
 42
2457556.37381743
  1

 90
        0
  0
DICTIONARY
  5
13242
102
{ACAD_REACTORS
330
13241
102
}
330
13241
100
AcDbDictionary
  0
MLINESTYLE
  5
1B
102
{ACAD_REACTORS
330
E
102
}
330
E
100
AcDbMlineStyle
  2
STANDARD
 70
     0
  3

 62
     0
 51
90.0
 52
90.0
 71
     2
 49
0.5
 62
   256
  6
BYLAYER
 49
-0.5
 62
   256
  6
BYLAYER
  0
DICTIONARYVAR
  5
13295
102
{ACAD_REACTORS
330
C1B
102
}
330
C1B
100
DictionaryVariables
280
     0
  1
ByLayer
  0
DICTIONARYVAR
  5
C1C
102
{ACAD_REACTORS
330
C1B
102
}
330
C1B
100
DictionaryVariables
280
     0
  1
96
  0
DICTIONARYVAR
  5
17EB8
102
{ACAD_REACTORS
330
13296
102
}
330
13296
100
DictionaryVariables
280
     0
  1
0.261799
  0
DICTIONARYVAR
  5
17EB6
102
{ACAD_REACTORS
330
13296
102
}
330
13296
100
DictionaryVariables
280
     0
  1
0.400000
  0
DICTIONARYVAR
  5
17EB7
102
{ACAD_REACTORS
330
13296
102
}
330
13296
100
DictionaryVariables
280
     0
  1
0.250000
  0
DICTIONARYVAR
  5
17EB9
102
{ACAD_REACTORS
330
13296
102
}
330
13296
100
DictionaryVariables
280
     0
  1
1
  0
ENDSEC
  0
EOF
