  0
SECTION
  2
HEADER
  9
$ACADVER
  1
AC1021
  9
$ACADMAINTVER
 70
    25
  9
$DWGCODEPAGE
  3
ANSI_1250
  9
$LASTSAVEDBY
  1
pikusl
  9
$INSBASE
 10
0.0
 20
0.0
 30
0.0
  9
$EXTMIN
 10
0.0
 20
0.0
 30
0.0
  9
$EXTMAX
 10
201.630407
 20
297.0
 30
0.0
  9
$LIMMIN
 10
0.0
 20
0.0
  9
$LIMMAX
 10
420.0
 20
297.0
  9
$ORTHOMODE
 70
     0
  9
$REGENMODE
 70
     1
  9
$FILLMODE
 70
     1
  9
$QTEXTMODE
 70
     0
  9
$MIRRTEXT
 70
     1
  9
$LTSCALE
 40
1.0
  9
$ATTMODE
 70
     1
  9
$TEXTSIZE
 40
3.0
  9
$TRACEWID
 40
1.0
  9
$TEXTSTYLE
  7
STANDARD
  9
$CLAYER
  8
WY
  9
$CELTYPE
  6
BYLAYER
  9
$CECOLOR
 62
   256
  9
$CELTSCALE
 40
1.0
  9
$DISPSILH
 70
     0
  9
$DIMSCALE
 40
1.0
  9
$DIMASZ
 40
2.0
  9
$DIMEXO
 40
1.0
  9
$DIMDLI
 40
3.75
  9
$DIMRND
 40
0.0
  9
$DIMDLE
 40
0.0
  9
$DIMEXE
 40
1.0
  9
$DIMTP
 40
0.0
  9
$DIMTM
 40
0.0
  9
$DIMTXT
 40
3.0
  9
$DIMCEN
 40
2.5
  9
$DIMTSZ
 40
0.0
  9
$DIMTOL
 70
     0
  9
$DIMLIM
 70
     0
  9
$DIMTIH
 70
     0
  9
$DIMTOH
 70
     1
  9
$DIMSE1
 70
     0
  9
$DIMSE2
 70
     0
  9
$DIMTAD
 70
     3
  9
$DIMZIN
 70
     8
  9
$DIMBLK
  1

  9
$DIMASO
 70
     1
  9
$DIMSHO
 70
     1
  9
$DIMPOST
  1

  9
$DIMAPOST
  1

  9
$DIMALT
 70
     0
  9
$DIMALTD
 70
     3
  9
$DIMALTF
 40
0.0393700787
  9
$DIMLFAC
 40
1.0
  9
$DIMTOFL
 70
     1
  9
$DIMTVP
 40
0.0
  9
$DIMTIX
 70
     0
  9
$DIMSOXD
 70
     0
  9
$DIMSAH
 70
     0
  9
$DIMBLK1
  1

  9
$DIMBLK2
  1

  9
$DIMSTYLE
  2
ISO-25
  9
$DIMCLRD
 70
     0
  9
$DIMCLRE
 70
     0
  9
$DIMCLRT
 70
     0
  9
$DIMTFAC
 40
1.0
  9
$DIMGAP
 40
1.524
  9
$DIMJUST
 70
     0
  9
$DIMSD1
 70
     0
  9
$DIMSD2
 70
     0
  9
$DIMTOLJ
 70
     0
  9
$DIMTZIN
 70
     8
  9
$DIMALTZ
 70
     0
  9
$DIMALTTZ
 70
     0
  9
$DIMUPT
 70
     0
  9
$DIMDEC
 70
     2
  9
$DIMTDEC
 70
     2
  9
$DIMALTU
 70
     2
  9
$DIMALTTD
 70
     3
  9
$DIMTXSTY
  7
STANDARD
  9
$DIMAUNIT
 70
     0
  9
$DIMADEC
 70
     0
  9
$DIMALTRND
 40
0.0
  9
$DIMAZIN
 70
     0
  9
$DIMDSEP
 70
    46
  9
$DIMATFIT
 70
     3
  9
$DIMFRAC
 70
     0
  9
$DIMLDRBLK
  1

  9
$DIMLUNIT
 70
     2
  9
$DIMLWD
 70
    -2
  9
$DIMLWE
 70
    -2
  9
$DIMTMOVE
 70
     2
  9
$DIMFXL
 40
1.0
  9
$DIMFXLON
 70
     0
  9
$DIMJOGANG
 40
0.7853981633974483
  9
$DIMTFILL
 70
     0
  9
$DIMTFILLCLR
 70
     0
  9
$DIMARCSYM
 70
     0
  9
$DIMLTYPE
  6

  9
$DIMLTEX1
  6

  9
$DIMLTEX2
  6

  9
$LUNITS
 70
     2
  9
$LUPREC
 70
     4
  9
$SKETCHINC
 40
1.0
  9
$FILLETRAD
 40
10.0
  9
$AUNITS
 70
     0
  9
$AUPREC
 70
     2
  9
$MENU
  1
.
  9
$ELEVATION
 40
0.0
  9
$PELEVATION
 40
0.0
  9
$THICKNESS
 40
0.0
  9
$LIMCHECK
 70
     0
  9
$CHAMFERA
 40
0.0
  9
$CHAMFERB
 40
0.0
  9
$CHAMFERC
 40
0.0
  9
$CHAMFERD
 40
0.0
  9
$SKPOLY
 70
     0
  9
$TDCREATE
 40
2457799.404180521
  9
$TDUCREATE
 40
2457799.320847188
  9
$TDUPDATE
 40
2458404.393321389
  9
$TDUUPDATE
 40
2458404.309988055
  9
$TDINDWG
 40
0.0246923148
  9
$TDUSRTIMER
 40
0.0001011921
  9
$USRTIMER
 70
     1
  9
$ANGBASE
 50
0.0
  9
$ANGDIR
 70
     0
  9
$PDMODE
 70
     0
  9
$PDSIZE
 40
-1.0
  9
$PLINEWID
 40
0.0
  9
$SPLFRAME
 70
     0
  9
$SPLINETYPE
 70
     6
  9
$SPLINESEGS
 70
     8
  9
$HANDSEED
  5
98B2
  9
$SURFTAB1
 70
     6
  9
$SURFTAB2
 70
     6
  9
$SURFTYPE
 70
     6
  9
$SURFU
 70
     6
  9
$SURFV
 70
     6
  9
$UCSBASE
  2

  9
$UCSNAME
  2

  9
$UCSORG
 10
0.0
 20
0.0
 30
0.0
  9
$UCSXDIR
 10
1.0
 20
0.0
 30
0.0
  9
$UCSYDIR
 10
0.0
 20
1.0
 30
0.0
  9
$UCSORTHOREF
  2

  9
$UCSORTHOVIEW
 70
     0
  9
$UCSORGTOP
 10
0.0
 20
0.0
 30
0.0
  9
$UCSORGBOTTOM
 10
0.0
 20
0.0
 30
0.0
  9
$UCSORGLEFT
 10
0.0
 20
0.0
 30
0.0
  9
$UCSORGRIGHT
 10
0.0
 20
0.0
 30
0.0
  9
$UCSORGFRONT
 10
0.0
 20
0.0
 30
0.0
  9
$UCSORGBACK
 10
0.0
 20
0.0
 30
0.0
  9
$PUCSBASE
  2

  9
$PUCSNAME
  2

  9
$PUCSORG
 10
0.0
 20
0.0
 30
0.0
  9
$PUCSXDIR
 10
1.0
 20
0.0
 30
0.0
  9
$PUCSYDIR
 10
0.0
 20
1.0
 30
0.0
  9
$PUCSORTHOREF
  2

  9
$PUCSORTHOVIEW
 70
     0
  9
$PUCSORGTOP
 10
0.0
 20
0.0
 30
0.0
  9
$PUCSORGBOTTOM
 10
0.0
 20
0.0
 30
0.0
  9
$PUCSORGLEFT
 10
0.0
 20
0.0
 30
0.0
  9
$PUCSORGRIGHT
 10
0.0
 20
0.0
 30
0.0
  9
$PUCSORGFRONT
 10
0.0
 20
0.0
 30
0.0
  9
$PUCSORGBACK
 10
0.0
 20
0.0
 30
0.0
  9
$USERI1
 70
     0
  9
$USERI2
 70
     0
  9
$USERI3
 70
     0
  9
$USERI4
 70
     0
  9
$USERI5
 70
     0
  9
$USERR1
 40
0.0
  9
$USERR2
 40
0.0
  9
$USERR3
 40
0.0
  9
$USERR4
 40
0.0
  9
$USERR5
 40
0.0
  9
$WORLDVIEW
 70
     1
  9
$SHADEDGE
 70
     3
  9
$SHADEDIF
 70
    70
  9
$TILEMODE
 70
     1
  9
$MAXACTVP
 70
    64
  9
$PINSBASE
 10
0.0
 20
0.0
 30
0.0
  9
$PLIMCHECK
 70
     0
  9
$PEXTMIN
 10
1.000000000000000E+20
 20
1.000000000000000E+20
 30
1.000000000000000E+20
  9
$PEXTMAX
 10
-1.000000000000000E+20
 20
-1.000000000000000E+20
 30
-1.000000000000000E+20
  9
$PLIMMIN
 10
0.0
 20
0.0
  9
$PLIMMAX
 10
0.0
 20
0.0
  9
$UNITMODE
 70
     0
  9
$VISRETAIN
 70
     1
  9
$PLINEGEN
 70
     0
  9
$PSLTSCALE
 70
     1
  9
$TREEDEPTH
 70
  3020
  9
$CMLSTYLE
  2
STANDARD
  9
$CMLJUST
 70
     0
  9
$CMLSCALE
 40
20.0
  9
$PROXYGRAPHICS
 70
     1
  9
$MEASUREMENT
 70
     1
  9
$CELWEIGHT
370
    -1
  9
$ENDCAPS
280
     0
  9
$JOINSTYLE
280
     0
  9
$LWDISPLAY
290
     0
  9
$INSUNITS
 70
     0
  9
$HYPERLINKBASE
  1

  9
$STYLESHEET
  1

  9
$XEDIT
290
     1
  9
$CEPSNTYPE
380
     0
  9
$PSTYLEMODE
290
     1
  9
$FINGERPRINTGUID
  2
{BF6BD93E-0D8F-45AD-933C-A9D654A24CCC}
  9
$VERSIONGUID
  2
{FAEB1C32-E019-11D5-929B-00C0DF256EC4}
  9
$EXTNAMES
290
     1
  9
$PSVPSCALE
 40
0.0
  9
$OLESTARTUP
290
     0
  9
$SORTENTS
280
   127
  9
$INDEXCTL
280
     0
  9
$HIDETEXT
280
     1
  9
$XCLIPFRAME
290
     0
  9
$HALOGAP
280
     0
  9
$OBSCOLOR
 70
   257
  9
$OBSLTYPE
280
     0
  9
$INTERSECTIONDISPLAY
280
     0
  9
$INTERSECTIONCOLOR
 70
   257
  9
$DIMASSOC
280
     2
  9
$PROJECTNAME
  1

  9
$CAMERADISPLAY
290
     0
  9
$LENSLENGTH
 40
50.0
  9
$CAMERAHEIGHT
 40
0.0
  9
$STEPSPERSEC
 40
2.0
  9
$STEPSIZE
 40
6.0
  9
$3DDWFPREC
 40
2.0
  9
$PSOLWIDTH
 40
0.25
  9
$PSOLHEIGHT
 40
4.0
  9
$LOFTANG1
 40
1.570796326794897
  9
$LOFTANG2
 40
1.570796326794897
  9
$LOFTMAG1
 40
0.0
  9
$LOFTMAG2
 40
0.0
  9
$LOFTPARAM
 70
     7
  9
$LOFTNORMALS
280
     1
  9
$LATITUDE
 40
37.795
  9
$LONGITUDE
 40
-122.394
  9
$NORTHDIRECTION
 40
0.0
  9
$TIMEZONE
 70
 -8000
  9
$LIGHTGLYPHDISPLAY
280
     1
  9
$TILEMODELIGHTSYNCH
280
     1
  9
$SOLIDHIST
280
     0
  9
$SHOWHIST
280
     1
  9
$DWFFRAME
280
     2
  9
$DGNFRAME
280
     2
  9
$REALWORLDSCALE
290
     1
  9
$INTERFERECOLOR
 62
   256
  9
$CSHADOW
280
     0
  9
$SHADOWPLANELOCATION
 40
0.0
  0
ENDSEC
  0
SECTION
  2
CLASSES
  0
CLASS
  1
ACDBDICTIONARYWDFLT
  2
AcDbDictionaryWithDefault
  3
ObjectDBX Classes
 90
        0
 91
        4
280
     0
281
     0
  0
CLASS
  1
VISUALSTYLE
  2
AcDbVisualStyle
  3
ObjectDBX Classes
 90
     4095
 91
        4
280
     0
281
     0
  0
CLASS
  1
MATERIAL
  2
AcDbMaterial
  3
ObjectDBX Classes
 90
     1153
 91
        4
280
     0
281
     0
  0
CLASS
  1
SCALE
  2
AcDbScale
  3
ObjectDBX Classes
 90
     1153
 91
        4
280
     0
281
     0
  0
CLASS
  1
TABLESTYLE
  2
AcDbTableStyle
  3
ObjectDBX Classes
 90
     4095
 91
        4
280
     0
281
     0
  0
CLASS
  1
MLEADERSTYLE
  2
AcDbMLeaderStyle
  3
ACDB_MLEADERSTYLE_CLASS
 90
     4095
 91
        4
280
     0
281
     0
  0
CLASS
  1
SUN
  2
AcDbSun
  3
SCENEOE
 90
     1153
 91
        4
280
     0
281
     0
  0
CLASS
  1
XRECORD
  2
AcDbXrecord
  3
ObjectDBX Classes
 90
        0
 91
        1
280
     0
281
     0
  0
CLASS
  1
LWPOLYLINE
  2
AcDbPolyline
  3
ObjectDBX Classes
 90
        0
 91
        1
280
     0
281
     1
  0
CLASS
  1
HATCH
  2
AcDbHatch
  3
ObjectDBX Classes
 90
        0
 91
        1
280
     0
281
     1
  0
CLASS
  1
RASTERVARIABLES
  2
AcDbRasterVariables
  3
ISM
 90
        0
 91
        4
280
     0
281
     0
  0
CLASS
  1
DICTIONARYVAR
  2
AcDbDictionaryVar
  3
ObjectDBX Classes
 90
        0
 91
        4
280
     0
281
     0
  0
CLASS
  1
DIMASSOC
  2
AcDbDimAssoc
  3
"AcDbDimAssoc|Product Desc:     AcDim ARX App For Dimension|Company:          Autodesk, Inc.|WEB Address:      www.autodesk.com"
 90
        0
 91
        4
280
     0
281
     0
  0
CLASS
  1
CELLSTYLEMAP
  2
AcDbCellStyleMap
  3
ObjectDBX Classes
 90
     1152
 91
        4
280
     0
281
     0
  0
ENDSEC
  0
SECTION
  2
TABLES
  0
TABLE
  2
VPORT
  5
8
330
0
100
AcDbSymbolTable
 70
     1
  0
VPORT
  5
29
330
8
100
AcDbSymbolTableRecord
100
AcDbViewportTableRecord
  2
*ACTIVE
 70
     0
 10
0.0
 20
0.0
 11
1.0
 21
1.0
 12
100.8152035
 22
148.5
 13
0.0
 23
0.0
 14
10.0
 24
10.0
 15
10.0
 25
10.0
 16
0.0
 26
0.0
 36
1.0
 17
0.0
 27
0.0
 37
0.0
 40
302.94
 41
2.25531914893617
 42
50.0
 43
0.0
 44
0.0
 50
0.0
 51
0.0
 71
    16
 72
  2000
 73
     1
 74
     3
 75
     0
 76
     0
 77
     0
 78
     0
281
     0
 65
     1
110
0.0
120
0.0
130
0.0
111
1.0
121
0.0
131
0.0
112
0.0
122
1.0
132
0.0
 79
     0
146
0.0
348
4A0
 60
     3
 61
     5
292
     1
282
     1
141
0.0
142
0.0
 63
   256
361
4BD
  0
ENDTAB
  0
TABLE
  2
LTYPE
  5
5
330
0
100
AcDbSymbolTable
 70
     6
  0
LTYPE
  5
14
330
5
100
AcDbSymbolTableRecord
100
AcDbLinetypeTableRecord
  2
BYBLOCK
 70
     0
  3

 72
    65
 73
     0
 40
0.0
  0
LTYPE
  5
15
330
5
100
AcDbSymbolTableRecord
100
AcDbLinetypeTableRecord
  2
BYLAYER
 70
     0
  3

 72
    65
 73
     0
 40
0.0
  0
LTYPE
  5
16
330
5
100
AcDbSymbolTableRecord
100
AcDbLinetypeTableRecord
  2
CONTINUOUS
 70
     0
  3
Solid line
 72
    65
 73
     0
 40
0.0
  0
LTYPE
  5
6E
330
5
100
AcDbSymbolTableRecord
100
AcDbLinetypeTableRecord
  2
HIDDEN
 70
     0
  3
Hidden __ __ __ __ __ __ __ __ __ __ __ __ __ __
 72
    65
 73
     2
 40
1.905
 49
1.27
 74
     0
 49
-0.635
 74
     0
  0
LTYPE
  5
6F
330
5
100
AcDbSymbolTableRecord
100
AcDbLinetypeTableRecord
  2
PHANTOM
 70
     0
  3
Phantom ______  __  __  ______  __  __  ______
 72
    65
 73
     6
 40
12.7
 49
6.35
 74
     0
 49
-1.27
 74
     0
 49
1.27
 74
     0
 49
-1.27
 74
     0
 49
1.27
 74
     0
 49
-1.27
 74
     0
  0
LTYPE
  5
70
330
5
100
AcDbSymbolTableRecord
100
AcDbLinetypeTableRecord
  2
CENTER
 70
     0
  3
Center ____ _ ____ _ ____ _ ____ _ ____ _ ____
 72
    65
 73
     4
 40
10.16
 49
6.35
 74
     0
 49
-1.27
 74
     0
 49
1.27
 74
     0
 49
-1.27
 74
     0
  0
LTYPE
  5
71
330
5
100
AcDbSymbolTableRecord
100
AcDbLinetypeTableRecord
  2
CENTERX2
 70
     0
  3
Center (2x) ________  __  ________  __  _____
 72
    65
 73
     4
 40
20.32
 49
12.7
 74
     0
 49
-2.54
 74
     0
 49
2.54
 74
     0
 49
-2.54
 74
     0
  0
LTYPE
  5
72
330
5
100
AcDbSymbolTableRecord
100
AcDbLinetypeTableRecord
  2
DOT2
 70
     0
  3
Dot (.5x) ........................................
 72
    65
 73
     2
 40
0.635
 49
0.0
 74
     0
 49
-0.635
 74
     0
  0
ENDTAB
  0
TABLE
  2
LAYER
  5
2
102
{ACAD_XDICTIONARY
360
724
102
}
330
0
100
AcDbSymbolTable
 70
    12
  0
LAYER
  5
10
330
2
100
AcDbSymbolTableRecord
100
AcDbLayerTableRecord
  2
0
 70
     0
 62
     7
  6
CONTINUOUS
370
    -3
390
475
347
4B7
  0
LAYER
  5
4C7
330
2
100
AcDbSymbolTableRecord
100
AcDbLayerTableRecord
  2
Defpoints
 70
     0
 62
     7
  6
CONTINUOUS
290
     0
370
    -3
390
475
347
4B7
  0
LAYER
  5
4C8
330
2
100
AcDbSymbolTableRecord
100
AcDbLayerTableRecord
  2
1
 70
     0
 62
     3
  6
CONTINUOUS
370
    -3
390
475
347
4B7
  0
LAYER
  5
4CA
330
2
100
AcDbSymbolTableRecord
100
AcDbLayerTableRecord
  2
2
 70
     0
 62
     6
  6
CONTINUOUS
370
    -3
390
475
347
4B7
  0
LAYER
  5
4CB
330
2
100
AcDbSymbolTableRecord
100
AcDbLayerTableRecord
  2
OSIE
 70
     0
 62
     2
  6
CENTER
370
    -3
390
475
347
4B7
  0
LAYER
  5
4CD
330
2
100
AcDbSymbolTableRecord
100
AcDbLayerTableRecord
  2
WY
 70
     0
 62
     1
  6
CONTINUOUS
370
    -3
390
475
347
4B7
  0
LAYER
  5
4CE
330
2
100
AcDbSymbolTableRecord
100
AcDbLayerTableRecord
  2
WYMIARY
 70
     0
 62
     1
  6
CONTINUOUS
370
    -3
390
475
347
4B7
  0
LAYER
  5
F28
330
2
100
AcDbSymbolTableRecord
100
AcDbLayerTableRecord
  2
3
 70
     0
 62
     4
  6
HIDDEN
370
    -3
390
475
347
4B7
  0
LAYER
  5
F2C
330
2
100
AcDbSymbolTableRecord
100
AcDbLayerTableRecord
  2
TABELKA
 70
     0
 62
     7
  6
CONTINUOUS
370
    -3
390
475
347
4B7
  0
LAYER
  5
F2D
330
2
100
AcDbSymbolTableRecord
100
AcDbLayerTableRecord
  2
EBLAYER5
 70
     0
 62
     3
  6
CONTINUOUS
370
    -3
390
475
347
4B7
  0
LAYER
  5
F2E
330
2
100
AcDbSymbolTableRecord
100
AcDbLayerTableRecord
  2
Kreskowanie
 70
     0
 62
     5
  6
CONTINUOUS
370
     5
390
475
347
4B7
1001
AcAecLayerStandard
1000

1000

  0
LAYER
  5
F30
330
2
100
AcDbSymbolTableRecord
100
AcDbLayerTableRecord
  2
Wykresy
 70
     0
 62
    21
  6
CONTINUOUS
370
     5
390
475
347
4B7
1001
AcAecLayerStandard
1000

1000

  0
ENDTAB
  0
TABLE
  2
STYLE
  5
3
330
0
100
AcDbSymbolTable
 70
     3
  0
STYLE
  5
11
330
3
100
AcDbSymbolTableRecord
100
AcDbTextStyleTableRecord
  2
STANDARD
 70
     0
 40
0.0
 41
1.0
 50
0.0
 71
     0
 42
3.0
  3
txt
  4

  0
STYLE
  5
18A
330
3
100
AcDbSymbolTableRecord
100
AcDbTextStyleTableRecord
  2
SLDTEXTSTYLE0
 70
     0
 40
0.0
 41
0.75
 50
0.0
 71
     0
 42
3.0
  3
TXT
  4

  0
STYLE
  5
4D1
330
3
100
AcDbSymbolTableRecord
100
AcDbTextStyleTableRecord
  2
ITALIC
 70
     0
 40
0.0
 41
1.0
 50
15.0
 71
     0
 42
3.0
  3
simplex
  4

  0
ENDTAB
  0
TABLE
  2
VIEW
  5
6
330
0
100
AcDbSymbolTable
 70
     0
  0
ENDTAB
  0
TABLE
  2
UCS
  5
7
330
0
100
AcDbSymbolTable
 70
     0
  0
ENDTAB
  0
TABLE
  2
APPID
  5
9
330
0
100
AcDbSymbolTable
 70
     4
  0
APPID
  5
12
330
9
100
AcDbSymbolTableRecord
100
AcDbRegAppTableRecord
  2
ACAD
 70
     0
  0
APPID
  5
F2F
330
9
100
AcDbSymbolTableRecord
100
AcDbRegAppTableRecord
  2
AcAecLayerStandard
 70
     0
  0
APPID
  5
9332
330
9
100
AcDbSymbolTableRecord
100
AcDbRegAppTableRecord
  2
PE_URL
 70
     0
  0
APPID
  5
98B0
330
9
100
AcDbSymbolTableRecord
100
AcDbRegAppTableRecord
  2
ACAD_MLEADERVER
 70
     0
  0
ENDTAB
  0
TABLE
  2
DIMSTYLE
  5
A
330
0
100
AcDbSymbolTable
 70
     6
100
AcDbDimStyleTable
  0
DIMSTYLE
105
27
102
{ACAD_REACTORS
330
251A
330
251D
330
251F
330
2522
330
2525
330
2528
330
252B
330
252E
330
2531
330
891A
330
8936
330
8B11
102
}
330
A
100
AcDbSymbolTableRecord
100
AcDbDimStyleTableRecord
  2
ISO-25
 70
     0
 41
2.5
 42
0.625
 43
3.75
 44
1.25
 73
     0
 74
     0
 77
     1
 78
     8
140
2.5
141
2.5
143
0.0393700787
147
0.625
171
     3
172
     1
178
     0
271
     2
272
     2
274
     3
283
     0
284
     8
340
11
  0
DIMSTYLE
105
18B
330
A
100
AcDbSymbolTableRecord
100
AcDbDimStyleTableRecord
  2
SLDDIMSTYLE0
 70
     0
 41
2.0
 44
0.0
 45
0.000000001
 73
     0
 74
     0
 77
     1
 78
    12
140
3.0
147
0.75
173
     1
178
     0
271
     1
272
     2
284
    12
340
18A
  0
DIMSTYLE
105
196
330
A
100
AcDbSymbolTableRecord
100
AcDbDimStyleTableRecord
  2
SLDDIMSTYLE1
 70
     0
 41
2.0
 44
0.0
 45
0.000000001
 73
     0
 74
     0
 77
     1
 78
    12
140
3.0
147
0.75
173
     1
178
     0
271
     1
272
     1
284
    12
340
18A
  0
DIMSTYLE
105
1A1
330
A
100
AcDbSymbolTableRecord
100
AcDbDimStyleTableRecord
  2
SLDDIMSTYLE2
 70
     0
 41
2.0
 44
0.0
 45
0.000000001
 73
     0
 74
     0
 77
     1
 78
    12
140
3.0
147
0.75
173
     1
178
     0
271
     2
272
     2
284
    12
340
18A
  0
DIMSTYLE
105
1AC
330
A
100
AcDbSymbolTableRecord
100
AcDbDimStyleTableRecord
  2
SLDDIMSTYLE3
 70
     0
 41
2.0
 44
0.0
 45
0.000000001
 73
     0
 74
     0
 77
     1
 78
    12
140
3.0
147
0.75
172
     1
173
     1
178
     0
271
     1
272
     2
284
    12
340
18A
  0
DIMSTYLE
105
F31
330
A
100
AcDbSymbolTableRecord
100
AcDbDimStyleTableRecord
  2
STANDARD
 70
     0
 40
0.0
 41
3.5
 42
1.5
 43
7.0
 44
1.5
 47
0.1
 73
     0
 74
     0
 77
     1
140
3.5
141
-1.0
144
0.5
147
1.5
178
     0
271
     1
340
4D1
  0
ENDTAB
  0
TABLE
  2
BLOCK_RECORD
  5
1
330
0
100
AcDbSymbolTable
 70
   284
  0
BLOCK_RECORD
  5
1F
330
1
100
AcDbSymbolTableRecord
100
AcDbBlockTableRecord
  2
*MODEL_SPACE
340
499
 70
     0
280
     1
281
     0
  0
BLOCK_RECORD
  5
1B
330
1
100
AcDbSymbolTableRecord
100
AcDbBlockTableRecord
  2
*PAPER_SPACE
340
49A
 70
     0
280
     1
281
     0
  0
BLOCK_RECORD
  5
23
330
1
100
AcDbSymbolTableRecord
100
AcDbBlockTableRecord
  2
*PAPER_SPACE0
340
0
 70
     0
280
     1
281
     0
  0
BLOCK_RECORD
  5
73
330
1
100
AcDbSymbolTableRecord
100
AcDbBlockTableRecord
  2
BLOK1
340
0
 70
     0
280
     1
281
     0
  0
BLOCK_RECORD
  5
18C
330
1
100
AcDbSymbolTableRecord
100
AcDbBlockTableRecord
  2
_D
340
0
 70
     0
280
     1
281
     0
  0
BLOCK_RECORD
  5
197
330
1
100
AcDbSymbolTableRecord
100
AcDbBlockTableRecord
  2
_D_1
340
0
 70
     0
280
     1
281
     0
  0
BLOCK_RECORD
  5
1A2
330
1
100
AcDbSymbolTableRecord
100
AcDbBlockTableRecord
  2
_D_2
340
0
 70
     0
280
     1
281
     0
  0
BLOCK_RECORD
  5
1AD
330
1
100
AcDbSymbolTableRecord
100
AcDbBlockTableRecord
  2
_D_3
340
0
 70
     0
280
     1
281
     0
  0
BLOCK_RECORD
  5
1B9
330
1
100
AcDbSymbolTableRecord
100
AcDbBlockTableRecord
  2
_D_4
340
0
 70
     0
280
     1
281
     0
  0
BLOCK_RECORD
  5
1C3
330
1
100
AcDbSymbolTableRecord
100
AcDbBlockTableRecord
  2
_D_5
340
0
 70
     0
280
     1
281
     0
  0
BLOCK_RECORD
  5
1CD
330
1
100
AcDbSymbolTableRecord
100
AcDbBlockTableRecord
  2
_D_6
340
0
 70
     0
280
     1
281
     0
  0
BLOCK_RECORD
  5
2F4
330
1
100
AcDbSymbolTableRecord
100
AcDbBlockTableRecord
  2
_D_7
340
0
 70
     0
280
     1
281
     0
  0
BLOCK_RECORD
  5
46A
330
1
100
AcDbSymbolTableRecord
100
AcDbBlockTableRecord
  2
_D_8
340
0
 70
     0
280
     1
281
     0
  0
BLOCK_RECORD
  5
2537
330
1
100
AcDbSymbolTableRecord
100
AcDbBlockTableRecord
  2
*D103
340
0
 70
     0
280
     1
281
     0
  0
BLOCK_RECORD
  5
2545
330
1
100
AcDbSymbolTableRecord
100
AcDbBlockTableRecord
  2
*D104
340
0
 70
     0
280
     1
281
     0
  0
BLOCK_RECORD
  5
2551
330
1
100
AcDbSymbolTableRecord
100
AcDbBlockTableRecord
  2
*D105
340
0
 70
     0
280
     1
281
     0
  0
BLOCK_RECORD
  5
255D
330
1
100
AcDbSymbolTableRecord
100
AcDbBlockTableRecord
  2
*D106
340
0
 70
     0
280
     1
281
     0
  0
BLOCK_RECORD
  5
2569
330
1
100
AcDbSymbolTableRecord
100
AcDbBlockTableRecord
  2
*D107
340
0
 70
     0
280
     1
281
     0
  0
BLOCK_RECORD
  5
2575
330
1
100
AcDbSymbolTableRecord
100
AcDbBlockTableRecord
  2
*D108
340
0
 70
     0
280
     1
281
     0
  0
BLOCK_RECORD
  5
2581
330
1
100
AcDbSymbolTableRecord
100
AcDbBlockTableRecord
  2
*D109
340
0
 70
     0
280
     1
281
     0
  0
BLOCK_RECORD
  5
258D
330
1
100
AcDbSymbolTableRecord
100
AcDbBlockTableRecord
  2
*D110
340
0
 70
     0
280
     1
281
     0
  0
BLOCK_RECORD
  5
2599
330
1
100
AcDbSymbolTableRecord
100
AcDbBlockTableRecord
  2
*D111
340
0
 70
     0
280
     1
281
     0
  0
BLOCK_RECORD
  5
891D
330
1
100
AcDbSymbolTableRecord
100
AcDbBlockTableRecord
  2
*D279
340
0
 70
     0
280
     1
281
     0
  0
BLOCK_RECORD
  5
8939
330
1
100
AcDbSymbolTableRecord
100
AcDbBlockTableRecord
  2
*D281
340
0
 70
     0
280
     1
281
     0
  0
BLOCK_RECORD
  5
8B14
330
1
100
AcDbSymbolTableRecord
100
AcDbBlockTableRecord
  2
*D283
340
0
 70
     0
280
     1
281
     0
  0
ENDTAB
  0
ENDSEC
  0
SECTION
  2
BLOCKS
  0
BLOCK
  5
20
330
1F
100
AcDbEntity
  8
0
100
AcDbBlockBegin
  2
*MODEL_SPACE
 70
     0
 10
0.0
 20
0.0
 30
0.0
  3
*MODEL_SPACE
  1

  0
ENDBLK
  5
21
330
1F
100
AcDbEntity
  8
0
100
AcDbBlockEnd
  0
BLOCK
  5
1C
330
1B
100
AcDbEntity
 67
     1
  8
0
100
AcDbBlockBegin
  2
*PAPER_SPACE
 70
     0
 10
0.0
 20
0.0
 30
0.0
  3
*PAPER_SPACE
  1

  0
ENDBLK
  5
1D
330
1B
100
AcDbEntity
 67
     1
  8
0
100
AcDbBlockEnd
  0
BLOCK
  5
24
330
23
100
AcDbEntity
  8
0
100
AcDbBlockBegin
  2
*PAPER_SPACE0
 70
     0
 10
0.0
 20
0.0
 30
0.0
  3
*PAPER_SPACE0
  1

  0
ENDBLK
  5
25
330
23
100
AcDbEntity
  8
0
100
AcDbBlockEnd
  0
BLOCK
  5
74
330
73
100
AcDbEntity
  8
0
100
AcDbBlockBegin
  2
BLOK1
 70
     0
 10
0.0
 20
0.0
 30
0.0
  3
BLOK1
  1

  0
ARC
  5
76
330
73
100
AcDbEntity
  8
0
  6
Continuous
 62
     7
100
AcDbCircle
 10
1.0411420849
 20
3.9042828156
 30
0.0
 40
1.041142084854396
100
AcDbArc
 50
90.0003824973
 51
180.0
  0
ARC
  5
77
330
73
100
AcDbEntity
  8
0
  6
Continuous
 62
     7
100
AcDbCircle
 10
1.1650875761
 20
3.3234964822
 30
0.0
 40
0.1239454912436155
100
AcDbArc
 50
179.9999999999
 51
332.0292762105
  0
ARC
  5
78
330
73
100
AcDbEntity
  8
0
  6
Continuous
 62
     7
100
AcDbCircle
 10
3.2493195146
 20
2.2166563875
 30
0.0
 40
2.235952338909132
100
AcDbArc
 50
80.9608246617
 51
152.0292762105
  0
ARC
  5
79
330
73
100
AcDbEntity
  8
0
  6
Continuous
 62
     7
100
AcDbCircle
 10
1.7352298576
 20
7.9820762264
 30
0.0
 40
0.694094723236172
100
AcDbArc
 50
90.0
 51
180.0
  0
ARC
  5
7A
330
73
100
AcDbEntity
  8
0
  6
Continuous
 62
     7
100
AcDbCircle
 10
5.4659889943
 20
7.9820762264
 30
0.0
 40
0.6940947232363461
100
AcDbArc
 50
360.0
 51
90.0
  0
ARC
  5
7B
330
73
100
AcDbEntity
  8
0
  6
Continuous
 62
     7
100
AcDbCircle
 10
14.1366574824
 20
2.75049
 30
0.0
 40
1.282787156391457
100
AcDbArc
 50
189.5348291278
 51
270.296328748
  0
ARC
  5
7C
330
73
100
AcDbEntity
  8
0
  6
Continuous
 62
     7
100
AcDbCircle
 10
14.9059263487
 20
2.75049
 30
0.0
 40
1.282787156391457
100
AcDbArc
 50
269.7036712521
 51
350.4651708722
  0
ARC
  5
7D
330
73
100
AcDbEntity
  8
0
  6
Continuous
 62
     7
100
AcDbCircle
 10
14.1366574824
 20
6.085895778
 30
0.0
 40
1.282787156391459
100
AcDbArc
 50
89.703671252
 51
170.4651708722
  0
ARC
  5
7E
330
73
100
AcDbEntity
  8
0
  6
Continuous
 62
     7
100
AcDbCircle
 10
11.0739987159
 20
6.2325057991
 30
0.0
 40
1.239711070219349
100
AcDbArc
 50
16.2650613742
 51
130.5272988796
  0
ARC
  5
7F
330
73
100
AcDbEntity
  8
0
  6
Continuous
 62
     7
100
AcDbCircle
 10
10.5617561932
 20
6.2505
 30
0.0
 40
0.303750000000047
100
AcDbArc
 50
360.0
 51
180.0
  0
ARC
  5
80
330
73
100
AcDbEntity
  8
0
  6
Continuous
 62
     7
100
AcDbCircle
 10
14.9059263487
 20
6.085895778
 30
0.0
 40
1.282787156391571
100
AcDbArc
 50
9.5348291278
 51
90.29632874800001
  0
ARC
  5
81
330
73
100
AcDbEntity
  8
0
  6
Continuous
 62
     7
100
AcDbCircle
 10
14.5631419155
 20
2.55285
 30
0.0
 40
0.303750000000047
100
AcDbArc
 50
180.0
 51
360.0
  0
ARC
  5
82
330
73
100
AcDbEntity
  8
0
  6
Continuous
 62
     7
100
AcDbCircle
 10
14.5631419155
 20
6.2505
 30
0.0
 40
0.303750000000047
100
AcDbArc
 50
360.0
 51
180.0
  0
ARC
  5
83
330
73
100
AcDbEntity
  8
0
  6
Continuous
 62
     7
100
AcDbCircle
 10
24.943436798
 20
2.7785772609
 30
0.0
 40
1.339576980850868
100
AcDbArc
 50
269.3008867473
 51
348.3657315406
  0
ARC
  5
84
330
73
100
AcDbEntity
  8
0
  6
Continuous
 62
     7
100
AcDbCircle
 10
24.0737470331
 20
2.7785772609
 30
0.0
 40
1.339576980850891
100
AcDbArc
 50
191.6342684594
 51
270.6991132527
  0
ARC
  5
85
330
73
100
AcDbEntity
  8
0
  6
Continuous
 62
     7
100
AcDbCircle
 10
21.1389077999
 20
2.4481369237
 30
0.0
 40
1.016016213647187
100
AcDbArc
 50
276.7195757122
 51
2.175193988
  0
ARC
  5
86
330
73
100
AcDbEntity
  8
0
  6
Continuous
 62
     7
100
AcDbCircle
 10
20.7435139155
 20
2.07765
 30
0.0
 40
0.6389597056028636
100
AcDbArc
 50
203.800079996
 51
272.0519182535
  0
ARC
  5
87
330
73
100
AcDbEntity
  8
0
  6
Continuous
 62
     7
100
AcDbCircle
 10
24.0737470331
 20
6.0370558604
 30
0.0
 40
1.339576980850944
100
AcDbArc
 50
89.30088674730001
 51
168.3657315406
  0
ARC
  5
88
330
73
100
AcDbEntity
  8
0
  6
Continuous
 62
     7
100
AcDbCircle
 10
20.4626419155
 20
6.2505
 30
0.0
 40
0.3037500000000506
100
AcDbArc
 50
0.0
 51
180.0
  0
ARC
  5
89
330
73
100
AcDbEntity
  8
0
  6
Continuous
 62
     7
100
AcDbCircle
 10
20.4626419155
 20
2.55285
 30
0.0
 40
0.3037500000000506
100
AcDbArc
 50
180.0
 51
360.0
  0
ARC
  5
8A
330
73
100
AcDbEntity
  8
0
  6
Continuous
 62
     7
100
AcDbCircle
 10
20.9320163077
 20
6.1119911977
 30
0.0
 40
1.268134875327391
100
AcDbArc
 50
15.472549735
 51
127.5645400105
  0
ARC
  5
8B
330
73
100
AcDbEntity
  8
0
  6
Continuous
 62
     7
100
AcDbCircle
 10
24.943436798
 20
6.0370558604
 30
0.0
 40
1.339576980850933
100
AcDbArc
 50
11.6342684594
 51
90.6991132527
  0
ARC
  5
8C
330
73
100
AcDbEntity
  8
0
  6
Continuous
 62
     7
100
AcDbCircle
 10
24.5085919155
 20
2.55285
 30
0.0
 40
0.3037499999999369
100
AcDbArc
 50
180.0
 51
360.0
  0
ARC
  5
8D
330
73
100
AcDbEntity
  8
0
  6
Continuous
 62
     7
100
AcDbCircle
 10
24.5085919155
 20
6.2505
 30
0.0
 40
0.3037499999999369
100
AcDbArc
 50
360.0
 51
180.0
  0
LINE
  5
8E
330
73
100
AcDbEntity
  8
0
  6
Continuous
 62
     7
100
AcDbLine
 10
1.0411351344
 20
4.9454249004
 30
0.0
 11
1.0411351344
 21
7.9820762264
 31
0.0
  0
LINE
  5
8F
330
73
100
AcDbEntity
  8
0
  6
Continuous
 62
     7
100
AcDbLine
 10
0.0
 20
3.9042828156
 30
0.0
 11
1.0411420849
 21
3.9042828156
 31
0.0
  0
LINE
  5
90
330
73
100
AcDbEntity
  8
0
  6
Continuous
 62
     7
100
AcDbLine
 10
1.0411351344
 20
3.3234964822
 30
0.0
 11
1.0411351344
 21
3.9042828156
 31
0.0
  0
LINE
  5
91
330
73
100
AcDbEntity
  8
0
  6
Continuous
 62
     7
100
AcDbLine
 10
1.7352298576
 20
8.6761709496
 30
0.0
 11
5.4659889943
 21
8.6761709496
 31
0.0
  0
LINE
  5
92
330
73
100
AcDbEntity
  8
0
  6
Continuous
 62
     7
100
AcDbLine
 10
6.1600837175
 20
6.9843150604
 30
0.0
 11
6.1600837175
 21
7.9820762264
 31
0.0
  0
LINE
  5
93
330
73
100
AcDbEntity
  8
0
  6
Continuous
 62
     7
100
AcDbLine
 10
8.8805182472
 20
7.368665778
 30
0.0
 11
10.2684217256
 21
7.368665778
 31
0.0
  0
LINE
  5
94
330
73
100
AcDbEntity
  8
0
  6
Continuous
 62
     7
100
AcDbLine
 10
8.8805182472
 20
1.4391000979
 30
0.0
 11
10.2684217256
 21
1.4391000979
 31
0.0
  0
LINE
  5
95
330
73
100
AcDbEntity
  8
0
  6
Continuous
 62
     7
100
AcDbLine
 10
10.2580061932
 20
6.2505
 30
0.0
 11
10.2684217256
 21
1.4391000979
 31
0.0
  0
LINE
  5
96
330
73
100
AcDbEntity
  8
0
  6
Continuous
 62
     7
100
AcDbLine
 10
18.1797919155
 20
8.8155
 30
0.0
 11
18.1797919155
 21
1.4391
 31
0.0
  0
LINE
  5
97
330
73
100
AcDbEntity
  8
0
  6
Continuous
 62
     7
100
AcDbLine
 10
16.7892919155
 20
1.4391
 30
0.0
 11
16.7892919155
 21
8.8155
 31
0.0
  0
LINE
  5
98
330
73
100
AcDbEntity
  8
0
  6
Continuous
 62
     7
100
AcDbLine
 10
14.1300230493
 20
1.46772
 30
0.0
 11
14.8992919155
 21
1.46772
 31
0.0
  0
LINE
  5
99
330
73
100
AcDbEntity
  8
0
  6
Continuous
 62
     7
100
AcDbLine
 10
18.1797919155
 20
1.4391
 30
0.0
 11
16.7892919155
 21
1.4391
 31
0.0
  0
LINE
  5
9A
330
73
100
AcDbEntity
  8
0
  6
Continuous
 62
     7
100
AcDbLine
 10
10.8759217256
 20
4.967825778
 30
0.0
 11
12.2640919155
 21
4.967825778
 31
0.0
  0
LINE
  5
9B
330
73
100
AcDbEntity
  8
0
  6
Continuous
 62
     7
100
AcDbLine
 10
10.8655061932
 20
6.2505
 30
0.0
 11
10.8759217256
 21
4.967825778
 31
0.0
  0
LINE
  5
9C
330
73
100
AcDbEntity
  8
0
  6
Continuous
 62
     7
100
AcDbLine
 10
10.2684217256
 20
7.368665778
 30
0.0
 11
10.2684217256
 21
7.174805778
 31
0.0
  0
LINE
  5
9D
330
73
100
AcDbEntity
  8
0
  6
Continuous
 62
     7
100
AcDbLine
 10
12.8715919155
 20
2.538
 30
0.0
 11
12.8715919155
 21
6.298385778
 31
0.0
  0
LINE
  5
9E
330
73
100
AcDbEntity
  8
0
  6
Continuous
 62
     7
100
AcDbLine
 10
12.2640919155
 20
4.967825778
 30
0.0
 11
12.2640919155
 21
6.579725778
 31
0.0
  0
LINE
  5
9F
330
73
100
AcDbEntity
  8
0
  6
Continuous
 62
     7
100
AcDbLine
 10
14.8668919155
 20
3.348365778
 30
0.0
 11
16.1709919155
 21
3.348365778
 31
0.0
  0
LINE
  5
A0
330
73
100
AcDbEntity
  8
0
  6
Continuous
 62
     7
100
AcDbLine
 10
16.1709919155
 20
3.955865778
 30
0.0
 11
14.2593919155
 21
3.955865778
 31
0.0
  0
LINE
  5
A1
330
73
100
AcDbEntity
  8
0
  6
Continuous
 62
     7
100
AcDbLine
 10
14.2593919155
 20
6.2505
 30
0.0
 11
14.2593919155
 21
4.765865778
 31
0.0
  0
LINE
  5
A2
330
73
100
AcDbEntity
  8
0
  6
Continuous
 62
     7
100
AcDbLine
 10
14.8668919155
 20
6.2505
 30
0.0
 11
14.8668919155
 21
4.765865778
 31
0.0
  0
LINE
  5
A3
330
73
100
AcDbEntity
  8
0
  6
Continuous
 62
     7
100
AcDbLine
 10
14.2593919155
 20
3.955865778
 30
0.0
 11
14.2593919155
 21
2.55285
 31
0.0
  0
LINE
  5
A4
330
73
100
AcDbEntity
  8
0
  6
Continuous
 62
     7
100
AcDbLine
 10
14.8668919155
 20
3.348365778
 30
0.0
 11
14.8668919155
 21
2.55285
 31
0.0
  0
LINE
  5
A5
330
73
100
AcDbEntity
  8
0
  6
Continuous
 62
     7
100
AcDbLine
 10
14.2593919155
 20
4.765865778
 30
0.0
 11
14.8668919155
 21
4.765865778
 31
0.0
  0
LINE
  5
A6
330
73
100
AcDbEntity
  8
0
  6
Continuous
 62
     7
100
AcDbLine
 10
14.1300230493
 20
7.368665778
 30
0.0
 11
14.8992919155
 21
7.368665778
 31
0.0
  0
LINE
  5
A7
330
73
100
AcDbEntity
  8
0
  6
Continuous
 62
     7
100
AcDbLine
 10
16.1709919155
 20
3.955865778
 30
0.0
 11
16.1709919155
 21
6.298385778
 31
0.0
  0
LINE
  5
A8
330
73
100
AcDbEntity
  8
0
  6
Continuous
 62
     7
100
AcDbLine
 10
16.1709919155
 20
3.348365778
 30
0.0
 11
16.1709919155
 21
2.538
 31
0.0
  0
LINE
  5
A9
330
73
100
AcDbEntity
  8
0
  6
Continuous
 62
     7
100
AcDbLine
 10
16.7892919155
 20
8.8155
 30
0.0
 11
18.1797919155
 21
8.8155
 31
0.0
  0
LINE
  5
AA
330
73
100
AcDbEntity
  8
0
  6
Continuous
 62
     7
100
AcDbLine
 10
26.8629919155
 20
8.8155
 30
0.0
 11
28.2534919155
 21
8.8155
 31
0.0
  0
LINE
  5
AB
330
73
100
AcDbEntity
  8
0
  6
Continuous
 62
     7
100
AcDbLine
 10
28.2534919155
 20
1.4391
 30
0.0
 11
26.8629919155
 21
1.4391
 31
0.0
  0
LINE
  5
AC
330
73
100
AcDbEntity
  8
0
  6
Continuous
 62
     7
100
AcDbLine
 10
26.8629919155
 20
1.4391
 30
0.0
 11
26.8629919155
 21
8.8155
 31
0.0
  0
LINE
  5
AD
330
73
100
AcDbEntity
  8
0
  6
Continuous
 62
     7
100
AcDbLine
 10
18.7683919155
 20
0.0
 30
0.0
 11
18.7683919155
 21
7.3764
 31
0.0
  0
LINE
  5
AE
330
73
100
AcDbEntity
  8
0
  6
Continuous
 62
     7
100
AcDbLine
 10
20.1588919155
 20
0.0
 30
0.0
 11
18.7683919155
 21
0.0
 31
0.0
  0
LINE
  5
AF
330
73
100
AcDbEntity
  8
0
  6
Continuous
 62
     7
100
AcDbLine
 10
20.1588919155
 20
1.8198
 30
0.0
 11
20.1588919155
 21
0.0
 31
0.0
  0
LINE
  5
B0
330
73
100
AcDbEntity
  8
0
  6
Continuous
 62
     7
100
AcDbLine
 10
20.7663919155
 20
1.4391
 30
0.0
 11
21.2577919155
 21
1.4391
 31
0.0
  0
LINE
  5
B1
330
73
100
AcDbEntity
  8
0
  6
Continuous
 62
     7
100
AcDbLine
 10
24.0900919155
 20
1.4391
 30
0.0
 11
24.9270919155
 21
1.4391
 31
0.0
  0
LINE
  5
B2
330
73
100
AcDbEntity
  8
0
  6
Continuous
 62
     7
100
AcDbLine
 10
20.1588919155
 20
6.2505
 30
0.0
 11
20.1588919155
 21
2.55285
 31
0.0
  0
LINE
  5
B3
330
73
100
AcDbEntity
  8
0
  6
Continuous
 62
     7
100
AcDbLine
 10
18.7683919155
 20
7.3764
 30
0.0
 11
20.1588919155
 21
7.3764
 31
0.0
  0
LINE
  5
B4
330
73
100
AcDbEntity
  8
0
  6
Continuous
 62
     7
100
AcDbLine
 10
20.1588919155
 20
7.3764
 30
0.0
 11
20.1588919155
 21
7.1172
 31
0.0
  0
LINE
  5
B5
330
73
100
AcDbEntity
  8
0
  6
Continuous
 62
     7
100
AcDbLine
 10
22.7616919155
 20
2.5084331213
 30
0.0
 11
22.7616919155
 21
6.3072
 31
0.0
  0
LINE
  5
B6
330
73
100
AcDbEntity
  8
0
  6
Continuous
 62
     7
100
AcDbLine
 10
20.7663919155
 20
6.2505
 30
0.0
 11
20.7663919155
 21
2.55285
 31
0.0
  0
LINE
  5
B7
330
73
100
AcDbEntity
  8
0
  6
Continuous
 62
     7
100
AcDbLine
 10
22.1541919155
 20
6.4503
 30
0.0
 11
22.1541919155
 21
2.4867
 31
0.0
  0
LINE
  5
B8
330
73
100
AcDbEntity
  8
0
  6
Continuous
 62
     7
100
AcDbLine
 10
24.8123419155
 20
6.2505
 30
0.0
 11
24.8123419155
 21
2.55285
 31
0.0
  0
LINE
  5
B9
330
73
100
AcDbEntity
  8
0
  6
Continuous
 62
     7
100
AcDbLine
 10
24.2048419155
 20
6.2505
 30
0.0
 11
24.2048419155
 21
2.55285
 31
0.0
  0
LINE
  5
BA
330
73
100
AcDbEntity
  8
0
  6
Continuous
 62
     7
100
AcDbLine
 10
24.0900919155
 20
7.3765331213
 30
0.0
 11
24.9270919155
 21
7.3765331213
 31
0.0
  0
LINE
  5
BB
330
73
100
AcDbEntity
  8
0
  6
Continuous
 62
     7
100
AcDbLine
 10
26.2554919155
 20
6.3072
 30
0.0
 11
26.2554919155
 21
2.5084331213
 31
0.0
  0
LINE
  5
BC
330
73
100
AcDbEntity
  8
0
  6
Continuous
 62
     7
100
AcDbLine
 10
28.2534919155
 20
8.8155
 30
0.0
 11
28.2534919155
 21
1.4391
 31
0.0
  0
ENDBLK
  5
75
330
73
100
AcDbEntity
  8
0
100
AcDbBlockEnd
  0
BLOCK
  5
18D
330
18C
100
AcDbEntity
  8
0
100
AcDbBlockBegin
  2
_D
 70
     0
 10
0.0
 20
0.0
 30
0.0
  3
_D
  1

  0
LINE
  5
18F
330
18C
100
AcDbEntity
  8
WY
  6
Continuous
 62
     0
370
    -2
100
AcDbLine
 10
419.7120770521609
 20
253.7065165394345
 30
0.0
 11
351.2133493218787
 21
253.7065165394345
 31
0.0
  0
LINE
  5
190
330
18C
100
AcDbEntity
  8
WY
  6
Continuous
 62
     0
370
    -2
100
AcDbLine
 10
464.5120770521609
 20
189.4615766671345
 30
0.0
 11
351.2133493218787
 21
189.4615766671345
 31
0.0
  0
LINE
  5
191
330
18C
100
AcDbEntity
  8
WY
  6
Continuous
 62
     0
370
    -2
100
AcDbLine
 10
351.2133493218787
 20
251.7065165394345
 30
0.0
 11
351.2133493218787
 21
191.4615766671345
 31
0.0
  0
SOLID
  5
192
330
18C
100
AcDbEntity
  8
WY
 62
     0
100
AcDbTrace
 10
351.546682655212
 20
251.7065165394345
 30
0.0
 11
350.8800159885454
 21
251.7065165394345
 31
0.0
 12
351.2133493218787
 22
253.7065165394345
 32
0.0
 13
351.2133493218787
 23
253.7065165394345
 33
0.0
  0
SOLID
  5
193
330
18C
100
AcDbEntity
  8
WY
 62
     0
100
AcDbTrace
 10
350.8800159885454
 20
191.4615766671345
 30
0.0
 11
351.546682655212
 21
191.4615766671345
 31
0.0
 12
351.2133493218787
 22
189.4615766671345
 32
0.0
 13
351.2133493218787
 23
189.4615766671345
 33
0.0
  0
MTEXT
  5
194
330
18C
100
AcDbEntity
  8
WY
 62
     0
100
AcDbMText
 10
348.7133493218787
 20
221.5840466032345
 30
0.0
 40
3.0
 41
0.0
 46
0.0
 71
     5
 72
     1
  1
\A1;64,5
  7
SLDTEXTSTYLE0
 11
0.0
 21
1.0
 31
0.0
 73
     1
 44
1.0
  0
POINT
  5
8FA
330
18C
100
AcDbEntity
  8
Defpoints
 62
     0
100
AcDbPoint
 10
419.7745770521609
 20
253.7065165394345
 30
0.0
  0
POINT
  5
8FB
330
18C
100
AcDbEntity
  8
Defpoints
 62
     0
100
AcDbPoint
 10
464.5745770521609
 20
189.4615766671345
 30
0.0
  0
POINT
  5
8FC
330
18C
100
AcDbEntity
  8
Defpoints
 62
     0
100
AcDbPoint
 10
351.2133493218787
 20
189.4615766671345
 30
0.0
  0
ENDBLK
  5
18E
330
18C
100
AcDbEntity
  8
0
100
AcDbBlockEnd
  0
BLOCK
  5
198
330
197
100
AcDbEntity
  8
0
100
AcDbBlockBegin
  2
_D_1
 70
     0
 10
0.0
 20
0.0
 30
0.0
  3
_D_1
  1

  0
LINE
  5
19A
330
197
100
AcDbEntity
  8
WY
  6
Continuous
 62
     0
370
    -2
100
AcDbLine
 10
370.3833039199609
 20
192.8990766671345
 30
0.0
 11
370.3833039199609
 21
161.4615766671345
 31
0.0
  0
LINE
  5
19B
330
197
100
AcDbEntity
  8
WY
  6
Continuous
 62
     0
370
    -2
100
AcDbLine
 10
469.1658501843609
 20
192.8990766671345
 30
0.0
 11
469.1658501843609
 21
161.4615766671345
 31
0.0
  0
LINE
  5
19C
330
197
100
AcDbEntity
  8
WY
  6
Continuous
 62
     0
370
    -2
100
AcDbLine
 10
372.3833039199609
 20
161.4615766671345
 30
0.0
 11
467.1658501843609
 21
161.4615766671345
 31
0.0
  0
SOLID
  5
19D
330
197
100
AcDbEntity
  8
WY
 62
     0
100
AcDbTrace
 10
372.3833039199609
 20
161.7949100004678
 30
0.0
 11
372.3833039199609
 21
161.1282433338011
 31
0.0
 12
370.3833039199609
 22
161.4615766671345
 32
0.0
 13
370.3833039199609
 23
161.4615766671345
 33
0.0
  0
SOLID
  5
19E
330
197
100
AcDbEntity
  8
WY
 62
     0
100
AcDbTrace
 10
467.1658501843609
 20
161.1282433338011
 30
0.0
 11
467.1658501843609
 21
161.7949100004678
 31
0.0
 12
469.1658501843609
 22
161.4615766671345
 32
0.0
 13
469.1658501843609
 23
161.4615766671345
 33
0.0
  0
MTEXT
  5
19F
330
197
100
AcDbEntity
  8
WY
 62
     0
100
AcDbMText
 10
419.7745770521609
 20
163.7115766671345
 30
0.0
 40
3.0
 41
0.0
 46
0.0
 71
     5
 72
     1
  1
\A1;98.8
  7
SLDTEXTSTYLE0
 73
     1
 44
1.0
  0
POINT
  5
8FD
330
197
100
AcDbEntity
  8
Defpoints
 62
     0
100
AcDbPoint
 10
370.3833039199609
 20
192.9615766671345
 30
0.0
  0
POINT
  5
8FE
330
197
100
AcDbEntity
  8
Defpoints
 62
     0
100
AcDbPoint
 10
469.1658501843609
 20
192.9615766671345
 30
0.0
  0
POINT
  5
8FF
330
197
100
AcDbEntity
  8
Defpoints
 62
     0
100
AcDbPoint
 10
469.1658501843609
 20
161.4615766671345
 30
0.0
  0
ENDBLK
  5
199
330
197
100
AcDbEntity
  8
0
100
AcDbBlockEnd
  0
BLOCK
  5
1A3
330
1A2
100
AcDbEntity
  8
0
100
AcDbBlockBegin
  2
_D_2
 70
     0
 10
0.0
 20
0.0
 30
0.0
  3
_D_2
  1

  0
LINE
  5
1A5
330
1A2
100
AcDbEntity
  8
WY
  6
Continuous
 62
     0
370
    -2
100
AcDbLine
 10
397.2745770521609
 20
252.4162469364969
 30
0.0
 11
397.2745770521609
 21
265.6910095214344
 31
0.0
  0
LINE
  5
1A6
330
1A2
100
AcDbEntity
  8
WY
  6
Continuous
 62
     0
370
    -2
100
AcDbLine
 10
442.2745770521609
 20
252.2550214417345
 30
0.0
 11
442.2745770521609
 21
265.6910095214344
 31
0.0
  0
LINE
  5
1A7
330
1A2
100
AcDbEntity
  8
WY
  6
Continuous
 62
     0
370
    -2
100
AcDbLine
 10
399.2745770521609
 20
265.6910095214344
 30
0.0
 11
440.2745770521609
 21
265.6910095214344
 31
0.0
  0
SOLID
  5
1A8
330
1A2
100
AcDbEntity
  8
WY
 62
     0
100
AcDbTrace
 10
399.2745770521609
 20
266.0243428547677
 30
0.0
 11
399.2745770521609
 21
265.3576761881011
 31
0.0
 12
397.2745770521609
 22
265.6910095214344
 32
0.0
 13
397.2745770521609
 23
265.6910095214344
 33
0.0
  0
SOLID
  5
1A9
330
1A2
100
AcDbEntity
  8
WY
 62
     0
100
AcDbTrace
 10
440.2745770521609
 20
265.3576761881011
 30
0.0
 11
440.2745770521609
 21
266.0243428547677
 31
0.0
 12
442.2745770521609
 22
265.6910095214344
 32
0.0
 13
442.2745770521609
 23
265.6910095214344
 33
0.0
  0
MTEXT
  5
1AA
330
1A2
100
AcDbEntity
  8
WY
 62
     0
100
AcDbMText
 10
419.7745770521609
 20
267.9410095214344
 30
0.0
 40
3.0
 41
0.0
 46
0.0
 71
     5
 72
     1
  1
\A1;45
  7
SLDTEXTSTYLE0
 73
     1
 44
1.0
  0
POINT
  5
900
330
1A2
100
AcDbEntity
  8
Defpoints
 62
     0
100
AcDbPoint
 10
397.2745770521609
 20
252.3537469364969
 30
0.0
  0
POINT
  5
901
330
1A2
100
AcDbEntity
  8
Defpoints
 62
     0
100
AcDbPoint
 10
442.2745770521609
 20
252.1925214417345
 30
0.0
  0
POINT
  5
902
330
1A2
100
AcDbEntity
  8
Defpoints
 62
     0
100
AcDbPoint
 10
442.2745770521609
 20
265.6910095214344
 30
0.0
  0
ENDBLK
  5
1A4
330
1A2
100
AcDbEntity
  8
0
100
AcDbBlockEnd
  0
BLOCK
  5
1AE
330
1AD
100
AcDbEntity
  8
0
100
AcDbBlockBegin
  2
_D_3
 70
     0
 10
0.0
 20
0.0
 30
0.0
  3
_D_3
  1

  0
LINE
  5
1B0
330
1AD
100
AcDbEntity
  8
WY
  6
Continuous
 62
     0
370
    -2
100
AcDbLine
 10
468.1432110289609
 20
192.9615766671345
 30
0.0
 11
475.6495871952609
 21
192.9615766671345
 31
0.0
  0
LINE
  5
1B1
330
1AD
100
AcDbEntity
  8
WY
  6
Continuous
 62
     0
370
    -2
100
AcDbLine
 10
464.6370770521609
 20
189.4615766671345
 30
0.0
 11
475.6495871952609
 21
189.4615766671345
 31
0.0
  0
LINE
  5
1B2
330
1AD
100
AcDbEntity
  8
WY
  6
Continuous
 62
     0
370
    -2
100
AcDbLine
 10
475.6495871952609
 20
192.9615766671345
 30
0.0
 11
475.6495871952609
 21
202.9615766671345
 31
0.0
  0
LINE
  5
1B3
330
1AD
100
AcDbEntity
  8
WY
  6
Continuous
 62
     0
370
    -2
100
AcDbLine
 10
475.6495871952609
 20
192.9615766671345
 30
0.0
 11
475.6495871952609
 21
189.4615766671345
 31
0.0
  0
LINE
  5
1B4
330
1AD
100
AcDbEntity
  8
WY
  6
Continuous
 62
     0
370
    -2
100
AcDbLine
 10
475.6495871952609
 20
194.9615766671345
 30
0.0
 11
475.6495871952609
 21
196.9615766671345
 31
0.0
  0
LINE
  5
1B5
330
1AD
100
AcDbEntity
  8
WY
  6
Continuous
 62
     0
370
    -2
100
AcDbLine
 10
475.6495871952609
 20
187.4615766671345
 30
0.0
 11
475.6495871952609
 21
185.4615766671345
 31
0.0
  0
SOLID
  5
1B6
330
1AD
100
AcDbEntity
  8
WY
 62
     0
100
AcDbTrace
 10
475.3162538619276
 20
194.9615766671345
 30
0.0
 11
475.9829205285942
 21
194.9615766671345
 31
0.0
 12
475.6495871952609
 22
192.9615766671345
 32
0.0
 13
475.6495871952609
 23
192.9615766671345
 33
0.0
  0
SOLID
  5
1B7
330
1AD
100
AcDbEntity
  8
WY
 62
     0
100
AcDbTrace
 10
475.9829205285942
 20
187.4615766671345
 30
0.0
 11
475.3162538619276
 21
187.4615766671345
 31
0.0
 12
475.6495871952609
 22
189.4615766671345
 32
0.0
 13
475.6495871952609
 23
189.4615766671345
 33
0.0
  0
MTEXT
  5
903
330
1AD
100
AcDbEntity
  8
WY
 62
     0
100
AcDbMText
 10
473.3995871952609
 20
199.9615766671345
 30
0.0
 40
3.0
 41
0.0
 46
0.0
 71
     5
 72
     1
  1
\A1;3.5
  7
SLDTEXTSTYLE0
 11
0.0
 21
1.0
 31
0.0
 73
     1
 44
1.0
  0
POINT
  5
904
330
1AD
100
AcDbEntity
  8
Defpoints
 62
     0
100
AcDbPoint
 10
468.0807110289609
 20
192.9615766671345
 30
0.0
  0
POINT
  5
905
330
1AD
100
AcDbEntity
  8
Defpoints
 62
     0
100
AcDbPoint
 10
464.5745770521609
 20
189.4615766671345
 30
0.0
  0
POINT
  5
906
330
1AD
100
AcDbEntity
  8
Defpoints
 62
     0
100
AcDbPoint
 10
475.6495871952609
 20
189.4615766671345
 30
0.0
  0
ENDBLK
  5
1AF
330
1AD
100
AcDbEntity
  8
0
100
AcDbBlockEnd
  0
BLOCK
  5
1BA
330
1B9
100
AcDbEntity
  8
0
100
AcDbBlockBegin
  2
_D_4
 70
     0
 10
0.0
 20
0.0
 30
0.0
  3
_D_4
  1

  0
LINE
  5
1BC
330
1B9
100
AcDbEntity
  8
WY
  6
Continuous
 62
     0
370
    -2
100
AcDbLine
 10
386.8120770521609
 20
236.9615766671345
 30
0.0
 11
356.7409515309109
 21
236.9615766671345
 31
0.0
  0
LINE
  5
1BD
330
1B9
100
AcDbEntity
  8
WY
  6
Continuous
 62
     0
370
    -2
100
AcDbLine
 10
371.4059430752609
 20
192.9615766671345
 30
0.0
 11
356.7409515309109
 21
192.9615766671345
 31
0.0
  0
LINE
  5
1BE
330
1B9
100
AcDbEntity
  8
WY
  6
Continuous
 62
     0
370
    -2
100
AcDbLine
 10
356.7409515309109
 20
234.9615766671345
 30
0.0
 11
356.7409515309109
 21
194.9615766671345
 31
0.0
  0
SOLID
  5
1BF
330
1B9
100
AcDbEntity
  8
WY
 62
     0
100
AcDbTrace
 10
357.0742848642442
 20
234.9615766671345
 30
0.0
 11
356.4076181975776
 21
234.9615766671345
 31
0.0
 12
356.7409515309109
 22
236.9615766671345
 32
0.0
 13
356.7409515309109
 23
236.9615766671345
 33
0.0
  0
SOLID
  5
1C0
330
1B9
100
AcDbEntity
  8
WY
 62
     0
100
AcDbTrace
 10
356.4076181975776
 20
194.9615766671345
 30
0.0
 11
357.0742848642442
 21
194.9615766671345
 31
0.0
 12
356.7409515309109
 22
192.9615766671345
 32
0.0
 13
356.7409515309109
 23
192.9615766671345
 33
0.0
  0
MTEXT
  5
1C1
330
1B9
100
AcDbEntity
  8
WY
 62
     0
100
AcDbMText
 10
354.4909515309109
 20
214.9615766671345
 30
0.0
 40
3.0
 41
0.0
 46
0.0
 71
     5
 72
     1
  1
\A1;44
  7
SLDTEXTSTYLE0
 11
0.0
 21
1.0
 31
0.0
 73
     1
 44
1.0
  0
POINT
  5
907
330
1B9
100
AcDbEntity
  8
Defpoints
 62
     0
100
AcDbPoint
 10
386.8745770521609
 20
236.9615766671345
 30
0.0
  0
POINT
  5
908
330
1B9
100
AcDbEntity
  8
Defpoints
 62
     0
100
AcDbPoint
 10
371.4684430752609
 20
192.9615766671345
 30
0.0
  0
POINT
  5
909
330
1B9
100
AcDbEntity
  8
Defpoints
 62
     0
100
AcDbPoint
 10
356.7409515309109
 20
192.9615766671345
 30
0.0
  0
ENDBLK
  5
1BB
330
1B9
100
AcDbEntity
  8
0
100
AcDbBlockEnd
  0
BLOCK
  5
1C4
330
1C3
100
AcDbEntity
  8
0
100
AcDbBlockBegin
  2
_D_5
 70
     0
 10
0.0
 20
0.0
 30
0.0
  3
_D_5
  1

  0
LINE
  5
1C6
330
1C3
100
AcDbEntity
  8
WY
  6
Continuous
 62
     0
370
    -2
100
AcDbLine
 10
402.0745770521609
 20
189.3990766671345
 30
0.0
 11
402.0745770521609
 21
179.4615766671345
 31
0.0
  0
LINE
  5
1C7
330
1C3
100
AcDbEntity
  8
WY
  6
Continuous
 62
     0
370
    -2
100
AcDbLine
 10
437.4745770521608
 20
189.3990766671345
 30
0.0
 11
437.4745770521608
 21
179.4615766671345
 31
0.0
  0
LINE
  5
1C8
330
1C3
100
AcDbEntity
  8
WY
  6
Continuous
 62
     0
370
    -2
100
AcDbLine
 10
404.0745770521609
 20
179.4615766671345
 30
0.0
 11
435.4745770521608
 21
179.4615766671345
 31
0.0
  0
SOLID
  5
1C9
330
1C3
100
AcDbEntity
  8
WY
 62
     0
100
AcDbTrace
 10
404.0745770521609
 20
179.7949100004678
 30
0.0
 11
404.0745770521609
 21
179.1282433338011
 31
0.0
 12
402.0745770521609
 22
179.4615766671345
 32
0.0
 13
402.0745770521609
 23
179.4615766671345
 33
0.0
  0
SOLID
  5
1CA
330
1C3
100
AcDbEntity
  8
WY
 62
     0
100
AcDbTrace
 10
435.4745770521608
 20
179.1282433338011
 30
0.0
 11
435.4745770521608
 21
179.7949100004678
 31
0.0
 12
437.4745770521608
 22
179.4615766671345
 32
0.0
 13
437.4745770521608
 23
179.4615766671345
 33
0.0
  0
MTEXT
  5
1CB
330
1C3
100
AcDbEntity
  8
WY
 62
     0
100
AcDbMText
 10
419.7745770521609
 20
181.7115766671345
 30
0.0
 40
3.0
 41
0.0
 46
0.0
 71
     5
 72
     1
  1
\A1;35.4
  7
SLDTEXTSTYLE0
 73
     1
 44
1.0
  0
POINT
  5
90A
330
1C3
100
AcDbEntity
  8
Defpoints
 62
     0
100
AcDbPoint
 10
402.0745770521609
 20
189.4615766671345
 30
0.0
  0
POINT
  5
90B
330
1C3
100
AcDbEntity
  8
Defpoints
 62
     0
100
AcDbPoint
 10
437.4745770521608
 20
189.4615766671345
 30
0.0
  0
POINT
  5
90C
330
1C3
100
AcDbEntity
  8
Defpoints
 62
     0
100
AcDbPoint
 10
437.4745770521608
 20
179.4615766671345
 30
0.0
  0
ENDBLK
  5
1C5
330
1C3
100
AcDbEntity
  8
0
100
AcDbBlockEnd
  0
BLOCK
  5
1CE
330
1CD
100
AcDbEntity
  8
0
100
AcDbBlockBegin
  2
_D_6
 70
     0
 10
0.0
 20
0.0
 30
0.0
  3
_D_6
  1

  0
LINE
  5
1D0
330
1CD
100
AcDbEntity
  8
WY
  6
Continuous
 62
     0
370
    -2
100
AcDbLine
 10
374.7745770521609
 20
189.5990766671345
 30
0.0
 11
374.7745770521609
 21
170.4615766671345
 31
0.0
  0
LINE
  5
1D1
330
1CD
100
AcDbEntity
  8
WY
  6
Continuous
 62
     0
370
    -2
100
AcDbLine
 10
464.7745770521609
 20
189.5990766671345
 30
0.0
 11
464.7745770521609
 21
170.4615766671345
 31
0.0
  0
LINE
  5
1D2
330
1CD
100
AcDbEntity
  8
WY
  6
Continuous
 62
     0
370
    -2
100
AcDbLine
 10
376.7745770521609
 20
170.4615766671345
 30
0.0
 11
462.7745770521609
 21
170.4615766671345
 31
0.0
  0
SOLID
  5
1D3
330
1CD
100
AcDbEntity
  8
WY
 62
     0
100
AcDbTrace
 10
376.7745770521609
 20
170.7949100004678
 30
0.0
 11
376.7745770521609
 21
170.1282433338011
 31
0.0
 12
374.7745770521609
 22
170.4615766671345
 32
0.0
 13
374.7745770521609
 23
170.4615766671345
 33
0.0
  0
SOLID
  5
1D4
330
1CD
100
AcDbEntity
  8
WY
 62
     0
100
AcDbTrace
 10
462.7745770521609
 20
170.1282433338011
 30
0.0
 11
462.7745770521609
 21
170.7949100004678
 31
0.0
 12
464.7745770521609
 22
170.4615766671345
 32
0.0
 13
464.7745770521609
 23
170.4615766671345
 33
0.0
  0
MTEXT
  5
1D5
330
1CD
100
AcDbEntity
  8
WY
 62
     0
100
AcDbMText
 10
419.7745770521609
 20
172.7115766671345
 30
0.0
 40
3.0
 41
0.0
 46
0.0
 71
     5
 72
     1
  1
\A1;90
  7
SLDTEXTSTYLE0
 73
     1
 44
1.0
  0
POINT
  5
90D
330
1CD
100
AcDbEntity
  8
Defpoints
 62
     0
100
AcDbPoint
 10
374.7745770521609
 20
189.6615766671345
 30
0.0
  0
POINT
  5
90E
330
1CD
100
AcDbEntity
  8
Defpoints
 62
     0
100
AcDbPoint
 10
464.7745770521609
 20
189.6615766671345
 30
0.0
  0
POINT
  5
90F
330
1CD
100
AcDbEntity
  8
Defpoints
 62
     0
100
AcDbPoint
 10
464.7745770521609
 20
170.4615766671345
 30
0.0
  0
ENDBLK
  5
1CF
330
1CD
100
AcDbEntity
  8
0
100
AcDbBlockEnd
  0
BLOCK
  5
2F5
330
2F4
100
AcDbEntity
  8
0
100
AcDbBlockBegin
  2
_D_7
 70
     0
 10
0.0
 20
0.0
 30
0.0
  3
_D_7
  1

  0
LINE
  5
2F7
330
2F4
100
AcDbEntity
  8
WY
  6
Continuous
 62
     0
370
    -2
100
AcDbLine
 10
464.0370770521608
 20
125.4135409588345
 30
0.0
 11
481.7453071364608
 21
125.4135409588345
 31
0.0
  0
LINE
  5
2F8
330
2F4
100
AcDbEntity
  8
WY
  6
Continuous
 62
     0
370
    -2
100
AcDbLine
 10
464.0370770521608
 20
142.9135409588345
 30
0.0
 11
481.7453071364608
 21
142.9135409588345
 31
0.0
  0
LINE
  5
2F9
330
2F4
100
AcDbEntity
  8
WY
  6
Continuous
 62
     0
370
    -2
100
AcDbLine
 10
481.7453071364608
 20
127.4135409588345
 30
0.0
 11
481.7453071364608
 21
140.9135409588345
 31
0.0
  0
SOLID
  5
2FA
330
2F4
100
AcDbEntity
  8
WY
 62
     0
100
AcDbTrace
 10
481.4119738031275
 20
127.4135409588345
 30
0.0
 11
482.0786404697942
 21
127.4135409588345
 31
0.0
 12
481.7453071364608
 22
125.4135409588345
 32
0.0
 13
481.7453071364608
 23
125.4135409588345
 33
0.0
  0
SOLID
  5
2FB
330
2F4
100
AcDbEntity
  8
WY
 62
     0
100
AcDbTrace
 10
482.0786404697942
 20
140.9135409588345
 30
0.0
 11
481.4119738031275
 21
140.9135409588345
 31
0.0
 12
481.7453071364608
 22
142.9135409588345
 32
0.0
 13
481.7453071364608
 23
142.9135409588345
 33
0.0
  0
MTEXT
  5
2FC
330
2F4
100
AcDbEntity
  8
WY
 62
     0
100
AcDbMText
 10
479.4953071364608
 20
134.1635409588345
 30
0.0
 40
3.0
 41
0.0
 46
0.0
 71
     5
 72
     1
  1
\A1;17.5
  7
SLDTEXTSTYLE0
 11
0.0
 21
1.0
 31
0.0
 73
     1
 44
1.0
  0
POINT
  5
910
330
2F4
100
AcDbEntity
  8
Defpoints
 62
     0
100
AcDbPoint
 10
463.9745770521608
 20
125.4135409588345
 30
0.0
  0
POINT
  5
911
330
2F4
100
AcDbEntity
  8
Defpoints
 62
     0
100
AcDbPoint
 10
463.9745770521608
 20
142.9135409588345
 30
0.0
  0
POINT
  5
912
330
2F4
100
AcDbEntity
  8
Defpoints
 62
     0
100
AcDbPoint
 10
481.7453071364608
 20
142.9135409588345
 30
0.0
  0
ENDBLK
  5
2F6
330
2F4
100
AcDbEntity
  8
0
100
AcDbBlockEnd
  0
BLOCK
  5
46B
330
46A
100
AcDbEntity
  8
0
100
AcDbBlockBegin
  2
_D_8
 70
     0
 10
0.0
 20
0.0
 30
0.0
  3
_D_8
  1

  0
LINE
  5
46D
330
46A
100
AcDbEntity
  8
WY
  6
Continuous
 62
     0
370
    -2
100
AcDbLine
 10
464.8625916705608
 20
90.87494911273444
 30
0.0
 11
482.0956485336609
 21
90.87494911273444
 31
0.0
  0
LINE
  5
46E
330
46A
100
AcDbEntity
  8
WY
  6
Continuous
 62
     0
370
    -2
100
AcDbLine
 10
464.8625916705608
 20
108.3749491127344
 30
0.0
 11
482.0956485336609
 21
108.3749491127344
 31
0.0
  0
LINE
  5
46F
330
46A
100
AcDbEntity
  8
WY
  6
Continuous
 62
     0
370
    -2
100
AcDbLine
 10
482.0956485336609
 20
92.87494911273444
 30
0.0
 11
482.0956485336609
 21
106.3749491127344
 31
0.0
  0
SOLID
  5
470
330
46A
100
AcDbEntity
  8
WY
 62
     0
100
AcDbTrace
 10
481.7623152003276
 20
92.87494911273444
 30
0.0
 11
482.4289818669942
 21
92.87494911273444
 31
0.0
 12
482.0956485336609
 22
90.87494911273444
 32
0.0
 13
482.0956485336609
 23
90.87494911273444
 33
0.0
  0
SOLID
  5
471
330
46A
100
AcDbEntity
  8
WY
 62
     0
100
AcDbTrace
 10
482.4289818669942
 20
106.3749491127344
 30
0.0
 11
481.7623152003276
 21
106.3749491127344
 31
0.0
 12
482.0956485336609
 22
108.3749491127344
 32
0.0
 13
482.0956485336609
 23
108.3749491127344
 33
0.0
  0
MTEXT
  5
472
330
46A
100
AcDbEntity
  8
WY
 62
     0
100
AcDbMText
 10
479.8456485336609
 20
99.62494911273444
 30
0.0
 40
3.0
 41
0.0
 46
0.0
 71
     5
 72
     1
  1
\A1;17.5
  7
SLDTEXTSTYLE0
 11
0.0
 21
1.0
 31
0.0
 73
     1
 44
1.0
  0
POINT
  5
913
330
46A
100
AcDbEntity
  8
Defpoints
 62
     0
100
AcDbPoint
 10
464.8000916705608
 20
90.87494911273444
 30
0.0
  0
POINT
  5
914
330
46A
100
AcDbEntity
  8
Defpoints
 62
     0
100
AcDbPoint
 10
464.8000916705608
 20
108.3749491127344
 30
0.0
  0
POINT
  5
915
330
46A
100
AcDbEntity
  8
Defpoints
 62
     0
100
AcDbPoint
 10
482.0956485336609
 20
108.3749491127344
 30
0.0
  0
ENDBLK
  5
46C
330
46A
100
AcDbEntity
  8
0
100
AcDbBlockEnd
  0
BLOCK
  5
2538
330
2537
100
AcDbEntity
  8
0
100
AcDbBlockBegin
  2
*D103
 70
     1
 10
0.0
 20
0.0
 30
0.0
  3
*D103
  1

  0
LINE
  5
253A
330
2537
100
AcDbEntity
  8
WY
 62
     0
370
    -2
100
AcDbLine
 10
59.44575697641352
 20
148.8516121345776
 30
0.0
 11
45.80340334846358
 21
148.8516121345776
 31
0.0
  0
LINE
  5
253B
330
2537
100
AcDbEntity
  8
WY
 62
     0
370
    -2
100
AcDbLine
 10
64.03702886971348
 20
145.3516120519776
 30
0.0
 11
45.80340334846358
 21
145.3516120519776
 31
0.0
  0
LINE
  5
253C
330
2537
100
AcDbEntity
  8
WY
 62
     0
370
    -2
100
AcDbLine
 10
46.80340334846358
 20
148.8516121345776
 30
0.0
 11
46.80340334846358
 21
132.3036120519776
 31
0.0
  0
LINE
  5
253D
330
2537
100
AcDbEntity
  8
WY
 62
     0
370
    -2
100
AcDbLine
 10
46.80340334846358
 20
148.8516121345776
 30
0.0
 11
46.80340334846358
 21
145.3516120519776
 31
0.0
  0
LINE
  5
253E
330
2537
100
AcDbEntity
  8
WY
 62
     0
370
    -2
100
AcDbLine
 10
46.80340334846358
 20
150.8516121345776
 30
0.0
 11
46.80340334846358
 21
152.8516121345776
 31
0.0
  0
SOLID
  5
253F
330
2537
100
AcDbEntity
  8
WY
 62
     0
100
AcDbTrace
 10
46.47007001513024
 20
150.8516121345776
 30
0.0
 11
47.13673668179691
 21
150.8516121345776
 31
0.0
 12
46.80340334846358
 22
148.8516121345776
 32
0.0
 13
46.80340334846358
 23
148.8516121345776
 33
0.0
  0
SOLID
  5
2540
330
2537
100
AcDbEntity
  8
WY
 62
     0
100
AcDbTrace
 10
47.13673668179691
 20
143.3516120519776
 30
0.0
 11
46.47007001513024
 21
143.3516120519776
 31
0.0
 12
46.80340334846358
 22
145.3516120519776
 32
0.0
 13
46.80340334846358
 23
145.3516120519776
 33
0.0
  0
MTEXT
  5
2541
330
2537
100
AcDbEntity
  8
WY
 62
     0
100
AcDbMText
 10
43.77940334846357
 20
136.8276120519776
 30
0.0
 40
3.0
 41
0.0
 46
0.0
 71
     5
 72
     1
  1
3.5
 11
0.0
 21
1.0
 31
0.0
 73
     1
 44
1.0
  0
POINT
  5
2542
330
2537
100
AcDbEntity
  8
Defpoints
 62
     0
100
AcDbPoint
 10
60.44575697641352
 20
148.8516121345776
 30
0.0
  0
POINT
  5
2543
330
2537
100
AcDbEntity
  8
Defpoints
 62
     0
100
AcDbPoint
 10
65.03702886971348
 20
145.3516120519776
 30
0.0
  0
POINT
  5
2544
330
2537
100
AcDbEntity
  8
Defpoints
 62
     0
100
AcDbPoint
 10
46.80340334846358
 20
145.3516120519776
 30
0.0
  0
ENDBLK
  5
2539
330
2537
100
AcDbEntity
  8
0
100
AcDbBlockEnd
  0
BLOCK
  5
2546
330
2545
100
AcDbEntity
  8
0
100
AcDbBlockBegin
  2
*D104
 70
     1
 10
0.0
 20
0.0
 30
0.0
  3
*D104
  1

  0
LINE
  5
2548
330
2545
100
AcDbEntity
  8
WY
 62
     0
370
    -2
100
AcDbLine
 10
64.6370288697135
 20
172.8516120519776
 30
0.0
 11
52.41209586975395
 21
172.8516120519776
 31
0.0
  0
LINE
  5
2549
330
2545
100
AcDbEntity
  8
WY
 62
     0
370
    -2
100
AcDbLine
 10
56.88858453770382
 20
148.8516121345776
 30
0.0
 11
52.41209586975395
 21
148.8516121345776
 31
0.0
  0
LINE
  5
254A
330
2545
100
AcDbEntity
  8
WY
 62
     0
370
    -2
100
AcDbLine
 10
53.41209586975395
 20
170.8516120519776
 30
0.0
 11
53.41209586975395
 21
150.8516121345776
 31
0.0
  0
SOLID
  5
254B
330
2545
100
AcDbEntity
  8
WY
 62
     0
100
AcDbTrace
 10
53.74542920308729
 20
170.8516120519776
 30
0.0
 11
53.07876253642062
 21
170.8516120519776
 31
0.0
 12
53.41209586975395
 22
172.8516120519776
 32
0.0
 13
53.41209586975395
 23
172.8516120519776
 33
0.0
  0
SOLID
  5
254C
330
2545
100
AcDbEntity
  8
WY
 62
     0
100
AcDbTrace
 10
53.07876253642062
 20
150.8516121345776
 30
0.0
 11
53.74542920308729
 21
150.8516121345776
 31
0.0
 12
53.41209586975395
 22
148.8516121345776
 32
0.0
 13
53.41209586975395
 23
148.8516121345776
 33
0.0
  0
MTEXT
  5
254D
330
2545
100
AcDbEntity
  8
WY
 62
     0
100
AcDbMText
 10
50.38809586975395
 20
160.8516120932777
 30
0.0
 40
3.0
 41
0.0
 46
0.0
 71
     5
 72
     1
  1
24
 11
0.0
 21
1.0
 31
0.0
 73
     1
 44
1.0
  0
POINT
  5
254E
330
2545
100
AcDbEntity
  8
Defpoints
 62
     0
100
AcDbPoint
 10
65.6370288697135
 20
172.8516120519776
 30
0.0
  0
POINT
  5
254F
330
2545
100
AcDbEntity
  8
Defpoints
 62
     0
100
AcDbPoint
 10
57.88858453770382
 20
148.8516121345776
 30
0.0
  0
POINT
  5
2550
330
2545
100
AcDbEntity
  8
Defpoints
 62
     0
100
AcDbPoint
 10
53.41209586975395
 20
148.8516121345776
 30
0.0
  0
ENDBLK
  5
2547
330
2545
100
AcDbEntity
  8
0
100
AcDbBlockEnd
  0
BLOCK
  5
2552
330
2551
100
AcDbEntity
  8
0
100
AcDbBlockBegin
  2
*D105
 70
     1
 10
0.0
 20
0.0
 30
0.0
  3
*D105
  1

  0
LINE
  5
2554
330
2551
100
AcDbEntity
  8
WY
 62
     0
370
    -2
100
AcDbLine
 10
75.93702853191348
 20
192.8516109648776
 30
0.0
 11
45.80340334846358
 21
192.8516109648776
 31
0.0
  0
LINE
  5
2555
330
2551
100
AcDbEntity
  8
WY
 62
     0
370
    -2
100
AcDbLine
 10
59.44575697641352
 20
148.8516121345776
 30
0.0
 11
45.80340334846358
 21
148.8516121345776
 31
0.0
  0
LINE
  5
2556
330
2551
100
AcDbEntity
  8
WY
 62
     0
370
    -2
100
AcDbLine
 10
46.80340334846358
 20
190.8516109648776
 30
0.0
 11
46.80340334846358
 21
150.8516121345776
 31
0.0
  0
SOLID
  5
2557
330
2551
100
AcDbEntity
  8
WY
 62
     0
100
AcDbTrace
 10
47.13673668179691
 20
190.8516109648776
 30
0.0
 11
46.47007001513024
 21
190.8516109648776
 31
0.0
 12
46.80340334846358
 22
192.8516109648776
 32
0.0
 13
46.80340334846358
 23
192.8516109648776
 33
0.0
  0
SOLID
  5
2558
330
2551
100
AcDbEntity
  8
WY
 62
     0
100
AcDbTrace
 10
46.47007001513024
 20
150.8516121345776
 30
0.0
 11
47.13673668179691
 21
150.8516121345776
 31
0.0
 12
46.80340334846358
 22
148.8516121345776
 32
0.0
 13
46.80340334846358
 23
148.8516121345776
 33
0.0
  0
MTEXT
  5
2559
330
2551
100
AcDbEntity
  8
WY
 62
     0
100
AcDbMText
 10
43.77940334846357
 20
170.8516115497276
 30
0.0
 40
3.0
 41
0.0
 46
0.0
 71
     5
 72
     1
  1
44
 11
0.0
 21
1.0
 31
0.0
 73
     1
 44
1.0
  0
POINT
  5
255A
330
2551
100
AcDbEntity
  8
Defpoints
 62
     0
100
AcDbPoint
 10
76.93702853191348
 20
192.8516109648776
 30
0.0
  0
POINT
  5
255B
330
2551
100
AcDbEntity
  8
Defpoints
 62
     0
100
AcDbPoint
 10
60.44575697641352
 20
148.8516121345776
 30
0.0
  0
POINT
  5
255C
330
2551
100
AcDbEntity
  8
Defpoints
 62
     0
100
AcDbPoint
 10
46.80340334846358
 20
148.8516121345776
 30
0.0
  0
ENDBLK
  5
2553
330
2551
100
AcDbEntity
  8
0
100
AcDbBlockEnd
  0
BLOCK
  5
255E
330
255D
100
AcDbEntity
  8
0
100
AcDbBlockBegin
  2
*D106
 70
     1
 10
0.0
 20
0.0
 30
0.0
  3
*D106
  1

  0
LINE
  5
2560
330
255D
100
AcDbEntity
  8
WY
 62
     0
370
    -2
100
AcDbLine
 10
64.03702825771347
 20
145.3516124921776
 30
0.0
 11
39.85983203713999
 21
145.3516124921776
 31
0.0
  0
LINE
  5
2561
330
255D
100
AcDbEntity
  8
WY
 62
     0
370
    -2
100
AcDbLine
 10
108.8370288697134
 20
209.8565519242777
 30
0.0
 11
39.85983203714
 21
209.8565519242777
 31
0.0
  0
LINE
  5
2562
330
255D
100
AcDbEntity
  8
WY
 62
     0
370
    -2
100
AcDbLine
 10
40.85983203713999
 20
147.3516124921776
 30
0.0
 11
40.85983203714
 21
207.8565519242777
 31
0.0
  0
SOLID
  5
2563
330
255D
100
AcDbEntity
  8
WY
 62
     0
100
AcDbTrace
 10
40.52649870380665
 20
147.3516124921776
 30
0.0
 11
41.19316537047332
 21
147.3516124921776
 31
0.0
 12
40.85983203713999
 22
145.3516124921776
 32
0.0
 13
40.85983203713999
 23
145.3516124921776
 33
0.0
  0
SOLID
  5
2564
330
255D
100
AcDbEntity
  8
WY
 62
     0
100
AcDbTrace
 10
41.19316537047333
 20
207.8565519242777
 30
0.0
 11
40.52649870380666
 21
207.8565519242777
 31
0.0
 12
40.85983203714
 22
209.8565519242777
 32
0.0
 13
40.85983203714
 23
209.8565519242777
 33
0.0
  0
MTEXT
  5
2565
330
255D
100
AcDbEntity
  8
WY
 62
     0
100
AcDbMText
 10
37.83583203713999
 20
177.6040822082277
 30
0.0
 40
3.0
 41
0.0
 46
0.0
 71
     5
 72
     1
  1
64.5
 11
1.101532288869195E-16
 21
1.0
 31
0.0
 73
     1
 44
1.0
  0
POINT
  5
2566
330
255D
100
AcDbEntity
  8
Defpoints
 62
     0
100
AcDbPoint
 10
65.03702825771347
 20
145.3516124921776
 30
0.0
  0
POINT
  5
2567
330
255D
100
AcDbEntity
  8
Defpoints
 62
     0
100
AcDbPoint
 10
109.8370288697134
 20
209.8565519242777
 30
0.0
  0
POINT
  5
2568
330
255D
100
AcDbEntity
  8
Defpoints
 62
     0
100
AcDbPoint
 10
40.85983203714
 20
209.8565519242777
 30
0.0
  0
ENDBLK
  5
255F
330
255D
100
AcDbEntity
  8
0
100
AcDbBlockEnd
  0
BLOCK
  5
256A
330
2569
100
AcDbEntity
  8
0
100
AcDbBlockBegin
  2
*D107
 70
     1
 10
0.0
 20
0.0
 30
0.0
  3
*D107
  1

  0
LINE
  5
256C
330
2569
100
AcDbEntity
  8
WY
 62
     0
370
    -2
100
AcDbLine
 10
87.33702886971355
 20
209.0825568265777
 30
0.0
 11
87.33702886971355
 21
220.2968894867662
 31
0.0
  0
LINE
  5
256D
330
2569
100
AcDbEntity
  8
WY
 62
     0
370
    -2
100
AcDbLine
 10
132.3370288697135
 20
209.0825568265777
 30
0.0
 11
132.3370288697135
 21
220.2968894867662
 31
0.0
  0
LINE
  5
256E
330
2569
100
AcDbEntity
  8
WY
 62
     0
370
    -2
100
AcDbLine
 10
89.33702886971355
 20
219.2968894867662
 30
0.0
 11
130.3370288697135
 21
219.2968894867662
 31
0.0
  0
SOLID
  5
256F
330
2569
100
AcDbEntity
  8
WY
 62
     0
100
AcDbTrace
 10
89.33702886971355
 20
219.6302228200995
 30
0.0
 11
89.33702886971355
 21
218.9635561534328
 31
0.0
 12
87.33702886971355
 22
219.2968894867662
 32
0.0
 13
87.33702886971355
 23
219.2968894867662
 33
0.0
  0
SOLID
  5
2570
330
2569
100
AcDbEntity
  8
WY
 62
     0
100
AcDbTrace
 10
130.3370288697135
 20
218.9635561534328
 30
0.0
 11
130.3370288697135
 21
219.6302228200995
 31
0.0
 12
132.3370288697135
 22
219.2968894867662
 32
0.0
 13
132.3370288697135
 23
219.2968894867662
 33
0.0
  0
MTEXT
  5
2571
330
2569
100
AcDbEntity
  8
WY
 62
     0
100
AcDbMText
 10
109.8370288697135
 20
222.3208894867662
 30
0.0
 40
3.0
 41
0.0
 46
0.0
 71
     5
 72
     1
  1
45
 73
     1
 44
1.0
  0
POINT
  5
2572
330
2569
100
AcDbEntity
  8
Defpoints
 62
     0
100
AcDbPoint
 10
87.33702886971355
 20
208.0825568265777
 30
0.0
  0
POINT
  5
2573
330
2569
100
AcDbEntity
  8
Defpoints
 62
     0
100
AcDbPoint
 10
132.3370288697135
 20
208.0825568265777
 30
0.0
  0
POINT
  5
2574
330
2569
100
AcDbEntity
  8
Defpoints
 62
     0
100
AcDbPoint
 10
132.3370288697135
 20
219.2968894867662
 30
0.0
  0
ENDBLK
  5
256B
330
2569
100
AcDbEntity
  8
0
100
AcDbBlockEnd
  0
BLOCK
  5
2576
330
2575
100
AcDbEntity
  8
0
100
AcDbBlockBegin
  2
*D108
 70
     1
 10
0.0
 20
0.0
 30
0.0
  3
*D108
  1

  0
LINE
  5
2578
330
2575
100
AcDbEntity
  8
WY
 62
     0
370
    -2
100
AcDbLine
 10
92.13703251341349
 20
144.3516124921776
 30
0.0
 11
92.13703251341349
 21
130.9245202436588
 31
0.0
  0
LINE
  5
2579
330
2575
100
AcDbEntity
  8
WY
 62
     0
370
    -2
100
AcDbLine
 10
127.5370282577135
 20
144.3516124921776
 30
0.0
 11
127.5370282577135
 21
130.9245202436588
 31
0.0
  0
LINE
  5
257A
330
2575
100
AcDbEntity
  8
WY
 62
     0
370
    -2
100
AcDbLine
 10
94.13703251341349
 20
131.9245202436588
 30
0.0
 11
125.5370282577135
 21
131.9245202436588
 31
0.0
  0
SOLID
  5
257B
330
2575
100
AcDbEntity
  8
WY
 62
     0
100
AcDbTrace
 10
94.13703251341349
 20
132.2578535769921
 30
0.0
 11
94.13703251341349
 21
131.5911869103255
 31
0.0
 12
92.13703251341349
 22
131.9245202436588
 32
0.0
 13
92.13703251341349
 23
131.9245202436588
 33
0.0
  0
SOLID
  5
257C
330
2575
100
AcDbEntity
  8
WY
 62
     0
100
AcDbTrace
 10
125.5370282577135
 20
131.5911869103255
 30
0.0
 11
125.5370282577135
 21
132.2578535769921
 31
0.0
 12
127.5370282577135
 22
131.9245202436588
 32
0.0
 13
127.5370282577135
 23
131.9245202436588
 33
0.0
  0
MTEXT
  5
257D
330
2575
100
AcDbEntity
  8
WY
 62
     0
100
AcDbMText
 10
109.8370303855635
 20
134.9485202436588
 30
0.0
 40
3.0
 41
0.0
 46
0.0
 71
     5
 72
     1
  1
35.4
 73
     1
 44
1.0
  0
POINT
  5
257E
330
2575
100
AcDbEntity
  8
Defpoints
 62
     0
100
AcDbPoint
 10
92.13703251341349
 20
145.3516124921776
 30
0.0
  0
POINT
  5
257F
330
2575
100
AcDbEntity
  8
Defpoints
 62
     0
100
AcDbPoint
 10
127.5370282577135
 20
145.3516124921776
 30
0.0
  0
POINT
  5
2580
330
2575
100
AcDbEntity
  8
Defpoints
 62
     0
100
AcDbPoint
 10
127.5370282577135
 20
131.9245202436588
 30
0.0
  0
ENDBLK
  5
2577
330
2575
100
AcDbEntity
  8
0
100
AcDbBlockEnd
  0
BLOCK
  5
2582
330
2581
100
AcDbEntity
  8
0
100
AcDbBlockBegin
  2
*D109
 70
     1
 10
0.0
 20
0.0
 30
0.0
  3
*D109
  1

  0
LINE
  5
2584
330
2581
100
AcDbEntity
  8
WY
 62
     0
370
    -2
100
AcDbLine
 10
64.83702886971349
 20
144.5516120519776
 30
0.0
 11
64.83702886971349
 21
124.0135858363881
 31
0.0
  0
LINE
  5
2585
330
2581
100
AcDbEntity
  8
WY
 62
     0
370
    -2
100
AcDbLine
 10
154.8370289141135
 20
144.5516121524776
 30
0.0
 11
154.8370289141135
 21
124.0135858363881
 31
0.0
  0
LINE
  5
2586
330
2581
100
AcDbEntity
  8
WY
 62
     0
370
    -2
100
AcDbLine
 10
66.83702886971349
 20
125.0135858363881
 30
0.0
 11
152.8370289141135
 21
125.0135858363881
 31
0.0
  0
SOLID
  5
2587
330
2581
100
AcDbEntity
  8
WY
 62
     0
100
AcDbTrace
 10
66.83702886971349
 20
125.3469191697214
 30
0.0
 11
66.83702886971349
 21
124.6802525030547
 31
0.0
 12
64.83702886971349
 22
125.0135858363881
 32
0.0
 13
64.83702886971349
 23
125.0135858363881
 33
0.0
  0
SOLID
  5
2588
330
2581
100
AcDbEntity
  8
WY
 62
     0
100
AcDbTrace
 10
152.8370289141135
 20
124.6802525030547
 30
0.0
 11
152.8370289141135
 21
125.3469191697214
 31
0.0
 12
154.8370289141135
 22
125.0135858363881
 32
0.0
 13
154.8370289141135
 23
125.0135858363881
 33
0.0
  0
MTEXT
  5
2589
330
2581
100
AcDbEntity
  8
WY
 62
     0
100
AcDbMText
 10
109.8370288919135
 20
128.0375858363881
 30
0.0
 40
3.0
 41
0.0
 46
0.0
 71
     5
 72
     1
  1
90
 73
     1
 44
1.0
  0
POINT
  5
258A
330
2581
100
AcDbEntity
  8
Defpoints
 62
     0
100
AcDbPoint
 10
64.83702886971349
 20
145.5516120519776
 30
0.0
  0
POINT
  5
258B
330
2581
100
AcDbEntity
  8
Defpoints
 62
     0
100
AcDbPoint
 10
154.8370289141135
 20
145.5516121524776
 30
0.0
  0
POINT
  5
258C
330
2581
100
AcDbEntity
  8
Defpoints
 62
     0
100
AcDbPoint
 10
154.8370289141135
 20
125.0135858363881
 30
0.0
  0
ENDBLK
  5
2583
330
2581
100
AcDbEntity
  8
0
100
AcDbBlockEnd
  0
BLOCK
  5
258E
330
258D
100
AcDbEntity
  8
0
100
AcDbBlockBegin
  2
*D110
 70
     1
 10
0.0
 20
0.0
 30
0.0
  3
*D110
  1

  0
LINE
  5
2590
330
258D
100
AcDbEntity
  8
WY
 62
     0
370
    -2
100
AcDbLine
 10
159.2283019320135
 20
147.8516121345776
 30
0.0
 11
159.2283019320135
 21
117.0747967964593
 31
0.0
  0
LINE
  5
2591
330
258D
100
AcDbEntity
  8
WY
 62
     0
370
    -2
100
AcDbLine
 10
60.44575697641352
 20
147.8516121345776
 30
0.0
 11
60.44575697641352
 21
117.0747967964593
 31
0.0
  0
LINE
  5
2592
330
258D
100
AcDbEntity
  8
WY
 62
     0
370
    -2
100
AcDbLine
 10
157.2283019320135
 20
118.0747967964593
 30
0.0
 11
62.44575697641352
 21
118.0747967964593
 31
0.0
  0
SOLID
  5
2593
330
258D
100
AcDbEntity
  8
WY
 62
     0
100
AcDbTrace
 10
157.2283019320135
 20
117.741463463126
 30
0.0
 11
157.2283019320135
 21
118.4081301297926
 31
0.0
 12
159.2283019320135
 22
118.0747967964593
 32
0.0
 13
159.2283019320135
 23
118.0747967964593
 33
0.0
  0
SOLID
  5
2594
330
258D
100
AcDbEntity
  8
WY
 62
     0
100
AcDbTrace
 10
62.44575697641352
 20
118.4081301297926
 30
0.0
 11
62.44575697641352
 21
117.741463463126
 31
0.0
 12
60.44575697641352
 22
118.0747967964593
 32
0.0
 13
60.44575697641352
 23
118.0747967964593
 33
0.0
  0
MTEXT
  5
2595
330
258D
100
AcDbEntity
  8
WY
 62
     0
100
AcDbMText
 10
109.8370294542135
 20
121.0987967964593
 30
0.0
 40
3.0
 41
0.0
 46
0.0
 71
     5
 72
     1
  1
98.8
 73
     1
 44
1.0
  0
POINT
  5
2596
330
258D
100
AcDbEntity
  8
Defpoints
 62
     0
100
AcDbPoint
 10
159.2283019320135
 20
148.8516121345776
 30
0.0
  0
POINT
  5
2597
330
258D
100
AcDbEntity
  8
Defpoints
 62
     0
100
AcDbPoint
 10
60.44575697641352
 20
148.8516121345776
 30
0.0
  0
POINT
  5
2598
330
258D
100
AcDbEntity
  8
Defpoints
 62
     0
100
AcDbPoint
 10
60.44575697641352
 20
118.0747967964593
 30
0.0
  0
ENDBLK
  5
258F
330
258D
100
AcDbEntity
  8
0
100
AcDbBlockEnd
  0
BLOCK
  5
259A
330
2599
100
AcDbEntity
  8
0
100
AcDbBlockBegin
  2
*D111
 70
     1
 10
0.0
 20
0.0
 30
0.0
  3
*D111
  1

  0
LINE
  5
259C
330
2599
100
AcDbEntity
  8
WY
 62
     0
370
    -2
100
AcDbLine
 10
64.03702825771347
 20
65.13724715528022
 30
0.0
 11
45.80340334846358
 21
65.13724715528022
 31
0.0
  0
LINE
  5
259D
330
2599
100
AcDbEntity
  8
WY
 62
     0
370
    -2
100
AcDbLine
 10
64.03702886971348
 20
82.63724580078022
 30
0.0
 11
45.80340334846358
 21
82.63724580078022
 31
0.0
  0
LINE
  5
259E
330
2599
100
AcDbEntity
  8
WY
 62
     0
370
    -2
100
AcDbLine
 10
46.80340334846358
 20
67.13724715528022
 30
0.0
 11
46.80340334846358
 21
80.63724580078022
 31
0.0
  0
SOLID
  5
259F
330
2599
100
AcDbEntity
  8
WY
 62
     0
100
AcDbTrace
 10
46.47007001513024
 20
67.13724715528022
 30
0.0
 11
47.13673668179691
 21
67.13724715528022
 31
0.0
 12
46.80340334846358
 22
65.13724715528022
 32
0.0
 13
46.80340334846358
 23
65.13724715528022
 33
0.0
  0
SOLID
  5
25A0
330
2599
100
AcDbEntity
  8
WY
 62
     0
100
AcDbTrace
 10
47.13673668179691
 20
80.63724580078022
 30
0.0
 11
46.47007001513024
 21
80.63724580078022
 31
0.0
 12
46.80340334846358
 22
82.63724580078022
 32
0.0
 13
46.80340334846358
 23
82.63724580078022
 33
0.0
  0
MTEXT
  5
25A1
330
2599
100
AcDbEntity
  8
WY
 62
     0
100
AcDbMText
 10
43.77940334846357
 20
73.88724647803022
 30
0.0
 40
3.0
 41
0.0
 46
0.0
 71
     5
 72
     1
  1
17.5
 11
0.0
 21
1.0
 31
0.0
 73
     1
 44
1.0
  0
POINT
  5
25A2
330
2599
100
AcDbEntity
  8
Defpoints
 62
     0
100
AcDbPoint
 10
65.03702825771347
 20
65.13724715528022
 30
0.0
  0
POINT
  5
25A3
330
2599
100
AcDbEntity
  8
Defpoints
 62
     0
100
AcDbPoint
 10
65.03702886971348
 20
82.63724580078022
 30
0.0
  0
POINT
  5
25A4
330
2599
100
AcDbEntity
  8
Defpoints
 62
     0
100
AcDbPoint
 10
46.80340334846358
 20
82.63724580078022
 30
0.0
  0
ENDBLK
  5
259B
330
2599
100
AcDbEntity
  8
0
100
AcDbBlockEnd
  0
BLOCK
  5
891E
330
891D
100
AcDbEntity
  8
0
100
AcDbBlockBegin
  2
*D279
 70
     1
 10
0.0
 20
0.0
 30
0.0
  3
*D279
  1

  0
LINE
  5
8920
330
891D
100
AcDbEntity
  8
WY
 62
     0
370
    -2
100
AcDbLine
 10
69.80441112356368
 20
68.88724580087987
 30
0.0
 11
52.41209586975395
 21
68.88724580087987
 31
0.0
  0
LINE
  5
8921
330
891D
100
AcDbEntity
  8
WY
 62
     0
370
    -2
100
AcDbLine
 10
69.80441112356368
 20
78.88724580087987
 30
0.0
 11
52.41209586975395
 21
78.88724580087987
 31
0.0
  0
LINE
  5
8922
330
891D
100
AcDbEntity
  8
WY
 62
     0
370
    -2
100
AcDbLine
 10
53.41209586975395
 20
70.88724580087987
 30
0.0
 11
53.41209586975395
 21
76.88724580087987
 31
0.0
  0
SOLID
  5
8923
330
891D
100
AcDbEntity
  8
WY
 62
     0
100
AcDbTrace
 10
53.07876253642062
 20
70.88724580087987
 30
0.0
 11
53.74542920308729
 21
70.88724580087987
 31
0.0
 12
53.41209586975395
 22
68.88724580087987
 32
0.0
 13
53.41209586975395
 23
68.88724580087987
 33
0.0
  0
SOLID
  5
8924
330
891D
100
AcDbEntity
  8
WY
 62
     0
100
AcDbTrace
 10
53.74542920308729
 20
76.88724580087987
 30
0.0
 11
53.07876253642062
 21
76.88724580087987
 31
0.0
 12
53.41209586975395
 22
78.88724580087987
 32
0.0
 13
53.41209586975395
 23
78.88724580087987
 33
0.0
  0
MTEXT
  5
8925
330
891D
100
AcDbEntity
  8
WY
 62
     0
100
AcDbMText
 10
50.38809586975395
 20
73.88724580087987
 30
0.0
 40
3.0
 41
0.0
 46
0.0
 71
     5
 72
     1
  1
10
 11
0.0
 21
1.0
 31
0.0
 73
     1
 44
1.0
  0
POINT
  5
8926
330
891D
100
AcDbEntity
  8
Defpoints
 62
     0
100
AcDbPoint
 10
70.80441112356368
 20
68.88724580087987
 30
0.0
  0
POINT
  5
8927
330
891D
100
AcDbEntity
  8
Defpoints
 62
     0
100
AcDbPoint
 10
70.80441112356368
 20
78.88724580087987
 30
0.0
  0
POINT
  5
8928
330
891D
100
AcDbEntity
  8
Defpoints
 62
     0
100
AcDbPoint
 10
53.41209586975395
 20
78.88724580087987
 30
0.0
  0
ENDBLK
  5
891F
330
891D
100
AcDbEntity
  8
0
100
AcDbBlockEnd
  0
BLOCK
  5
893A
330
8939
100
AcDbEntity
  8
0
100
AcDbBlockBegin
  2
*D281
 70
     1
 10
0.0
 20
0.0
 30
0.0
  3
*D281
  1

  0
LINE
  5
893C
330
8939
100
AcDbEntity
  8
WY
 62
     0
370
    -2
100
AcDbLine
 10
148.8496488049636
 20
79.88724580087987
 30
0.0
 11
148.8496488049636
 21
94.99950755091616
 31
0.0
  0
LINE
  5
893D
330
8939
100
AcDbEntity
  8
WY
 62
     0
370
    -2
100
AcDbLine
 10
70.80441112356368
 20
79.88724580087987
 30
0.0
 11
70.80441112356368
 21
94.99950755091616
 31
0.0
  0
LINE
  5
893E
330
8939
100
AcDbEntity
  8
WY
 62
     0
370
    -2
100
AcDbLine
 10
146.8496488049636
 20
93.99950755091616
 30
0.0
 11
72.80441112356368
 21
93.99950755091616
 31
0.0
  0
SOLID
  5
893F
330
8939
100
AcDbEntity
  8
WY
 62
     0
100
AcDbTrace
 10
146.8496488049636
 20
93.66617421758284
 30
0.0
 11
146.8496488049636
 21
94.33284088424949
 31
0.0
 12
148.8496488049636
 22
93.99950755091616
 32
0.0
 13
148.8496488049636
 23
93.99950755091616
 33
0.0
  0
SOLID
  5
8940
330
8939
100
AcDbEntity
  8
WY
 62
     0
100
AcDbTrace
 10
72.80441112356368
 20
94.33284088424949
 30
0.0
 11
72.80441112356368
 21
93.66617421758284
 31
0.0
 12
70.80441112356368
 22
93.99950755091616
 32
0.0
 13
70.80441112356368
 23
93.99950755091616
 33
0.0
  0
MTEXT
  5
8941
330
8939
100
AcDbEntity
  8
WY
 62
     0
100
AcDbMText
 10
109.8270299642636
 20
97.02350755091616
 30
0.0
 40
3.0
 41
0.0
 46
0.0
 71
     5
 72
     1
  1
78
 73
     1
 44
1.0
  0
POINT
  5
8942
330
8939
100
AcDbEntity
  8
Defpoints
 62
     0
100
AcDbPoint
 10
148.8496488049636
 20
78.88724580087987
 30
0.0
  0
POINT
  5
8943
330
8939
100
AcDbEntity
  8
Defpoints
 62
     0
100
AcDbPoint
 10
70.80441112356368
 20
78.88724580087987
 30
0.0
  0
POINT
  5
8944
330
8939
100
AcDbEntity
  8
Defpoints
 62
     0
100
AcDbPoint
 10
70.80441112356368
 20
93.99950755091616
 30
0.0
  0
ENDBLK
  5
893B
330
8939
100
AcDbEntity
  8
0
100
AcDbBlockEnd
  0
BLOCK
  5
8B15
330
8B14
100
AcDbEntity
  8
0
100
AcDbBlockBegin
  2
*D283
 70
     1
 10
0.0
 20
0.0
 30
0.0
  3
*D283
  1

  0
LINE
  5
8B17
330
8B14
100
AcDbEntity
  8
WY
 62
     0
370
    -2
100
AcDbLine
 10
137.5496484428636
 20
83.48323279477258
 30
0.0
 11
137.5496484428636
 21
88.44337667589802
 31
0.0
  0
LINE
  5
8B18
330
8B14
100
AcDbEntity
  8
WY
 62
     0
370
    -2
100
AcDbLine
 10
148.8496488049636
 20
83.15006718953526
 30
0.0
 11
148.8496488049636
 21
88.44337667589802
 31
0.0
  0
LINE
  5
8B19
330
8B14
100
AcDbEntity
  8
WY
 62
     0
370
    -2
100
AcDbLine
 10
139.5496484428636
 20
87.44337667589802
 30
0.0
 11
146.8496488049636
 21
87.44337667589802
 31
0.0
  0
SOLID
  5
8B1A
330
8B14
100
AcDbEntity
  8
WY
 62
     0
100
AcDbTrace
 10
139.5496484428636
 20
87.77671000923135
 30
0.0
 11
139.5496484428636
 21
87.1100433425647
 31
0.0
 12
137.5496484428636
 22
87.44337667589802
 32
0.0
 13
137.5496484428636
 23
87.44337667589802
 33
0.0
  0
SOLID
  5
8B1B
330
8B14
100
AcDbEntity
  8
WY
 62
     0
100
AcDbTrace
 10
146.8496488049636
 20
87.1100433425647
 30
0.0
 11
146.8496488049636
 21
87.77671000923135
 31
0.0
 12
148.8496488049636
 22
87.44337667589802
 32
0.0
 13
148.8496488049636
 23
87.44337667589802
 33
0.0
  0
MTEXT
  5
8B1C
330
8B14
100
AcDbEntity
  8
WY
 62
     0
100
AcDbMText
 10
143.1996486239136
 20
90.46737667589802
 30
0.0
 40
3.0
 41
0.0
 46
0.0
 71
     5
 72
     1
  1
11.3
 73
     1
 44
1.0
  0
POINT
  5
8B1D
330
8B14
100
AcDbEntity
  8
Defpoints
 62
     0
100
AcDbPoint
 10
137.5496484428636
 20
82.48323279477258
 30
0.0
  0
POINT
  5
8B1E
330
8B14
100
AcDbEntity
  8
Defpoints
 62
     0
100
AcDbPoint
 10
148.8496488049636
 20
82.15006718953526
 30
0.0
  0
POINT
  5
8B1F
330
8B14
100
AcDbEntity
  8
Defpoints
 62
     0
100
AcDbPoint
 10
148.8496488049636
 20
87.44337667589802
 30
0.0
  0
ENDBLK
  5
8B16
330
8B14
100
AcDbEntity
  8
0
100
AcDbBlockEnd
  0
ENDSEC
  0
SECTION
  2
ENTITIES
  0
LINE
  5
72C
330
1F
100
AcDbEntity
  8
2
100
AcDbLine
 10
0.0
 20
0.0
 30
0.0
 11
0.0
 21
297.0
 31
0.0
  0
LINE
  5
795
330
1F
100
AcDbEntity
  8
WYMIARY
 62
     6
100
AcDbLine
 10
0.0
 20
0.0
 30
0.0
 11
0.0
 21
297.0
 31
0.0
  0
LINE
  5
79B
330
1F
100
AcDbEntity
  8
WYMIARY
 62
     6
100
AcDbLine
 10
0.0
 20
0.0
 30
0.0
 11
0.0
 21
297.0
 31
0.0
  0
LINE
  5
79C
330
1F
100
AcDbEntity
  8
WYMIARY
 62
     6
100
AcDbLine
 10
0.0
 20
0.0
 30
0.0
 11
0.0
 21
297.0
 31
0.0
  0
LINE
  5
79D
330
1F
100
AcDbEntity
  8
2
100
AcDbLine
 10
0.0
 20
0.0
 30
0.0
 11
0.0
 21
297.0
 31
0.0
  0
LINE
  5
79E
330
1F
100
AcDbEntity
  8
WYMIARY
 62
     6
100
AcDbLine
 10
0.0
 20
0.0
 30
0.0
 11
0.0
 21
297.0
 31
0.0
  0
LINE
  5
79F
330
1F
100
AcDbEntity
  8
2
100
AcDbLine
 10
0.0
 20
0.0
 30
0.0
 11
0.0
 21
297.0
 31
0.0
  0
LINE
  5
7A3
330
1F
100
AcDbEntity
  8
WYMIARY
 62
     6
100
AcDbLine
 10
0.0
 20
0.0
 30
0.0
 11
0.0
 21
297.0
 31
0.0
  0
LINE
  5
22F9
330
1F
100
AcDbEntity
  8
1
  6
Continuous
 62
     7
100
AcDbLine
 10
159.2021061563135
 20
145.8498663443776
 30
0.0
 11
159.2283019320135
 21
148.8516121345776
 31
0.0
  0
ARC
  5
22FA
330
1F
100
AcDbEntity
  8
1
  6
Continuous
 62
     7
100
AcDbCircle
 10
159.0021137828135
 20
145.8516120519776
 30
0.0
 40
0.2000000000000073
100
AcDbArc
 50
270.0
 51
359.500000000002
  0
LINE
  5
22FB
102
{ACAD_REACTORS
330
251C
330
2521
330
2530
102
}
330
1F
100
AcDbEntity
  8
1
  6
Continuous
 62
     7
100
AcDbLine
 10
60.44575697641352
 20
148.8516121345776
 30
0.0
 11
60.47195321781351
 21
145.8498663443776
 31
0.0
  0
ARC
  5
22FC
330
1F
100
AcDbEntity
  8
1
  6
Continuous
 62
     7
100
AcDbCircle
 10
60.67194395651347
 20
145.8516120519776
 30
0.0
 40
0.2000000000000073
100
AcDbArc
 50
180.499999999998
 51
270.0
  0
LINE
  5
22FD
330
1F
100
AcDbEntity
  8
1
  6
Continuous
 62
     7
100
AcDbLine
 10
135.3220374779135
 20
192.8516109648776
 30
0.0
 11
135.3220393406135
 21
192.8515960636776
 31
0.0
  0
LINE
  5
22FE
330
1F
100
AcDbEntity
  8
1
  6
Continuous
 62
     7
100
AcDbLine
 10
139.7320193694135
 20
192.8516109648776
 30
0.0
 11
139.7320193694135
 21
192.8515960636776
 31
0.0
  0
SPLINE
  5
22FF
330
1F
100
AcDbEntity
  8
0
  6
Continuous
 62
     7
100
AcDbSpline
210
0.0
220
0.0
230
1.0
 70
    24
 71
     3
 72
    11
 73
     7
 74
     0
 42
0.000000001
 43
0.00000001
 40
0.0
 40
0.0
 40
0.0
 40
0.0
 40
0.2578507998679983
 40
0.5157043016465876
 40
0.7735517372762536
 40
1.0
 40
1.0
 40
1.0
 40
1.0
 10
158.1431628195066
 20
148.8516121345989
 30
0.0
 10
158.1656724676345
 20
148.8516121345989
 30
0.0
 10
158.2106919997594
 20
148.8516121345989
 30
0.0
 10
158.2702418276228
 20
148.8516121345989
 30
0.0
 10
158.3150289915939
 20
148.8516121345989
 30
0.0
 10
158.3295187158092
 20
148.8516121345989
 30
0.0
 10
158.336293859357
 20
148.8516121345989
 30
0.0
  0
LINE
  5
2300
330
1F
100
AcDbEntity
  8
1
  6
Continuous
 62
     7
100
AcDbLine
 10
126.9839716600135
 20
147.9271794843776
 30
0.0
 11
125.4377116905135
 21
147.7725529286776
 31
0.0
  0
ARC
  5
2301
330
1F
100
AcDbEntity
  8
1
  6
Continuous
 62
     7
100
AcDbCircle
 10
126.9640715238135
 20
148.1261865165776
 30
0.0
 40
0.200000000000018
100
AcDbArc
 50
275.7105931375037
 51
355.0000000000047
  0
LINE
  5
2302
330
1F
100
AcDbEntity
  8
1
  6
Continuous
 62
     7
100
AcDbLine
 10
127.2123300926135
 20
148.6690431076776
 30
0.0
 11
127.1633108602135
 21
148.1087557214776
 31
0.0
  0
ARC
  5
2303
330
1F
100
AcDbEntity
  8
1
  6
Continuous
 62
     7
100
AcDbCircle
 10
127.4115682367135
 20
148.6516120519776
 30
0.0
 40
0.200000000000018
100
AcDbArc
 50
90.0
 51
175.0000000000032
  0
LINE
  5
2304
330
1F
100
AcDbEntity
  8
1
  6
Continuous
 62
     7
100
AcDbLine
 10
158.1431628195135
 20
148.8516121345776
 30
0.0
 11
154.8370289141135
 21
148.8516121345776
 31
0.0
  0
LINE
  5
2305
330
1F
100
AcDbEntity
  8
1
  6
Continuous
 62
     7
100
AcDbLine
 10
125.2442219750135
 20
147.0274017366776
 30
0.0
 11
125.2378927068135
 21
147.7525714027776
 31
0.0
  0
LWPOLYLINE
  5
2306
330
1F
100
AcDbEntity
  8
1
  6
Continuous
 62
     7
100
AcDbPolyline
 90
        9
 70
   128
 43
0.0
 10
125.2378927068135
 20
147.7525714027776
 10
125.2417334811135
 20
147.7529551076776
 10
125.2531030671135
 20
147.7540922525776
 10
125.2715674685135
 20
147.7559390652776
 10
125.2964170174135
 20
147.7584238338776
 10
125.3266980396135
 20
147.7614515635776
 10
125.3612426565135
 20
147.7649058389776
 10
125.3987283902135
 20
147.7686544123776
 10
125.4377116905135
 20
147.7725529286776
  0
LINE
  5
2307
330
1F
100
AcDbEntity
  8
1
  6
Continuous
 62
     7
100
AcDbLine
 10
158.1324446936135
 20
147.0516123983776
 30
0.0
 11
154.8370289141135
 21
147.0516123983776
 31
0.0
  0
LINE
  5
2308
330
1F
100
AcDbEntity
  8
1
  6
Continuous
 62
     7
100
AcDbLine
 10
126.6719227181135
 20
145.7004738214776
 30
0.0
 11
125.3132273899135
 21
146.8780092138776
 31
0.0
  0
ARC
  5
2309
330
1F
100
AcDbEntity
  8
1
  6
Continuous
 62
     7
100
AcDbCircle
 10
125.4442140256135
 20
147.0291474079776
 30
0.0
 40
0.2000000000000068
100
AcDbArc
 50
180.499999999998
 51
229.0856167800061
  0
LINE
  5
230A
330
1F
100
AcDbEntity
  8
1
  6
Continuous
 62
     7
100
AcDbLine
 10
127.5370282577135
 20
145.6516119825776
 30
0.0
 11
126.8029095129135
 21
145.6516119825776
 31
0.0
  0
ARC
  5
230B
330
1F
100
AcDbEntity
  8
1
  6
Continuous
 62
     7
100
AcDbCircle
 10
126.8029086671135
 20
145.8516120519776
 30
0.0
 40
0.2000000000000306
100
AcDbArc
 50
229.0856167799884
 51
270.0
  0
LINE
  5
230C
102
{ACAD_REACTORS
330
2530
102
}
330
1F
100
AcDbEntity
  8
0
  6
Continuous
 62
     7
100
AcDbLine
 10
159.2283019320135
 20
148.8516121345776
 30
0.0
 11
158.3362938593135
 21
148.8516121345776
 31
0.0
  0
SPLINE
  5
230D
330
1F
100
AcDbEntity
  8
1
  6
Continuous
 62
     7
100
AcDbSpline
210
0.0
220
0.0
230
1.0
 70
     8
 71
     3
 72
    12
 73
     8
 74
     0
 42
0.000000001
 43
0.00000001
 40
0.0
 40
0.0
 40
0.0
 40
0.0
 40
0.0083640738302905
 40
0.3527404474468673
 40
0.6379855050650122
 40
0.8182832300279028
 40
1.0
 40
1.0
 40
1.0
 40
1.0
 10
158.7011782442648
 20
147.2498667600981
 30
0.0
 10
158.7010381890209
 20
147.2491965572967
 30
0.0
 10
158.6951315996727
 20
147.2209319053038
 30
0.0
 10
158.6736618621647
 20
147.1694344412673
 30
0.0
 10
158.6211329393915
 20
147.1108965834489
 30
0.0
 10
158.5633878956101
 20
147.0721708843513
 30
0.0
 10
158.5236785219032
 20
147.0609844802284
 30
0.0
 10
158.5037460075188
 20
147.0553693536154
 30
0.0
  0
LINE
  5
230E
330
1F
100
AcDbEntity
  8
0
  6
Continuous
 62
     7
100
AcDbLine
 10
158.5037460075135
 20
147.0553693535776
 30
0.0
 11
158.4643289437135
 21
147.0516123983776
 31
0.0
  0
LINE
  5
230F
330
1F
100
AcDbEntity
  8
0
  6
Continuous
 62
     7
100
AcDbLine
 10
158.4643289437135
 20
147.0516123983776
 30
0.0
 11
158.1324446936135
 21
147.0516123983776
 31
0.0
  0
LINE
  5
2310
330
1F
100
AcDbEntity
  8
1
  6
Continuous
 62
     7
100
AcDbLine
 10
158.4951340677135
 20
145.6516119825776
 30
0.0
 11
154.8370289141135
 21
145.6516119825776
 31
0.0
  0
LINE
  5
2311
330
1F
100
AcDbEntity
  8
0
  6
Continuous
 62
     7
100
AcDbLine
 10
159.0021137138135
 20
145.6516119825776
 30
0.0
 11
158.4951340677135
 21
145.6516119825776
 31
0.0
  0
SPLINE
  5
2312
330
1F
100
AcDbEntity
  8
1
  6
Continuous
 62
     7
100
AcDbSpline
210
0.0
220
0.0
230
1.0
 70
    24
 71
     3
 72
    11
 73
     7
 74
     0
 42
0.000000001
 43
0.00000001
 40
0.0
 40
0.0
 40
0.0
 40
0.0
 40
0.2578450777026733
 40
0.5156820770207594
 40
0.7735215046421543
 40
1.0
 40
1.0
 40
1.0
 40
1.0
 10
61.33776283724791
 20
148.8516121345989
 30
0.0
 10
61.34574002240413
 20
148.8516121345989
 30
0.0
 10
61.36169414278822
 20
148.8516121345989
 30
0.0
 10
61.41052253842395
 20
148.8516121345989
 30
0.0
 10
61.46892499190022
 20
148.8516121345989
 30
0.0
 10
61.51115093809932
 20
148.8516121345989
 30
0.0
 10
61.53089678748142
 20
148.8516121345989
 30
0.0
  0
ARC
  5
2313
330
1F
100
AcDbEntity
  8
1
  6
Continuous
 62
     7
100
AcDbCircle
 10
92.70998621551348
 20
148.1261865165776
 30
0.0
 40
0.2000000000000345
100
AcDbArc
 50
184.9999999999953
 51
264.2894068624971
  0
LINE
  5
2314
330
1F
100
AcDbEntity
  8
1
  6
Continuous
 62
     7
100
AcDbLine
 10
94.23634535531352
 20
147.7725529286776
 30
0.0
 11
92.69008911121352
 21
147.9271794843776
 31
0.0
  0
ARC
  5
2315
330
1F
100
AcDbEntity
  8
1
  6
Continuous
 62
     7
100
AcDbCircle
 10
92.26248950271349
 20
148.6516120519776
 30
0.0
 40
0.1999999999999897
100
AcDbArc
 50
4.999999999996783
 51
90.0
  0
LINE
  5
2316
330
1F
100
AcDbEntity
  8
1
  6
Continuous
 62
     7
100
AcDbLine
 10
92.51074618561347
 20
148.1087557214776
 30
0.0
 11
92.46172881591349
 21
148.6690431076776
 31
0.0
  0
LINE
  5
2317
330
1F
100
AcDbEntity
  8
1
  6
Continuous
 62
     7
100
AcDbLine
 10
64.83703232271353
 20
148.8516121345776
 30
0.0
 11
61.53089678751348
 21
148.8516121345776
 31
0.0
  0
LINE
  5
2318
330
1F
100
AcDbEntity
  8
1
  6
Continuous
 62
     7
100
AcDbLine
 10
94.43616620171349
 20
147.7525714027776
 30
0.0
 11
94.42983693341353
 21
147.0274017366776
 31
0.0
  0
LWPOLYLINE
  5
2319
330
1F
100
AcDbEntity
  8
1
  6
Continuous
 62
     7
100
AcDbPolyline
 90
        9
 70
   128
 43
0.0
 10
94.23634535531352
 20
147.7725529286776
 10
94.27533051831352
 20
147.7686544123776
 10
94.31281438931353
 20
147.7649058389776
 10
94.34735900621354
 20
147.7614515635776
 10
94.37764189111351
 20
147.7584238338776
 10
94.40248957741352
 20
147.7559390652776
 10
94.4209558414135
 20
147.7540922525776
 10
94.4323254274135
 20
147.7529551076776
 10
94.43616620171349
 20
147.7525714027776
  0
LINE
  5
231A
330
1F
100
AcDbEntity
  8
1
  6
Continuous
 62
     7
100
AcDbLine
 10
64.83703232271353
 20
147.0516123983776
 30
0.0
 11
61.54161072241351
 21
147.0516123983776
 31
0.0
  0
LINE
  5
231B
330
1F
100
AcDbEntity
  8
1
  6
Continuous
 62
     7
100
AcDbLine
 10
94.3608296559135
 20
146.8780092138776
 30
0.0
 11
93.00213432771352
 21
145.7004738214776
 31
0.0
  0
ARC
  5
231C
330
1F
100
AcDbEntity
  8
1
  6
Continuous
 62
     7
100
AcDbCircle
 10
94.22984371381352
 20
147.0291474079776
 30
0.0
 40
0.2000000000000068
100
AcDbArc
 50
310.914383219994
 51
359.500000000002
  0
ARC
  5
231D
330
1F
100
AcDbEntity
  8
1
  6
Continuous
 62
     7
100
AcDbCircle
 10
92.87114907221348
 20
145.8516120519776
 30
0.0
 40
0.2000000000000306
100
AcDbArc
 50
270.0
 51
310.9143832200116
  0
LINE
  5
231E
330
1F
100
AcDbEntity
  8
1
  6
Continuous
 62
     7
100
AcDbLine
 10
92.87114567021354
 20
145.6516119825776
 30
0.0
 11
92.13703251341349
 21
145.6516119825776
 31
0.0
  0
LINE
  5
231F
330
1F
100
AcDbEntity
  8
1
  6
Continuous
 62
     7
100
AcDbLine
 10
61.33776283721352
 20
148.8516121345776
 30
0.0
 11
60.44575697641352
 21
148.8516121345776
 31
0.0
  0
LINE
  5
2320
330
1F
100
AcDbEntity
  8
1
  6
Continuous
 62
     7
100
AcDbLine
 10
61.54161072241351
 20
147.0516123983776
 30
0.0
 11
61.20973206031351
 21
147.0516123983776
 31
0.0
  0
LINE
  5
2321
330
1F
100
AcDbEntity
  8
1
  6
Continuous
 62
     7
100
AcDbLine
 10
61.20973206031351
 20
147.0516123983776
 30
0.0
 11
61.17031103831351
 21
147.0553693535776
 31
0.0
  0
SPLINE
  5
2322
330
1F
100
AcDbEntity
  8
1
  6
Continuous
 62
     7
100
AcDbSpline
210
0.0
220
0.0
230
1.0
 70
     8
 71
     3
 72
    12
 73
     8
 74
     0
 42
0.000000001
 43
0.00000001
 40
0.0
 40
0.0
 40
0.0
 40
0.0
 40
0.181712498975126
 40
0.3620061213872449
 40
0.6472606302123539
 40
0.9916354030353388
 40
1.0
 40
1.0
 40
1.0
 40
1.0
 10
61.17031103833199
 20
147.0553693536154
 30
0.0
 10
61.15037889867972
 20
147.0609844258371
 30
0.0
 10
61.11067025669195
 20
147.0721707257766
 30
0.0
 10
61.05292868722751
 20
147.1108983707266
 30
0.0
 10
61.00038517936622
 20
147.1694316416819
 30
0.0
 10
60.97894135495392
 20
147.2209337920843
 30
0.0
 10
60.973018552003
 20
147.2491965580547
 30
0.0
 10
60.97287810309422
 20
147.2498667600981
 30
0.0
  0
LINE
  5
2323
330
1F
100
AcDbEntity
  8
1
  6
Continuous
 62
     7
100
AcDbLine
 10
64.83703232271353
 20
145.6516119825776
 30
0.0
 11
61.17892390951351
 21
145.6516119825776
 31
0.0
  0
LINE
  5
2324
330
1F
100
AcDbEntity
  8
1
  6
Continuous
 62
     7
100
AcDbLine
 10
61.17892390951351
 20
145.6516119825776
 30
0.0
 11
60.67194170221353
 21
145.6516119825776
 31
0.0
  0
ARC
  5
2325
330
1F
100
AcDbEntity
  8
1
  6
Continuous
 62
     7
100
AcDbCircle
 10
109.8370288697135
 20
-90.1434480757224
 30
0.0
 40
300.0000000000002
100
AcDbArc
 50
85.87651071329996
 51
87.42081894839995
  0
SPLINE
  5
2326
330
1F
100
AcDbEntity
  8
1
  6
Continuous
 62
     7
100
AcDbSpline
210
0.0
220
0.0
230
1.0
 70
    24
 71
     3
 72
    12
 73
     8
 74
     0
 42
0.000000001
 43
0.00000001
 40
0.0
 40
0.0
 40
0.0
 40
0.0
 40
0.2149618040015677
 40
0.4299310031761185
 40
0.6448123996856084
 40
0.8594657166122008
 40
1.0
 40
1.0
 40
1.0
 40
1.0
 10
123.3370279417801
 20
209.3524461546771
 30
0.0
 10
123.3370279417801
 20
209.3749704940705
 30
0.0
 10
123.3370279417801
 20
209.4200199477456
 30
0.0
 10
123.3370279417802
 20
209.4800536370037
 30
0.0
 10
123.3370279417801
 20
209.5253283693984
 30
0.0
 10
123.3370279417802
 20
209.5492534118036
 30
0.0
 10
123.3370279417802
 20
209.5516849235026
 30
0.0
 10
123.3370279417802
 20
209.5526469806068
 30
0.0
  0
ARC
  5
2327
330
1F
100
AcDbEntity
  8
1
  6
Continuous
 62
     7
100
AcDbCircle
 10
109.8370288697135
 20
-90.1434480757224
 30
0.0
 40
300.0000000000001
100
AcDbArc
 50
87.76489775620004
 51
92.2351022438
  0
SPLINE
  5
2328
330
1F
100
AcDbEntity
  8
1
  6
Continuous
 62
     7
100
AcDbSpline
210
0.0
220
0.0
230
1.0
 70
    24
 71
     3
 72
    12
 73
     8
 74
     0
 42
0.000000001
 43
0.00000001
 40
0.0
 40
0.0
 40
0.0
 40
0.0
 40
0.2144843751115903
 40
0.4289725922535833
 40
0.6435364676453705
 40
0.8582526539007943
 40
0.9999999999999999
 40
0.9999999999999999
 40
0.9999999999999999
 40
0.9999999999999999
 10
121.5370272742081
 20
209.6283150771491
 30
0.0
 10
121.5370272742081
 20
209.6261050879539
 30
0.0
 10
121.5370272742081
 20
209.6216850699762
 30
0.0
 10
121.5370272742081
 20
209.5872161757379
 30
0.0
 10
121.5370272742081
 20
209.5364816491096
 30
0.0
 10
121.5370272742082
 20
209.4801957966949
 30
0.0
 10
121.5370272742081
 20
209.4429667650116
 30
0.0
 10
121.5370272742081
 20
209.4281626799934
 30
0.0
  0
SPLINE
  5
2329
330
1F
100
AcDbEntity
  8
1
  6
Continuous
 62
     7
100
AcDbSpline
210
0.0
220
0.0
230
1.0
 70
    24
 71
     3
 72
    12
 73
     8
 74
     0
 42
0.000000001
 43
0.00000001
 40
0.0
 40
0.0
 40
0.0
 40
0.0
 40
0.2148961858353572
 40
0.4298080971448958
 40
0.644632735930237
 40
0.8593013013273615
 40
1.0
 40
1.0
 40
1.0
 40
1.0
 10
98.13702977164269
 20
209.4281626799934
 30
0.0
 10
98.13702977164269
 20
209.4506767283802
 30
0.0
 10
98.13702977164269
 20
209.4957064726661
 30
0.0
 10
98.1370297716428
 20
209.5557171683342
 30
0.0
 10
98.13702977164269
 20
209.6009800898821
 30
0.0
 10
98.1370297716428
 20
209.6249139246667
 30
0.0
 10
98.13702977164269
 20
209.6273504116324
 30
0.0
 10
98.1370297716428
 20
209.6283150771491
 30
0.0
  0
ARC
  5
232A
330
1F
100
AcDbEntity
  8
1
  6
Continuous
 62
     7
100
AcDbCircle
 10
109.8370288697135
 20
-90.1434480757224
 30
0.0
 40
300.0000000000002
100
AcDbArc
 50
92.5791810516
 51
94.12348928669999
  0
SPLINE
  5
232B
330
1F
100
AcDbEntity
  8
1
  6
Continuous
 62
     7
100
AcDbSpline
210
0.0
220
0.0
230
1.0
 70
    24
 71
     3
 72
    12
 73
     8
 74
     0
 42
0.000000001
 43
0.00000001
 40
0.0
 40
0.0
 40
0.0
 40
0.0
 40
0.2144082133770121
 40
0.4288426125297258
 40
0.64336147542902
 40
0.8580905493979792
 40
0.9999999999999999
 40
0.9999999999999999
 40
0.9999999999999999
 40
0.9999999999999999
 10
96.33702910407072
 20
209.5526469806068
 30
0.0
 10
96.33702910407072
 20
209.5504380095574
 30
0.0
 10
96.33702910407072
 20
209.5460197976759
 30
0.0
 10
96.33702910407072
 20
209.51155366625
 30
0.0
 10
96.33702910407072
 20
209.4608232389465
 30
0.0
 10
96.33702910407072
 20
209.4045217776086
 30
0.0
 10
96.33702910407072
 20
209.3672692477552
 30
0.0
 10
96.33702910407072
 20
209.3524461546771
 30
0.0
  0
LINE
  5
232C
102
{ACAD_REACTORS
330
2527
102
}
330
1F
100
AcDbEntity
  8
1
  6
Continuous
 62
     7
100
AcDbLine
 10
132.3370288697135
 20
208.0825568265777
 30
0.0
 11
132.3370294170135
 21
204.0516105654776
 31
0.0
  0
LINE
  5
232D
330
1F
100
AcDbEntity
  8
1
  6
Continuous
 62
     7
100
AcDbLine
 10
132.3370294170135
 20
204.0516105654776
 30
0.0
 11
132.1370297567135
 21
204.0516105654776
 31
0.0
  0
ARC
  5
232E
330
1F
100
AcDbEntity
  8
1
  6
Continuous
 62
     7
100
AcDbCircle
 10
88.33702886971355
 20
208.0825568265777
 30
0.0
 40
1.0
100
AcDbArc
 50
94.12348928670133
 51
180.0
  0
LINE
  5
232F
330
1F
100
AcDbEntity
  8
1
  6
Continuous
 62
     7
100
AcDbLine
 10
132.1370297567135
 20
204.0516105654776
 30
0.0
 11
87.53702915171351
 21
204.0516105654776
 31
0.0
  0
LINE
  5
2330
330
1F
100
AcDbEntity
  8
1
  6
Continuous
 62
     7
100
AcDbLine
 10
96.33702910411353
 20
205.8616107264776
 30
0.0
 11
98.13702977161347
 21
205.8616107264776
 31
0.0
  0
LINE
  5
2331
330
1F
100
AcDbEntity
  8
1
  6
Continuous
 62
     7
100
AcDbLine
 10
121.5370272742135
 20
205.8616107264776
 30
0.0
 11
123.3370279418135
 21
205.8616107264776
 31
0.0
  0
LINE
  5
2332
330
1F
100
AcDbEntity
  8
1
  6
Continuous
 62
     7
100
AcDbLine
 10
96.33702910411353
 20
209.3524461546776
 30
0.0
 11
96.33702910411353
 21
205.8616107264776
 31
0.0
  0
LINE
  5
2333
330
1F
100
AcDbEntity
  8
1
  6
Continuous
 62
     7
100
AcDbLine
 10
121.5370272742135
 20
209.4281626799777
 30
0.0
 11
121.5370272742135
 21
205.8616107264776
 31
0.0
  0
LINE
  5
2334
330
1F
100
AcDbEntity
  8
1
  6
Continuous
 62
     7
100
AcDbLine
 10
98.13702977161347
 20
209.4281626799777
 30
0.0
 11
98.13702977161347
 21
205.8616107264776
 31
0.0
  0
LINE
  5
2335
330
1F
100
AcDbEntity
  8
1
  6
Continuous
 62
     7
100
AcDbLine
 10
123.3370279418135
 20
209.3524461546776
 30
0.0
 11
123.3370279418135
 21
205.8616107264776
 31
0.0
  0
ARC
  5
2336
330
1F
100
AcDbEntity
  8
1
  6
Continuous
 62
     7
100
AcDbCircle
 10
131.3370288697135
 20
208.0825568265777
 30
0.0
 40
1.000000000000028
100
AcDbArc
 50
0.0
 51
85.87651071330205
  0
LINE
  5
2337
102
{ACAD_REACTORS
330
2527
102
}
330
1F
100
AcDbEntity
  8
1
  6
Continuous
 62
     7
100
AcDbLine
 10
87.33702576621351
 20
204.0516105654776
 30
0.0
 11
87.33702886971355
 21
208.0825568265777
 31
0.0
  0
LINE
  5
2338
330
1F
100
AcDbEntity
  8
1
  6
Continuous
 62
     7
100
AcDbLine
 10
87.53702915171351
 20
204.0516105654776
 30
0.0
 11
87.33702576621351
 21
204.0516105654776
 31
0.0
  0
LINE
  5
2339
330
1F
100
AcDbEntity
  8
1
  6
Continuous
 62
     7
100
AcDbLine
 10
96.33702910411353
 20
208.1116115608776
 30
0.0
 11
98.13702977161347
 21
208.1116115608776
 31
0.0
  0
ARC
  5
233A
330
1F
100
AcDbEntity
  8
1
  6
Continuous
 62
     7
100
AcDbCircle
 10
109.8370288697135
 20
-90.1434480757224
 30
0.0
 40
300.0000000000001
100
AcDbArc
 50
92.2351022438
 51
92.5791810516
  0
LINE
  5
233B
330
1F
100
AcDbEntity
  8
1
  6
Continuous
 62
     7
100
AcDbLine
 10
121.5370272742135
 20
208.1116115608776
 30
0.0
 11
123.3370279418135
 21
208.1116115608776
 31
0.0
  0
ARC
  5
233C
330
1F
100
AcDbEntity
  8
1
  6
Continuous
 62
     7
100
AcDbCircle
 10
109.8370288697135
 20
-90.1434480757224
 30
0.0
 40
300.0000000000001
100
AcDbArc
 50
87.42081894839995
 51
87.76489775620004
  0
LINE
  5
233D
330
1F
100
AcDbEntity
  8
1
  6
Continuous
 62
     7
100
AcDbLine
 10
128.0625922130135
 20
209.3014208534776
 30
0.0
 11
128.0625922130135
 21
209.3024229565776
 31
0.0
  0
LINE
  5
233E
330
1F
100
AcDbEntity
  8
1
  6
Continuous
 62
     7
100
AcDbLine
 10
128.0625866250135
 20
209.3014208534776
 30
0.0
 11
128.0625866250135
 21
209.3024229565776
 31
0.0
  0
LINE
  5
233F
330
1F
100
AcDbEntity
  8
1
  6
Continuous
 62
     7
100
AcDbLine
 10
128.0625922130135
 20
209.3024229565776
 30
0.0
 11
128.0625866250135
 21
209.3024229565776
 31
0.0
  0
SPLINE
  5
2340
330
1F
100
AcDbEntity
  8
1
  6
Continuous
 62
     7
100
AcDbSpline
210
0.0
220
0.0
230
1.0
 70
     8
 71
     3
 72
    12
 73
     8
 74
     0
 42
0.000000001
 43
0.00000001
 40
0.0
 40
0.0
 40
0.0
 40
0.0
 40
0.2137186485294028
 40
0.4274909537304797
 40
0.6413169663706269
 40
0.8571599990776323
 40
1.0
 40
1.0
 40
1.0
 40
1.0
 10
129.8511338876057
 20
209.1882018307082
 30
0.0
 10
129.8496278198575
 20
209.1883011878226
 30
0.0
 10
129.8466153062443
 20
209.1884999269964
 30
0.0
 10
129.8227845239729
 20
209.1900946737558
 30
0.0
 10
129.7877264100458
 20
209.192433269475
 30
0.0
 10
129.7486425621514
 20
209.1950371678703
 30
0.0
 10
129.7226759592219
 20
209.1967613658894
 30
0.0
 10
129.7123351590205
 20
209.197448001229
 30
0.0
  0
SPLINE
  5
2341
330
1F
100
AcDbEntity
  8
1
  6
Continuous
 62
     7
100
AcDbSpline
210
0.0
220
0.0
230
1.0
 70
     8
 71
     3
 72
    12
 73
     8
 74
     0
 42
0.000000001
 43
0.00000001
 40
0.0
 40
0.0
 40
0.0
 40
0.0
 40
0.2149062230688922
 40
0.4298751767202807
 40
0.6444560231523789
 40
0.860127819621388
 40
1.0
 40
1.0
 40
1.0
 40
1.0
 10
129.7123351590205
 20
209.197448001229
 30
0.0
 10
129.6967261112465
 20
209.198483200362
 30
0.0
 10
129.665503459457
 20
209.2005539007999
 30
0.0
 10
129.6239369707022
 20
209.2033084649146
 30
0.0
 10
129.592462963483
 20
209.2053825874885
 30
0.0
 10
129.5758385957719
 20
209.2064813444994
 30
0.0
 10
129.5741864069864
 20
209.2065886338343
 30
0.0
 10
129.5735364304353
 20
209.2066308418147
 30
0.0
  0
SPLINE
  5
2342
330
1F
100
AcDbEntity
  8
1
  6
Continuous
 62
     7
100
AcDbSpline
210
0.0
220
0.0
230
1.0
 70
     8
 71
     3
 72
    10
 73
     6
 74
     0
 42
0.000000001
 43
0.00000001
 40
0.0
 40
0.0
 40
0.0
 40
0.0
 40
0.3566362269533249
 40
0.866534235340795
 40
1.0
 40
1.0
 40
1.0
 40
1.0
 10
127.5861778752375
 20
209.3310369113319
 30
0.0
 10
127.5709280763474
 20
209.3319405767638
 30
0.0
 10
127.5338749902568
 20
209.3341362511649
 30
0.0
 10
127.5011466747951
 20
209.3360678995846
 30
0.0
 10
127.491753275226
 20
209.3366186310073
 30
0.0
 10
127.4898046152163
 20
209.3367328801981
 30
0.0
  0
LINE
  5
2343
330
1F
100
AcDbEntity
  8
1
  6
Continuous
 62
     7
100
AcDbLine
 10
128.1459046052135
 20
209.2963358321776
 30
0.0
 11
128.1459046052135
 21
209.2973379352777
 31
0.0
  0
LINE
  5
2344
330
1F
100
AcDbEntity
  8
1
  6
Continuous
 62
     7
100
AcDbLine
 10
128.1280381129135
 20
209.2974273422776
 30
0.0
 11
128.1280381129135
 21
209.2984294453776
 31
0.0
  0
LINE
  5
2345
330
1F
100
AcDbEntity
  8
1
  6
Continuous
 62
     7
100
AcDbLine
 10
128.1459042697135
 20
209.2973391954776
 30
0.0
 11
128.1280380697135
 21
209.2984310634776
 31
0.0
  0
SPLINE
  5
2346
330
1F
100
AcDbEntity
  8
1
  6
Continuous
 62
     7
100
AcDbSpline
210
0.0
220
0.0
230
1.0
 70
     8
 71
     3
 72
    11
 73
     7
 74
     0
 42
0.000000001
 43
0.00000001
 40
0.0
 40
0.0
 40
0.0
 40
0.0
 40
0.3001115446468343
 40
0.6033701371830416
 40
0.9080958687737849
 40
1.0
 40
1.0
 40
1.0
 40
1.0
 10
129.6230306373406
 20
209.203363762223
 30
0.0
 10
129.5960020120727
 20
209.2051483135351
 30
0.0
 10
129.5416613323266
 20
209.2087361294295
 30
0.0
 10
129.4818665555423
 20
209.2126603582371
 30
0.0
 10
129.4543456512876
 20
209.2144638946149
 30
0.0
 10
129.4485977209312
 20
209.2148429554365
 30
0.0
 10
129.4472658531237
 20
209.2149307885996
 30
0.0
  0
ARC
  5
2347
330
1F
100
AcDbEntity
  8
1
  6
Continuous
 62
     7
100
AcDbCircle
 10
65.03702886971348
 20
145.5516120519776
 30
0.0
 40
0.1999999999999886
100
AcDbArc
 50
180.0
 51
270.0
  0
ARC
  5
2348
330
1F
100
AcDbEntity
  8
1
  6
Continuous
 62
     7
100
AcDbCircle
 10
75.93702886971352
 20
173.0516120519776
 30
0.0
 40
0.2000000000000455
100
AcDbArc
 50
270.0
 51
0.0
  0
LINE
  5
2349
330
1F
100
AcDbEntity
  8
1
  6
Continuous
 62
     7
100
AcDbLine
 10
84.69254649141351
 20
150.6360941740776
 30
0.0
 11
84.73702645761352
 21
150.5916123452776
 31
0.0
  0
LINE
  5
234A
330
1F
100
AcDbEntity
  8
1
  6
Continuous
 62
     7
100
AcDbLine
 10
84.73702645761352
 20
150.5516120406776
 30
0.0
 11
84.73702645761352
 21
150.5916123452776
 31
0.0
  0
LINE
  5
234B
330
1F
100
AcDbEntity
  8
1
  6
Continuous
 62
     7
100
AcDbLine
 10
84.77545655231347
 20
150.5516120406776
 30
0.0
 11
84.73702645761352
 21
150.5516120406776
 31
0.0
  0
LINE
  5
234C
330
1F
100
AcDbEntity
  8
1
  6
Continuous
 62
     7
100
AcDbLine
 10
84.77698392141349
 20
149.5516118767776
 30
0.0
 11
84.77545655231347
 21
150.5516120406776
 31
0.0
  0
LINE
  5
234D
330
1F
100
AcDbEntity
  8
1
  6
Continuous
 62
     7
100
AcDbLine
 10
84.69254649141351
 20
150.6360941740776
 30
0.0
 11
84.69254649141351
 21
149.5516118767776
 31
0.0
  0
LWPOLYLINE
  5
234E
330
1F
100
AcDbEntity
  8
1
  6
Continuous
 62
     7
100
AcDbPolyline
 90
        9
 70
   128
 43
0.0
 10
92.13703251341349
 20
145.3516124921776
 10
92.13318801391353
 20
145.3554551291776
 10
92.1218035267135
 20
145.3668358910776
 10
92.10332608681352
 20
145.3853179874776
 10
92.07844859821353
 20
145.4101908194776
 10
92.04813963631352
 20
145.4404979187776
 10
92.01356894241349
 20
145.4750751319776
 10
91.9760478185135
 20
145.5125943931776
 10
91.93702912791355
 20
145.5516121524776
  0
LINE
  5
234F
102
{ACAD_REACTORS
330
2524
102
}
330
1F
100
AcDbEntity
  8
1
  6
Continuous
 62
     7
100
AcDbLine
 10
92.13703251341349
 20
145.3516124921776
 30
0.0
 11
65.03702825771347
 21
145.3516124921776
 31
0.0
  0
ARC
  5
2350
330
1F
100
AcDbEntity
  8
1
  6
Continuous
 62
     7
100
AcDbCircle
 10
87.1370288697135
 20
193.0516120519776
 30
0.0
 40
0.2000000000000171
100
AcDbArc
 50
270.0
 51
0.0
  0
LINE
  5
2351
330
1F
100
AcDbEntity
  8
1
  6
Continuous
 62
     7
100
AcDbLine
 10
147.4369851397135
 20
149.5516118767776
 30
0.0
 11
147.4354577706135
 21
150.5516120406776
 31
0.0
  0
LINE
  5
2352
330
1F
100
AcDbEntity
  8
1
  6
Continuous
 62
     7
100
AcDbLine
 10
147.3525467784135
 20
150.6360941740776
 30
0.0
 11
147.3525467784135
 21
149.5516118767776
 31
0.0
  0
LINE
  5
2353
330
1F
100
AcDbEntity
  8
1
  6
Continuous
 62
     7
100
AcDbLine
 10
147.3525467784135
 20
150.6360941740776
 30
0.0
 11
147.3708742754135
 21
150.6177666771776
 31
0.0
  0
LINE
  5
2354
330
1F
100
AcDbEntity
  8
1
  6
Continuous
 62
     7
100
AcDbLine
 10
147.3708742754135
 20
150.6177666771776
 30
0.0
 11
147.3708742754135
 21
150.5516120406776
 31
0.0
  0
LINE
  5
2355
330
1F
100
AcDbEntity
  8
1
  6
Continuous
 62
     7
100
AcDbLine
 10
147.4354577706135
 20
150.5516120406776
 30
0.0
 11
147.3708742754135
 21
150.5516120406776
 31
0.0
  0
LINE
  5
2356
330
1F
100
AcDbEntity
  8
1
  6
Continuous
 62
     7
100
AcDbLine
 10
129.0842977808135
 20
149.5285802695776
 30
0.0
 11
129.2370290951135
 21
149.6813125151776
 31
0.0
  0
LINE
  5
2357
330
1F
100
AcDbEntity
  8
1
  6
Continuous
 62
     7
100
AcDbLine
 10
129.0842977808135
 20
149.5285802695776
 30
0.0
 11
129.0842977808135
 21
150.6516118708776
 31
0.0
  0
LINE
  5
2358
330
1F
100
AcDbEntity
  8
1
  6
Continuous
 62
     7
100
AcDbLine
 10
129.2370290951135
 20
149.6813125151776
 30
0.0
 11
129.2370290951135
 21
150.6516118708776
 31
0.0
  0
LINE
  5
2359
330
1F
100
AcDbEntity
  8
1
  6
Continuous
 62
     7
100
AcDbLine
 10
134.8897603796135
 20
150.6516118708776
 30
0.0
 11
134.8897603796135
 21
149.5285802695776
 31
0.0
  0
LINE
  5
235A
330
1F
100
AcDbEntity
  8
1
  6
Continuous
 62
     7
100
AcDbLine
 10
134.8897603796135
 20
149.5285802695776
 30
0.0
 11
134.7370290653135
 21
149.6813125151776
 31
0.0
  0
LINE
  5
235B
330
1F
100
AcDbEntity
  8
1
  6
Continuous
 62
     7
100
AcDbLine
 10
134.7370290653135
 20
150.6516118708776
 30
0.0
 11
134.7370290653135
 21
149.6813125151776
 31
0.0
  0
LINE
  5
235C
330
1F
100
AcDbEntity
  8
1
  6
Continuous
 62
     7
100
AcDbLine
 10
72.08976275191355
 20
149.5288801553776
 30
0.0
 11
66.28430015311352
 21
149.5288801553776
 31
0.0
  0
LINE
  5
235D
330
1F
100
AcDbEntity
  8
1
  6
Continuous
 62
     7
100
AcDbLine
 10
66.28430015311352
 20
149.5288801553776
 30
0.0
 11
66.43702960471353
 21
149.6816124010776
 31
0.0
  0
LINE
  5
235E
330
1F
100
AcDbEntity
  8
1
  6
Continuous
 62
     7
100
AcDbLine
 10
71.93702584961352
 20
149.6816124010776
 30
0.0
 11
66.43702960471353
 21
149.6816124010776
 31
0.0
  0
LINE
  5
235F
330
1F
100
AcDbEntity
  8
1
  6
Continuous
 62
     7
100
AcDbLine
 10
72.08976275191355
 20
149.5288801553776
 30
0.0
 11
71.93702584961352
 21
149.6816124010776
 31
0.0
  0
ARC
  5
2360
330
1F
100
AcDbEntity
  8
1
  6
Continuous
 62
     7
100
AcDbCircle
 10
154.6370288697135
 20
145.5516120519776
 30
0.0
 40
0.1999999999999886
100
AcDbArc
 50
270.0
 51
0.0
  0
LINE
  5
2361
330
1F
100
AcDbEntity
  8
1
  6
Continuous
 62
     7
100
AcDbLine
 10
132.5370290772135
 20
192.8516109648776
 30
0.0
 11
142.7370285140135
 21
192.8516109648776
 31
0.0
  0
LINE
  5
2362
330
1F
100
AcDbEntity
  8
1
  6
Continuous
 62
     7
100
AcDbLine
 10
90.72151160701355
 20
150.6360941740776
 30
0.0
 11
90.70318317871352
 21
150.6177666771776
 31
0.0
  0
LINE
  5
2363
330
1F
100
AcDbEntity
  8
1
  6
Continuous
 62
     7
100
AcDbLine
 10
84.73702645761352
 20
150.6177666771776
 30
0.0
 11
90.70318317871352
 21
150.6177666771776
 31
0.0
  0
LINE
  5
2364
330
1F
100
AcDbEntity
  8
1
  6
Continuous
 62
     7
100
AcDbLine
 10
84.73702645761352
 20
150.6177666771776
 30
0.0
 11
84.73702645761352
 21
150.5916123452776
 31
0.0
  0
LINE
  5
2365
330
1F
100
AcDbEntity
  8
1
  6
Continuous
 62
     7
100
AcDbLine
 10
90.72151160701355
 20
150.6360941740776
 30
0.0
 11
84.69254649141351
 21
150.6360941740776
 31
0.0
  0
ARC
  5
2366
330
1F
100
AcDbEntity
  8
1
  6
Continuous
 62
     7
100
AcDbCircle
 10
132.5370288697135
 20
193.0516120519776
 30
0.0
 40
0.2000000000000455
100
AcDbArc
 50
180.0
 51
270.0
  0
ARC
  5
2367
330
1F
100
AcDbEntity
  8
1
  6
Continuous
 62
     7
100
AcDbCircle
 10
65.6370288697135
 20
172.0516120519776
 30
0.0
 40
0.8000000000000398
100
AcDbArc
 50
90.0
 51
180.0
  0
LINE
  5
2368
330
1F
100
AcDbEntity
  8
1
  6
Continuous
 62
     7
100
AcDbLine
 10
127.5370282577135
 20
148.8516121345776
 30
0.0
 11
92.13703251341349
 21
148.8516121345776
 31
0.0
  0
LWPOLYLINE
  5
2369
330
1F
100
AcDbEntity
  8
1
  6
Continuous
 62
     7
100
AcDbPolyline
 90
        9
 70
   128
 43
0.0
 10
92.13703251341349
 20
148.8516121345776
 10
92.13318801391353
 20
148.8554547715776
 10
92.1218035267135
 20
148.8668364646776
 10
92.10332608681352
 20
148.8853185611776
 10
92.07844859821353
 20
148.9101904618776
 10
92.04813963631352
 20
148.9404975610776
 10
92.01356894241349
 20
148.9750757056776
 10
91.9760478185135
 20
149.0125940355776
 10
91.93702912791355
 20
149.0516117948776
  0
LINE
  5
236A
330
1F
100
AcDbEntity
  8
1
  6
Continuous
 62
     7
100
AcDbLine
 10
87.33702576621351
 20
193.0516106250776
 30
0.0
 11
87.33702576621351
 21
204.0516105654776
 31
0.0
  0
LINE
  5
236B
330
1F
100
AcDbEntity
  8
1
  6
Continuous
 62
     7
100
AcDbLine
 10
153.3823482217135
 20
150.6360941740776
 30
0.0
 11
153.3460254771135
 21
150.5997716623776
 31
0.0
  0
LINE
  5
236C
330
1F
100
AcDbEntity
  8
1
  6
Continuous
 62
     7
100
AcDbLine
 10
153.3823482217135
 20
149.5516118767776
 30
0.0
 11
153.3823482217135
 21
150.6360941740776
 31
0.0
  0
LINE
  5
236D
330
1F
100
AcDbEntity
  8
1
  6
Continuous
 62
     7
100
AcDbLine
 10
153.2994365310135
 20
150.5516120406776
 30
0.0
 11
153.2979093948135
 21
149.5516118767776
 31
0.0
  0
LINE
  5
236E
330
1F
100
AcDbEntity
  8
1
  6
Continuous
 62
     7
100
AcDbLine
 10
153.3460254771135
 20
150.5516120406776
 30
0.0
 11
153.2994365310135
 21
150.5516120406776
 31
0.0
  0
LINE
  5
236F
330
1F
100
AcDbEntity
  8
1
  6
Continuous
 62
     7
100
AcDbLine
 10
153.3460254771135
 20
150.5516120406776
 30
0.0
 11
153.3460254771135
 21
150.5997716623776
 31
0.0
  0
LINE
  5
2370
102
{ACAD_REACTORS
330
2521
102
}
330
1F
100
AcDbEntity
  8
1
  6
Continuous
 62
     7
100
AcDbLine
 10
76.93702853191348
 20
192.8516109648776
 30
0.0
 11
87.13702983121351
 21
192.8516109648776
 31
0.0
  0
LINE
  5
2371
330
1F
100
AcDbEntity
  8
1
  6
Continuous
 62
     7
100
AcDbLine
 10
76.13702989081355
 20
173.0516120034776
 30
0.0
 11
76.13702989081355
 21
192.0516123238776
 31
0.0
  0
LINE
  5
2372
330
1F
100
AcDbEntity
  8
1
  6
Continuous
 62
     7
100
AcDbLine
 10
64.83703232271353
 20
145.5516121524776
 30
0.0
 11
64.83703232271353
 21
172.0516118395776
 31
0.0
  0
LINE
  5
2373
330
1F
100
AcDbEntity
  8
1
  6
Continuous
 62
     7
100
AcDbLine
 10
65.63703096371353
 20
172.8516123431776
 30
0.0
 11
75.9370265053135
 21
172.8516123431776
 31
0.0
  0
LINE
  5
2374
330
1F
100
AcDbEntity
  8
1
  6
Continuous
 62
     7
100
AcDbLine
 10
143.7370286779135
 20
172.8516123431776
 30
0.0
 11
154.0370288761135
 21
172.8516123431776
 31
0.0
  0
ARC
  5
2375
330
1F
100
AcDbEntity
  8
1
  6
Continuous
 62
     7
100
AcDbCircle
 10
154.0370288697135
 20
172.0516120519776
 30
0.0
 40
0.7999999999999972
100
AcDbArc
 50
0.0
 51
90.0
  0
LINE
  5
2376
330
1F
100
AcDbEntity
  8
1
  6
Continuous
 62
     7
100
AcDbLine
 10
134.8897603796135
 20
149.5285802695776
 30
0.0
 11
129.0842977808135
 21
149.5285802695776
 31
0.0
  0
LINE
  5
2377
330
1F
100
AcDbEntity
  8
1
  6
Continuous
 62
     7
100
AcDbLine
 10
134.7370290653135
 20
149.6813125151776
 30
0.0
 11
129.2370290951135
 21
149.6813125151776
 31
0.0
  0
LINE
  5
2378
330
1F
100
AcDbEntity
  8
1
  6
Continuous
 62
     7
100
AcDbLine
 10
66.28430015311352
 20
149.5288801553776
 30
0.0
 11
66.28430015311352
 21
150.6516118708776
 31
0.0
  0
LINE
  5
2379
330
1F
100
AcDbEntity
  8
1
  6
Continuous
 62
     7
100
AcDbLine
 10
66.43702960471353
 20
149.6816124010776
 30
0.0
 11
66.43702960471353
 21
150.6516118708776
 31
0.0
  0
LINE
  5
237A
330
1F
100
AcDbEntity
  8
1
  6
Continuous
 62
     7
100
AcDbLine
 10
127.5370282577135
 20
145.3516124921776
 30
0.0
 11
127.5370282577135
 21
148.8516121345776
 31
0.0
  0
LINE
  5
237B
330
1F
100
AcDbEntity
  8
1
  6
Continuous
 62
     7
100
AcDbLine
 10
72.08976275191355
 20
150.6516118708776
 30
0.0
 11
72.08976275191355
 21
149.5288801553776
 31
0.0
  0
LINE
  5
237C
330
1F
100
AcDbEntity
  8
1
  6
Continuous
 62
     7
100
AcDbLine
 10
71.93702584961352
 20
150.6516118708776
 30
0.0
 11
71.93702584961352
 21
149.6816124010776
 31
0.0
  0
LINE
  5
237D
102
{ACAD_REACTORS
330
252A
102
}
330
1F
100
AcDbEntity
  8
1
  6
Continuous
 62
     7
100
AcDbLine
 10
92.13703251341349
 20
148.8516121345776
 30
0.0
 11
92.13703251341349
 21
145.3516124921776
 31
0.0
  0
ARC
  5
237E
330
1F
100
AcDbEntity
  8
1
  6
Continuous
 62
     7
100
AcDbCircle
 10
143.7370288697135
 20
173.0516120519776
 30
0.0
 40
0.2000000000000028
100
AcDbArc
 50
180.0
 51
270.0
  0
LINE
  5
237F
330
1F
100
AcDbEntity
  8
1
  6
Continuous
 62
     7
100
AcDbLine
 10
132.3370294170135
 20
204.0516105654776
 30
0.0
 11
132.3370294170135
 21
193.0516106250776
 31
0.0
  0
ARC
  5
2380
330
1F
100
AcDbEntity
  8
1
  6
Continuous
 62
     7
100
AcDbCircle
 10
142.7370288697135
 20
192.0516120519776
 30
0.0
 40
0.7999999999999972
100
AcDbArc
 50
0.0
 51
90.0
  0
LINE
  5
2381
102
{ACAD_REACTORS
330
252A
102
}
330
1F
100
AcDbEntity
  8
1
  6
Continuous
 62
     7
100
AcDbLine
 10
154.6370289046135
 20
145.3516124921776
 30
0.0
 11
127.5370282577135
 21
145.3516124921776
 31
0.0
  0
LINE
  5
2382
102
{ACAD_REACTORS
330
252D
102
}
330
1F
100
AcDbEntity
  8
1
  6
Continuous
 62
     7
100
AcDbLine
 10
154.8370289141135
 20
172.0516118395776
 30
0.0
 11
154.8370289141135
 21
145.5516121524776
 31
0.0
  0
LINE
  5
2383
330
1F
100
AcDbEntity
  8
1
  6
Continuous
 62
     7
100
AcDbLine
 10
90.70318317871352
 20
150.5516120406776
 30
0.0
 11
90.70318317871352
 21
150.6177666771776
 31
0.0
  0
LINE
  5
2384
330
1F
100
AcDbEntity
  8
1
  6
Continuous
 62
     7
100
AcDbLine
 10
90.72151160701355
 20
149.5516118767776
 30
0.0
 11
90.72151160701355
 21
150.6360941740776
 31
0.0
  0
LINE
  5
2385
330
1F
100
AcDbEntity
  8
1
  6
Continuous
 62
     7
100
AcDbLine
 10
90.6370741771135
 20
149.5516118767776
 30
0.0
 11
90.63860154611348
 21
150.5516120406776
 31
0.0
  0
LINE
  5
2386
330
1F
100
AcDbEntity
  8
1
  6
Continuous
 62
     7
100
AcDbLine
 10
90.70318317871352
 20
150.5516120406776
 30
0.0
 11
90.63860154611348
 21
150.5516120406776
 31
0.0
  0
ARC
  5
2387
330
1F
100
AcDbEntity
  8
1
  6
Continuous
 62
     7
100
AcDbCircle
 10
76.93702886971352
 20
192.0516120519776
 30
0.0
 40
0.8000000000000114
100
AcDbArc
 50
90.0
 51
180.0
  0
LINE
  5
2388
330
1F
100
AcDbEntity
  8
1
  6
Continuous
 62
     7
100
AcDbLine
 10
143.5370290176135
 20
192.0516123238776
 30
0.0
 11
143.5370290176135
 21
173.0516120034776
 31
0.0
  0
LINE
  5
2389
330
1F
100
AcDbEntity
  8
1
  6
Continuous
 62
     7
100
AcDbLine
 10
153.3370289010135
 20
150.6177666771776
 30
0.0
 11
153.3460254771135
 21
150.5997716623776
 31
0.0
  0
LINE
  5
238A
330
1F
100
AcDbEntity
  8
1
  6
Continuous
 62
     7
100
AcDbLine
 10
147.3708742754135
 20
150.6177666771776
 30
0.0
 11
153.3370289010135
 21
150.6177666771776
 31
0.0
  0
LINE
  5
238B
330
1F
100
AcDbEntity
  8
1
  6
Continuous
 62
     7
100
AcDbLine
 10
153.3823482217135
 20
150.6360941740776
 30
0.0
 11
147.3525467784135
 21
150.6360941740776
 31
0.0
  0
LINE
  5
238C
330
1F
100
AcDbEntity
  8
1
  6
Continuous
 62
     7
100
AcDbLine
 10
84.69254649141351
 20
149.5516118767776
 30
0.0
 11
90.72151160701355
 21
149.5516118767776
 31
0.0
  0
LINE
  5
238D
330
1F
100
AcDbEntity
  8
1
  6
Continuous
 62
     7
100
AcDbLine
 10
147.3525467784135
 20
149.5516118767776
 30
0.0
 11
153.3823482217135
 21
149.5516118767776
 31
0.0
  0
LINE
  5
238E
330
1F
100
AcDbEntity
  8
1
  6
Continuous
 62
     7
100
AcDbLine
 10
134.8897603796135
 20
150.6516118708776
 30
0.0
 11
129.0842977808135
 21
150.6516118708776
 31
0.0
  0
LINE
  5
238F
330
1F
100
AcDbEntity
  8
1
  6
Continuous
 62
     7
100
AcDbLine
 10
72.08976275191355
 20
150.6516118708776
 30
0.0
 11
66.28430015311352
 21
150.6516118708776
 31
0.0
  0
LINE
  5
2390
330
1F
100
AcDbEntity
  8
1
  6
Continuous
 62
     7
100
AcDbLine
 10
96.43702707151351
 20
206.5616113999776
 30
0.0
 11
96.43702707151351
 21
208.1116115608776
 31
0.0
  0
LINE
  5
2391
330
1F
100
AcDbEntity
  8
1
  6
Continuous
 62
     7
100
AcDbLine
 10
98.03702807891352
 20
206.5616113999776
 30
0.0
 11
98.03702807891352
 21
208.1116115608776
 31
0.0
  0
LINE
  5
2392
330
1F
100
AcDbEntity
  8
1
  6
Continuous
 62
     7
100
AcDbLine
 10
96.43702707151351
 20
206.5616113999776
 30
0.0
 11
98.03702807891352
 21
206.5616113999776
 31
0.0
  0
LINE
  5
2393
330
1F
100
AcDbEntity
  8
1
  6
Continuous
 62
     7
100
AcDbLine
 10
96.43702707151351
 20
206.0616103866776
 30
0.0
 11
96.43702707151351
 21
206.5616113999776
 31
0.0
  0
LINE
  5
2394
330
1F
100
AcDbEntity
  8
1
  6
Continuous
 62
     7
100
AcDbLine
 10
98.03702807891352
 20
206.0616103866776
 30
0.0
 11
98.03702807891352
 21
206.5616113999776
 31
0.0
  0
LINE
  5
2395
330
1F
100
AcDbEntity
  8
1
  6
Continuous
 62
     7
100
AcDbLine
 10
96.43702707151351
 20
206.0616103866776
 30
0.0
 11
98.03702807891352
 21
206.0616103866776
 31
0.0
  0
LINE
  5
2396
330
1F
100
AcDbEntity
  8
1
  6
Continuous
 62
     7
100
AcDbLine
 10
121.6370289670135
 20
206.5616113999776
 30
0.0
 11
123.2370299743135
 21
206.5616113999776
 31
0.0
  0
LINE
  5
2397
330
1F
100
AcDbEntity
  8
1
  6
Continuous
 62
     7
100
AcDbLine
 10
123.2370299743135
 20
206.0616103866776
 30
0.0
 11
123.2370299743135
 21
206.5616113999776
 31
0.0
  0
LINE
  5
2398
330
1F
100
AcDbEntity
  8
1
  6
Continuous
 62
     7
100
AcDbLine
 10
121.6370289670135
 20
206.0616103866776
 30
0.0
 11
123.2370299743135
 21
206.0616103866776
 31
0.0
  0
LINE
  5
2399
330
1F
100
AcDbEntity
  8
1
  6
Continuous
 62
     7
100
AcDbLine
 10
121.6370289670135
 20
206.0616103866776
 30
0.0
 11
121.6370289670135
 21
206.5616113999776
 31
0.0
  0
LINE
  5
239A
330
1F
100
AcDbEntity
  8
1
  6
Continuous
 62
     7
100
AcDbLine
 10
123.2370299743135
 20
206.5616113999776
 30
0.0
 11
123.2370299743135
 21
208.1116115608776
 31
0.0
  0
LINE
  5
239B
330
1F
100
AcDbEntity
  8
1
  6
Continuous
 62
     7
100
AcDbLine
 10
121.6370289670135
 20
206.5616113999776
 30
0.0
 11
121.6370289670135
 21
208.1116115608776
 31
0.0
  0
LINE
  5
239C
330
1F
100
AcDbEntity
  8
1
  6
Continuous
 62
     7
100
AcDbLine
 10
153.2994365310135
 20
150.5516120406776
 30
0.0
 11
153.1642413223135
 21
150.5516120406776
 31
0.0
  0
LINE
  5
239D
330
1F
100
AcDbEntity
  8
1
  6
Continuous
 62
     7
100
AcDbLine
 10
147.8098159180135
 20
150.5516120406776
 30
0.0
 11
147.4354577706135
 21
150.5516120406776
 31
0.0
  0
LINE
  5
239E
330
1F
100
AcDbEntity
  8
1
  6
Continuous
 62
     7
100
AcDbLine
 10
90.63860154611348
 20
150.5516120406776
 30
0.0
 11
90.36424136621349
 21
150.5516120406776
 31
0.0
  0
LINE
  5
239F
330
1F
100
AcDbEntity
  8
1
  6
Continuous
 62
     7
100
AcDbLine
 10
85.00981456501347
 20
150.5516120406776
 30
0.0
 11
84.77545655231347
 21
150.5516120406776
 31
0.0
  0
LINE
  5
23A0
330
1F
100
AcDbEntity
  8
1
  6
Continuous
 62
     7
100
AcDbLine
 10
134.6642406182135
 20
150.5516120406776
 30
0.0
 11
134.6640878813135
 21
150.6516118708776
 31
0.0
  0
LINE
  5
23A1
330
1F
100
AcDbEntity
  8
1
  6
Continuous
 62
     7
100
AcDbLine
 10
129.3098156796135
 20
150.5516120406776
 30
0.0
 11
129.3099684165135
 21
150.6516118708776
 31
0.0
  0
LINE
  5
23A2
330
1F
100
AcDbEntity
  8
1
  6
Continuous
 62
     7
100
AcDbLine
 10
71.8642411278135
 20
150.5516120406776
 30
0.0
 11
71.8640921162135
 21
150.6516118708776
 31
0.0
  0
LINE
  5
23A3
330
1F
100
AcDbEntity
  8
1
  6
Continuous
 62
     7
100
AcDbLine
 10
66.50981432661354
 20
150.5516120406776
 30
0.0
 11
66.50997078881352
 21
150.6516118708776
 31
0.0
  0
LINE
  5
23A4
330
1F
100
AcDbEntity
  8
1
  6
Continuous
 62
     7
100
AcDbLine
 10
153.1112479036135
 20
150.6177666771776
 30
0.0
 11
153.1532444981135
 21
149.7516124683776
 31
0.0
  0
LINE
  5
23A5
330
1F
100
AcDbEntity
  8
1
  6
Continuous
 62
     7
100
AcDbLine
 10
153.1532444981135
 20
149.7516124683776
 30
0.0
 11
147.8208129750135
 21
149.7516124683776
 31
0.0
  0
LINE
  5
23A6
330
1F
100
AcDbEntity
  8
1
  6
Continuous
 62
     7
100
AcDbLine
 10
147.8628100352135
 20
150.6177666771776
 30
0.0
 11
147.8208129750135
 21
149.7516124683776
 31
0.0
  0
LINE
  5
23A7
330
1F
100
AcDbEntity
  8
1
  6
Continuous
 62
     7
100
AcDbLine
 10
85.06281054481349
 20
150.6177666771776
 30
0.0
 11
85.02081162201353
 21
149.7516124683776
 31
0.0
  0
LINE
  5
23A8
330
1F
100
AcDbEntity
  8
1
  6
Continuous
 62
     7
100
AcDbLine
 10
85.02081162201353
 20
149.7516124683776
 30
0.0
 11
85.00859266981354
 21
149.7516124683776
 31
0.0
  0
LINE
  5
23A9
330
1F
100
AcDbEntity
  8
1
  6
Continuous
 62
     7
100
AcDbLine
 10
85.00859266981354
 20
149.7516124683776
 30
0.0
 11
85.00991887311352
 21
150.6177666771776
 31
0.0
  0
LINE
  5
23AA
330
1F
100
AcDbEntity
  8
1
  6
Continuous
 62
     7
100
AcDbLine
 10
90.36546326141354
 20
149.7516124683776
 30
0.0
 11
90.3641370581135
 21
150.6177666771776
 31
0.0
  0
LINE
  5
23AB
330
1F
100
AcDbEntity
  8
1
  6
Continuous
 62
     7
100
AcDbLine
 10
90.35324430921355
 20
149.7516124683776
 30
0.0
 11
90.36546326141354
 21
149.7516124683776
 31
0.0
  0
LINE
  5
23AC
330
1F
100
AcDbEntity
  8
1
  6
Continuous
 62
     7
100
AcDbLine
 10
90.31124538641347
 20
150.6177666771776
 30
0.0
 11
90.35324430921355
 21
149.7516124683776
 31
0.0
  0
LINE
  5
23AD
330
1F
100
AcDbEntity
  8
1
  6
Continuous
 62
     7
100
AcDbLine
 10
90.35324430921355
 20
149.7516124683776
 30
0.0
 11
85.02081162201353
 21
149.7516124683776
 31
0.0
  0
LINE
  5
23AE
330
1F
100
AcDbEntity
  8
1
  6
Continuous
 62
     7
100
AcDbLine
 10
147.8208129750135
 20
149.7516124683776
 30
0.0
 11
147.8085949541135
 21
149.7516124683776
 31
0.0
  0
LINE
  5
23AF
330
1F
100
AcDbEntity
  8
1
  6
Continuous
 62
     7
100
AcDbLine
 10
147.8085949541135
 20
149.7516124683776
 30
0.0
 11
147.8099174322135
 21
150.6177666771776
 31
0.0
  0
LINE
  5
23B0
330
1F
100
AcDbEntity
  8
1
  6
Continuous
 62
     7
100
AcDbLine
 10
153.1654632175135
 20
149.7516124683776
 30
0.0
 11
153.1641402738135
 21
150.6177666771776
 31
0.0
  0
LINE
  5
23B1
330
1F
100
AcDbEntity
  8
1
  6
Continuous
 62
     7
100
AcDbLine
 10
153.1532444981135
 20
149.7516124683776
 30
0.0
 11
153.1654632175135
 21
149.7516124683776
 31
0.0
  0
LINE
  5
23B2
330
1F
100
AcDbEntity
  8
1
  6
Continuous
 62
     7
100
AcDbLine
 10
147.7370293335135
 20
150.6177666771776
 30
0.0
 11
147.7370293335135
 21
150.5516120406776
 31
0.0
  0
LINE
  5
23B3
330
1F
100
AcDbEntity
  8
1
  6
Continuous
 62
     7
100
AcDbLine
 10
153.2370288381135
 20
150.5516120406776
 30
0.0
 11
153.2370288381135
 21
150.6177666771776
 31
0.0
  0
LINE
  5
23B4
330
1F
100
AcDbEntity
  8
1
  6
Continuous
 62
     7
100
AcDbLine
 10
84.93702984321351
 20
150.6177666771776
 30
0.0
 11
84.93702984321351
 21
150.5516120406776
 31
0.0
  0
LINE
  5
23B5
330
1F
100
AcDbEntity
  8
1
  6
Continuous
 62
     7
100
AcDbLine
 10
90.4370260881135
 20
150.5516120406776
 30
0.0
 11
90.4370260881135
 21
150.6177666771776
 31
0.0
  0
LINE
  5
23B6
330
1F
100
AcDbEntity
  8
1
  6
Continuous
 62
     7
100
AcDbLine
 10
71.93702584961352
 20
150.5516120406776
 30
0.0
 11
66.43702960471353
 21
150.5516120406776
 31
0.0
  0
LINE
  5
23B7
330
1F
100
AcDbEntity
  8
1
  6
Continuous
 62
     7
100
AcDbLine
 10
134.7370290653135
 20
150.5516120406776
 30
0.0
 11
129.2370290951135
 21
150.5516120406776
 31
0.0
  0
LINE
  5
23B8
330
1F
100
AcDbEntity
  8
1
  6
Continuous
 62
     7
100
AcDbLine
 10
71.93702584961352
 20
150.6177666771776
 30
0.0
 11
71.86413681971351
 21
150.6177666771776
 31
0.0
  0
LINE
  5
23B9
330
1F
100
AcDbEntity
  8
1
  6
Continuous
 62
     7
100
AcDbLine
 10
66.50991863471347
 20
150.6177666771776
 30
0.0
 11
66.43702960471353
 21
150.6177666771776
 31
0.0
  0
LINE
  5
23BA
330
1F
100
AcDbEntity
  8
1
  6
Continuous
 62
     7
100
AcDbLine
 10
134.7370290653135
 20
150.6177666771776
 30
0.0
 11
134.6641400353135
 21
150.6177666771776
 31
0.0
  0
LINE
  5
23BB
330
1F
100
AcDbEntity
  8
1
  6
Continuous
 62
     7
100
AcDbLine
 10
129.3099181251135
 20
150.6177666771776
 30
0.0
 11
129.2370290951135
 21
150.6177666771776
 31
0.0
  0
LWPOLYLINE
  5
23BC
330
1F
100
AcDbEntity
  8
0
  6
Continuous
 62
     8
100
AcDbPolyline
 90
        3
 70
   128
 43
0.0
 10
158.1324446936135
 20
147.2498667600776
 10
158.1371478726135
 20
147.9526297363776
 10
158.1431628195135
 20
148.8516121345776
  0
LINE
  5
23BD
330
1F
100
AcDbEntity
  8
0
  6
Continuous
 62
     8
100
AcDbLine
 10
154.8370289141135
 20
147.2498667600776
 30
0.0
 11
158.1324446936135
 21
147.2498667600776
 31
0.0
  0
SPLINE
  5
23BE
330
1F
100
AcDbEntity
  8
0
  6
Continuous
 62
     8
100
AcDbSpline
210
0.0
220
0.0
230
1.0
 70
     8
 71
     3
 72
    10
 73
     6
 74
     0
 42
0.000000001
 43
0.00000001
 40
0.0
 40
0.0
 40
0.0
 40
0.0
 40
0.4171743015452944
 40
0.9968835153514993
 40
1.0
 40
1.0
 40
1.0
 40
1.0
 10
158.4951340676714
 20
145.8498663443557
 30
0.0
 10
158.4963327441815
 20
146.0175014339947
 30
0.0
 10
158.4991971125015
 20
146.4180837729274
 30
0.0
 10
158.5020533254881
 20
146.8199161788275
 30
0.0
 10
158.5037370045528
 20
147.0541170351686
 30
0.0
 10
158.5037460075188
 20
147.0553693536154
 30
0.0
  0
LINE
  5
23BF
330
1F
100
AcDbEntity
  8
0
  6
Continuous
 62
     8
100
AcDbLine
 10
154.8370289141135
 20
145.8498663443776
 30
0.0
 11
158.4951340677135
 21
145.8498663443776
 31
0.0
  0
LWPOLYLINE
  5
23C0
330
1F
100
AcDbEntity
  8
0
  6
Continuous
 62
     8
100
AcDbPolyline
 90
        3
 70
   128
 43
0.0
 10
61.53089678751348
 20
148.8516121345776
 10
61.53690940601348
 20
147.9526297363776
 10
61.54161072241351
 20
147.2498667600776
  0
LINE
  5
23C1
330
1F
100
AcDbEntity
  8
0
  6
Continuous
 62
     8
100
AcDbLine
 10
61.54161072241351
 20
147.2498667600776
 30
0.0
 11
64.83703232271353
 21
147.2498667600776
 31
0.0
  0
SPLINE
  5
23C2
330
1F
100
AcDbEntity
  8
0
  6
Continuous
 62
     8
100
AcDbSpline
210
0.0
220
0.0
230
1.0
 70
     8
 71
     3
 72
    10
 73
     6
 74
     0
 42
0.000000001
 43
0.00000001
 40
0.0
 40
0.0
 40
0.0
 40
0.0
 40
0.0031165021494646
 40
0.5828257121955454
 40
1.0
 40
1.0
 40
1.0
 40
1.0
 10
61.1703110383321
 20
147.0553693536154
 30
0.0
 10
61.1703209755272
 20
147.0541170351906
 30
0.0
 10
61.17217935795668
 20
146.819917492611
 30
0.0
 10
61.17481208038731
 20
146.4180833941417
 30
0.0
 10
61.17771084070114
 20
146.0175013204278
 30
0.0
 10
61.17892390950215
 20
145.8498663443557
 30
0.0
  0
LINE
  5
23C3
330
1F
100
AcDbEntity
  8
0
  6
Continuous
 62
     8
100
AcDbLine
 10
61.17892390951351
 20
145.8498663443776
 30
0.0
 11
64.83703232271353
 21
145.8498663443776
 31
0.0
  0
POINT
  5
23C4
330
1F
100
AcDbEntity
  8
1
  6
Continuous
 62
     7
100
AcDbPoint
 10
109.8370288697135
 20
209.8565519242777
 30
0.0
 50
90.0
  0
LINE
  5
23C5
330
1F
100
AcDbEntity
  8
1
  6
Continuous
 62
     7
100
AcDbLine
 10
68.64203638301353
 20
78.91224564138017
 30
0.0
 11
68.64203638301353
 21
68.86224688108021
 31
0.0
  0
ARC
  5
23C6
330
1F
100
AcDbEntity
  8
1
  6
Continuous
 62
     7
100
AcDbCircle
 10
70.84702886971354
 20
78.9122458007802
 30
0.0
 40
2.204990930820742
100
AcDbArc
 50
0.0
 51
180.0
  0
LINE
  5
23C7
330
1F
100
AcDbEntity
  8
1
  6
Continuous
 62
     7
100
AcDbLine
 10
73.05202013711352
 20
68.86224688108021
 30
0.0
 11
73.05202013711352
 21
78.91224564138017
 31
0.0
  0
ARC
  5
23C8
330
1F
100
AcDbEntity
  8
1
  6
Continuous
 62
     7
100
AcDbCircle
 10
70.84702886971354
 20
68.86224580078019
 30
0.0
 40
2.204990930820742
100
AcDbArc
 50
180.0
 51
0.0
  0
LINE
  5
23C9
330
1F
100
AcDbEntity
  8
1
  6
Continuous
 62
     7
100
AcDbLine
 10
139.7320193694135
 20
68.86224688108021
 30
0.0
 11
139.7320193694135
 21
78.91224564138017
 31
0.0
  0
ARC
  5
23CA
330
1F
100
AcDbEntity
  8
1
  6
Continuous
 62
     7
100
AcDbCircle
 10
137.5270288697135
 20
68.86224580078019
 30
0.0
 40
2.204990930820728
100
AcDbArc
 50
180.0
 51
0.0
  0
LINE
  5
23CB
330
1F
100
AcDbEntity
  8
1
  6
Continuous
 62
     7
100
AcDbLine
 10
135.3220374779135
 20
78.91224564138017
 30
0.0
 11
135.3220374779135
 21
68.86224688108021
 31
0.0
  0
ARC
  5
23CC
330
1F
100
AcDbEntity
  8
1
  6
Continuous
 62
     7
100
AcDbCircle
 10
137.5270288697135
 20
78.9122458007802
 30
0.0
 40
2.204990930820756
100
AcDbArc
 50
0.0
 51
180.0
  0
LINE
  5
23CD
330
1F
100
AcDbEntity
  8
1
  6
Continuous
 62
     7
100
AcDbLine
 10
151.0320197315135
 20
68.86224688108021
 30
0.0
 11
151.0320197315135
 21
78.91224564138017
 31
0.0
  0
ARC
  5
23CE
330
1F
100
AcDbEntity
  8
1
  6
Continuous
 62
     7
100
AcDbCircle
 10
148.8270288697135
 20
68.86224580078019
 30
0.0
 40
2.204990930820742
100
AcDbArc
 50
180.0
 51
0.0
  0
LINE
  5
23CF
330
1F
100
AcDbEntity
  8
1
  6
Continuous
 62
     7
100
AcDbLine
 10
146.6220378400135
 20
78.91224564138017
 30
0.0
 11
146.6220378400135
 21
68.86224688108021
 31
0.0
  0
ARC
  5
23D0
330
1F
100
AcDbEntity
  8
1
  6
Continuous
 62
     7
100
AcDbCircle
 10
148.8270288697135
 20
78.9122458007802
 30
0.0
 40
2.204990930820742
100
AcDbArc
 50
0.0
 51
180.0
  0
ELLIPSE
  5
23D1
330
1F
100
AcDbEntity
  8
1
  6
Continuous
 62
     7
100
AcDbEllipse
 10
156.0195675184135
 20
77.67851131738021
 30
0.0
 11
0.141432126226178
 21
0.1414321262261637
 31
0.0
210
0.0
220
0.0
230
1.0
 40
0.9999238505
 41
5.497825219993293
 42
7.068545394366208
  0
LINE
  5
23D2
330
1F
100
AcDbEntity
  8
1
  6
Continuous
 62
     7
100
AcDbLine
 10
154.9370212936135
 20
77.87852228698014
 30
0.0
 11
156.0195827381135
 21
77.87852228698014
 31
0.0
  0
ELLIPSE
  5
23D3
330
1F
100
AcDbEntity
  8
1
  6
Continuous
 62
     7
100
AcDbEllipse
 10
154.9370364853135
 20
77.67851131738021
 30
0.0
 11
-0.141432126226178
 21
0.1414321262261637
 31
0.0
210
0.0
220
0.0
230
1.0
 40
0.9999238505
 41
5.497825219993029
 42
6.021369827038046
  0
ELLIPSE
  5
23D4
330
1F
100
AcDbEntity
  8
1
  6
Continuous
 62
     7
100
AcDbEllipse
 10
154.9370364853135
 20
70.09598028428016
 30
0.0
 11
-0.141432126226178
 21
-0.1414321262261637
 31
0.0
210
0.0
220
0.0
230
1.0
 40
0.9999238505
 41
0.2618154801415695
 42
0.7853600871866214
  0
LINE
  5
23D5
330
1F
100
AcDbEntity
  8
1
  6
Continuous
 62
     7
100
AcDbLine
 10
156.0195827381135
 20
69.89597023548018
 30
0.0
 11
154.9370212936135
 21
69.89597023548018
 31
0.0
  0
ELLIPSE
  5
23D6
330
1F
100
AcDbEntity
  8
1
  6
Continuous
 62
     7
100
AcDbEllipse
 10
156.0195675184135
 20
70.09598028428016
 30
0.0
 11
0.141432126226178
 21
-0.1414321262261637
 31
0.0
210
0.0
220
0.0
230
1.0
 40
0.9999238505
 41
5.497825219992979
 42
7.068545394366035
  0
LINE
  5
23D7
330
1F
100
AcDbEntity
  8
1
  6
Continuous
 62
     7
100
AcDbLine
 10
156.2195751224135
 20
72.2068274122802
 30
0.0
 11
156.2195751224135
 21
70.0959661703802
 31
0.0
  0
SPLINE
  5
23D8
330
1F
100
AcDbEntity
  8
1
  6
Continuous
 62
     7
100
AcDbSpline
210
0.0
220
0.0
230
1.0
 70
     8
 71
     3
 72
    12
 73
     8
 74
     0
 42
0.000000001
 43
0.00000001
 40
0.0
 40
0.0
 40
0.0
 40
0.0
 40
0.2314094289765279
 40
0.4628075066571636
 40
0.6941949701823618
 40
0.9255903379235065
 40
1.0
 40
1.0
 40
1.0
 40
1.0
 10
156.3969503452615
 20
72.4055418473429
 30
0.0
 10
156.374858803818
 20
72.4007999117795
 30
0.0
 10
156.3306768045845
 20
72.39131627325847
 30
0.0
 10
156.2750525747335
 20
72.35028689299989
 30
0.0
 10
156.2357520121935
 20
72.29474277900547
 30
0.0
 10
156.2208006433314
 20
72.2435993730127
 30
0.0
 10
156.2198149621659
 20
72.21402384424019
 30
0.0
 10
156.2195751224141
 20
72.20682741224229
 30
0.0
  0
ARC
  5
23D9
330
1F
100
AcDbEntity
  8
1
  6
Continuous
 62
     7
100
AcDbCircle
 10
156.2283020019135
 20
73.88724580078022
 30
0.0
 40
1.491273132209259
100
AcDbArc
 50
276.4934816168993
 51
83.50651838310066
  0
SPLINE
  5
23DA
330
1F
100
AcDbEntity
  8
1
  6
Continuous
 62
     7
100
AcDbSpline
210
0.0
220
0.0
230
1.0
 70
     8
 71
     3
 72
    12
 73
     8
 74
     0
 42
0.000000001
 43
0.00000001
 40
0.0
 40
0.0
 40
0.0
 40
0.0
 40
0.231424284347008
 40
0.4628179776086129
 40
0.694219657834598
 40
0.9256080069341334
 40
1.0
 40
1.0
 40
1.0
 40
1.0
 10
156.2195751224141
 20
75.56766511022508
 30
0.0
 10
156.2217852738207
 20
75.54517671102289
 30
0.0
 10
156.2262052844825
 20
75.50020288527347
 30
0.0
 10
156.2606907501129
 20
75.44029780907957
 30
0.0
 10
156.3114311987137
 20
75.39496309610686
 30
0.0
 10
156.3605580563031
 20
75.37433332973526
 30
0.0
 10
156.3898291145538
 20
75.37000395114538
 30
0.0
 10
156.3969503452615
 20
75.36895067512447
 30
0.0
  0
LINE
  5
23DB
330
1F
100
AcDbEntity
  8
1
  6
Continuous
 62
     7
100
AcDbLine
 10
156.2195751224135
 20
77.67852635208018
 30
0.0
 11
156.2195751224135
 21
75.56766511018017
 31
0.0
  0
SPLINE
  5
23DC
330
1F
100
AcDbEntity
  8
1
  6
Continuous
 62
     7
100
AcDbSpline
210
0.0
220
0.0
230
1.0
 70
     8
 71
     3
 72
    11
 73
     7
 74
     0
 42
0.000000001
 43
0.00000001
 40
0.0
 40
0.0
 40
0.0
 40
0.0
 40
0.257861019321849
 40
0.5156976816280427
 40
0.7735365061248943
 40
1.0
 40
1.0
 40
1.0
 40
1.0
 10
158.336293859357
 20
80.63918591558402
 30
0.0
 10
158.3283184539352
 20
80.66035242809576
 30
0.0
 10
158.3123683964319
 20
80.70268345377465
 30
0.0
 10
158.263535022774
 20
80.75121567575397
 30
0.0
 10
158.2051331086595
 20
80.78189294665086
 30
0.0
 10
158.1629077312007
 20
80.78553895269866
 30
0.0
 10
158.1431628195066
 20
80.78724385320609
 30
0.0
  0
ARC
  5
23DD
330
1F
100
AcDbEntity
  8
1
  6
Continuous
 62
     7
100
AcDbCircle
 10
133.2283020019135
 20
73.88724580078022
 30
0.0
 40
26.00000000000002
100
AcDbArc
 50
344.9483229917998
 51
15.0516770081999
  0
SPLINE
  5
23DE
330
1F
100
AcDbEntity
  8
1
  6
Continuous
 62
     7
100
AcDbSpline
210
0.0
220
0.0
230
1.0
 70
     8
 71
     3
 72
    11
 73
     7
 74
     0
 42
0.000000001
 43
0.00000001
 40
0.0
 40
0.0
 40
0.0
 40
0.0
 40
0.2578507998679983
 40
0.5157043016465876
 40
0.7735517372762536
 40
1.0
 40
1.0
 40
1.0
 40
1.0
 10
158.1431628195066
 20
66.98724866926139
 30
0.0
 10
158.1656724676345
 20
66.98945430739562
 30
0.0
 10
158.2106919997594
 20
66.99386560677587
 30
0.0
 10
158.2702418276228
 20
67.02841752219686
 30
0.0
 10
158.3150289915939
 20
67.07685085841686
 30
0.0
 10
158.3295187158092
 20
67.11667709795225
 30
0.0
 10
158.336293859357
 20
67.13529915630275
 30
0.0
  0
LINE
  5
23DF
330
1F
100
AcDbEntity
  8
1
  6
Continuous
 62
     7
100
AcDbLine
 10
158.1431628195135
 20
66.98724866928015
 30
0.0
 11
154.8370289141135
 21
66.98724866928015
 31
0.0
  0
LINE
  5
23E0
330
1F
100
AcDbEntity
  8
1
  6
Continuous
 62
     7
100
AcDbLine
 10
154.8370289141135
 20
80.78724385318017
 30
0.0
 11
158.1431628195135
 21
80.78724385318017
 31
0.0
  0
ELLIPSE
  5
23E1
330
1F
100
AcDbEntity
  8
1
  6
Continuous
 62
     7
100
AcDbEllipse
 10
63.65449022091354
 20
70.09598028428016
 30
0.0
 11
-0.1414321262261921
 21
-0.1414321262261637
 31
0.0
210
0.0
220
0.0
230
1.0
 40
0.9999238505
 41
5.4978252199932
 42
7.068545394366329
  0
LINE
  5
23E2
330
1F
100
AcDbEntity
  8
1
  6
Continuous
 62
     7
100
AcDbLine
 10
64.73703808051351
 20
69.89597023548018
 30
0.0
 11
63.65447617041355
 21
69.89597023548018
 31
0.0
  0
ELLIPSE
  5
23E3
330
1F
100
AcDbEntity
  8
1
  6
Continuous
 62
     7
100
AcDbEllipse
 10
64.73702125401348
 20
70.09598028428016
 30
0.0
 11
0.1414321262261637
 21
-0.1414321262261637
 31
0.0
210
0.0
220
0.0
230
1.0
 40
0.9999238504999998
 41
5.4978252199931
 42
6.021369827038029
  0
ELLIPSE
  5
23E4
330
1F
100
AcDbEntity
  8
1
  6
Continuous
 62
     7
100
AcDbEllipse
 10
64.73702125401348
 20
77.67851131738021
 30
0.0
 11
0.1414321262261637
 21
0.1414321262261637
 31
0.0
210
0.0
220
0.0
230
1.0
 40
0.9999238504999998
 41
0.2618154801416423
 42
0.7853600871865001
  0
LINE
  5
23E5
330
1F
100
AcDbEntity
  8
1
  6
Continuous
 62
     7
100
AcDbLine
 10
63.65447617041355
 20
77.87852228698014
 30
0.0
 11
64.73703808051351
 21
77.87852228698014
 31
0.0
  0
ELLIPSE
  5
23E6
330
1F
100
AcDbEntity
  8
1
  6
Continuous
 62
     7
100
AcDbEllipse
 10
63.65449022091354
 20
77.67851131738021
 30
0.0
 11
-0.1414321262261921
 21
0.1414321262261637
 31
0.0
210
0.0
220
0.0
230
1.0
 40
0.9999238505
 41
5.497825219992807
 42
7.068545394366036
  0
LINE
  5
23E7
330
1F
100
AcDbEntity
  8
1
  6
Continuous
 62
     7
100
AcDbLine
 10
63.45448023541348
 20
75.56766511018017
 30
0.0
 11
63.45448023541348
 21
77.67852635208018
 31
0.0
  0
SPLINE
  5
23E8
330
1F
100
AcDbEntity
  8
1
  6
Continuous
 62
     7
100
AcDbSpline
210
0.0
220
0.0
230
1.0
 70
     8
 71
     3
 72
    12
 73
     8
 74
     0
 42
0.000000001
 43
0.00000001
 40
0.0
 40
0.0
 40
0.0
 40
0.0
 40
0.2313981097551608
 40
0.4628125938076749
 40
0.6941985855234369
 40
0.9255918968501744
 40
1.0
 40
1.0
 40
1.0
 40
1.0
 10
63.2771042631436
 20
75.36895067512447
 30
0.0
 10
63.29919614418543
 20
75.37368918453089
 30
0.0
 10
63.34338146954474
 20
75.38316653865209
 30
0.0
 10
63.39900127528261
 20
75.42420643503917
 30
0.0
 10
63.43830402207612
 20
75.4797491175963
 30
0.0
 10
63.45326016435195
 20
75.53089286455796
 30
0.0
 10
63.45424146397602
 20
75.56046867530748
 30
0.0
 10
63.45448023541462
 20
75.56766511022508
 30
0.0
  0
ARC
  5
23E9
330
1F
100
AcDbEntity
  8
1
  6
Continuous
 62
     7
100
AcDbCircle
 10
63.44575573751354
 20
73.88724580078022
 30
0.0
 40
1.491273132209259
100
AcDbArc
 50
96.49348161690159
 51
263.5065183830984
  0
SPLINE
  5
23EA
330
1F
100
AcDbEntity
  8
1
  6
Continuous
 62
     7
100
AcDbSpline
210
0.0
220
0.0
230
1.0
 70
     8
 71
     3
 72
    12
 73
     8
 74
     0
 42
0.000000001
 43
0.00000001
 40
0.0
 40
0.0
 40
0.0
 40
0.0
 40
0.2314229042924417
 40
0.4628168754115921
 40
0.6942194250277752
 40
0.9256084423223997
 40
1.0
 40
1.0
 40
1.0
 40
1.0
 10
63.45448023541462
 20
72.20682741224229
 30
0.0
 10
63.45227053356592
 20
72.22931584673668
 30
0.0
 10
63.44785140613203
 20
72.27428990415498
 30
0.0
 10
63.41336475334799
 20
72.3341947611282
 30
0.0
 10
63.36262384281724
 20
72.37952941222002
 30
0.0
 10
63.31349665389484
 20
72.40015914653017
 30
0.0
 10
63.28422547588673
 20
72.40448856788444
 30
0.0
 10
63.2771042631436
 20
72.4055418473429
 30
0.0
  0
LINE
  5
23EB
330
1F
100
AcDbEntity
  8
1
  6
Continuous
 62
     7
100
AcDbLine
 10
63.45448023541348
 20
70.0959661703802
 30
0.0
 11
63.45448023541348
 21
72.2068274122802
 31
0.0
  0
SPLINE
  5
23EC
330
1F
100
AcDbEntity
  8
1
  6
Continuous
 62
     7
100
AcDbSpline
210
0.0
220
0.0
230
1.0
 70
     8
 71
     3
 72
    11
 73
     7
 74
     0
 42
0.000000001
 43
0.00000001
 40
0.0
 40
0.0
 40
0.0
 40
0.0
 40
0.2578450777026733
 40
0.5156820770207594
 40
0.7735215046421543
 40
1.0
 40
1.0
 40
1.0
 40
1.0
 10
61.33776283724791
 20
67.13529915630275
 30
0.0
 10
61.34574002240413
 20
67.11413552568175
 30
0.0
 10
61.36169414278822
 20
67.07180892750446
 30
0.0
 10
61.41052253842395
 20
67.0232765937707
 30
0.0
 10
61.46892499190022
 20
66.99259900108697
 30
0.0
 10
61.51115093809932
 20
66.98895342616541
 30
0.0
 10
61.53089678748142
 20
66.98724866926139
 30
0.0
  0
ARC
  5
23ED
330
1F
100
AcDbEntity
  8
1
  6
Continuous
 62
     7
100
AcDbCircle
 10
86.44575573751354
 20
73.88724580078022
 30
0.0
 40
25.99999999999999
100
AcDbArc
 50
164.9483229918001
 51
195.0516770082
  0
SPLINE
  5
23EE
330
1F
100
AcDbEntity
  8
1
  6
Continuous
 62
     7
100
AcDbSpline
210
0.0
220
0.0
230
1.0
 70
     8
 71
     3
 72
    11
 73
     7
 74
     0
 42
0.000000001
 43
0.00000001
 40
0.0
 40
0.0
 40
0.0
 40
0.0
 40
0.2578397726451999
 40
0.5157005300011231
 40
0.773526802844001
 40
1.0
 40
1.0
 40
1.0
 40
1.0
 10
61.53089678748142
 20
80.78724385320609
 30
0.0
 10
61.50838762468015
 20
80.78503781988618
 30
0.0
 10
61.46336746713257
 20
80.78062557370484
 30
0.0
 10
61.40381420578001
 20
80.7460782320783
 30
0.0
 10
61.35903059304724
 20
80.69763747164049
 30
0.0
 10
61.34453937336809
 20
80.65781031040186
 30
0.0
 10
61.33776283724791
 20
80.63918591558402
 30
0.0
  0
LINE
  5
23EF
330
1F
100
AcDbEntity
  8
1
  6
Continuous
 62
     7
100
AcDbLine
 10
61.53089678751348
 20
80.78724385318017
 30
0.0
 11
64.83703232271353
 21
80.78724385318017
 31
0.0
  0
LINE
  5
23F0
330
1F
100
AcDbEntity
  8
1
  6
Continuous
 62
     7
100
AcDbLine
 10
64.83703232271353
 20
66.98724866928015
 30
0.0
 11
61.53089678751348
 21
66.98724866928015
 31
0.0
  0
LINE
  5
23F1
330
1F
100
AcDbEntity
  8
1
  6
Continuous
 62
     7
100
AcDbLine
 10
98.13702977161347
 20
82.63724536718021
 30
0.0
 11
121.5370272742135
 21
82.63724536718021
 31
0.0
  0
SPLINE
  5
23F2
330
1F
100
AcDbEntity
  8
1
  6
Continuous
 62
     7
100
AcDbSpline
210
0.0
220
0.0
230
1.0
 70
    24
 71
     3
 72
    12
 73
     8
 74
     0
 42
0.000000001
 43
0.00000001
 40
0.0
 40
0.0
 40
0.0
 40
0.0
 40
0.2148961858353572
 40
0.4298080971448958
 40
0.644632735930237
 40
0.8593013013273615
 40
1.0
 40
1.0
 40
1.0
 40
1.0
 10
121.5370272742081
 20
82.63724536716396
 30
0.0
 10
121.5370272742081
 20
82.63503184228128
 30
0.0
 10
121.5370272742081
 20
82.63060463053657
 30
0.0
 10
121.5370272742081
 20
82.59608369529687
 30
0.0
 10
121.5370272742081
 20
82.54528117407668
 30
0.0
 10
121.5370272742081
 20
82.48905653601778
 30
0.0
 10
121.5370272742081
 20
82.45194342984726
 30
0.0
 10
121.5370272742081
 20
82.43724943220079
 30
0.0
  0
SPLINE
  5
23F3
330
1F
100
AcDbEntity
  8
1
  6
Continuous
 62
     7
100
AcDbSpline
210
0.0
220
0.0
230
1.0
 70
    24
 71
     3
 72
    12
 73
     8
 74
     0
 42
0.000000001
 43
0.00000001
 40
0.0
 40
0.0
 40
0.0
 40
0.0
 40
0.2144843751115903
 40
0.4289725922535833
 40
0.6435364676453705
 40
0.8582526539007943
 40
0.9999999999999999
 40
0.9999999999999999
 40
0.9999999999999999
 40
0.9999999999999999
 10
98.1370297716428
 20
82.43724943220079
 30
0.0
 10
98.13702977164269
 20
82.45972080757039
 30
0.0
 10
98.1370297716428
 20
82.50466396083638
 30
0.0
 10
98.13702977164269
 20
82.56456795513478
 30
0.0
 10
98.1370297716428
 20
82.60980080828008
 30
0.0
 10
98.1370297716428
 20
82.63381553126689
 30
0.0
 10
98.13702977164269
 20
82.63626953512781
 30
0.0
 10
98.1370297716428
 20
82.63724536716396
 30
0.0
  0
LINE
  5
23F4
330
1F
100
AcDbEntity
  8
1
  6
Continuous
 62
     7
100
AcDbLine
 10
123.3370279418135
 20
81.93724841888016
 30
0.0
 11
121.5370272742135
 21
81.93724841888016
 31
0.0
  0
LINE
  5
23F5
330
1F
100
AcDbEntity
  8
1
  6
Continuous
 62
     7
100
AcDbLine
 10
123.3370279418135
 20
82.43724943218015
 30
0.0
 11
123.3370279418135
 21
81.93724841888016
 31
0.0
  0
LINE
  5
23F6
330
1F
100
AcDbEntity
  8
1
  6
Continuous
 62
     7
100
AcDbLine
 10
123.3370279418135
 20
65.83724410358016
 30
0.0
 11
123.3370279418135
 21
65.33724309028017
 31
0.0
  0
LINE
  5
23F7
330
1F
100
AcDbEntity
  8
1
  6
Continuous
 62
     7
100
AcDbLine
 10
121.5370272742135
 20
65.83724410358016
 30
0.0
 11
123.3370279418135
 21
65.83724410358016
 31
0.0
  0
LINE
  5
23F8
330
1F
100
AcDbEntity
  8
1
  6
Continuous
 62
     7
100
AcDbLine
 10
121.5370272742135
 20
65.33724309028017
 30
0.0
 11
121.5370272742135
 21
65.83724410358016
 31
0.0
  0
LINE
  5
23F9
330
1F
100
AcDbEntity
  8
1
  6
Continuous
 62
     7
100
AcDbLine
 10
98.13702977161347
 20
65.83724410358016
 30
0.0
 11
98.13702977161347
 21
65.33724309028017
 31
0.0
  0
LINE
  5
23FA
330
1F
100
AcDbEntity
  8
1
  6
Continuous
 62
     7
100
AcDbLine
 10
96.33702910411353
 20
65.83724410358016
 30
0.0
 11
98.13702977161347
 21
65.83724410358016
 31
0.0
  0
LINE
  5
23FB
330
1F
100
AcDbEntity
  8
1
  6
Continuous
 62
     7
100
AcDbLine
 10
96.33702910411353
 20
65.33724309028017
 30
0.0
 11
96.33702910411353
 21
65.83724410358016
 31
0.0
  0
LINE
  5
23FC
330
1F
100
AcDbEntity
  8
1
  6
Continuous
 62
     7
100
AcDbLine
 10
96.33702910411353
 20
81.93724841888016
 30
0.0
 11
96.33702910411353
 21
82.43724943218015
 31
0.0
  0
LINE
  5
23FD
330
1F
100
AcDbEntity
  8
1
  6
Continuous
 62
     7
100
AcDbLine
 10
98.13702977161347
 20
81.93724841888016
 30
0.0
 11
96.33702910411353
 21
81.93724841888016
 31
0.0
  0
LINE
  5
23FE
330
1F
100
AcDbEntity
  8
1
  6
Continuous
 62
     7
100
AcDbLine
 10
98.13702977161347
 20
82.43724943218015
 30
0.0
 11
98.13702977161347
 21
81.93724841888016
 31
0.0
  0
LINE
  5
23FF
330
1F
100
AcDbEntity
  8
1
  6
Continuous
 62
     7
100
AcDbLine
 10
121.5370272742135
 20
81.93724841888016
 30
0.0
 11
121.5370272742135
 21
82.43724943218015
 31
0.0
  0
LINE
  5
2400
330
1F
100
AcDbEntity
  8
1
  6
Continuous
 62
     7
100
AcDbLine
 10
121.5370272742135
 20
65.13724715528022
 30
0.0
 11
98.13702977161347
 21
65.13724715528022
 31
0.0
  0
SPLINE
  5
2401
330
1F
100
AcDbEntity
  8
1
  6
Continuous
 62
     7
100
AcDbSpline
210
0.0
220
0.0
230
1.0
 70
    24
 71
     3
 72
    12
 73
     8
 74
     0
 42
0.000000001
 43
0.00000001
 40
0.0
 40
0.0
 40
0.0
 40
0.0
 40
0.2148961858353572
 40
0.4298080971448958
 40
0.644632735930237
 40
0.8593013013273615
 40
1.0
 40
1.0
 40
1.0
 40
1.0
 10
98.13702977164269
 20
65.13724715530341
 30
0.0
 10
98.13702977164269
 20
65.13946068018609
 30
0.0
 10
98.13702977164269
 20
65.14388789193075
 30
0.0
 10
98.1370297716428
 20
65.17840882717044
 30
0.0
 10
98.13702977164269
 20
65.22921134839069
 30
0.0
 10
98.1370297716428
 20
65.28543598644958
 30
0.0
 10
98.13702977164269
 20
65.32254909262011
 30
0.0
 10
98.1370297716428
 20
65.33724309026658
 30
0.0
  0
SPLINE
  5
2402
330
1F
100
AcDbEntity
  8
1
  6
Continuous
 62
     7
100
AcDbSpline
210
0.0
220
0.0
230
1.0
 70
    24
 71
     3
 72
    12
 73
     8
 74
     0
 42
0.000000001
 43
0.00000001
 40
0.0
 40
0.0
 40
0.0
 40
0.0
 40
0.2144843751115903
 40
0.4289725922535833
 40
0.6435364676453705
 40
0.8582526539007943
 40
0.9999999999999999
 40
0.9999999999999999
 40
0.9999999999999999
 40
0.9999999999999999
 10
121.5370272742081
 20
65.33724309026658
 30
0.0
 10
121.5370272742081
 20
65.31477171489698
 30
0.0
 10
121.5370272742081
 20
65.26982856163099
 30
0.0
 10
121.5370272742081
 20
65.20992456733259
 30
0.0
 10
121.5370272742081
 20
65.16469171418728
 30
0.0
 10
121.5370272742082
 20
65.14067699120048
 30
0.0
 10
121.5370272742081
 20
65.13822298733956
 30
0.0
 10
121.5370272742081
 20
65.13724715530341
 30
0.0
  0
SPLINE
  5
2403
330
1F
100
AcDbEntity
  8
1
  6
Continuous
 62
     7
100
AcDbSpline
210
0.0
220
0.0
230
1.0
 70
    24
 71
     3
 72
    12
 73
     8
 74
     0
 42
0.000000001
 43
0.00000001
 40
0.0
 40
0.0
 40
0.0
 40
0.0
 40
0.2149677738351815
 40
0.4299274067308588
 40
0.6448107762306147
 40
0.859488089796006
 40
1.0
 40
1.0
 40
1.0
 40
1.0
 10
96.33702910407072
 20
82.63724536716396
 30
0.0
 10
96.33702910407072
 20
82.63502948181358
 30
0.0
 10
96.33702910407072
 20
82.63059779502939
 30
0.0
 10
96.33702910407072
 20
82.59607107756077
 30
0.0
 10
96.33702910407072
 20
82.54524919670817
 30
0.0
 10
96.33702910407072
 20
82.48902455997498
 30
0.0
 10
96.33702910407072
 20
82.45192565867276
 30
0.0
 10
96.33702910407072
 20
82.43724943220079
 30
0.0
  0
LINE
  5
2404
330
1F
100
AcDbEntity
  8
1
  6
Continuous
 62
     7
100
AcDbLine
 10
88.27950186001351
 20
82.63724536718021
 30
0.0
 11
96.33702910411353
 21
82.63724536718021
 31
0.0
  0
SPLINE
  5
2405
330
1F
100
AcDbEntity
  8
1
  6
Continuous
 62
     7
100
AcDbSpline
210
0.0
220
0.0
230
1.0
 70
    24
 71
     3
 72
    12
 73
     8
 74
     0
 42
0.000000001
 43
0.00000001
 40
0.0
 40
0.0
 40
0.0
 40
0.0
 40
0.2149618040015677
 40
0.4299310031761185
 40
0.6448123996856084
 40
0.8594657166122008
 40
1.0
 40
1.0
 40
1.0
 40
1.0
 10
123.3370279417801
 20
65.13724715530341
 30
0.0
 10
123.3370279417801
 20
65.13945935793677
 30
0.0
 10
123.3370279417801
 20
65.14388383930847
 30
0.0
 10
123.3370279417802
 20
65.17842314655255
 30
0.0
 10
123.3370279417801
 20
65.22924115153577
 30
0.0
 10
123.3370279417802
 20
65.28546500037899
 30
0.0
 10
123.3370279417802
 20
65.32256430162161
 30
0.0
 10
123.3370279417802
 20
65.33724309026658
 30
0.0
  0
LINE
  5
2406
330
1F
100
AcDbEntity
  8
1
  6
Continuous
 62
     7
100
AcDbLine
 10
131.3945533232135
 20
65.13724715528022
 30
0.0
 11
123.3370279418135
 21
65.13724715528022
 31
0.0
  0
SPLINE
  5
2407
330
1F
100
AcDbEntity
  8
1
  6
Continuous
 62
     7
100
AcDbSpline
210
0.0
220
0.0
230
1.0
 70
    24
 71
     3
 72
    12
 73
     8
 74
     0
 42
0.000000001
 43
0.00000001
 40
0.0
 40
0.0
 40
0.0
 40
0.0
 40
0.2144082133770121
 40
0.4288426125297258
 40
0.64336147542902
 40
0.8580905493979792
 40
0.9999999999999999
 40
0.9999999999999999
 40
0.9999999999999999
 40
0.9999999999999999
 10
123.3370279417802
 20
82.43724943220079
 30
0.0
 10
123.3370279417802
 20
82.45971580078569
 30
0.0
 10
123.3370279417801
 20
82.50465128178368
 30
0.0
 10
123.3370279417802
 20
82.56454556001037
 30
0.0
 10
123.3370279417802
 20
82.60978014926118
 30
0.0
 10
123.3370279417801
 20
82.63381435090199
 30
0.0
 10
123.3370279417801
 20
82.63626874373554
 30
0.0
 10
123.3370279417802
 20
82.63724536716396
 30
0.0
  0
LINE
  5
2408
330
1F
100
AcDbEntity
  8
1
  6
Continuous
 62
     7
100
AcDbLine
 10
123.3370279418135
 20
82.63724536718021
 30
0.0
 11
131.3945533232135
 21
82.63724536718021
 31
0.0
  0
SPLINE
  5
2409
330
1F
100
AcDbEntity
  8
1
  6
Continuous
 62
     7
100
AcDbSpline
210
0.0
220
0.0
230
1.0
 70
    24
 71
     3
 72
    12
 73
     8
 74
     0
 42
0.000000001
 43
0.00000001
 40
0.0
 40
0.0
 40
0.0
 40
0.0
 40
0.2144082133770121
 40
0.4288426125297258
 40
0.64336147542902
 40
0.8580905493979792
 40
0.9999999999999999
 40
0.9999999999999999
 40
0.9999999999999999
 40
0.9999999999999999
 10
96.33702910407072
 20
65.33724309026658
 30
0.0
 10
96.33702910407072
 20
65.31477672168168
 30
0.0
 10
96.33702910407072
 20
65.26984124068369
 30
0.0
 10
96.33702910407072
 20
65.20994696245705
 30
0.0
 10
96.33702910407072
 20
65.16471237320619
 30
0.0
 10
96.33702910407072
 20
65.14067817156527
 30
0.0
 10
96.33702910407072
 20
65.13822377873177
 30
0.0
 10
96.33702910407072
 20
65.13724715530341
 30
0.0
  0
LINE
  5
240A
330
1F
100
AcDbEntity
  8
1
  6
Continuous
 62
     7
100
AcDbLine
 10
96.33702910411353
 20
65.13724715528022
 30
0.0
 11
88.27950186001351
 21
65.13724715528022
 31
0.0
  0
LINE
  5
240B
330
1F
100
AcDbEntity
  8
1
  6
Continuous
 62
     7
100
AcDbLine
 10
132.3370294170135
 20
82.43724943218015
 30
0.0
 11
132.3370294170135
 21
65.33724309028017
 31
0.0
  0
ARC
  5
240C
330
1F
100
AcDbEntity
  8
1
  6
Continuous
 62
     7
100
AcDbCircle
 10
87.53702886971348
 20
82.43724580078018
 30
0.0
 40
0.2000000000000171
100
AcDbArc
 50
90.0
 51
180.0
  0
LINE
  5
240D
330
1F
100
AcDbEntity
  8
1
  6
Continuous
 62
     7
100
AcDbLine
 10
87.53702915171351
 20
82.63724536718021
 30
0.0
 11
88.27950186001351
 21
82.63724536718021
 31
0.0
  0
LINE
  5
240E
330
1F
100
AcDbEntity
  8
1
  6
Continuous
 62
     7
100
AcDbLine
 10
87.33702576621351
 20
65.33724309028017
 30
0.0
 11
87.33702576621351
 21
82.43724943218015
 31
0.0
  0
ARC
  5
240F
330
1F
100
AcDbEntity
  8
1
  6
Continuous
 62
     7
100
AcDbCircle
 10
132.1370288697135
 20
82.43724580078018
 30
0.0
 40
0.2000000000000455
100
AcDbArc
 50
0.0
 51
90.0
  0
LINE
  5
2410
330
1F
100
AcDbEntity
  8
1
  6
Continuous
 62
     7
100
AcDbLine
 10
131.3945533232135
 20
82.63724536718021
 30
0.0
 11
132.1370297567135
 21
82.63724536718021
 31
0.0
  0
ARC
  5
2411
330
1F
100
AcDbEntity
  8
1
  6
Continuous
 62
     7
100
AcDbCircle
 10
132.1370288697135
 20
65.33724580078015
 30
0.0
 40
0.1999999999999886
100
AcDbArc
 50
270.0
 51
0.0
  0
LINE
  5
2412
330
1F
100
AcDbEntity
  8
1
  6
Continuous
 62
     7
100
AcDbLine
 10
132.1370297567135
 20
65.13724715528022
 30
0.0
 11
131.3945533232135
 21
65.13724715528022
 31
0.0
  0
ARC
  5
2413
330
1F
100
AcDbEntity
  8
1
  6
Continuous
 62
     7
100
AcDbCircle
 10
87.53702886971348
 20
65.33724580078015
 30
0.0
 40
0.2000000000000171
100
AcDbArc
 50
180.0
 51
270.0
  0
LINE
  5
2414
330
1F
100
AcDbEntity
  8
1
  6
Continuous
 62
     7
100
AcDbLine
 10
88.27950186001351
 20
65.13724715528022
 30
0.0
 11
87.53702915171351
 21
65.13724715528022
 31
0.0
  0
LINE
  5
2415
330
1F
100
AcDbEntity
  8
1
  6
Continuous
 62
     7
100
AcDbLine
 10
123.3370279418135
 20
82.63724536718021
 30
0.0
 11
121.5370272742135
 21
82.63724536718021
 31
0.0
  0
LINE
  5
2416
330
1F
100
AcDbEntity
  8
1
  6
Continuous
 62
     7
100
AcDbLine
 10
98.13702977161347
 20
82.63724536718021
 30
0.0
 11
96.33702910411353
 21
82.63724536718021
 31
0.0
  0
LINE
  5
2417
330
1F
100
AcDbEntity
  8
1
  6
Continuous
 62
     7
100
AcDbLine
 10
121.5370272742135
 20
65.13724715528022
 30
0.0
 11
123.3370279418135
 21
65.13724715528022
 31
0.0
  0
LINE
  5
2418
330
1F
100
AcDbEntity
  8
1
  6
Continuous
 62
     7
100
AcDbLine
 10
96.33702910411353
 20
65.13724715528022
 30
0.0
 11
98.13702977161347
 21
65.13724715528022
 31
0.0
  0
LINE
  5
2419
330
1F
100
AcDbEntity
  8
1
  6
Continuous
 62
     7
100
AcDbLine
 10
96.43702707151351
 20
65.33724309028017
 30
0.0
 11
96.43702707151351
 21
65.83724410358016
 31
0.0
  0
LINE
  5
241A
330
1F
100
AcDbEntity
  8
1
  6
Continuous
 62
     7
100
AcDbLine
 10
98.03702807891352
 20
65.33724309028017
 30
0.0
 11
98.03702807891352
 21
65.83724410358016
 31
0.0
  0
LINE
  5
241B
330
1F
100
AcDbEntity
  8
1
  6
Continuous
 62
     7
100
AcDbLine
 10
96.43702707151351
 20
65.33724309028017
 30
0.0
 11
98.03702807891352
 21
65.33724309028017
 31
0.0
  0
LINE
  5
241C
330
1F
100
AcDbEntity
  8
1
  6
Continuous
 62
     7
100
AcDbLine
 10
121.6370289670135
 20
65.33724309028017
 30
0.0
 11
121.6370289670135
 21
65.83724410358016
 31
0.0
  0
LINE
  5
241D
330
1F
100
AcDbEntity
  8
1
  6
Continuous
 62
     7
100
AcDbLine
 10
123.2370299743135
 20
65.33724309028017
 30
0.0
 11
123.2370299743135
 21
65.83724410358016
 31
0.0
  0
LINE
  5
241E
330
1F
100
AcDbEntity
  8
1
  6
Continuous
 62
     7
100
AcDbLine
 10
121.6370289670135
 20
65.33724309028017
 30
0.0
 11
123.2370299743135
 21
65.33724309028017
 31
0.0
  0
LINE
  5
241F
330
1F
100
AcDbEntity
  8
1
  6
Continuous
 62
     7
100
AcDbLine
 10
87.33702576621351
 20
68.88724357898016
 30
0.0
 11
87.13702983121351
 21
68.88724357898016
 31
0.0
  0
LINE
  5
2420
330
1F
100
AcDbEntity
  8
1
  6
Continuous
 62
     7
100
AcDbLine
 10
132.5370290772135
 20
68.88724357898016
 30
0.0
 11
132.3370294170135
 21
68.88724357898016
 31
0.0
  0
LINE
  5
2421
330
1F
100
AcDbEntity
  8
1
  6
Continuous
 62
     7
100
AcDbLine
 10
79.85679930911351
 20
73.88724626128018
 30
0.0
 11
76.93702853191348
 21
73.88724626128018
 31
0.0
  0
LINE
  5
2422
330
1F
100
AcDbEntity
  8
1
  6
Continuous
 62
     7
100
AcDbLine
 10
85.74724323021348
 20
73.88724626128018
 30
0.0
 11
84.4372597979135
 21
73.88724626128018
 31
0.0
  0
LINE
  5
2423
330
1F
100
AcDbEntity
  8
1
  6
Continuous
 62
     7
100
AcDbLine
 10
87.13702983121351
 20
68.88724357898016
 30
0.0
 11
85.79094088541353
 21
68.88724357898016
 31
0.0
  0
LINE
  5
2424
330
1F
100
AcDbEntity
  8
1
  6
Continuous
 62
     7
100
AcDbLine
 10
142.7370285140135
 20
73.88724626128018
 30
0.0
 11
139.8172577367135
 21
73.88724626128018
 31
0.0
  0
LINE
  5
2425
330
1F
100
AcDbEntity
  8
1
  6
Continuous
 62
     7
100
AcDbLine
 10
135.2368009732135
 20
73.88724626128018
 30
0.0
 11
133.9268119530135
 21
73.88724626128018
 31
0.0
  0
LINE
  5
2426
330
1F
100
AcDbEntity
  8
1
  6
Continuous
 62
     7
100
AcDbLine
 10
133.8831161605135
 20
68.88724357898016
 30
0.0
 11
132.5370290772135
 21
68.88724357898016
 31
0.0
  0
SPLINE
  5
2427
330
1F
100
AcDbEntity
  8
0
  6
Continuous
 62
     7
100
AcDbSpline
210
0.0
220
0.0
230
1.0
 70
    24
 71
     3
 72
    13
 73
     9
 74
     0
 42
0.000000001
 43
0.00000001
 40
0.0
 40
0.0
 40
0.0
 40
0.0
 40
0.2870965604031531
 40
0.4004298845361211
 40
0.4994804554679341
 40
0.5974107416798067
 40
0.7103849935929547
 40
1.0
 40
1.0
 40
1.0
 40
1.0
 10
85.7472432301808
 20
73.88724626123368
 30
0.0
 10
85.7779933566905
 20
73.88724626123368
 30
0.0
 10
85.8208823052397
 20
73.88724626123368
 30
0.0
 10
85.8711506876532
 20
73.88724626123368
 30
0.0
 10
85.89895932911043
 20
73.88724626123368
 30
0.0
 10
85.91929569671112
 20
73.88724626123368
 30
0.0
 10
85.94032478774682
 20
73.88724626123368
 30
0.0
 10
85.9441945569385
 20
73.88724626123368
 30
0.0
 10
85.94697839482319
 20
73.88724626123368
 30
0.0
  0
SPLINE
  5
2428
330
1F
100
AcDbEntity
  8
0
  6
Continuous
 62
     7
100
AcDbSpline
210
0.0
220
0.0
230
1.0
 70
    24
 71
     3
 72
    13
 73
     9
 74
     0
 42
0.000000001
 43
0.00000001
 40
0.0
 40
0.0
 40
0.0
 40
0.0
 40
0.2870875755802723
 40
0.4004147415614419
 40
0.4994824450764924
 40
0.5973984739073042
 40
0.7103766392827092
 40
1.0
 40
1.0
 40
1.0
 40
1.0
 10
133.7270767883826
 20
73.88724626123368
 30
0.0
 10
133.729871058522
 20
73.88724626123368
 30
0.0
 10
133.7337683604288
 20
73.88724626123368
 30
0.0
 10
133.7547457698666
 20
73.88724626123368
 30
0.0
 10
133.7747257358188
 20
73.88724626123368
 30
0.0
 10
133.8022716302373
 20
73.88724626123368
 30
0.0
 10
133.8526725042476
 20
73.88724626123368
 30
0.0
 10
133.8957923859366
 20
73.88724626123368
 30
0.0
 10
133.9268119530249
 20
73.88724626123368
 30
0.0
  0
LINE
  5
2429
330
1F
100
AcDbEntity
  8
1
  6
Continuous
 62
     7
100
AcDbLine
 10
84.14672440751349
 20
68.7023425203802
 30
0.0
 11
84.23722661001352
 21
73.88724626128018
 31
0.0
  0
LINE
  5
242A
330
1F
100
AcDbEntity
  8
1
  6
Continuous
 62
     7
100
AcDbLine
 10
84.23722661001352
 20
73.88724626128018
 30
0.0
 11
84.4372597979135
 21
73.88724626128018
 31
0.0
  0
LINE
  5
242B
330
1F
100
AcDbEntity
  8
1
  6
Continuous
 62
     7
100
AcDbLine
 10
80.0568324969135
 20
73.88724626128018
 30
0.0
 11
80.14733469951352
 21
68.7023425203802
 31
0.0
  0
LINE
  5
242C
330
1F
100
AcDbEntity
  8
1
  6
Continuous
 62
     7
100
AcDbLine
 10
79.85679930911351
 20
73.88724626128018
 30
0.0
 11
80.0568324969135
 21
73.88724626128018
 31
0.0
  0
LINE
  5
242D
330
1F
100
AcDbEntity
  8
1
  6
Continuous
 62
     7
100
AcDbLine
 10
76.13702989081355
 20
65.33724309028017
 30
0.0
 11
76.13702989081355
 21
73.88724626128018
 31
0.0
  0
LINE
  5
242E
330
1F
100
AcDbEntity
  8
1
  6
Continuous
 62
     7
100
AcDbLine
 10
76.13702989081355
 20
73.88724626128018
 30
0.0
 11
76.93702853191348
 21
73.88724626128018
 31
0.0
  0
ARC
  5
242F
330
1F
100
AcDbEntity
  8
1
  6
Continuous
 62
     7
100
AcDbCircle
 10
82.1470288697135
 20
68.73724580078019
 30
0.0
 40
2.000000000000026
100
AcDbArc
 50
181.0000000000001
 51
358.9999999999998
  0
LINE
  5
2432
330
1F
100
AcDbEntity
  8
1
  6
Continuous
 62
     7
100
AcDbLine
 10
87.53702915171351
 20
65.13724715528022
 30
0.0
 11
76.93702853191348
 21
65.13724715528022
 31
0.0
  0
LINE
  5
2433
330
1F
100
AcDbEntity
  8
1
  6
Continuous
 62
     7
100
AcDbLine
 10
143.5370290176135
 20
73.88724626128018
 30
0.0
 11
143.5370290176135
 21
65.33724309028017
 31
0.0
  0
LINE
  5
2434
330
1F
100
AcDbEntity
  8
0
  6
Continuous
 62
     7
100
AcDbLine
 10
142.7370285140135
 20
73.88724626128018
 30
0.0
 11
143.5370290176135
 21
73.88724626128018
 31
0.0
  0
ARC
  5
2435
330
1F
100
AcDbEntity
  8
1
  6
Continuous
 62
     7
100
AcDbCircle
 10
76.33702886971355
 20
65.33724580078015
 30
0.0
 40
0.1999999999999886
100
AcDbArc
 50
180.0
 51
270.0
  0
LINE
  5
2436
330
1F
100
AcDbEntity
  8
1
  6
Continuous
 62
     7
100
AcDbLine
 10
76.3370258258135
 20
65.13724715528022
 30
0.0
 11
76.93702853191348
 21
65.13724715528022
 31
0.0
  0
LINE
  5
2437
330
1F
100
AcDbEntity
  8
1
  6
Continuous
 62
     7
100
AcDbLine
 10
142.7370285140135
 20
65.13724715528022
 30
0.0
 11
132.1370297567135
 21
65.13724715528022
 31
0.0
  0
ARC
  5
2438
330
1F
100
AcDbEntity
  8
1
  6
Continuous
 62
     7
100
AcDbCircle
 10
143.3370288697135
 20
65.33724580078015
 30
0.0
 40
0.2000000000000028
100
AcDbArc
 50
270.0
 51
0.0
  0
LINE
  5
2439
330
1F
100
AcDbEntity
  8
1
  6
Continuous
 62
     7
100
AcDbLine
 10
142.7370285140135
 20
65.13724715528022
 30
0.0
 11
143.3370284261135
 21
65.13724715528022
 31
0.0
  0
LINE
  5
243A
330
1F
100
AcDbEntity
  8
0
  6
Continuous
 62
     7
100
AcDbLine
 10
85.94697839481353
 20
73.88724626128018
 30
0.0
 11
86.22411764131351
 21
73.88724626128018
 31
0.0
  0
LINE
  5
243B
330
1F
100
AcDbEntity
  8
1
  6
Continuous
 62
     7
100
AcDbLine
 10
133.7270767884135
 20
73.88724626128018
 30
0.0
 11
133.4499375419135
 21
73.88724626128018
 31
0.0
  0
SPLINE
  5
243C
330
1F
100
AcDbEntity
  8
1
  6
Continuous
 62
     7
100
AcDbSpline
210
0.0
220
0.0
230
1.0
 70
    24
 71
     3
 72
    13
 73
     9
 74
     0
 42
0.000000001
 43
0.00000001
 40
0.0
 40
0.0
 40
0.0
 40
0.0
 40
0.2881607022838594
 40
0.4012304038551908
 40
0.4996399975178599
 40
0.5982027712278101
 40
0.7114241287584946
 40
0.9999999999999999
 40
0.9999999999999999
 40
0.9999999999999999
 40
0.9999999999999999
 10
133.2502191410828
 20
73.88724626123368
 30
0.0
 10
133.2810808270262
 20
73.88724626123368
 30
0.0
 10
133.3240521503765
 20
73.88724626123368
 30
0.0
 10
133.3743512459463
 20
73.88724626123368
 30
0.0
 10
133.4020360224659
 20
73.88724626123368
 30
0.0
 10
133.4222166169948
 20
73.88724626123368
 30
0.0
 10
133.4432599394056
 20
73.88724626123368
 30
0.0
 10
133.4471463048862
 20
73.88724626123368
 30
0.0
 10
133.4499375419188
 20
73.88724626123368
 30
0.0
  0
SPLINE
  5
243D
330
1F
100
AcDbEntity
  8
0
  6
Continuous
 62
     7
100
AcDbSpline
210
0.0
220
0.0
230
1.0
 70
    24
 71
     3
 72
    13
 73
     9
 74
     0
 42
0.000000001
 43
0.00000001
 40
0.0
 40
0.0
 40
0.0
 40
0.0
 40
0.2881564684558192
 40
0.4012267872714107
 40
0.4996308375323219
 40
0.5982049728616629
 40
0.7114294697219122
 40
1.0
 40
1.0
 40
1.0
 40
1.0
 10
86.22411764128691
 20
73.88724626123368
 30
0.0
 10
86.22690588088432
 20
73.88724626123368
 30
0.0
 10
86.2307882036439
 20
73.88724626123368
 30
0.0
 10
86.2517450729282
 20
73.88724626123368
 30
0.0
 10
86.2718701420768
 20
73.88724626123368
 30
0.0
 10
86.29953920560547
 20
73.88724626123368
 30
0.0
 10
86.34989770898119
 20
73.88724626123368
 30
0.0
 10
86.39293114634438
 20
73.88724626123368
 30
0.0
 10
86.4238379047681
 20
73.88724626123368
 30
0.0
  0
LINE
  5
243E
330
1F
100
AcDbEntity
  8
1
  6
Continuous
 62
     7
100
AcDbLine
 10
133.2502191411135
 20
73.88724626128018
 30
0.0
 11
132.3370294170135
 21
73.88724626128018
 31
0.0
  0
LINE
  5
243F
330
1F
100
AcDbEntity
  8
1
  6
Continuous
 62
     7
100
AcDbLine
 10
86.42383790481352
 20
73.88724626128018
 30
0.0
 11
87.33702576621351
 21
73.88724626128018
 31
0.0
  0
LINE
  5
2440
330
1F
100
AcDbEntity
  8
1
  6
Continuous
 62
     7
100
AcDbLine
 10
143.7370286779135
 20
68.88724357898016
 30
0.0
 11
143.5370290176135
 21
68.88724357898016
 31
0.0
  0
LINE
  5
2441
330
1F
100
AcDbEntity
  8
1
  6
Continuous
 62
     7
100
AcDbLine
 10
76.13702989081355
 20
68.88724357898016
 30
0.0
 11
75.9370265053135
 21
68.88724357898016
 31
0.0
  0
LINE
  5
2442
330
1F
100
AcDbEntity
  8
1
  6
Continuous
 62
     7
100
AcDbLine
 10
68.58679777841348
 20
73.88724626128018
 30
0.0
 11
65.63703096371353
 21
73.88724626128018
 31
0.0
  0
LINE
  5
2443
330
1F
100
AcDbEntity
  8
1
  6
Continuous
 62
     7
100
AcDbLine
 10
74.54724735481352
 20
73.88724626128018
 30
0.0
 11
73.16725826721347
 21
73.88724626128018
 31
0.0
  0
LINE
  5
2444
330
1F
100
AcDbEntity
  8
1
  6
Continuous
 62
     7
100
AcDbLine
 10
75.9370265053135
 20
68.88724357898016
 30
0.0
 11
74.59093755941353
 21
68.88724357898016
 31
0.0
  0
LINE
  5
2445
330
1F
100
AcDbEntity
  8
1
  6
Continuous
 62
     7
100
AcDbLine
 10
154.0370288761135
 20
73.88724626128018
 30
0.0
 11
151.0872574047135
 21
73.88724626128018
 31
0.0
  0
LINE
  5
2446
330
1F
100
AcDbEntity
  8
1
  6
Continuous
 62
     7
100
AcDbLine
 10
146.5067997099135
 20
73.88724626128018
 30
0.0
 11
145.1268115537135
 21
73.88724626128018
 31
0.0
  0
LINE
  5
2447
330
1F
100
AcDbEntity
  8
1
  6
Continuous
 62
     7
100
AcDbLine
 10
145.0831166924135
 20
68.88724357898016
 30
0.0
 11
143.7370286779135
 21
68.88724357898016
 31
0.0
  0
SPLINE
  5
2448
330
1F
100
AcDbEntity
  8
0
  6
Continuous
 62
     7
100
AcDbSpline
210
0.0
220
0.0
230
1.0
 70
    24
 71
     3
 72
    13
 73
     9
 74
     0
 42
0.000000001
 43
0.00000001
 40
0.0
 40
0.0
 40
0.0
 40
0.0
 40
0.2871002552558692
 40
0.4004163068644959
 40
0.499487366006557
 40
0.5974044041893892
 40
0.7103774402804633
 40
1.0
 40
1.0
 40
1.0
 40
1.0
 10
74.54724735482222
 20
73.88724626123368
 30
0.0
 10
74.5779987846642
 20
73.88724626123368
 30
0.0
 10
74.62088754474962
 20
73.88724626123368
 30
0.0
 10
74.6711489069101
 20
73.88724626123368
 30
0.0
 10
74.6989634647154
 20
73.88724626123368
 30
0.0
 10
74.71929080582322
 20
73.88724626123368
 30
0.0
 10
74.74032288832541
 20
73.88724626123368
 30
0.0
 10
74.74419614438631
 20
73.88724626123368
 30
0.0
 10
74.74698251946461
 20
73.88724626123368
 30
0.0
  0
SPLINE
  5
2449
330
1F
100
AcDbEntity
  8
1
  6
Continuous
 62
     7
100
AcDbSpline
210
0.0
220
0.0
230
1.0
 70
    24
 71
     3
 72
    13
 73
     9
 74
     0
 42
0.000000001
 43
0.00000001
 40
0.0
 40
0.0
 40
0.0
 40
0.0
 40
0.2870923622118554
 40
0.4004139854690785
 40
0.499483305212589
 40
0.5974008548722972
 40
0.7103771424052987
 40
1.0
 40
1.0
 40
1.0
 40
1.0
 10
144.927077320354
 20
73.88724626123368
 30
0.0
 10
144.9298708494803
 20
73.88724626123368
 30
0.0
 10
144.9337670455418
 20
73.88724626123368
 30
0.0
 10
144.954745687413
 20
73.88724626123368
 30
0.0
 10
144.9747265343661
 20
73.88724626123368
 30
0.0
 10
145.0022717281462
 20
73.88724626123368
 30
0.0
 10
145.0526720284821
 20
73.88724626123368
 30
0.0
 10
145.0957918792597
 20
73.88724626123368
 30
0.0
 10
145.1268115536738
 20
73.88724626123368
 30
0.0
  0
LINE
  5
244C
330
1F
100
AcDbEntity
  8
1
  6
Continuous
 62
     7
100
AcDbLine
 10
154.8370289141135
 20
73.88724626128018
 30
0.0
 11
154.8370289141135
 21
65.33724309028017
 31
0.0
  0
LINE
  5
244D
330
1F
100
AcDbEntity
  8
1
  6
Continuous
 62
     7
100
AcDbLine
 10
154.0370288761135
 20
73.88724626128018
 30
0.0
 11
154.8370289141135
 21
73.88724626128018
 31
0.0
  0
LINE
  5
244F
330
1F
100
AcDbEntity
  8
1
  6
Continuous
 62
     7
100
AcDbLine
 10
64.83703232271353
 20
65.33724309028017
 30
0.0
 11
64.83703232271353
 21
73.88724626128018
 31
0.0
  0
LINE
  5
2450
330
1F
100
AcDbEntity
  8
1
  6
Continuous
 62
     7
100
AcDbLine
 10
64.83703232271353
 20
73.88724626128018
 30
0.0
 11
65.63703096371353
 21
73.88724626128018
 31
0.0
  0
LINE
  5
2452
330
1F
100
AcDbEntity
  8
1
  6
Continuous
 62
     7
100
AcDbLine
 10
76.3370258258135
 20
65.13724715528022
 30
0.0
 11
65.63703096371353
 21
65.13724715528022
 31
0.0
  0
LINE
  5
2453
330
1F
100
AcDbEntity
  8
1
  6
Continuous
 62
     7
100
AcDbLine
 10
154.0370288761135
 20
65.13724715528022
 30
0.0
 11
143.3370284261135
 21
65.13724715528022
 31
0.0
  0
ARC
  5
2454
330
1F
100
AcDbEntity
  8
1
  6
Continuous
 62
     7
100
AcDbCircle
 10
154.6370288697135
 20
65.33724580078015
 30
0.0
 40
0.1999999999999886
100
AcDbArc
 50
270.0
 51
0.0
  0
LINE
  5
2455
330
1F
100
AcDbEntity
  8
1
  6
Continuous
 62
     7
100
AcDbLine
 10
154.0370288761135
 20
65.13724715528022
 30
0.0
 11
154.6370289046135
 21
65.13724715528022
 31
0.0
  0
ARC
  5
2456
330
1F
100
AcDbEntity
  8
1
  6
Continuous
 62
     7
100
AcDbCircle
 10
65.03702886971348
 20
65.33724580078015
 30
0.0
 40
0.2000000000000171
100
AcDbArc
 50
180.0
 51
270.0
  0
LINE
  5
2457
330
1F
100
AcDbEntity
  8
1
  6
Continuous
 62
     7
100
AcDbLine
 10
65.03702825771347
 20
65.13724715528022
 30
0.0
 11
65.63703096371353
 21
65.13724715528022
 31
0.0
  0
LINE
  5
2458
330
1F
100
AcDbEntity
  8
0
  6
Continuous
 62
     7
100
AcDbLine
 10
74.7469825195135
 20
73.88724626128018
 30
0.0
 11
75.02412176591349
 21
73.88724626128018
 31
0.0
  0
LINE
  5
2459
330
1F
100
AcDbEntity
  8
1
  6
Continuous
 62
     7
100
AcDbLine
 10
144.9270773203135
 20
73.88724626128018
 30
0.0
 11
144.6499380739135
 21
73.88724626128018
 31
0.0
  0
SPLINE
  5
245A
330
1F
100
AcDbEntity
  8
0
  6
Continuous
 62
     7
100
AcDbSpline
210
0.0
220
0.0
230
1.0
 70
    24
 71
     3
 72
    13
 73
     9
 74
     0
 42
0.000000001
 43
0.00000001
 40
0.0
 40
0.0
 40
0.0
 40
0.0
 40
0.2881589633487761
 40
0.4012374276238763
 40
0.4996449560143839
 40
0.5981994584760562
 40
0.7114263519144314
 40
1.0
 40
1.0
 40
1.0
 40
1.0
 10
75.02412176592827
 20
73.88724626123368
 30
0.0
 10
75.02690395697243
 20
73.88724626123368
 30
0.0
 10
75.030777926967
 20
73.88724626123368
 30
0.0
 10
75.05175082882545
 20
73.88724626123368
 30
0.0
 10
75.0718726310871
 20
73.88724626123368
 30
0.0
 10
75.09953741546258
 20
73.88724626123368
 30
0.0
 10
75.14989449764539
 20
73.88724626123368
 30
0.0
 10
75.19292792083388
 20
73.88724626123368
 30
0.0
 10
75.22383457882893
 20
73.88724626123368
 30
0.0
  0
SPLINE
  5
245B
330
1F
100
AcDbEntity
  8
1
  6
Continuous
 62
     7
100
AcDbSpline
210
0.0
220
0.0
230
1.0
 70
    24
 71
     3
 72
    13
 73
     9
 74
     0
 42
0.000000001
 43
0.00000001
 40
0.0
 40
0.0
 40
0.0
 40
0.0
 40
0.2881584358428036
 40
0.401228387606451
 40
0.4996381990226278
 40
0.5982011908250314
 40
0.7114201279843443
 40
1.0
 40
1.0
 40
1.0
 40
1.0
 10
144.4502196730543
 20
73.88724626123368
 30
0.0
 10
144.4810810430496
 20
73.88724626123368
 30
0.0
 10
144.5240520485186
 20
73.88724626123368
 30
0.0
 10
144.5743508415897
 20
73.88724626123368
 30
0.0
 10
144.6020356390112
 20
73.88724626123368
 30
0.0
 10
144.6222159804639
 20
73.88724626123368
 30
0.0
 10
144.6432600000315
 20
73.88724626123368
 30
0.0
 10
144.6471466237022
 20
73.88724626123368
 30
0.0
 10
144.6499380738903
 20
73.88724626123368
 30
0.0
  0
LINE
  5
245C
330
1F
100
AcDbEntity
  8
1
  6
Continuous
 62
     7
100
AcDbLine
 10
144.4502196730135
 20
73.88724626128018
 30
0.0
 11
142.3042177678135
 21
73.88724626128018
 31
0.0
  0
LINE
  5
245D
330
1F
100
AcDbEntity
  8
1
  6
Continuous
 62
     7
100
AcDbLine
 10
75.22383457881352
 20
73.88724626128018
 30
0.0
 11
76.13702989081355
 21
73.88724626128018
 31
0.0
  0
LINE
  5
245E
330
1F
100
AcDbEntity
  8
1
  6
Continuous
 62
     7
100
AcDbLine
 10
123.2370299743135
 20
82.43724943218015
 30
0.0
 11
123.2370299743135
 21
81.93724841888016
 31
0.0
  0
LINE
  5
245F
330
1F
100
AcDbEntity
  8
1
  6
Continuous
 62
     7
100
AcDbLine
 10
121.6370289670135
 20
82.43724943218015
 30
0.0
 11
121.6370289670135
 21
81.93724841888016
 31
0.0
  0
LINE
  5
2460
330
1F
100
AcDbEntity
  8
1
  6
Continuous
 62
     7
100
AcDbLine
 10
123.2370299743135
 20
82.43724943218015
 30
0.0
 11
121.6370289670135
 21
82.43724943218015
 31
0.0
  0
LINE
  5
2461
330
1F
100
AcDbEntity
  8
1
  6
Continuous
 62
     7
100
AcDbLine
 10
98.03702807891352
 20
82.43724943218015
 30
0.0
 11
96.43702707151351
 21
82.43724943218015
 31
0.0
  0
LINE
  5
2462
330
1F
100
AcDbEntity
  8
1
  6
Continuous
 62
     7
100
AcDbLine
 10
96.43702707151351
 20
82.43724943218015
 30
0.0
 11
96.43702707151351
 21
81.93724841888016
 31
0.0
  0
LINE
  5
2463
330
1F
100
AcDbEntity
  8
1
  6
Continuous
 62
     7
100
AcDbLine
 10
98.03702807891352
 20
82.43724943218015
 30
0.0
 11
98.03702807891352
 21
81.93724841888016
 31
0.0
  0
LINE
  5
2464
330
1F
100
AcDbEntity
  8
1
  6
Continuous
 62
     7
100
AcDbLine
 10
132.3370294170135
 20
78.88724894348016
 30
0.0
 11
132.5370290772135
 21
78.88724894348016
 31
0.0
  0
LINE
  5
2465
330
1F
100
AcDbEntity
  8
1
  6
Continuous
 62
     7
100
AcDbLine
 10
87.13702983121351
 20
78.88724894348016
 30
0.0
 11
87.33702576621351
 21
78.88724894348016
 31
0.0
  0
LINE
  5
2466
330
1F
100
AcDbEntity
  8
1
  6
Continuous
 62
     7
100
AcDbLine
 10
132.5370290772135
 20
78.88724894348016
 30
0.0
 11
133.8831161605135
 21
78.88724894348016
 31
0.0
  0
LINE
  5
2467
330
1F
100
AcDbEntity
  8
1
  6
Continuous
 62
     7
100
AcDbLine
 10
85.79094088541353
 20
78.88724894348016
 30
0.0
 11
87.13702983121351
 21
78.88724894348016
 31
0.0
  0
SPLINE
  5
2468
330
1F
100
AcDbEntity
  8
0
  6
Continuous
 62
     7
100
AcDbSpline
210
0.0
220
0.0
230
1.0
 70
    24
 71
     3
 72
    13
 73
     9
 74
     0
 42
0.000000001
 43
0.00000001
 40
0.0
 40
0.0
 40
0.0
 40
0.0
 40
0.2870990206744725
 40
0.4004169288155461
 40
0.4994827584232397
 40
0.5974030022994589
 40
0.710380598953589
 40
1.0
 40
1.0
 40
1.0
 40
1.0
 10
133.9268119530249
 20
73.88724626123368
 30
0.0
 10
133.8960611172083
 20
73.88724626123368
 30
0.0
 10
133.8531729345621
 20
73.88724626123368
 30
0.0
 10
133.8029085482315
 20
73.88724626123368
 30
0.0
 10
133.77509579202
 20
73.88724626123368
 30
0.0
 10
133.7547663526551
 20
73.88724626123368
 30
0.0
 10
133.7337317643301
 20
73.88724626123368
 30
0.0
 10
133.729861192438
 20
73.88724626123368
 30
0.0
 10
133.7270767883826
 20
73.88724626123368
 30
0.0
  0
SPLINE
  5
2469
330
1F
100
AcDbEntity
  8
0
  6
Continuous
 62
     7
100
AcDbSpline
210
0.0
220
0.0
230
1.0
 70
    24
 71
     3
 72
    13
 73
     9
 74
     0
 42
0.000000001
 43
0.00000001
 40
0.0
 40
0.0
 40
0.0
 40
0.0
 40
0.2870838048296721
 40
0.4004078778645384
 40
0.4994856731532116
 40
0.5974010704767966
 40
0.7103785072020636
 40
1.0
 40
1.0
 40
1.0
 40
1.0
 10
85.94697839482319
 20
73.88724626123368
 30
0.0
 10
85.94418475483815
 20
73.88724626123368
 30
0.0
 10
85.94028834745075
 20
73.88724626123368
 30
0.0
 10
85.91931614035951
 20
73.88724626123368
 30
0.0
 10
85.89932900293445
 20
73.88724626123368
 30
0.0
 10
85.87178397709647
 20
73.88724626123368
 30
0.0
 10
85.82138235075581
 20
73.88724626123368
 30
0.0
 10
85.77826265995088
 20
73.88724626123368
 30
0.0
 10
85.7472432301808
 20
73.88724626123368
 30
0.0
  0
LINE
  5
246A
330
1F
100
AcDbEntity
  8
1
  6
Continuous
 62
     7
100
AcDbLine
 10
132.1370297567135
 20
82.63724536718021
 30
0.0
 11
142.7370285140135
 21
82.63724536718021
 31
0.0
  0
LINE
  5
246B
330
1F
100
AcDbEntity
  8
1
  6
Continuous
 62
     7
100
AcDbLine
 10
143.5370290176135
 20
82.43724943218015
 30
0.0
 11
143.5370290176135
 21
73.88724626128018
 31
0.0
  0
ARC
  5
246C
330
1F
100
AcDbEntity
  8
1
  6
Continuous
 62
     7
100
AcDbCircle
 10
143.3370288697135
 20
82.43724580078018
 30
0.0
 40
0.2000000000000455
100
AcDbArc
 50
0.0
 51
90.0
  0
LINE
  5
246D
330
1F
100
AcDbEntity
  8
1
  6
Continuous
 62
     7
100
AcDbLine
 10
143.3370284261135
 20
82.63724536718021
 30
0.0
 11
142.7370285140135
 21
82.63724536718021
 31
0.0
  0
LINE
  5
2470
330
1F
100
AcDbEntity
  8
1
  6
Continuous
 62
     7
100
AcDbLine
 10
76.93702853191348
 20
82.63724536718021
 30
0.0
 11
87.53702915171351
 21
82.63724536718021
 31
0.0
  0
ARC
  5
2471
330
1F
100
AcDbEntity
  8
1
  6
Continuous
 62
     7
100
AcDbCircle
 10
82.1470288697135
 20
79.0372458007802
 30
0.0
 40
1.999999999999998
100
AcDbArc
 50
0.9999999999985195
 51
179.0000000000015
  0
LINE
  5
2472
330
1F
100
AcDbEntity
  8
1
  6
Continuous
 62
     7
100
AcDbLine
 10
84.23722661001352
 20
73.88724626128018
 30
0.0
 11
84.14672440751349
 21
79.07215000208018
 31
0.0
  0
LINE
  5
2473
330
1F
100
AcDbEntity
  8
1
  6
Continuous
 62
     7
100
AcDbLine
 10
84.4372597979135
 20
73.88724626128018
 30
0.0
 11
84.23722661001352
 21
73.88724626128018
 31
0.0
  0
LINE
  5
2474
330
1F
100
AcDbEntity
  8
1
  6
Continuous
 62
     7
100
AcDbLine
 10
76.13702989081355
 20
73.88724626128018
 30
0.0
 11
76.13702989081355
 21
82.43724943218015
 31
0.0
  0
ARC
  5
2475
330
1F
100
AcDbEntity
  8
1
  6
Continuous
 62
     7
100
AcDbCircle
 10
76.33702886971355
 20
82.43724580078018
 30
0.0
 40
0.2000000000000455
100
AcDbArc
 50
90.0
 51
180.0
  0
LINE
  5
2476
330
1F
100
AcDbEntity
  8
1
  6
Continuous
 62
     7
100
AcDbLine
 10
76.93702853191348
 20
82.63724536718021
 30
0.0
 11
76.3370258258135
 21
82.63724536718021
 31
0.0
  0
LINE
  5
2477
330
1F
100
AcDbEntity
  8
1
  6
Continuous
 62
     7
100
AcDbLine
 10
80.14733469951352
 20
79.07215000208018
 30
0.0
 11
80.0568324969135
 21
73.88724626128018
 31
0.0
  0
LINE
  5
2478
330
1F
100
AcDbEntity
  8
1
  6
Continuous
 62
     7
100
AcDbLine
 10
80.0568324969135
 20
73.88724626128018
 30
0.0
 11
79.85679930911351
 21
73.88724626128018
 31
0.0
  0
SPLINE
  5
2479
330
1F
100
AcDbEntity
  8
0
  6
Continuous
 62
     7
100
AcDbSpline
210
0.0
220
0.0
230
1.0
 70
    24
 71
     3
 72
    13
 73
     9
 74
     0
 42
0.000000001
 43
0.00000001
 40
0.0
 40
0.0
 40
0.0
 40
0.0
 40
0.2881611832153098
 40
0.4012201520489038
 40
0.4996442748777159
 40
0.5981963969191393
 40
0.7114226883017261
 40
1.0
 40
1.0
 40
1.0
 40
1.0
 10
86.4238379047681
 20
73.88724626123368
 30
0.0
 10
86.39297559369743
 20
73.88724626123368
 30
0.0
 10
86.3500045696261
 20
73.88724626123368
 30
0.0
 10
86.29970848360472
 20
73.88724626123368
 30
0.0
 10
86.27201896786721
 20
73.88724626123368
 30
0.0
 10
86.25184575930712
 20
73.88724626123368
 30
0.0
 10
86.23079316503129
 20
73.88724626123368
 30
0.0
 10
86.22690799173711
 20
73.88724626123368
 30
0.0
 10
86.22411764128691
 20
73.88724626123368
 30
0.0
  0
SPLINE
  5
247A
330
1F
100
AcDbEntity
  8
1
  6
Continuous
 62
     7
100
AcDbSpline
210
0.0
220
0.0
230
1.0
 70
    24
 71
     3
 72
    13
 73
     9
 74
     0
 42
0.000000001
 43
0.00000001
 40
0.0
 40
0.0
 40
0.0
 40
0.0
 40
0.2881547236144333
 40
0.4012298421757826
 40
0.4996339504291165
 40
0.5981985789189747
 40
0.7114176837855704
 40
1.0
 40
1.0
 40
1.0
 40
1.0
 10
133.4499375419188
 20
73.88724626123368
 30
0.0
 10
133.4471521834193
 20
73.88724626123368
 30
0.0
 10
133.4432738192644
 20
73.88724626123368
 30
0.0
 10
133.4223095940866
 20
73.88724626123368
 30
0.0
 10
133.4021855389947
 20
73.88724626123368
 30
0.0
 10
133.3745196603796
 20
73.88724626123368
 30
0.0
 10
133.3241611899375
 20
73.88724626123368
 30
0.0
 10
133.2811271225015
 20
73.88724626123368
 30
0.0
 10
133.2502191410828
 20
73.88724626123368
 30
0.0
  0
LINE
  5
247B
330
1F
100
AcDbEntity
  8
1
  6
Continuous
 62
     7
100
AcDbLine
 10
143.5370290176135
 20
78.88724894348016
 30
0.0
 11
143.7370286779135
 21
78.88724894348016
 31
0.0
  0
LINE
  5
247C
330
1F
100
AcDbEntity
  8
1
  6
Continuous
 62
     7
100
AcDbLine
 10
75.9370265053135
 20
78.88724894348016
 30
0.0
 11
76.13702989081355
 21
78.88724894348016
 31
0.0
  0
LINE
  5
247D
330
1F
100
AcDbEntity
  8
1
  6
Continuous
 62
     7
100
AcDbLine
 10
143.7370286779135
 20
78.88724894348016
 30
0.0
 11
145.0831166924135
 21
78.88724894348016
 31
0.0
  0
LINE
  5
247E
330
1F
100
AcDbEntity
  8
1
  6
Continuous
 62
     7
100
AcDbLine
 10
74.59093755941353
 20
78.88724894348016
 30
0.0
 11
75.9370265053135
 21
78.88724894348016
 31
0.0
  0
SPLINE
  5
247F
330
1F
100
AcDbEntity
  8
1
  6
Continuous
 62
     7
100
AcDbSpline
210
0.0
220
0.0
230
1.0
 70
    24
 71
     3
 72
    13
 73
     9
 74
     0
 42
0.000000001
 43
0.00000001
 40
0.0
 40
0.0
 40
0.0
 40
0.0
 40
0.2870966423054057
 40
0.4004178761870138
 40
0.4994838870857853
 40
0.5974061236173148
 40
0.7103800689483024
 40
0.9999999999999999
 40
0.9999999999999999
 40
0.9999999999999999
 40
0.9999999999999999
 10
145.1268115536738
 20
73.88724626123368
 30
0.0
 10
145.0960606892292
 20
73.88724626123368
 30
0.0
 10
145.0531720098878
 20
73.88724626123368
 30
0.0
 10
145.0029095464607
 20
73.88724626123368
 30
0.0
 10
144.9750963512752
 20
73.88724626123368
 30
0.0
 10
144.9547659366042
 20
73.88724626123368
 30
0.0
 10
144.9337327773196
 20
73.88724626123368
 30
0.0
 10
144.9298619411847
 20
73.88724626123368
 30
0.0
 10
144.927077320354
 20
73.88724626123368
 30
0.0
  0
SPLINE
  5
2480
330
1F
100
AcDbEntity
  8
0
  6
Continuous
 62
     7
100
AcDbSpline
210
0.0
220
0.0
230
1.0
 70
    24
 71
     3
 72
    13
 73
     9
 74
     0
 42
0.000000001
 43
0.00000001
 40
0.0
 40
0.0
 40
0.0
 40
0.0
 40
0.2870955078812482
 40
0.4004150635103896
 40
0.4994792759277761
 40
0.5973970800950817
 40
0.7103763896166728
 40
1.0
 40
1.0
 40
1.0
 40
1.0
 10
74.74698251946461
 20
73.88724626123368
 30
0.0
 10
74.74418649492463
 20
73.88724626123368
 30
0.0
 10
74.74028685068424
 20
73.88724626123368
 30
0.0
 10
74.7193112656866
 20
73.88724626123368
 30
0.0
 10
74.69933334772998
 20
73.88724626123368
 30
0.0
 10
74.67178773383478
 20
73.88724626123368
 30
0.0
 10
74.6213871658295
 20
73.88724626123368
 30
0.0
 10
74.5782670265591
 20
73.88724626123368
 30
0.0
 10
74.54724735482222
 20
73.88724626123368
 30
0.0
  0
LINE
  5
2481
330
1F
100
AcDbEntity
  8
1
  6
Continuous
 62
     7
100
AcDbLine
 10
143.3370284261135
 20
82.63724536718021
 30
0.0
 11
154.0370288761135
 21
82.63724536718021
 31
0.0
  0
ARC
  5
2482
330
1F
100
AcDbEntity
  8
1
  6
Continuous
 62
     7
100
AcDbCircle
 10
154.6370288697135
 20
82.43724580078018
 30
0.0
 40
0.2000000000000455
100
AcDbArc
 50
0.0
 51
90.0
  0
LINE
  5
2483
330
1F
100
AcDbEntity
  8
1
  6
Continuous
 62
     7
100
AcDbLine
 10
154.6370289046135
 20
82.63724536718021
 30
0.0
 11
154.0370288761135
 21
82.63724536718021
 31
0.0
  0
LINE
  5
2484
330
1F
100
AcDbEntity
  8
1
  6
Continuous
 62
     7
100
AcDbLine
 10
154.8370289141135
 20
82.43724943218015
 30
0.0
 11
154.8370289141135
 21
73.88724626128018
 31
0.0
  0
LINE
  5
2487
330
1F
100
AcDbEntity
  8
1
  6
Continuous
 62
     7
100
AcDbLine
 10
65.63703096371353
 20
82.63724536718021
 30
0.0
 11
76.3370258258135
 21
82.63724536718021
 31
0.0
  0
ARC
  5
2488
330
1F
100
AcDbEntity
  8
1
  6
Continuous
 62
     7
100
AcDbCircle
 10
65.03702886971348
 20
82.43724580078018
 30
0.0
 40
0.2000000000000455
100
AcDbArc
 50
90.0
 51
180.0
  0
LINE
  5
2489
330
1F
100
AcDbEntity
  8
1
  6
Continuous
 62
     7
100
AcDbLine
 10
65.63703096371353
 20
82.63724536718021
 30
0.0
 11
65.03702825771347
 21
82.63724536718021
 31
0.0
  0
LINE
  5
248A
330
1F
100
AcDbEntity
  8
1
  6
Continuous
 62
     7
100
AcDbLine
 10
64.83703232271353
 20
73.88724626128018
 30
0.0
 11
64.83703232271353
 21
82.43724943218015
 31
0.0
  0
SPLINE
  5
248D
330
1F
100
AcDbEntity
  8
1
  6
Continuous
 62
     7
100
AcDbSpline
210
0.0
220
0.0
230
1.0
 70
    24
 71
     3
 72
    13
 73
     9
 74
     0
 42
0.000000001
 43
0.00000001
 40
0.0
 40
0.0
 40
0.0
 40
0.0
 40
0.2881574781723225
 40
0.4012298742525334
 40
0.4996380407302947
 40
0.5982009451962893
 40
0.711421044251524
 40
0.9999999999999999
 40
0.9999999999999999
 40
0.9999999999999999
 40
0.9999999999999999
 10
144.6499380738903
 20
73.88724626123368
 30
0.0
 10
144.6471529325821
 20
73.88724626123368
 30
0.0
 10
144.643274907608
 20
73.88724626123368
 30
0.0
 10
144.6223096676548
 20
73.88724626123368
 30
0.0
 10
144.602185745685
 20
73.88724626123368
 30
0.0
 10
144.5745187547941
 20
73.88724626123368
 30
0.0
 10
144.5241616571758
 20
73.88724626123368
 30
0.0
 10
144.4811275238804
 20
73.88724626123368
 30
0.0
 10
144.4502196730543
 20
73.88724626123368
 30
0.0
  0
SPLINE
  5
248E
330
1F
100
AcDbEntity
  8
0
  6
Continuous
 62
     7
100
AcDbSpline
210
0.0
220
0.0
230
1.0
 70
    24
 71
     3
 72
    13
 73
     9
 74
     0
 42
0.000000001
 43
0.00000001
 40
0.0
 40
0.0
 40
0.0
 40
0.0
 40
0.2881423873853542
 40
0.4012249404444442
 40
0.4996314254736376
 40
0.5981994871914942
 40
0.7114153620240947
 40
1.0
 40
1.0
 40
1.0
 40
1.0
 10
75.22383457882893
 20
73.88724626123368
 30
0.0
 10
75.1929757965467
 20
73.88724626123368
 30
0.0
 10
75.15000637023041
 20
73.88724626123368
 30
0.0
 10
75.09970709263484
 20
73.88724626123368
 30
0.0
 10
75.07202350151641
 20
73.88724626123368
 30
0.0
 10
75.05184012270354
 20
73.88724626123368
 30
0.0
 10
75.03080414945322
 20
73.88724626123368
 30
0.0
 10
75.02691503752192
 20
73.88724626123368
 30
0.0
 10
75.02412176592827
 20
73.88724626123368
 30
0.0
  0
LINE
  5
248F
330
1F
100
AcDbEntity
  8
0
  6
Continuous
 62
     7
100
AcDbLine
 10
144.4502196730135
 20
73.88724626128018
 30
0.0
 11
143.5370290176135
 21
73.88724626128018
 31
0.0
  0
LINE
  5
2490
330
1F
100
AcDbEntity
  8
1
  6
Continuous
 62
     7
100
AcDbLine
 10
75.22383457881352
 20
73.88724626128018
 30
0.0
 11
77.36984020931351
 21
73.88724626128018
 31
0.0
  0
LINE
  5
2492
330
1F
100
AcDbEntity
  8
0
  6
Continuous
 62
     8
100
AcDbLine
 10
85.79094088541353
 20
68.88724357898016
 30
0.0
 11
85.74724323021348
 21
73.88724626128018
 31
0.0
  0
LINE
  5
2493
330
1F
100
AcDbEntity
  8
0
  6
Continuous
 62
     8
100
AcDbLine
 10
133.9268119530135
 20
73.88724626128018
 30
0.0
 11
133.8831161605135
 21
68.88724357898016
 31
0.0
  0
LINE
  5
2494
330
1F
100
AcDbEntity
  8
0
  6
Continuous
 62
     8
100
AcDbLine
 10
74.59093755941353
 20
68.88724357898016
 30
0.0
 11
74.54724735481352
 21
73.88724626128018
 31
0.0
  0
LINE
  5
2495
330
1F
100
AcDbEntity
  8
0
  6
Continuous
 62
     8
100
AcDbLine
 10
145.1268115537135
 20
73.88724626128018
 30
0.0
 11
145.0831166924135
 21
68.88724357898016
 31
0.0
  0
LINE
  5
2496
330
1F
100
AcDbEntity
  8
0
  6
Continuous
 62
     8
100
AcDbLine
 10
133.8831161605135
 20
78.88724894348016
 30
0.0
 11
133.9268119530135
 21
73.88724626128018
 31
0.0
  0
LINE
  5
2497
330
1F
100
AcDbEntity
  8
0
  6
Continuous
 62
     8
100
AcDbLine
 10
85.74724323021348
 20
73.88724626128018
 30
0.0
 11
85.79094088541353
 21
78.88724894348016
 31
0.0
  0
LINE
  5
2498
330
1F
100
AcDbEntity
  8
0
  6
Continuous
 62
     8
100
AcDbLine
 10
145.0831166924135
 20
78.88724894348016
 30
0.0
 11
145.1268115537135
 21
73.88724626128018
 31
0.0
  0
LINE
  5
2499
330
1F
100
AcDbEntity
  8
0
  6
Continuous
 62
     8
100
AcDbLine
 10
74.54724735481352
 20
73.88724626128018
 30
0.0
 11
74.59093755941353
 21
78.88724894348016
 31
0.0
  0
LINE
  5
249A
330
1F
100
AcDbEntity
  8
WYMIARY
 62
     6
100
AcDbLine
 10
0.0
 20
0.0
 30
0.0
 11
0.0
 21
297.0
 31
0.0
  0
LINE
  5
249B
330
1F
100
AcDbEntity
  8
WYMIARY
 62
     6
100
AcDbLine
 10
11.63040699999999
 20
292.0
 30
0.0
 11
11.63040699999999
 21
4.999999999999999
 31
0.0
  0
LINE
  5
249C
330
1F
100
AcDbEntity
  8
2
100
AcDbLine
 10
196.630407
 20
4.999999999999999
 30
0.0
 11
196.630407
 21
292.0
 31
0.0
  0
LINE
  5
249D
330
1F
100
AcDbEntity
  8
2
100
AcDbLine
 10
201.630407
 20
0.0
 30
0.0
 11
201.630407
 21
297.0
 31
0.0
  0
LINE
  5
249E
330
1F
100
AcDbEntity
  8
WY
  6
Continuous
 62
     3
100
AcDbLine
 10
196.630407
 20
19.689837
 30
0.0
 11
11.63040699999999
 21
19.689837
 31
0.0
  0
LINE
  5
249F
330
1F
100
AcDbEntity
  8
2
100
AcDbLine
 10
11.63040699999999
 20
4.999999999999999
 30
0.0
 11
196.630407
 21
4.999999999999999
 31
0.0
  0
LINE
  5
24A0
330
1F
100
AcDbEntity
  8
2
 62
     6
100
AcDbLine
 10
11.63040699999999
 20
0.0
 30
0.0
 11
201.630407
 21
0.0
 31
0.0
  0
LINE
  5
24A1
330
1F
100
AcDbEntity
  8
0
100
AcDbLine
 10
43.65642300000002
 20
11.742481
 30
0.0
 11
42.75401199999999
 21
11.742481
 31
0.0
  0
ELLIPSE
  5
24A2
330
1F
100
AcDbEntity
  8
0
100
AcDbEllipse
 10
43.65642300000002
 20
11.742481
 30
0.0
 11
-1.203215696869327
 21
1.967000000000000E-13
 31
0.0
210
0.0
220
0.0
230
1.0
 40
0.958812
 41
-1.570796326794739
 42
0.0000000000001705
  0
TEXT
  5
24A3
330
1F
100
AcDbEntity
  8
1
100
AcDbText
 10
29.56633399999998
 20
8.797457000000001
 30
0.0
 40
5.0
  1
A4
 51
15.0
  7
ITALIC
100
AcDbText
  0
LINE
  5
24A4
330
1F
100
AcDbEntity
  8
WYMIARY
 62
     6
100
AcDbLine
 10
11.63040699999999
 20
0.0
 30
0.0
 11
0.0
 21
0.0
 31
0.0
  0
TEXT
  5
24A5
330
1F
100
AcDbEntity
  8
WY
100
AcDbText
 10
16.89552099999997
 20
16.373844
 30
0.0
 40
1.999999999999999
  1
Skala
 51
15.0
  7
ITALIC
100
AcDbText
  0
TEXT
  5
24A6
330
1F
100
AcDbEntity
  8
WY
100
AcDbText
 10
29.00097500000004
 20
16.329369
 30
0.0
 40
1.999999999999999
  1
Format
 51
15.0
  7
ITALIC
100
AcDbText
  0
LINE
  5
24A7
330
1F
100
AcDbEntity
  8
0
100
AcDbLine
 10
42.45320800000002
 20
11.742481
 30
0.0
 11
42.75401199999999
 21
11.742481
 31
0.0
  0
LINE
  5
24A8
330
1F
100
AcDbEntity
  8
0
100
AcDbLine
 10
73.84597599999995
 20
17.211264
 30
0.0
 11
73.84597599999995
 21
9.015264000000002
 31
0.0
  0
LINE
  5
24A9
330
1F
100
AcDbEntity
  8
0
100
AcDbLine
 10
64.85197600000004
 20
9.438264
 30
0.0
 11
64.85197600000004
 21
7.416264000000001
 31
0.0
  0
ARC
  5
24AA
330
1F
100
AcDbEntity
  8
0
100
AcDbCircle
 10
65.50155600000005
 20
9.724764
 30
0.0
 40
0.709955
100
AcDbArc
 50
203.8000800000035
 51
272.0519180000003
  0
LINE
  5
24AB
330
1F
100
AcDbEntity
  8
0
100
AcDbLine
 10
63.30697599999996
 20
7.416264000000001
 30
0.0
 11
63.30697599999996
 21
15.612264
 31
0.0
  0
ARC
  5
24AC
330
1F
100
AcDbEntity
  8
0
100
AcDbCircle
 10
65.94088199999999
 20
10.136416
 30
0.0
 40
1.128907
100
AcDbArc
 50
276.7195760000022
 51
2.175193999999967
  0
ARC
  5
24AD
330
1F
100
AcDbEntity
  8
0
100
AcDbCircle
 10
69.20181500000001
 20
10.503572
 30
0.0
 40
1.488419
100
AcDbArc
 50
191.6342679999998
 51
270.699112999999
  0
ARC
  5
24AE
330
1F
100
AcDbEntity
  8
0
100
AcDbCircle
 10
70.168137
 20
10.503572
 30
0.0
 40
1.488419
100
AcDbArc
 50
269.300887000001
 51
348.3657320000001
  0
LINE
  5
24AF
330
1F
100
AcDbEntity
  8
0
100
AcDbLine
 10
72.30097599999999
 20
9.015264000000002
 30
0.0
 11
72.30097599999999
 21
17.211264
 31
0.0
  0
ARC
  5
24B0
330
1F
100
AcDbEntity
  8
0
100
AcDbCircle
 10
59.01534700000002
 20
10.472364
 30
0.0
 40
1.425319
100
AcDbArc
 50
269.7036710000015
 51
350.4651709999989
  0
ARC
  5
24B1
330
1F
100
AcDbEntity
  8
0
100
AcDbCircle
 10
58.16060400000003
 20
10.472364
 30
0.0
 40
1.425319
100
AcDbArc
 50
189.5348290000007
 51
270.2963289999985
  0
LINE
  5
24B2
330
1F
100
AcDbEntity
  8
0
100
AcDbLine
 10
61.10797600000001
 20
9.015264000000002
 30
0.0
 11
61.10797600000001
 21
17.211264
 31
0.0
  0
LINE
  5
24B3
330
1F
100
AcDbEntity
  8
0
100
AcDbLine
 10
62.65297599999997
 20
17.211264
 30
0.0
 11
62.65297599999997
 21
9.015264000000002
 31
0.0
  0
LINE
  5
24B4
330
1F
100
AcDbEntity
  8
0
100
AcDbLine
 10
53.85099200000002
 20
14.361264
 30
0.0
 11
53.86256500000002
 21
9.015264000000002
 31
0.0
  0
LINE
  5
24B5
330
1F
100
AcDbEntity
  8
0
100
AcDbLine
 10
52.32045000000005
 20
9.015264000000002
 30
0.0
 11
52.32045000000005
 21
15.60367
 31
0.0
  0
LINE
  5
24B6
330
1F
100
AcDbEntity
  8
0
100
AcDbLine
 10
43.65642300000002
 20
9.895061000000002
 30
0.0
 11
43.65642300000002
 21
8.185369000000001
 31
0.0
  0
LINE
  5
24B7
330
1F
100
AcDbEntity
  8
0
100
AcDbLine
 10
49.57223399999998
 20
8.185369000000001
 30
0.0
 11
49.57223399999998
 21
11.742481
 31
0.0
  0
LINE
  5
24B8
330
1F
100
AcDbEntity
  8
1
100
AcDbLine
 10
77.42861900000003
 20
4.999999999999999
 30
0.0
 11
77.42861900000003
 21
19.689837
 31
0.0
  0
LINE
  5
24B9
330
1F
100
AcDbEntity
  8
0
100
AcDbLine
 10
44.45856700000002
 20
7.416263
 30
0.0
 11
48.77008999999998
 21
7.416263
 31
0.0
  0
ELLIPSE
  5
24BA
330
1F
100
AcDbEntity
  8
0
100
AcDbEllipse
 10
44.45856700000002
 20
8.185369000000001
 30
0.0
 11
-0.8021437979128705
 21
1.540000000000000E-14
 31
0.0
210
0.0
220
0.0
230
1.0
 40
0.958812
 41
0.00000000000002
 42
1.570796326794914
  0
ELLIPSE
  5
24BB
330
1F
100
AcDbEntity
  8
0
100
AcDbEllipse
 10
48.77008999999998
 20
8.185369000000001
 30
0.0
 11
0.8021437979128704
 21
1.602000000000000E-13
 31
0.0
210
0.0
220
0.0
230
1.0
 40
0.958812
 41
4.712388980384497
 42
6.283185307179378
  0
LINE
  5
24BC
330
1F
100
AcDbEntity
  8
0
100
AcDbLine
 10
53.85099200000002
 20
9.015264000000002
 30
0.0
 11
53.86256500000002
 21
9.022759
 31
0.0
  0
LINE
  5
24BD
330
1F
100
AcDbEntity
  8
0
100
AcDbLine
 10
52.32045000000005
 20
9.015264000000002
 30
0.0
 11
53.86256500000002
 21
9.015264000000002
 31
0.0
  0
LINE
  5
24BE
330
1F
100
AcDbEntity
  8
0
100
AcDbLine
 10
58.153233
 20
9.047064000000002
 30
0.0
 11
59.00797599999999
 21
9.047064000000002
 31
0.0
  0
LINE
  5
24BF
330
1F
100
AcDbEntity
  8
0
100
AcDbLine
 10
64.85197600000004
 20
7.416264000000001
 30
0.0
 11
63.30697599999996
 21
7.416264000000001
 31
0.0
  0
LINE
  5
24C0
330
1F
100
AcDbEntity
  8
0
100
AcDbLine
 10
62.65297599999997
 20
9.015264000000002
 30
0.0
 11
61.10797600000001
 21
9.015264000000002
 31
0.0
  0
LINE
  5
24C1
330
1F
100
AcDbEntity
  8
0
100
AcDbLine
 10
65.53502200000003
 20
9.015264000000002
 30
0.0
 11
66.07297600000004
 21
9.015264000000002
 31
0.0
  0
LINE
  5
24C2
330
1F
100
AcDbEntity
  8
0
100
AcDbLine
 10
69.21997599999997
 20
9.015264000000002
 30
0.0
 11
70.14997600000004
 21
9.015264000000002
 31
0.0
  0
LINE
  5
24C3
330
1F
100
AcDbEntity
  8
0
100
AcDbLine
 10
73.84597599999995
 20
9.015264000000002
 30
0.0
 11
72.30097599999999
 21
9.015264000000002
 31
0.0
  0
ARC
  5
24C4
330
1F
100
AcDbEntity
  8
0
100
AcDbCircle
 10
59.01534700000002
 20
14.17837
 30
0.0
 40
1.425319
100
AcDbArc
 50
9.5348290000009
 51
90.29632899999848
  0
LINE
  5
24C5
330
1F
100
AcDbEntity
  8
0
100
AcDbLine
 10
60.420976
 20
11.81167
 30
0.0
 11
58.29697599999997
 21
11.81167
 31
0.0
  0
LINE
  5
24C6
330
1F
100
AcDbEntity
  8
0
100
AcDbLine
 10
58.97197600000004
 20
11.13667
 30
0.0
 11
60.420976
 21
11.13667
 31
0.0
  0
LINE
  5
24C7
330
1F
100
AcDbEntity
  8
0
100
AcDbLine
 10
43.65642300000002
 20
13.461283
 30
0.0
 11
43.65642300000002
 21
16.260974
 31
0.0
  0
ELLIPSE
  5
24C8
330
1F
100
AcDbEntity
  8
0
100
AcDbEllipse
 10
46.58926199999996
 20
15.17942
 30
0.0
 11
2.983077570132104
 21
2.996000000000000E-13
 31
0.0
210
0.0
220
0.0
230
1.0
 40
0.9588119999999999
 41
-1.562393163247347
 42
0.0084031635475457
  0
ELLIPSE
  5
24C9
330
1F
100
AcDbEntity
  8
0
100
AcDbEllipse
 10
46.54608599999995
 20
15.509539
 30
0.0
 11
-4.072692107280919
 21
9.250000000000000E-14
 31
0.0
210
0.0
220
0.0
230
1.0
 40
0.958812
 41
1.587553347046634
 42
2.408388587343224
  0
LINE
  5
24CA
330
1F
100
AcDbEntity
  8
0
100
AcDbLine
 10
43.65642300000002
 20
11.742481
 30
0.0
 11
43.65642300000002
 21
11.034514
 31
0.0
  0
LINE
  5
24CB
330
1F
100
AcDbEntity
  8
0
100
AcDbLine
 10
43.65642300000002
 20
13.461283
 30
0.0
 11
43.65642300000002
 21
12.896138
 31
0.0
  0
ELLIPSE
  5
24CC
330
1F
100
AcDbEntity
  8
0
100
AcDbEllipse
 10
46.20835399999999
 20
9.872487
 30
0.0
 11
2.960559210508897
 21
0.3570763225581005
 31
0.0
210
0.0
220
0.0
230
1.0
 40
0.820999
 41
1.335209029023201
 42
2.503032872947537
  0
ELLIPSE
  5
24CD
330
1F
100
AcDbEntity
  8
0
100
AcDbEllipse
 10
46.43885999999998
 20
8.937306
 30
0.0
 11
3.015746449176215
 21
0.7746519372140024
 31
0.0
210
0.0
220
0.0
230
1.0
 40
0.8467749999999999
 41
1.29973646820557
 42
2.479974117225238
  0
LINE
  5
24CE
330
1F
100
AcDbEntity
  8
0
100
AcDbLine
 10
50.77544999999998
 20
12.896138
 30
0.0
 11
50.47464600000001
 21
12.896138
 31
0.0
  0
LINE
  5
24CF
330
1F
100
AcDbEntity
  8
0
100
AcDbLine
 10
49.57223399999998
 20
12.896138
 30
0.0
 11
50.47464600000001
 21
12.896138
 31
0.0
  0
ELLIPSE
  5
24D0
330
1F
100
AcDbEntity
  8
0
100
AcDbEllipse
 10
49.57223399999998
 20
12.896138
 30
0.0
 11
1.203215696869352
 21
8.930000000000000E-14
 31
0.0
210
0.0
220
0.0
230
1.0
 40
0.9588119999999999
 41
4.712388980384611
 42
6.283185307179508
  0
LINE
  5
24D1
330
1F
100
AcDbEntity
  8
0
100
AcDbLine
 10
44.45856700000002
 20
17.030079
 30
0.0
 11
48.77008999999998
 21
17.030079
 31
0.0
  0
ELLIPSE
  5
24D2
330
1F
100
AcDbEntity
  8
0
100
AcDbEllipse
 10
44.45856700000002
 20
16.260974
 30
0.0
 11
0.8021437979128704
 21
3.800000000000000E-14
 31
0.0
210
0.0
220
0.0
230
1.0
 40
0.958812
 41
1.570796326794851
 42
3.141592653589743
  0
LINE
  5
24D3
330
1F
100
AcDbEntity
  8
0
100
AcDbLine
 10
49.57223399999998
 20
15.155385
 30
0.0
 11
49.57223399999998
 21
16.260974
 31
0.0
  0
ELLIPSE
  5
24D4
330
1F
100
AcDbEntity
  8
0
100
AcDbEllipse
 10
48.77008999999998
 20
16.260974
 30
0.0
 11
-0.8021437979128705
 21
3.800000000000000E-14
 31
0.0
210
0.0
220
0.0
230
1.0
 40
0.958812
 41
3.141592653589842
 42
4.712388980384734
  0
ARC
  5
24D5
330
1F
100
AcDbEntity
  8
0
100
AcDbCircle
 10
54.75765000000001
 20
14.34127
 30
0.0
 40
1.377457
100
AcDbArc
 50
16.26506099999997
 51
130.5272989999999
  0
ARC
  5
24D6
330
1F
100
AcDbEntity
  8
0
100
AcDbCircle
 10
58.16060400000003
 20
14.17837
 30
0.0
 40
1.425319
100
AcDbArc
 50
89.70367100000153
 51
170.4651709999992
  0
LINE
  5
24D7
330
1F
100
AcDbEntity
  8
0
100
AcDbLine
 10
54.86990300000002
 20
12.93607
 30
0.0
 11
56.07997599999999
 21
12.93607
 31
0.0
  0
LINE
  5
24D8
330
1F
100
AcDbEntity
  8
0
100
AcDbLine
 10
54.53756499999997
 20
12.93607
 30
0.0
 11
56.07997599999999
 21
12.93607
 31
0.0
  0
ARC
  5
24D9
330
1F
100
AcDbEntity
  8
0
100
AcDbCircle
 10
54.188492
 20
14.361264
 30
0.0
 40
0.3375
100
AcDbArc
 50
0.0
 51
180.0
  0
LINE
  5
24DA
330
1F
100
AcDbEntity
  8
0
100
AcDbLine
 10
54.52599199999997
 20
14.361264
 30
0.0
 11
54.53756499999997
 21
12.93607
 31
0.0
  0
ARC
  5
24DB
330
1F
100
AcDbEntity
  8
0
100
AcDbCircle
 10
58.63447599999995
 20
14.361264
 30
0.0
 40
0.3375
100
AcDbArc
 50
0.0
 51
180.0
  0
LINE
  5
24DC
330
1F
100
AcDbEntity
  8
0
100
AcDbLine
 10
58.29697599999997
 20
11.81167
 30
0.0
 11
58.29697599999997
 21
10.236264
 31
0.0
  0
LINE
  5
24DD
330
1F
100
AcDbEntity
  8
0
100
AcDbLine
 10
58.29697599999997
 20
12.71167
 30
0.0
 11
58.97197600000004
 21
12.71167
 31
0.0
  0
LINE
  5
24DE
330
1F
100
AcDbEntity
  8
0
100
AcDbLine
 10
58.97197600000004
 20
11.13667
 30
0.0
 11
58.97197600000004
 21
10.252764
 31
0.0
  0
LINE
  5
24DF
330
1F
100
AcDbEntity
  8
0
100
AcDbLine
 10
58.29697599999997
 20
11.81167
 30
0.0
 11
58.29697599999997
 21
10.252764
 31
0.0
  0
ARC
  5
24E0
330
1F
100
AcDbEntity
  8
0
100
AcDbCircle
 10
58.63447599999995
 20
10.252764
 30
0.0
 40
0.3375
100
AcDbArc
 50
180.0
 51
0.0
  0
LINE
  5
24E1
330
1F
100
AcDbEntity
  8
0
100
AcDbLine
 10
58.97197600000004
 20
14.361264
 30
0.0
 11
58.97197600000004
 21
12.71167
 31
0.0
  0
LINE
  5
24E2
330
1F
100
AcDbEntity
  8
0
100
AcDbLine
 10
58.29697599999997
 20
14.361264
 30
0.0
 11
58.29697599999997
 21
12.71167
 31
0.0
  0
LINE
  5
24E3
330
1F
100
AcDbEntity
  8
0
100
AcDbLine
 10
56.07997599999999
 20
12.93607
 30
0.0
 11
56.07997599999999
 21
14.72707
 31
0.0
  0
LINE
  5
24E4
330
1F
100
AcDbEntity
  8
0
100
AcDbLine
 10
56.75497599999994
 20
10.236264
 30
0.0
 11
56.75497599999994
 21
14.41447
 31
0.0
  0
LINE
  5
24E5
330
1F
100
AcDbEntity
  8
0
100
AcDbLine
 10
53.86256500000002
 20
15.60367
 30
0.0
 11
53.86256500000002
 21
15.38827
 31
0.0
  0
LINE
  5
24E6
330
1F
100
AcDbEntity
  8
0
100
AcDbLine
 10
52.32045000000005
 20
15.60367
 30
0.0
 11
53.86256500000002
 21
15.60367
 31
0.0
  0
LINE
  5
24E7
330
1F
100
AcDbEntity
  8
0
100
AcDbLine
 10
58.153233
 20
15.60367
 30
0.0
 11
59.00797599999999
 21
15.60367
 31
0.0
  0
ARC
  5
24E8
330
1F
100
AcDbEntity
  8
0
100
AcDbCircle
 10
69.20181500000001
 20
14.124104
 30
0.0
 40
1.488419
100
AcDbArc
 50
89.30088700000103
 51
168.3657320000002
  0
ARC
  5
24E9
330
1F
100
AcDbEntity
  8
0
100
AcDbCircle
 10
65.711003
 20
14.207365
 30
0.0
 40
1.409039
100
AcDbArc
 50
15.47254999999875
 51
127.5645399999992
  0
LINE
  5
24EA
330
1F
100
AcDbEntity
  8
0
100
AcDbLine
 10
60.420976
 20
11.13667
 30
0.0
 11
60.420976
 21
10.236264
 31
0.0
  0
LINE
  5
24EB
330
1F
100
AcDbEntity
  8
0
100
AcDbLine
 10
60.420976
 20
11.81167
 30
0.0
 11
60.420976
 21
14.41447
 31
0.0
  0
LINE
  5
24EC
330
1F
100
AcDbEntity
  8
0
100
AcDbLine
 10
67.06897600000002
 20
14.583264
 30
0.0
 11
67.06897600000002
 21
10.179264
 31
0.0
  0
LINE
  5
24ED
330
1F
100
AcDbEntity
  8
0
100
AcDbLine
 10
65.52697599999999
 20
14.361264
 30
0.0
 11
65.52697599999999
 21
10.252764
 31
0.0
  0
LINE
  5
24EE
330
1F
100
AcDbEntity
  8
0
100
AcDbLine
 10
64.85197600000004
 20
14.361264
 30
0.0
 11
64.85197600000004
 21
10.252764
 31
0.0
  0
ARC
  5
24EF
330
1F
100
AcDbEntity
  8
0
100
AcDbCircle
 10
65.18947600000001
 20
10.252764
 30
0.0
 40
0.3375
100
AcDbArc
 50
180.0
 51
0.0
  0
ARC
  5
24F0
330
1F
100
AcDbEntity
  8
0
100
AcDbCircle
 10
65.18947600000001
 20
14.361264
 30
0.0
 40
0.3375
100
AcDbArc
 50
0.0
 51
180.0
  0
LINE
  5
24F1
330
1F
100
AcDbEntity
  8
0
100
AcDbLine
 10
63.30697599999996
 20
15.612264
 30
0.0
 11
64.85197600000004
 21
15.612264
 31
0.0
  0
LINE
  5
24F2
330
1F
100
AcDbEntity
  8
0
100
AcDbLine
 10
61.10797600000001
 20
17.211264
 30
0.0
 11
62.65297599999997
 21
17.211264
 31
0.0
  0
LINE
  5
24F3
330
1F
100
AcDbEntity
  8
0
100
AcDbLine
 10
64.85197600000004
 20
15.612264
 30
0.0
 11
64.85197600000004
 21
15.324264
 31
0.0
  0
ARC
  5
24F4
330
1F
100
AcDbEntity
  8
0
100
AcDbCircle
 10
70.168137
 20
14.124104
 30
0.0
 40
1.488419
100
AcDbArc
 50
11.63426799999984
 51
90.69911299999899
  0
LINE
  5
24F5
330
1F
100
AcDbEntity
  8
0
100
AcDbLine
 10
71.62597600000004
 20
14.424264
 30
0.0
 11
71.62597600000004
 21
10.203412
 31
0.0
  0
ARC
  5
24F6
330
1F
100
AcDbEntity
  8
0
100
AcDbCircle
 10
69.684976
 20
14.361264
 30
0.0
 40
0.3375
100
AcDbArc
 50
0.0
 51
180.0
  0
ARC
  5
24F7
330
1F
100
AcDbEntity
  8
0
100
AcDbCircle
 10
69.684976
 20
10.252764
 30
0.0
 40
0.3375
100
AcDbArc
 50
180.0
 51
0.0
  0
LINE
  5
24F8
330
1F
100
AcDbEntity
  8
0
100
AcDbLine
 10
69.34747600000003
 20
14.361264
 30
0.0
 11
69.34747600000003
 21
10.252764
 31
0.0
  0
LINE
  5
24F9
330
1F
100
AcDbEntity
  8
0
100
AcDbLine
 10
70.02247599999998
 20
14.361264
 30
0.0
 11
70.02247599999998
 21
10.252764
 31
0.0
  0
LINE
  5
24FA
330
1F
100
AcDbEntity
  8
0
100
AcDbLine
 10
67.74397599999998
 20
10.203412
 30
0.0
 11
67.74397599999998
 21
14.424264
 31
0.0
  0
LINE
  5
24FB
330
1F
100
AcDbEntity
  8
0
100
AcDbLine
 10
69.21997599999997
 20
15.612412
 30
0.0
 11
70.14997600000004
 21
15.612412
 31
0.0
  0
LINE
  5
24FC
330
1F
100
AcDbEntity
  8
0
100
AcDbLine
 10
72.30097599999999
 20
17.211264
 30
0.0
 11
73.84597599999995
 21
17.211264
 31
0.0
  0
TEXT
  5
24FD
330
1F
100
AcDbEntity
  8
WY
100
AcDbText
 10
78.37616300000002
 20
11.60401
 30
0.0
 40
1.999999999999998
  1
12-10-2018
 51
15.0
  7
ITALIC
100
AcDbText
  0
TEXT
  5
24FE
330
1F
100
AcDbEntity
  8
WY
100
AcDbText
 10
82.80753200000004
 20
16.149239
 30
0.0
 40
1.999999999999999
  1
Data
 51
15.0
  7
ITALIC
100
AcDbText
  0
TEXT
  5
24FF
330
1F
100
AcDbEntity
  8
1
100
AcDbText
 10
150.5029668531523
 20
9.064009000000002
 30
0.0
 40
5.0
  1
RPI-2Z-U24A
 41
0.7
 51
15.0
  7
ITALIC
100
AcDbText
  0
LINE
  5
2500
330
1F
100
AcDbEntity
  8
1
100
AcDbLine
 10
141.35299
 20
4.999999999999999
 30
0.0
 11
141.35299
 21
19.689837
 31
0.0
  0
TEXT
  5
2501
330
1F
100
AcDbEntity
  8
WY
100
AcDbText
 10
143.544188
 20
16.599248
 30
0.0
 40
1.999999999999999
  1
Product type
 51
15.0
  7
ITALIC
100
AcDbText
  0
LINE
  5
2502
330
1F
100
AcDbEntity
  8
2
100
AcDbLine
 10
196.630407
 20
292.0
 30
0.0
 11
11.63040699999999
 21
292.0
 31
0.0
  0
LINE
  5
2503
330
1F
100
AcDbEntity
  8
2
100
AcDbLine
 10
201.630407
 20
297.0
 30
0.0
 11
11.63040699999999
 21
297.0
 31
0.0
  0
LINE
  5
2504
330
1F
100
AcDbEntity
  8
WYMIARY
 62
     6
100
AcDbLine
 10
11.63040699999999
 20
297.0
 30
0.0
 11
0.0
 21
297.0
 31
0.0
  0
TEXT
  5
2505
330
1F
100
AcDbEntity
  8
1
100
AcDbText
 10
14.260741
 20
8.797457000000001
 30
0.0
 40
5.0
  1
1:1
 51
15.0
  7
ITALIC
100
AcDbText
  0
LINE
  5
2506
330
1F
100
AcDbEntity
  8
WYMIARY
 62
     6
100
AcDbLine
 10
201.630407
 20
0.0
 30
0.0
 11
201.630407
 21
297.0
 31
0.0
  0
LINE
  5
2507
330
1F
100
AcDbEntity
  8
WYMIARY
 62
     3
100
AcDbLine
 10
26.63040699999999
 20
19.689837
 30
0.0
 11
26.63040699999999
 21
4.999999999999999
 31
0.0
  0
LINE
  5
2508
330
1F
100
AcDbEntity
  8
WYMIARY
 62
     3
100
AcDbLine
 10
41.63040699999999
 20
19.689837
 30
0.0
 11
41.63040699999999
 21
4.999999999999999
 31
0.0
  0
LINE
  5
2509
330
1F
100
AcDbEntity
  8
WYMIARY
 62
     3
100
AcDbLine
 10
100.331943
 20
19.689837
 30
0.0
 11
100.331943
 21
4.999999999999999
 31
0.0
  0
TEXT
  5
250A
330
1F
100
AcDbEntity
  8
WY
100
AcDbText
 10
101.520952
 20
16.599248
 30
0.0
 40
1.999999999999999
  1
Draw. No.
 51
15.0
  7
ITALIC
100
AcDbText
  0
TEXT
  5
250B
330
1F
100
AcDbEntity
  8
1
100
AcDbText
 10
105.893897
 20
9.064009000000002
 30
0.0
 40
3.999999999999993
  1
RPI_22
 41
0.7000000000000012
 51
15.0
  7
ITALIC
100
AcDbText
  0
LINE
  5
250C
330
1F
100
AcDbEntity
  8
WYMIARY
 62
     6
100
AcDbLine
 10
201.630407
 20
0.0
 30
0.0
 11
201.630407
 21
297.0
 31
0.0
  0
LINE
  5
250D
330
1F
100
AcDbEntity
  8
WYMIARY
 62
     6
100
AcDbLine
 10
201.630407
 20
0.0
 30
0.0
 11
201.630407
 21
297.0
 31
0.0
  0
LINE
  5
250E
330
1F
100
AcDbEntity
  8
2
100
AcDbLine
 10
201.630407
 20
0.0
 30
0.0
 11
201.630407
 21
297.0
 31
0.0
  0
LINE
  5
250F
330
1F
100
AcDbEntity
  8
WYMIARY
 62
     6
100
AcDbLine
 10
201.630407
 20
0.0
 30
0.0
 11
201.630407
 21
297.0
 31
0.0
  0
LINE
  5
2510
330
1F
100
AcDbEntity
  8
2
100
AcDbLine
 10
201.630407
 20
0.0
 30
0.0
 11
201.630407
 21
297.0
 31
0.0
  0
TEXT
  5
2511
330
1F
100
AcDbEntity
  8
1
100
AcDbText
 10
83.85363204006671
 20
283.3782121628976
 30
0.0
 40
5.0
  1
RPI-2Z-U24A
 41
0.8
 51
15.0
  7
ITALIC
100
AcDbText
  0
LINE
  5
2512
330
1F
100
AcDbEntity
  8
2
100
AcDbLine
 10
201.630407
 20
0.0
 30
0.0
 11
11.63040699999999
 21
0.0
 31
0.0
  0
LINE
  5
2513
330
1F
100
AcDbEntity
  8
WYMIARY
 62
     6
100
AcDbLine
 10
11.63040699999999
 20
0.0
 30
0.0
 11
0.0
 21
0.0
 31
0.0
  0
LINE
  5
2514
330
1F
100
AcDbEntity
  8
WYMIARY
 62
     6
100
AcDbLine
 10
201.630407
 20
0.0
 30
0.0
 11
201.630407
 21
297.0
 31
0.0
  0
LINE
  5
2515
330
1F
100
AcDbEntity
  8
2
100
AcDbLine
 10
201.630407
 20
0.0
 30
0.0
 11
11.63040699999999
 21
0.0
 31
0.0
  0
DIMENSION
  5
251A
102
{ACAD_REACTORS
330
251C
102
}
102
{ACAD_XDICTIONARY
360
251B
102
}
330
1F
100
AcDbEntity
  8
WY
100
AcDbDimension
  2
*D103
 10
46.80340334846358
 20
145.3516120519776
 30
0.0
 11
43.77940334846357
 21
136.8276120519776
 31
0.0
 70
    32
 71
     5
 42
3.500000082600024
 73
     0
 74
     0
 75
     0
  3
ISO-25
100
AcDbAlignedDimension
 13
60.44575697641352
 23
148.8516121345776
 33
0.0
 14
65.03702886971348
 24
145.3516120519776
 34
0.0
 50
90.0
100
AcDbRotatedDimension
1001
ACAD
1000
DSTYLE
1002
{
1070
   271
1070
     1
1070
   144
1040
1.0
1070
    41
1040
2.0
1070
    44
1040
1.0
1070
    42
1040
1.0
1070
   147
1040
1.524
1070
    73
1070
     1
1070
   279
1070
     0
1070
    74
1070
     0
1070
   140
1040
3.0
1070
   284
1070
     0
1070
    78
1070
     0
1002
}
  0
DIMENSION
  5
251D
102
{ACAD_XDICTIONARY
360
251E
102
}
330
1F
100
AcDbEntity
  8
WY
100
AcDbDimension
  2
*D104
 10
53.41209586975395
 20
148.8516121345776
 30
0.0
 11
50.38809586975395
 21
160.8516120932777
 31
0.0
 70
    32
 71
     5
 42
23.9999999174
 73
     0
 74
     0
 75
     0
  3
ISO-25
100
AcDbAlignedDimension
 13
65.6370288697135
 23
172.8516120519776
 33
0.0
 14
57.88858453770382
 24
148.8516121345776
 34
0.0
 50
90.0
100
AcDbRotatedDimension
1001
ACAD
1000
DSTYLE
1002
{
1070
   174
1070
     0
1070
   271
1070
     0
1070
   144
1040
1.0
1070
    41
1040
2.0
1070
    44
1040
1.0
1070
    42
1040
1.0
1070
   147
1040
1.524
1070
    73
1070
     0
1070
   279
1070
     0
1070
    74
1070
     0
1070
   140
1040
3.0
1070
   284
1070
     0
1070
    78
1070
     0
1002
}
  0
DIMENSION
  5
251F
102
{ACAD_REACTORS
330
2521
102
}
102
{ACAD_XDICTIONARY
360
2520
102
}
330
1F
100
AcDbEntity
  8
WY
100
AcDbDimension
  2
*D105
 10
46.80340334846358
 20
148.8516121345776
 30
0.0
 11
43.77940334846357
 21
170.8516115497276
 31
0.0
 70
    32
 71
     5
 42
43.9999988303
 73
     0
 74
     0
 75
     0
  3
ISO-25
100
AcDbAlignedDimension
 13
76.93702853191348
 23
192.8516109648776
 33
0.0
 14
60.44575697641352
 24
148.8516121345776
 34
0.0
 50
90.0
100
AcDbRotatedDimension
1001
ACAD
1000
DSTYLE
1002
{
1070
   144
1040
1.0
1070
    41
1040
2.0
1070
    44
1040
1.0
1070
    42
1040
1.0
1070
   147
1040
1.524
1070
    77
1070
     3
1070
   279
1070
     2
1070
    74
1070
     1
1070
   140
1040
3.0
1002
}
  0
DIMENSION
  5
2522
102
{ACAD_REACTORS
330
2524
102
}
102
{ACAD_XDICTIONARY
360
2523
102
}
330
1F
100
AcDbEntity
  8
WY
100
AcDbDimension
  2
*D106
 10
40.85983203714
 20
209.8565519242777
 30
0.0
 11
37.83583203713999
 21
177.6040822082277
 31
0.0
 70
    32
 71
     5
 42
64.50493943210012
 73
     0
 74
     0
 75
     0
  3
ISO-25
100
AcDbAlignedDimension
 13
65.03702825771347
 23
145.3516124921776
 33
0.0
 14
109.8370288697134
 24
209.8565519242777
 34
0.0
 50
90.0
100
AcDbRotatedDimension
1001
ACAD
1000
DSTYLE
1002
{
1070
   144
1040
1.0
1070
    41
1040
2.0
1070
    44
1040
1.0
1070
    42
1040
1.0
1070
   147
1040
1.524
1070
    77
1070
     3
1070
   279
1070
     2
1070
    74
1070
     1
1070
   140
1040
3.0
1002
}
  0
DIMENSION
  5
2525
102
{ACAD_REACTORS
330
2527
102
}
102
{ACAD_XDICTIONARY
360
2526
102
}
330
1F
100
AcDbEntity
  8
WY
100
AcDbDimension
  2
*D107
 10
132.3370288697135
 20
219.2968894867662
 30
0.0
 11
109.8370288697135
 21
222.3208894867662
 31
0.0
 70
    32
 71
     5
 42
45.0
 73
     0
 74
     0
 75
     0
  3
ISO-25
100
AcDbAlignedDimension
 13
87.33702886971355
 23
208.0825568265777
 33
0.0
 14
132.3370288697135
 24
208.0825568265777
 34
0.0
100
AcDbRotatedDimension
1001
ACAD
1000
DSTYLE
1002
{
1070
   144
1040
1.0
1070
    41
1040
2.0
1070
    44
1040
1.0
1070
    42
1040
1.0
1070
   147
1040
1.524
1070
    77
1070
     3
1070
   279
1070
     2
1070
    74
1070
     1
1070
   140
1040
3.0
1002
}
  0
DIMENSION
  5
2528
102
{ACAD_REACTORS
330
252A
102
}
102
{ACAD_XDICTIONARY
360
2529
102
}
330
1F
100
AcDbEntity
  8
WY
100
AcDbDimension
  2
*D108
 10
127.5370282577135
 20
131.9245202436588
 30
0.0
 11
109.8370303855635
 21
134.9485202436588
 31
0.0
 70
    32
 71
     5
 42
35.39999574429999
 73
     0
 74
     0
 75
     0
  3
ISO-25
100
AcDbAlignedDimension
 13
92.13703251341349
 23
145.3516124921776
 33
0.0
 14
127.5370282577135
 24
145.3516124921776
 34
0.0
100
AcDbRotatedDimension
1001
ACAD
1000
DSTYLE
1002
{
1070
   144
1040
1.0
1070
    41
1040
2.0
1070
    44
1040
1.0
1070
    42
1040
1.0
1070
   147
1040
1.524
1070
    77
1070
     3
1070
   279
1070
     2
1070
    74
1070
     1
1070
   140
1040
3.0
1002
}
  0
DIMENSION
  5
252B
102
{ACAD_REACTORS
330
252D
102
}
102
{ACAD_XDICTIONARY
360
252C
102
}
330
1F
100
AcDbEntity
  8
WY
100
AcDbDimension
  2
*D109
 10
154.8370289141135
 20
125.0135858363881
 30
0.0
 11
109.8370288919135
 21
128.0375858363881
 31
0.0
 70
    32
 71
     5
 42
90.0000000444
 73
     0
 74
     0
 75
     0
  3
ISO-25
100
AcDbAlignedDimension
 13
64.83702886971349
 23
145.5516120519776
 33
0.0
 14
154.8370289141135
 24
145.5516121524776
 34
0.0
100
AcDbRotatedDimension
1001
ACAD
1000
DSTYLE
1002
{
1070
   144
1040
1.0
1070
    41
1040
2.0
1070
    44
1040
1.0
1070
    42
1040
1.0
1070
   147
1040
1.524
1070
    77
1070
     3
1070
   279
1070
     2
1070
    74
1070
     1
1070
   140
1040
3.0
1002
}
  0
DIMENSION
  5
252E
102
{ACAD_REACTORS
330
2530
102
}
102
{ACAD_XDICTIONARY
360
252F
102
}
330
1F
100
AcDbEntity
  8
WY
100
AcDbDimension
  2
*D110
 10
60.44575697641352
 20
118.0747967964593
 30
0.0
 11
109.8370294542135
 21
121.0987967964593
 31
0.0
 70
    32
 71
     5
 42
98.78254495559997
 73
     0
 74
     0
 75
     0
  3
ISO-25
100
AcDbAlignedDimension
 13
159.2283019320135
 23
148.8516121345776
 33
0.0
 14
60.44575697641352
 24
148.8516121345776
 34
0.0
100
AcDbRotatedDimension
1001
ACAD
1000
DSTYLE
1002
{
1070
   271
1070
     1
1070
   144
1040
1.0
1070
    41
1040
2.0
1070
    44
1040
1.0
1070
    42
1040
1.0
1070
   147
1040
1.524
1070
    77
1070
     3
1070
   279
1070
     2
1070
    74
1070
     1
1070
   140
1040
3.0
1002
}
  0
DIMENSION
  5
2531
102
{ACAD_XDICTIONARY
360
2532
102
}
330
1F
100
AcDbEntity
  8
WY
100
AcDbDimension
  2
*D111
 10
46.80340334846358
 20
82.63724580078022
 30
0.0
 11
43.77940334846357
 21
73.88724647803022
 31
0.0
 70
    32
 71
     5
 42
17.4999986455
 73
     0
 74
     0
 75
     0
  3
ISO-25
100
AcDbAlignedDimension
 13
65.03702825771347
 23
65.13724715528022
 33
0.0
 14
65.03702886971348
 24
82.63724580078022
 34
0.0
 50
90.0
100
AcDbRotatedDimension
1001
ACAD
1000
DSTYLE
1002
{
1070
   144
1040
1.0
1070
    41
1040
2.0
1070
    44
1040
1.0
1070
    42
1040
1.0
1070
   147
1040
1.524
1070
    77
1070
     3
1070
   279
1070
     2
1070
    74
1070
     1
1070
   140
1040
3.0
1002
}
  0
LINE
  5
2534
330
1F
100
AcDbEntity
  8
OSIE
 48
0.5
100
AcDbLine
 10
57.14440037951067
 20
73.88724626128018
 30
0.0
 11
162.8737085749191
 21
73.88724626128018
 31
0.0
  0
LINE
  5
2535
330
1F
100
AcDbEntity
  8
OSIE
 48
0.5
100
AcDbLine
 10
109.8370303855635
 20
141.5579822168881
 30
0.0
 11
109.8370303855635
 21
215.9997990883332
 31
0.0
  0
SPLINE
  5
2D97
330
1F
100
AcDbEntity
  8
1
  6
Continuous
 62
     7
100
AcDbSpline
210
0.0
220
0.0
230
1.0
 70
    11
 71
     3
 72
    26
 73
    22
 74
     0
 42
0.000000001
 43
0.00000001
 40
0.0
 40
0.0
 40
0.0
 40
0.0
 40
0.0537615776160708
 40
0.1075247611081949
 40
0.1612523915713791
 40
0.2149230836433313
 40
0.2685476289332533
 40
0.3221520683056401
 40
0.3757656933337032
 40
0.4294168175343132
 40
0.483123345974707
 40
0.536883890027842
 40
0.5906728186809617
 40
0.6444455972530084
 40
0.6981584835448277
 40
0.7517933383990426
 40
0.8053734776523085
 40
0.8589546305474797
 40
0.9125903110095875
 40
0.9663034683209875
 40
1.0
 40
1.0
 40
1.0
 40
1.0
 10
94.83702978951413
 20
69.88724560558265
 30
0.0
 10
95.03396442144202
 20
69.86787054125423
 30
0.0
 10
95.42783956779994
 20
69.82911983385773
 30
0.0
 10
95.95202496552491
 20
69.52694515884176
 30
0.0
 10
96.35018790798603
 20
69.08203482202569
 30
0.0
 10
96.57738824281085
 20
68.52697466117687
 30
0.0
 10
96.60833433352917
 20
67.92937512222741
 30
0.0
 10
96.43985644139292
 20
67.35517762241378
 30
0.0
 10
96.09104863129954
 20
66.86912388500357
 30
0.0
 10
95.60099649887496
 20
66.52567603689047
 30
0.0
 10
95.02460065938129
 20
66.36361729335047
 30
0.0
 10
94.42663826328061
 20
66.40151848841222
 30
0.0
 10
93.87470836630445
 20
66.63552848948055
 30
0.0
 10
93.43147078479223
 20
67.03926200855565
 30
0.0
 10
93.14718399907423
 20
67.56678732773369
 30
0.0
 10
93.05369901067587
 20
68.15820722445304
 30
0.0
 10
93.16096682285087
 20
68.7465360335971
 30
0.0
 10
93.45668167653929
 20
69.26693627121566
 30
0.0
 10
93.90749051322854
 20
69.65756093825965
 30
0.0
 10
94.39491729704349
 20
69.859455798249
 30
0.0
 10
94.71401664018248
 20
69.87951338408337
 30
0.0
 10
94.83702978951413
 20
69.88724560558265
 30
0.0
  0
ARC
  5
2E2E
330
1F
100
AcDbEntity
  8
1
  6
Continuous
 62
     7
100
AcDbCircle
 10
70.80441112356368
 20
68.88724580087987
 30
0.0
 40
1.925000000000021
100
AcDbArc
 50
20.47568169639929
 51
179.5243183035956
  0
SPLINE
  5
2E2F
330
1F
100
AcDbEntity
  8
1
  6
Continuous
 62
     7
100
AcDbSpline
210
0.0
220
0.0
230
1.0
 70
     8
 71
     3
 72
    12
 73
     8
 74
     0
 42
0.000000001
 43
0.00000001
 40
0.0
 40
0.0
 40
0.0
 40
0.0
 40
0.2093177146531092
 40
0.4190873356804861
 40
0.6302857314824128
 40
0.8448686085559983
 40
1.0
 40
1.0
 40
1.0
 40
1.0
 10
72.60779263406323
 20
69.56062705346025
 30
0.0
 10
72.60510387801753
 20
69.56015574781472
 30
0.0
 10
72.59972056103709
 20
69.55921211899826
 30
0.0
 10
72.55778475356021
 20
69.55180865036968
 30
0.0
 10
72.49575592956364
 20
69.54087029398701
 30
0.0
 10
72.42492908672068
 20
69.52838883840317
 30
0.0
 10
72.37691974854363
 20
69.51992289723998
 30
0.0
 10
72.35677512317227
 20
69.51637060471452
 30
0.0
  0
SPLINE
  5
2E30
330
1F
100
AcDbEntity
  8
1
  6
Continuous
 62
     7
100
AcDbSpline
210
0.0
220
0.0
230
1.0
 70
     8
 71
     3
 72
    12
 73
     8
 74
     0
 42
0.000000001
 43
0.00000001
 40
0.0
 40
0.0
 40
0.0
 40
0.0
 40
0.2093123953662675
 40
0.4190888045103331
 40
0.6302711642033074
 40
0.8448517876403836
 40
1.0
 40
1.0
 40
1.0
 40
1.0
 10
72.72934140592145
 20
68.87126208372987
 30
0.0
 10
72.72665643757557
 20
68.87079070659533
 30
0.0
 10
72.72128054871644
 20
68.86984690735457
 30
0.0
 10
72.67933148304462
 20
68.86244432639191
 30
0.0
 10
72.6173126026232
 20
68.85150490531973
 30
0.0
 10
72.54648276530963
 20
68.83902302708961
 30
0.0
 10
72.4984709502645
 20
68.83055785146811
 30
0.0
 10
72.47832389503048
 20
68.82700563498415
 30
0.0
  0
ARC
  5
2E31
330
1F
100
AcDbEntity
  8
1
  6
Continuous
 62
     7
100
AcDbCircle
 10
70.80441112356368
 20
68.88724580087987
 30
0.0
 40
1.925000000000001
100
AcDbArc
 50
200.4756816963996
 51
359.5243183036092
  0
ARC
  5
2E32
330
1F
100
AcDbEntity
  8
1
  6
Continuous
 62
     7
100
AcDbCircle
 10
71.29110686876368
 20
69.58231935927992
 30
0.0
 40
0.2500000000000081
100
AcDbArc
 50
189.999999999952
 51
280.0000000000051
  0
LINE
  5
2E33
330
1F
100
AcDbEntity
  8
1
  6
Continuous
 62
     7
100
AcDbLine
 10
70.95807762766356
 20
70.03131003207986
 30
0.0
 11
71.04490669396375
 21
69.5389086109802
 31
0.0
  0
LINE
  5
2E34
330
1F
100
AcDbEntity
  8
1
  6
Continuous
 62
     7
100
AcDbLine
 10
70.26871265796365
 20
69.90975380968015
 30
0.0
 11
70.95807762766356
 21
70.03131003207986
 31
0.0
  0
LINE
  5
2E35
330
1F
100
AcDbEntity
  8
1
  6
Continuous
 62
     7
100
AcDbLine
 10
70.35554172426384
 20
69.41735238858004
 30
0.0
 11
70.26871265796365
 21
69.90975380968015
 31
0.0
  0
ARC
  5
2E36
330
1F
100
AcDbEntity
  8
1
  6
Continuous
 62
     7
100
AcDbCircle
 10
70.10933756516363
 20
69.37394154607986
 30
0.0
 40
0.2500000000000312
100
AcDbArc
 50
280.0000000000569
 51
10.00000000005691
  0
LINE
  5
2E37
330
1F
100
AcDbEntity
  8
1
  6
Continuous
 62
     7
100
AcDbLine
 10
72.35677512316363
 20
69.51637060467996
 30
0.0
 11
71.3345182123636
 21
69.33611870837998
 31
0.0
  0
LINE
  5
2E38
330
1F
100
AcDbEntity
  8
1
  6
Continuous
 62
     7
100
AcDbLine
 10
70.15275182156358
 20
69.12774087018019
 30
0.0
 11
69.13049491076356
 21
68.94748897378017
 31
0.0
  0
ARC
  5
2E39
330
1F
100
AcDbEntity
  8
1
  6
Continuous
 62
     7
100
AcDbCircle
 10
70.31771537836369
 20
68.19217224247981
 30
0.0
 40
0.2499999999999752
100
AcDbArc
 50
10.00000000005917
 51
99.99999999995315
  0
LINE
  5
2E3A
330
1F
100
AcDbEntity
  8
1
  6
Continuous
 62
     7
100
AcDbLine
 10
70.65074117806364
 20
67.7431771261798
 30
0.0
 11
70.5639195623636
 21
68.23558599778002
 31
0.0
  0
LINE
  5
2E3B
330
1F
100
AcDbEntity
  8
1
  6
Continuous
 62
     7
100
AcDbLine
 10
71.25328453216355
 20
68.35713476968007
 30
0.0
 11
71.3401061478636
 21
67.86473334857996
 31
0.0
  0
ARC
  5
2E3C
330
1F
100
AcDbEntity
  8
1
  6
Continuous
 62
     7
100
AcDbCircle
 10
71.49948468196374
 20
68.40055005567987
 30
0.0
 40
0.2500000000000032
100
AcDbArc
 50
100.000000000005
 51
189.999999999952
  0
LINE
  5
2E3D
330
1F
100
AcDbEntity
  8
1
  6
Continuous
 62
     7
100
AcDbLine
 10
72.47832389506368
 20
68.82700563498005
 30
0.0
 11
71.45607443476376
 21
68.64675373858003
 31
0.0
  0
LINE
  5
2E3E
330
1F
100
AcDbEntity
  8
1
  6
Continuous
 62
     7
100
AcDbLine
 10
70.27430059346364
 20
68.43837590047983
 30
0.0
 11
69.25205113316372
 21
68.2581240040798
 31
0.0
  0
LINE
  5
2E3F
330
1F
100
AcDbEntity
  8
1
  6
Continuous
 62
     7
100
AcDbLine
 10
71.58072264816371
 20
69.37952579087991
 30
0.0
 11
71.70227142006354
 21
68.69016082118
 31
0.0
  0
ARC
  5
2E40
330
1F
100
AcDbEntity
  8
1
  6
Continuous
 62
     7
100
AcDbCircle
 10
70.80441112356368
 20
68.88724580087987
 30
0.0
 40
1.925000000000001
100
AcDbArc
 50
359.5243183036092
 51
20.47568169640038
  0
LINE
  5
2E41
330
1F
100
AcDbEntity
  8
1
  6
Continuous
 62
     7
100
AcDbLine
 10
71.20986999896388
 20
68.60333920547995
 30
0.0
 11
71.29469485906372
 21
68.54394317697992
 31
0.0
  0
LINE
  5
2E42
330
1F
100
AcDbEntity
  8
1
  6
Continuous
 62
     7
100
AcDbLine
 10
71.08831377656372
 20
69.29270417517986
 30
0.0
 11
71.20986999896388
 21
68.60333920547995
 31
0.0
  0
LINE
  5
2E43
330
1F
100
AcDbEntity
  8
1
  6
Continuous
 62
     7
100
AcDbLine
 10
71.08831377656372
 20
69.29270417517986
 30
0.0
 11
71.14770980506376
 21
69.37752903527993
 31
0.0
  0
LINE
  5
2E44
330
1F
100
AcDbEntity
  8
1
  6
Continuous
 62
     7
100
AcDbLine
 10
71.00149216086368
 20
69.78510559627998
 30
0.0
 11
70.31212719116377
 21
69.66355682437992
 31
0.0
  0
LINE
  5
2E45
330
1F
100
AcDbEntity
  8
1
  6
Continuous
 62
     7
100
AcDbLine
 10
70.52050502926375
 20
68.48178298297975
 30
0.0
 11
70.46110900076371
 21
68.39695812288014
 31
0.0
  0
LINE
  5
2E46
330
1F
100
AcDbEntity
  8
1
  6
Continuous
 62
     7
100
AcDbLine
 10
71.20986999896388
 20
68.60333920547995
 30
0.0
 11
70.52050502926375
 21
68.48178298297975
 31
0.0
  0
LINE
  5
2E47
330
1F
100
AcDbEntity
  8
1
  6
Continuous
 62
     7
100
AcDbLine
 10
70.02810360816386
 20
68.39496136728016
 30
0.0
 11
69.9065473857637
 21
69.08432633708011
 31
0.0
  0
LINE
  5
2E48
330
1F
100
AcDbEntity
  8
1
  6
Continuous
 62
     7
100
AcDbLine
 10
71.08831377656372
 20
69.29270417517986
 30
0.0
 11
70.39894880686381
 21
69.17114795278016
 31
0.0
  0
LINE
  5
2E49
330
1F
100
AcDbEntity
  8
1
  6
Continuous
 62
     7
100
AcDbLine
 10
70.39894880686381
 20
69.17114795278016
 30
0.0
 11
70.31412394676374
 21
69.23054398128019
 31
0.0
  0
LINE
  5
2E4A
330
1F
100
AcDbEntity
  8
1
  6
Continuous
 62
     7
100
AcDbLine
 10
70.52050502926375
 20
68.48178298297975
 30
0.0
 11
70.39894880686381
 21
69.17114795278016
 31
0.0
  0
LINE
  5
2E4B
330
1F
100
AcDbEntity
  8
1
  6
Continuous
 62
     7
100
AcDbLine
 10
71.3401061478636
 20
67.86473334857996
 30
0.0
 11
70.65074117806364
 21
67.7431771261798
 31
0.0
  0
LINE
  5
2E4C
330
1F
100
AcDbEntity
  8
1
  6
Continuous
 62
     7
100
AcDbLine
 10
71.2966916146637
 20
68.11093778437984
 30
0.0
 11
70.60732664496356
 21
67.98938156198014
 31
0.0
  0
SPLINE
  5
2E4D
330
1F
100
AcDbEntity
  8
1
  6
Continuous
 62
     7
100
AcDbSpline
210
0.0
220
0.0
230
1.0
 70
     8
 71
     3
 72
    13
 73
     9
 74
     0
 42
0.000000001
 43
0.00000001
 40
0.0
 40
0.0
 40
0.0
 40
0.0
 40
0.0619255964755553
 40
0.2843670344938834
 40
0.5046378734365987
 40
0.7209770371376174
 40
0.9334202213497128
 40
1.0
 40
1.0
 40
1.0
 40
1.0
 10
69.13049491076993
 20
68.947488973817
 30
0.0
 10
69.12246795939893
 20
68.94607462717417
 30
0.0
 10
69.08560759006502
 20
68.93957984014818
 30
0.0
 10
69.0210532075613
 20
68.92819113380287
 30
0.0
 10
68.94936743584833
 20
68.91554448986639
 30
0.0
 10
68.89956626353353
 20
68.90677300285037
 30
0.0
 10
68.88096073297868
 20
68.90348928741045
 30
0.0
 10
68.87976316147035
 20
68.90327597465907
 30
0.0
 10
68.87947739987897
 20
68.90322507449068
 30
0.0
  0
ARC
  5
2E4E
102
{ACAD_REACTORS
330
891C
102
}
330
1F
100
AcDbEntity
  8
1
  6
Continuous
 62
     7
100
AcDbCircle
 10
70.80441112356368
 20
68.88724580087987
 30
0.0
 40
1.925000000000021
100
AcDbArc
 50
179.5243183035956
 51
200.4756816963993
  0
SPLINE
  5
2E4F
330
1F
100
AcDbEntity
  8
1
  6
Continuous
 62
     7
100
AcDbSpline
210
0.0
220
0.0
230
1.0
 70
     8
 71
     3
 72
    13
 73
     9
 74
     0
 42
0.000000001
 43
0.00000001
 40
0.0
 40
0.0
 40
0.0
 40
0.0
 40
0.0619252427413735
 40
0.284365410119699
 40
0.5046349908214054
 40
0.7209837301607352
 40
0.9334206016697237
 40
1.0
 40
1.0
 40
1.0
 40
1.0
 10
69.25205113320874
 20
68.25812400408662
 30
0.0
 10
69.24402418992952
 20
68.25670965701133
 30
0.0
 10
69.20716385775165
 20
68.25021486799855
 30
0.0
 10
69.14260863281208
 20
68.23882620669005
 30
0.0
 10
69.07092530711918
 20
68.22617916166004
 30
0.0
 10
69.02111115343212
 20
68.21740838673244
 30
0.0
 10
69.0025176536127
 20
68.21412428986909
 30
0.0
 10
69.00131952263371
 20
68.2139110003221
 30
0.0
 10
69.00103362231778
 20
68.2138601047603
 30
0.0
  0
SPLINE
  5
2E73
330
1F
100
AcDbEntity
  8
1
  6
Continuous
 62
     7
100
AcDbSpline
210
0.0
220
0.0
230
1.0
 70
     8
 71
     3
 72
    13
 73
     9
 74
     0
 42
0.000000001
 43
0.00000001
 40
0.0
 40
0.0
 40
0.0
 40
0.0
 40
0.061914364577025
 40
0.2843564167231151
 40
0.5046381287603324
 40
0.7209777905014423
 40
0.9334201858800846
 40
1.0
 40
1.0
 40
1.0
 40
1.0
 10
69.398663658195
 20
79.79801536627687
 30
0.0
 10
69.39290138027138
 20
79.80377766863543
 30
0.0
 10
69.36643675104062
 20
79.83024241008738
 30
0.0
 10
69.32008428813208
 20
79.8765923281388
 30
0.0
 10
69.2686147465239
 20
79.92807281137843
 30
0.0
 10
69.232859534775
 20
79.96383209235486
 30
0.0
 10
69.21949086927555
 20
79.97718037124864
 30
0.0
 10
69.21863769627373
 20
79.97804584386526
 30
0.0
 10
69.21843411355542
 20
79.97825236149706
 30
0.0
  0
SPLINE
  5
2E74
330
1F
100
AcDbEntity
  8
1
  6
Continuous
 62
     7
100
AcDbSpline
210
0.0
220
0.0
230
1.0
 70
     8
 71
     3
 72
    12
 73
     8
 74
     0
 42
0.000000001
 43
0.00000001
 40
0.0
 40
0.0
 40
0.0
 40
0.0
 40
0.2093160190199715
 40
0.4190868294988201
 40
0.6302697094471587
 40
0.8448632698421173
 40
1.0
 40
1.0
 40
1.0
 40
1.0
 10
71.89541282086896
 20
77.30126620360292
 30
0.0
 10
71.89348334179715
 20
77.30319570127207
 30
0.0
 10
71.88962019137728
 20
77.30705888892757
 30
0.0
 10
71.85950597996009
 20
77.33717281998574
 30
0.0
 10
71.81497387604361
 20
77.38170600245925
 30
0.0
 10
71.76411568731658
 20
77.43256047272038
 30
0.0
 10
71.72964639537247
 20
77.46703703083571
 30
0.0
 10
71.71518327622937
 20
77.4815031988231
 30
0.0
  0
ARC
  5
2E75
330
1F
100
AcDbEntity
  8
1
  6
Continuous
 62
     7
100
AcDbCircle
 10
70.80441112356368
 20
78.88724580087987
 30
0.0
 40
1.925000000000032
100
AcDbArc
 50
145.4756816964003
 51
304.5243183036019
  0
SPLINE
  5
2E76
330
1F
100
AcDbEntity
  8
1
  6
Continuous
 62
     7
100
AcDbSpline
210
0.0
220
0.0
230
1.0
 70
     8
 71
     3
 72
    13
 73
     9
 74
     0
 42
0.000000001
 43
0.00000001
 40
0.0
 40
0.0
 40
0.0
 40
0.0
 40
0.0619273629538652
 40
0.2843682341316168
 40
0.5046378107643609
 40
0.7209763239353673
 40
0.9334212530455448
 40
1.0
 40
1.0
 40
1.0
 40
1.0
 10
69.89364298015164
 20
80.2929946882335
 30
0.0
 10
69.88787805600407
 20
80.29875682658607
 30
0.0
 10
69.86140573066189
 20
80.32521635965881
 30
0.0
 10
69.8150596232291
 20
80.37157369798237
 30
0.0
 10
69.76358464504858
 20
80.42304475875594
 30
0.0
 10
69.7278314901215
 20
80.45879894647564
 30
0.0
 10
69.71446278507358
 20
80.47216741869428
 30
0.0
 10
69.71360957270929
 20
80.47302064239133
 30
0.0
 10
69.71340598493146
 20
80.4732242328731
 30
0.0
  0
ARC
  5
2E77
102
{ACAD_REACTORS
330
891C
330
8938
102
}
330
1F
100
AcDbEntity
  8
1
  6
Continuous
 62
     7
100
AcDbCircle
 10
70.80441112356368
 20
78.88724580087987
 30
0.0
 40
1.925000000000009
100
AcDbArc
 50
325.4756816964007
 51
124.524318303592
  0
SPLINE
  5
2E78
330
1F
100
AcDbEntity
  8
1
  6
Continuous
 62
     7
100
AcDbSpline
210
0.0
220
0.0
230
1.0
 70
     8
 71
     3
 72
    12
 73
     8
 74
     0
 42
0.000000001
 43
0.00000001
 40
0.0
 40
0.0
 40
0.0
 40
0.0
 40
0.2093144363951233
 40
0.4190836608104751
 40
0.6302847873358363
 40
0.8448644428208754
 40
1.0
 40
1.0
 40
1.0
 40
1.0
 10
72.39039214282559
 20
77.79623807497896
 30
0.0
 10
72.3884625232962
 20
77.79816761613287
 30
0.0
 10
72.38459909165579
 20
77.80203089085111
 30
0.0
 10
72.35448604959686
 20
77.83214511446917
 30
0.0
 10
72.30994460174236
 20
77.87668201661822
 30
0.0
 10
72.2590979974915
 20
77.92754429110741
 30
0.0
 10
72.22462169071298
 20
77.96201209498062
 30
0.0
 10
72.2101551476054
 20
77.97647507019914
 30
0.0
  0
ARC
  5
2E79
330
1F
100
AcDbEntity
  8
1
  6
Continuous
 62
     7
100
AcDbCircle
 10
69.9558829861636
 20
78.88724580087987
 30
0.0
 40
0.250000000000002
100
AcDbArc
 50
314.9999999999908
 51
45.00000000000922
  0
LINE
  5
2E7A
330
1F
100
AcDbEntity
  8
1
  6
Continuous
 62
     7
100
AcDbLine
 10
69.77910520466378
 20
78.3569166166802
 30
0.0
 11
70.13265760566367
 21
78.71046901768008
 31
0.0
  0
LINE
  5
2E7B
330
1F
100
AcDbEntity
  8
1
  6
Continuous
 62
     7
100
AcDbLine
 10
70.27408452656357
 20
77.8619372946799
 30
0.0
 11
69.77910520466378
 21
78.3569166166802
 31
0.0
  0
LINE
  5
2E7C
330
1F
100
AcDbEntity
  8
1
  6
Continuous
 62
     7
100
AcDbLine
 10
70.62763692766373
 20
78.21549714627994
 30
0.0
 11
70.27408452656357
 21
77.8619372946799
 31
0.0
  0
ARC
  5
2E7D
330
1F
100
AcDbEntity
  8
1
  6
Continuous
 62
     7
100
AcDbCircle
 10
70.80441112356368
 20
78.03871766347979
 30
0.0
 40
0.2500000000000221
100
AcDbArc
 50
44.9999999999954
 51
135.0000000000046
  0
LINE
  5
2E7E
330
1F
100
AcDbEntity
  8
1
  6
Continuous
 62
     7
100
AcDbLine
 10
71.7151832762637
 20
77.4815031987799
 30
0.0
 11
70.98118932876389
 21
78.21549714627994
 31
0.0
  0
LINE
  5
2E7F
330
1F
100
AcDbEntity
  8
1
  6
Continuous
 62
     7
100
AcDbLine
 10
70.13265760566367
 20
79.06402141878002
 30
0.0
 11
69.39866365816363
 21
79.79801536628005
 31
0.0
  0
LINE
  5
2E80
330
1F
100
AcDbEntity
  8
1
  6
Continuous
 62
     7
100
AcDbLine
 10
70.98118932876389
 20
79.5590007406798
 30
0.0
 11
71.33474172976378
 21
79.9125531417802
 31
0.0
  0
ARC
  5
2E81
330
1F
100
AcDbEntity
  8
1
  6
Continuous
 62
     7
100
AcDbCircle
 10
70.80441112356368
 20
79.73577393837999
 30
0.0
 40
0.250000000000002
100
AcDbArc
 50
224.9999999999908
 51
314.9999999999908
  0
LINE
  5
2E82
330
1F
100
AcDbEntity
  8
1
  6
Continuous
 62
     7
100
AcDbLine
 10
71.33474172976378
 20
79.9125531417802
 30
0.0
 11
71.82971360116369
 21
79.41757381987995
 31
0.0
  0
ARC
  5
2E83
330
1F
100
AcDbEntity
  8
1
  6
Continuous
 62
     7
100
AcDbCircle
 10
71.65293926096376
 20
78.88724580087987
 30
0.0
 40
0.250000000000002
100
AcDbArc
 50
135.0000000000092
 51
224.9999999999908
  0
LINE
  5
2E84
330
1F
100
AcDbEntity
  8
1
  6
Continuous
 62
     7
100
AcDbLine
 10
71.82971360116369
 20
79.41757381987995
 30
0.0
 11
71.47616120006353
 21
79.06402141878002
 31
0.0
  0
LINE
  5
2E85
330
1F
100
AcDbEntity
  8
1
  6
Continuous
 62
     7
100
AcDbLine
 10
72.21015514756357
 20
77.97647507018004
 30
0.0
 11
71.47616120006353
 21
78.71046901768008
 31
0.0
  0
LINE
  5
2E86
330
1F
100
AcDbEntity
  8
1
  6
Continuous
 62
     7
100
AcDbLine
 10
70.62763692766373
 20
79.5590007406798
 30
0.0
 11
69.89364298016369
 21
80.29299468827989
 31
0.0
  0
LINE
  5
2E87
330
1F
100
AcDbEntity
  8
1
  6
Continuous
 62
     7
100
AcDbLine
 10
71.29938872486366
 20
78.8872489434801
 30
0.0
 11
71.40293689396378
 21
78.8872489434801
 31
0.0
  0
LINE
  5
2E88
330
1F
100
AcDbEntity
  8
1
  6
Continuous
 62
     7
100
AcDbLine
 10
71.29938872486366
 20
78.8872489434801
 30
0.0
 11
70.80440940286383
 21
79.38222081487979
 31
0.0
  0
LINE
  5
2E89
330
1F
100
AcDbEntity
  8
1
  6
Continuous
 62
     7
100
AcDbLine
 10
70.80440940286383
 20
79.38222081487979
 30
0.0
 11
70.80440940286383
 21
79.48577643458006
 31
0.0
  0
LINE
  5
2E8A
330
1F
100
AcDbEntity
  8
1
  6
Continuous
 62
     7
100
AcDbLine
 10
71.6529411259636
 20
79.24080134458003
 30
0.0
 11
71.15796180396376
 21
79.73577321598017
 31
0.0
  0
LINE
  5
2E8B
330
1F
100
AcDbEntity
  8
1
  6
Continuous
 62
     7
100
AcDbLine
 10
69.9558851304638
 20
79.24080134458003
 30
0.0
 11
70.45085700186371
 21
79.73577321598017
 31
0.0
  0
LINE
  5
2E8C
330
1F
100
AcDbEntity
  8
1
  6
Continuous
 62
     7
100
AcDbLine
 10
70.30943753156373
 20
78.8872489434801
 30
0.0
 11
70.80440940286383
 21
79.38222081487979
 31
0.0
  0
LINE
  5
2E8D
330
1F
100
AcDbEntity
  8
1
  6
Continuous
 62
     7
100
AcDbLine
 10
70.30943753156373
 20
78.8872489434801
 30
0.0
 11
70.20588191176387
 21
78.8872489434801
 31
0.0
  0
LINE
  5
2E8E
330
1F
100
AcDbEntity
  8
1
  6
Continuous
 62
     7
100
AcDbLine
 10
71.6529411259636
 20
78.53368909188006
 30
0.0
 11
71.15796180396376
 21
78.03871722047992
 31
0.0
  0
ARC
  5
2E8F
330
1F
100
AcDbEntity
  8
1
  6
Continuous
 62
     7
100
AcDbCircle
 10
70.80441112356368
 20
78.88724580087987
 30
0.0
 40
1.925000000000009
100
AcDbArc
 50
304.5243183036023
 51
325.4756816964007
  0
LINE
  5
2E90
330
1F
100
AcDbEntity
  8
1
  6
Continuous
 62
     7
100
AcDbLine
 10
70.45085700186371
 20
78.03871722047992
 30
0.0
 11
69.9558851304638
 21
78.53368909188006
 31
0.0
  0
LINE
  5
2E91
330
1F
100
AcDbEntity
  8
1
  6
Continuous
 62
     7
100
AcDbLine
 10
70.80440940286383
 20
78.39226962157986
 30
0.0
 11
70.30943753156373
 21
78.8872489434801
 31
0.0
  0
LINE
  5
2E92
330
1F
100
AcDbEntity
  8
1
  6
Continuous
 62
     7
100
AcDbLine
 10
70.80440940286383
 20
78.39226962157986
 30
0.0
 11
70.80440940286383
 21
78.28871400188004
 31
0.0
  0
LINE
  5
2E93
330
1F
100
AcDbEntity
  8
1
  6
Continuous
 62
     7
100
AcDbLine
 10
71.29938872486366
 20
78.8872489434801
 30
0.0
 11
70.80440940286383
 21
78.39226962157986
 31
0.0
  0
ARC
  5
2E94
330
1F
100
AcDbEntity
  8
1
  6
Continuous
 62
     7
100
AcDbCircle
 10
70.80441112356368
 20
78.88724580087987
 30
0.0
 40
1.925000000000009
100
AcDbArc
 50
124.524318303592
 51
145.4756816964007
  0
SPLINE
  5
2E95
330
1F
100
AcDbEntity
  8
1
  6
Continuous
 62
     7
100
AcDbSpline
210
0.0
220
0.0
230
1.0
 70
     8
 71
     3
 72
    13
 73
     9
 74
     0
 42
0.000000001
 43
0.00000001
 40
0.0
 40
0.0
 40
0.0
 40
0.0
 40
0.061914364577025
 40
0.2843564167231151
 40
0.5046381287603324
 40
0.7209777905014423
 40
0.9334201858800846
 40
1.0
 40
1.0
 40
1.0
 40
1.0
 10
147.4439013395949
 20
79.79801536627687
 30
0.0
 10
147.4381390616713
 20
79.80377766863543
 30
0.0
 10
147.4116744324405
 20
79.83024241008738
 30
0.0
 10
147.365321969532
 20
79.8765923281388
 30
0.0
 10
147.3138524279238
 20
79.92807281137843
 30
0.0
 10
147.2780972161749
 20
79.96383209235486
 30
0.0
 10
147.2647285506754
 20
79.97718037124864
 30
0.0
 10
147.2638753776736
 20
79.97804584386526
 30
0.0
 10
147.2636717949553
 20
79.97825236149706
 30
0.0
  0
SPLINE
  5
2E96
330
1F
100
AcDbEntity
  8
1
  6
Continuous
 62
     7
100
AcDbSpline
210
0.0
220
0.0
230
1.0
 70
     8
 71
     3
 72
    12
 73
     8
 74
     0
 42
0.000000001
 43
0.00000001
 40
0.0
 40
0.0
 40
0.0
 40
0.0
 40
0.2093160190199715
 40
0.4190868294988201
 40
0.6302697094471587
 40
0.8448632698421173
 40
1.0
 40
1.0
 40
1.0
 40
1.0
 10
149.9406505022689
 20
77.30126620360292
 30
0.0
 10
149.938721023197
 20
77.30319570127207
 30
0.0
 10
149.9348578727772
 20
77.30705888892757
 30
0.0
 10
149.90474366136
 20
77.33717281998574
 30
0.0
 10
149.8602115574435
 20
77.38170600245925
 30
0.0
 10
149.8093533687165
 20
77.43256047272038
 30
0.0
 10
149.7748840767724
 20
77.46703703083571
 30
0.0
 10
149.7604209576293
 20
77.4815031988231
 30
0.0
  0
ARC
  5
2E97
102
{ACAD_REACTORS
330
8938
102
}
330
1F
100
AcDbEntity
  8
1
  6
Continuous
 62
     7
100
AcDbCircle
 10
148.8496488049636
 20
78.88724580087987
 30
0.0
 40
1.925000000000032
100
AcDbArc
 50
145.4756816964003
 51
304.5243183036039
  0
SPLINE
  5
2E98
330
1F
100
AcDbEntity
  8
1
  6
Continuous
 62
     7
100
AcDbSpline
210
0.0
220
0.0
230
1.0
 70
     8
 71
     3
 72
    13
 73
     9
 74
     0
 42
0.000000001
 43
0.00000001
 40
0.0
 40
0.0
 40
0.0
 40
0.0
 40
0.0619273629538652
 40
0.2843682341316168
 40
0.5046378107643609
 40
0.7209763239353673
 40
0.9334212530455448
 40
1.0
 40
1.0
 40
1.0
 40
1.0
 10
147.9388806615515
 20
80.2929946882335
 30
0.0
 10
147.933115737404
 20
80.29875682658607
 30
0.0
 10
147.9066434120618
 20
80.32521635965881
 30
0.0
 10
147.860297304629
 20
80.37157369798237
 30
0.0
 10
147.8088223264485
 20
80.42304475875594
 30
0.0
 10
147.7730691715214
 20
80.45879894647564
 30
0.0
 10
147.7597004664735
 20
80.47216741869428
 30
0.0
 10
147.7588472541092
 20
80.47302064239133
 30
0.0
 10
147.7586436663314
 20
80.4732242328731
 30
0.0
  0
ARC
  5
2E99
330
1F
100
AcDbEntity
  8
1
  6
Continuous
 62
     7
100
AcDbCircle
 10
148.8496488049636
 20
78.88724580087987
 30
0.0
 40
1.925000000000009
100
AcDbArc
 50
325.475681696401
 51
124.524318303588
  0
SPLINE
  5
2E9A
330
1F
100
AcDbEntity
  8
1
  6
Continuous
 62
     7
100
AcDbSpline
210
0.0
220
0.0
230
1.0
 70
     8
 71
     3
 72
    12
 73
     8
 74
     0
 42
0.000000001
 43
0.00000001
 40
0.0
 40
0.0
 40
0.0
 40
0.0
 40
0.2093144363951233
 40
0.4190836608104751
 40
0.6302847873358363
 40
0.8448644428208754
 40
1.0
 40
1.0
 40
1.0
 40
1.0
 10
150.4356298242255
 20
77.79623807497896
 30
0.0
 10
150.4337002046961
 20
77.79816761613287
 30
0.0
 10
150.4298367730557
 20
77.80203089085111
 30
0.0
 10
150.3997237309968
 20
77.83214511446917
 30
0.0
 10
150.3551822831423
 20
77.87668201661822
 30
0.0
 10
150.3043356788914
 20
77.92754429110741
 30
0.0
 10
150.2698593721129
 20
77.96201209498062
 30
0.0
 10
150.2553928290053
 20
77.97647507019914
 30
0.0
  0
ARC
  5
2E9B
330
1F
100
AcDbEntity
  8
1
  6
Continuous
 62
     7
100
AcDbCircle
 10
148.0011206675635
 20
78.88724580087987
 30
0.0
 40
0.250000000000002
100
AcDbArc
 50
315.0000000000092
 51
44.99999999999078
  0
LINE
  5
2E9C
330
1F
100
AcDbEntity
  8
1
  6
Continuous
 62
     7
100
AcDbLine
 10
147.8243428860637
 20
78.3569166166802
 30
0.0
 11
148.1778952870636
 21
78.71046901768008
 31
0.0
  0
LINE
  5
2E9D
330
1F
100
AcDbEntity
  8
1
  6
Continuous
 62
     7
100
AcDbLine
 10
148.3193222079635
 20
77.8619372946799
 30
0.0
 11
147.8243428860637
 21
78.3569166166802
 31
0.0
  0
LINE
  5
2E9E
330
1F
100
AcDbEntity
  8
1
  6
Continuous
 62
     7
100
AcDbLine
 10
148.6728746090636
 20
78.21549714627994
 30
0.0
 11
148.3193222079635
 21
77.8619372946799
 31
0.0
  0
ARC
  5
2E9F
330
1F
100
AcDbEntity
  8
1
  6
Continuous
 62
     7
100
AcDbCircle
 10
148.8496488049636
 20
78.03871766347979
 30
0.0
 40
0.2500000000000221
100
AcDbArc
 50
44.9999999999954
 51
134.9999999999701
  0
LINE
  5
2EA0
330
1F
100
AcDbEntity
  8
1
  6
Continuous
 62
     7
100
AcDbLine
 10
149.7604209576636
 20
77.4815031987799
 30
0.0
 11
149.0264270101638
 21
78.21549714627994
 31
0.0
  0
LINE
  5
2EA1
330
1F
100
AcDbEntity
  8
1
  6
Continuous
 62
     7
100
AcDbLine
 10
148.1778952870636
 20
79.06402141878002
 30
0.0
 11
147.4439013395635
 21
79.79801536628005
 31
0.0
  0
LINE
  5
2EA2
330
1F
100
AcDbEntity
  8
1
  6
Continuous
 62
     7
100
AcDbLine
 10
149.0264270101638
 20
79.5590007406798
 30
0.0
 11
149.3799794111637
 21
79.9125531417802
 31
0.0
  0
ARC
  5
2EA3
330
1F
100
AcDbEntity
  8
1
  6
Continuous
 62
     7
100
AcDbCircle
 10
148.8496488049636
 20
79.73577393837999
 30
0.0
 40
0.250000000000002
100
AcDbArc
 50
225.0000000000253
 51
315.0000000000092
  0
LINE
  5
2EA4
330
1F
100
AcDbEntity
  8
1
  6
Continuous
 62
     7
100
AcDbLine
 10
149.3799794111637
 20
79.9125531417802
 30
0.0
 11
149.8749512825636
 21
79.41757381987995
 31
0.0
  0
ARC
  5
2EA5
330
1F
100
AcDbEntity
  8
1
  6
Continuous
 62
     7
100
AcDbCircle
 10
149.6981769423637
 20
78.88724580087987
 30
0.0
 40
0.250000000000002
100
AcDbArc
 50
134.9999999999747
 51
225.0000000000253
  0
LINE
  5
2EA6
330
1F
100
AcDbEntity
  8
1
  6
Continuous
 62
     7
100
AcDbLine
 10
149.8749512825636
 20
79.41757381987995
 30
0.0
 11
149.5213988814634
 21
79.06402141878002
 31
0.0
  0
LINE
  5
2EA7
330
1F
100
AcDbEntity
  8
1
  6
Continuous
 62
     7
100
AcDbLine
 10
150.2553928289635
 20
77.97647507018004
 30
0.0
 11
149.5213988814634
 21
78.71046901768008
 31
0.0
  0
LINE
  5
2EA8
330
1F
100
AcDbEntity
  8
1
  6
Continuous
 62
     7
100
AcDbLine
 10
148.6728746090636
 20
79.5590007406798
 30
0.0
 11
147.9388806615636
 21
80.29299468827989
 31
0.0
  0
LINE
  5
2EA9
330
1F
100
AcDbEntity
  8
1
  6
Continuous
 62
     7
100
AcDbLine
 10
149.3446264062636
 20
78.8872489434801
 30
0.0
 11
149.4481745753637
 21
78.8872489434801
 31
0.0
  0
LINE
  5
2EAA
330
1F
100
AcDbEntity
  8
1
  6
Continuous
 62
     7
100
AcDbLine
 10
149.3446264062636
 20
78.8872489434801
 30
0.0
 11
148.8496470842637
 21
79.38222081487979
 31
0.0
  0
LINE
  5
2EAB
330
1F
100
AcDbEntity
  8
1
  6
Continuous
 62
     7
100
AcDbLine
 10
148.8496470842637
 20
79.38222081487979
 30
0.0
 11
148.8496470842637
 21
79.48577643458006
 31
0.0
  0
LINE
  5
2EAC
330
1F
100
AcDbEntity
  8
1
  6
Continuous
 62
     7
100
AcDbLine
 10
149.6981788073635
 20
79.24080134458003
 30
0.0
 11
149.2031994853637
 21
79.73577321598017
 31
0.0
  0
LINE
  5
2EAD
330
1F
100
AcDbEntity
  8
1
  6
Continuous
 62
     7
100
AcDbLine
 10
148.0011228118637
 20
79.24080134458003
 30
0.0
 11
148.4960946832636
 21
79.73577321598017
 31
0.0
  0
LINE
  5
2EAE
330
1F
100
AcDbEntity
  8
1
  6
Continuous
 62
     7
100
AcDbLine
 10
148.3546752129636
 20
78.8872489434801
 30
0.0
 11
148.8496470842637
 21
79.38222081487979
 31
0.0
  0
LINE
  5
2EAF
330
1F
100
AcDbEntity
  8
1
  6
Continuous
 62
     7
100
AcDbLine
 10
148.3546752129636
 20
78.8872489434801
 30
0.0
 11
148.2511195931638
 21
78.8872489434801
 31
0.0
  0
LINE
  5
2EB0
330
1F
100
AcDbEntity
  8
1
  6
Continuous
 62
     7
100
AcDbLine
 10
149.6981788073635
 20
78.53368909188006
 30
0.0
 11
149.2031994853637
 21
78.03871722047992
 31
0.0
  0
ARC
  5
2EB1
330
1F
100
AcDbEntity
  8
1
  6
Continuous
 62
     7
100
AcDbCircle
 10
148.8496488049636
 20
78.88724580087987
 30
0.0
 40
1.925000000000009
100
AcDbArc
 50
304.5243183036042
 51
325.475681696401
  0
LINE
  5
2EB2
330
1F
100
AcDbEntity
  8
1
  6
Continuous
 62
     7
100
AcDbLine
 10
148.4960946832636
 20
78.03871722047992
 30
0.0
 11
148.0011228118637
 21
78.53368909188006
 31
0.0
  0
LINE
  5
2EB3
330
1F
100
AcDbEntity
  8
1
  6
Continuous
 62
     7
100
AcDbLine
 10
148.8496470842637
 20
78.39226962157986
 30
0.0
 11
148.3546752129636
 21
78.8872489434801
 31
0.0
  0
LINE
  5
2EB4
330
1F
100
AcDbEntity
  8
1
  6
Continuous
 62
     7
100
AcDbLine
 10
148.8496470842637
 20
78.39226962157986
 30
0.0
 11
148.8496470842637
 21
78.28871400188004
 31
0.0
  0
LINE
  5
2EB5
330
1F
100
AcDbEntity
  8
1
  6
Continuous
 62
     7
100
AcDbLine
 10
149.3446264062636
 20
78.8872489434801
 30
0.0
 11
148.8496470842637
 21
78.39226962157986
 31
0.0
  0
ARC
  5
2EB6
330
1F
100
AcDbEntity
  8
1
  6
Continuous
 62
     7
100
AcDbCircle
 10
148.8496488049636
 20
78.88724580087987
 30
0.0
 40
1.925000000000009
100
AcDbArc
 50
124.524318303588
 51
145.4756816963979
  0
ARC
  5
2ED8
330
1F
100
AcDbEntity
  8
1
  6
Continuous
 62
     7
100
AcDbCircle
 10
148.8496488049636
 20
68.88724580087987
 30
0.0
 40
1.925000000000021
100
AcDbArc
 50
20.47568169640103
 51
179.5243183035956
  0
SPLINE
  5
2ED9
330
1F
100
AcDbEntity
  8
1
  6
Continuous
 62
     7
100
AcDbSpline
210
0.0
220
0.0
230
1.0
 70
     8
 71
     3
 72
    12
 73
     8
 74
     0
 42
0.000000001
 43
0.00000001
 40
0.0
 40
0.0
 40
0.0
 40
0.0
 40
0.2093177146531092
 40
0.4190873356804861
 40
0.6302857314824128
 40
0.8448686085559983
 40
1.0
 40
1.0
 40
1.0
 40
1.0
 10
150.6530303154631
 20
69.56062705346025
 30
0.0
 10
150.6503415594174
 20
69.56015574781472
 30
0.0
 10
150.644958242437
 20
69.55921211899826
 30
0.0
 10
150.6030224349601
 20
69.55180865036968
 30
0.0
 10
150.5409936109635
 20
69.54087029398701
 30
0.0
 10
150.4701667681206
 20
69.52838883840317
 30
0.0
 10
150.4221574299435
 20
69.51992289723998
 30
0.0
 10
150.4020128045722
 20
69.51637060471452
 30
0.0
  0
SPLINE
  5
2EDA
330
1F
100
AcDbEntity
  8
1
  6
Continuous
 62
     7
100
AcDbSpline
210
0.0
220
0.0
230
1.0
 70
     8
 71
     3
 72
    12
 73
     8
 74
     0
 42
0.000000001
 43
0.00000001
 40
0.0
 40
0.0
 40
0.0
 40
0.0
 40
0.2093123953662675
 40
0.4190888045103331
 40
0.6302711642033074
 40
0.8448517876403836
 40
1.0
 40
1.0
 40
1.0
 40
1.0
 10
150.7745790873213
 20
68.87126208372987
 30
0.0
 10
150.7718941189755
 20
68.87079070659533
 30
0.0
 10
150.7665182301163
 20
68.86984690735457
 30
0.0
 10
150.7245691644445
 20
68.86244432639191
 30
0.0
 10
150.6625502840231
 20
68.85150490531973
 30
0.0
 10
150.5917204467095
 20
68.83902302708961
 30
0.0
 10
150.5437086316644
 20
68.83055785146811
 30
0.0
 10
150.5235615764304
 20
68.82700563498415
 30
0.0
  0
ARC
  5
2EDB
330
1F
100
AcDbEntity
  8
1
  6
Continuous
 62
     7
100
AcDbCircle
 10
148.8496488049636
 20
68.88724580087987
 30
0.0
 40
1.925000000000001
100
AcDbArc
 50
200.4756816964005
 51
359.524318303609
  0
ARC
  5
2EDC
330
1F
100
AcDbEntity
  8
1
  6
Continuous
 62
     7
100
AcDbCircle
 10
149.3363445501636
 20
69.58231935927992
 30
0.0
 40
0.2500000000000081
100
AcDbArc
 50
189.9999999999515
 51
280.0000000000051
  0
LINE
  5
2EDD
330
1F
100
AcDbEntity
  8
1
  6
Continuous
 62
     7
100
AcDbLine
 10
149.0033153090635
 20
70.03131003207986
 30
0.0
 11
149.0901443753636
 21
69.5389086109802
 31
0.0
  0
LINE
  5
2EDE
330
1F
100
AcDbEntity
  8
1
  6
Continuous
 62
     7
100
AcDbLine
 10
148.3139503393635
 20
69.90975380968015
 30
0.0
 11
149.0033153090635
 21
70.03131003207986
 31
0.0
  0
LINE
  5
2EDF
330
1F
100
AcDbEntity
  8
1
  6
Continuous
 62
     7
100
AcDbLine
 10
148.4007794056637
 20
69.41735238858004
 30
0.0
 11
148.3139503393635
 21
69.90975380968015
 31
0.0
  0
ARC
  5
2EE0
330
1F
100
AcDbEntity
  8
1
  6
Continuous
 62
     7
100
AcDbCircle
 10
148.1545752465635
 20
69.37394154607986
 30
0.0
 40
0.2500000000000312
100
AcDbArc
 50
280.0000000000569
 51
10.00000000005634
  0
LINE
  5
2EE1
330
1F
100
AcDbEntity
  8
1
  6
Continuous
 62
     7
100
AcDbLine
 10
150.4020128045635
 20
69.51637060467996
 30
0.0
 11
149.3797558937635
 21
69.33611870837998
 31
0.0
  0
LINE
  5
2EE2
330
1F
100
AcDbEntity
  8
1
  6
Continuous
 62
     7
100
AcDbLine
 10
148.1979895029635
 20
69.12774087018019
 30
0.0
 11
147.1757325921635
 21
68.94748897378017
 31
0.0
  0
ARC
  5
2EE3
330
1F
100
AcDbEntity
  8
1
  6
Continuous
 62
     7
100
AcDbCircle
 10
148.3629530597636
 20
68.19217224247981
 30
0.0
 40
0.2499999999999752
100
AcDbArc
 50
10.0000000000586
 51
99.99999999995315
  0
LINE
  5
2EE4
330
1F
100
AcDbEntity
  8
1
  6
Continuous
 62
     7
100
AcDbLine
 10
148.6959788594635
 20
67.7431771261798
 30
0.0
 11
148.6091572437635
 21
68.23558599778002
 31
0.0
  0
LINE
  5
2EE5
330
1F
100
AcDbEntity
  8
1
  6
Continuous
 62
     7
100
AcDbLine
 10
149.2985222135634
 20
68.35713476968007
 30
0.0
 11
149.3853438292635
 21
67.86473334857996
 31
0.0
  0
ARC
  5
2EE6
330
1F
100
AcDbEntity
  8
1
  6
Continuous
 62
     7
100
AcDbCircle
 10
149.5447223633636
 20
68.40055005567987
 30
0.0
 40
0.2500000000000032
100
AcDbArc
 50
100.000000000005
 51
189.9999999999526
  0
LINE
  5
2EE7
330
1F
100
AcDbEntity
  8
1
  6
Continuous
 62
     7
100
AcDbLine
 10
150.5235615764636
 20
68.82700563498005
 30
0.0
 11
149.5013121161637
 21
68.64675373858003
 31
0.0
  0
LINE
  5
2EE8
330
1F
100
AcDbEntity
  8
1
  6
Continuous
 62
     7
100
AcDbLine
 10
148.3195382748635
 20
68.43837590047983
 30
0.0
 11
147.2972888145636
 21
68.2581240040798
 31
0.0
  0
LINE
  5
2EE9
330
1F
100
AcDbEntity
  8
1
  6
Continuous
 62
     7
100
AcDbLine
 10
149.6259603295636
 20
69.37952579087991
 30
0.0
 11
149.7475091014634
 21
68.69016082118
 31
0.0
  0
ARC
  5
2EEA
330
1F
100
AcDbEntity
  8
1
  6
Continuous
 62
     7
100
AcDbCircle
 10
148.8496488049636
 20
68.88724580087987
 30
0.0
 40
1.925000000000001
100
AcDbArc
 50
359.524318303609
 51
20.47568169640053
  0
LINE
  5
2EEB
330
1F
100
AcDbEntity
  8
1
  6
Continuous
 62
     7
100
AcDbLine
 10
149.2551076803638
 20
68.60333920547995
 30
0.0
 11
149.3399325404636
 21
68.54394317697992
 31
0.0
  0
LINE
  5
2EEC
330
1F
100
AcDbEntity
  8
1
  6
Continuous
 62
     7
100
AcDbLine
 10
149.1335514579636
 20
69.29270417517986
 30
0.0
 11
149.2551076803638
 21
68.60333920547995
 31
0.0
  0
LINE
  5
2EED
330
1F
100
AcDbEntity
  8
1
  6
Continuous
 62
     7
100
AcDbLine
 10
149.1335514579636
 20
69.29270417517986
 30
0.0
 11
149.1929474864637
 21
69.37752903527993
 31
0.0
  0
LINE
  5
2EEE
330
1F
100
AcDbEntity
  8
1
  6
Continuous
 62
     7
100
AcDbLine
 10
149.0467298422636
 20
69.78510559627998
 30
0.0
 11
148.3573648725637
 21
69.66355682437992
 31
0.0
  0
LINE
  5
2EEF
330
1F
100
AcDbEntity
  8
1
  6
Continuous
 62
     7
100
AcDbLine
 10
148.5657427106636
 20
68.48178298297975
 30
0.0
 11
148.5063466821636
 21
68.39695812288014
 31
0.0
  0
LINE
  5
2EF0
330
1F
100
AcDbEntity
  8
1
  6
Continuous
 62
     7
100
AcDbLine
 10
149.2551076803638
 20
68.60333920547995
 30
0.0
 11
148.5657427106636
 21
68.48178298297975
 31
0.0
  0
LINE
  5
2EF1
330
1F
100
AcDbEntity
  8
1
  6
Continuous
 62
     7
100
AcDbLine
 10
148.0733412895638
 20
68.39496136728016
 30
0.0
 11
147.9517850671636
 21
69.08432633708011
 31
0.0
  0
LINE
  5
2EF2
330
1F
100
AcDbEntity
  8
1
  6
Continuous
 62
     7
100
AcDbLine
 10
149.1335514579636
 20
69.29270417517986
 30
0.0
 11
148.4441864882637
 21
69.17114795278016
 31
0.0
  0
LINE
  5
2EF3
330
1F
100
AcDbEntity
  8
1
  6
Continuous
 62
     7
100
AcDbLine
 10
148.4441864882637
 20
69.17114795278016
 30
0.0
 11
148.3593616281636
 21
69.23054398128019
 31
0.0
  0
LINE
  5
2EF4
330
1F
100
AcDbEntity
  8
1
  6
Continuous
 62
     7
100
AcDbLine
 10
148.5657427106636
 20
68.48178298297975
 30
0.0
 11
148.4441864882637
 21
69.17114795278016
 31
0.0
  0
LINE
  5
2EF5
330
1F
100
AcDbEntity
  8
1
  6
Continuous
 62
     7
100
AcDbLine
 10
149.3853438292635
 20
67.86473334857996
 30
0.0
 11
148.6959788594635
 21
67.7431771261798
 31
0.0
  0
LINE
  5
2EF6
330
1F
100
AcDbEntity
  8
1
  6
Continuous
 62
     7
100
AcDbLine
 10
149.3419292960636
 20
68.11093778437984
 30
0.0
 11
148.6525643263635
 21
67.98938156198014
 31
0.0
  0
SPLINE
  5
2EF7
330
1F
100
AcDbEntity
  8
1
  6
Continuous
 62
     7
100
AcDbSpline
210
0.0
220
0.0
230
1.0
 70
     8
 71
     3
 72
    13
 73
     9
 74
     0
 42
0.000000001
 43
0.00000001
 40
0.0
 40
0.0
 40
0.0
 40
0.0
 40
0.0619255964755553
 40
0.2843670344938834
 40
0.5046378734365987
 40
0.7209770371376174
 40
0.9334202213497128
 40
1.0
 40
1.0
 40
1.0
 40
1.0
 10
147.1757325921698
 20
68.947488973817
 30
0.0
 10
147.1677056407988
 20
68.94607462717417
 30
0.0
 10
147.1308452714649
 20
68.93957984014818
 30
0.0
 10
147.0662908889612
 20
68.92819113380287
 30
0.0
 10
146.9946051172482
 20
68.91554448986639
 30
0.0
 10
146.9448039449334
 20
68.90677300285037
 30
0.0
 10
146.9261984143786
 20
68.90348928741045
 30
0.0
 10
146.9250008428702
 20
68.90327597465907
 30
0.0
 10
146.9247150812789
 20
68.90322507449068
 30
0.0
  0
ARC
  5
2EF8
330
1F
100
AcDbEntity
  8
1
  6
Continuous
 62
     7
100
AcDbCircle
 10
148.8496488049636
 20
68.88724580087987
 30
0.0
 40
1.925000000000021
100
AcDbArc
 50
179.5243183035956
 51
200.475681696401
  0
SPLINE
  5
2EF9
330
1F
100
AcDbEntity
  8
1
  6
Continuous
 62
     7
100
AcDbSpline
210
0.0
220
0.0
230
1.0
 70
     8
 71
     3
 72
    13
 73
     9
 74
     0
 42
0.000000001
 43
0.00000001
 40
0.0
 40
0.0
 40
0.0
 40
0.0
 40
0.0619252427413735
 40
0.284365410119699
 40
0.5046349908214054
 40
0.7209837301607352
 40
0.9334206016697237
 40
1.0
 40
1.0
 40
1.0
 40
1.0
 10
147.2972888146086
 20
68.25812400408662
 30
0.0
 10
147.2892618713294
 20
68.25670965701133
 30
0.0
 10
147.2524015391515
 20
68.25021486799855
 30
0.0
 10
147.187846314212
 20
68.23882620669005
 30
0.0
 10
147.1161629885191
 20
68.22617916166004
 30
0.0
 10
147.066348834832
 20
68.21740838673244
 30
0.0
 10
147.0477553350126
 20
68.21412428986909
 30
0.0
 10
147.0465572040336
 20
68.2139110003221
 30
0.0
 10
147.0462713037177
 20
68.2138601047603
 30
0.0
  0
DIMENSION
  5
891A
102
{ACAD_REACTORS
330
891C
102
}
102
{ACAD_XDICTIONARY
360
891B
102
}
330
1F
100
AcDbEntity
  8
WY
100
AcDbDimension
  2
*D279
 10
53.41209586975395
 20
78.88724580087987
 30
0.0
 11
50.38809586975395
 21
73.88724580087987
 31
0.0
 70
    32
 71
     5
 42
10.0
 73
     0
 74
     0
 75
     0
  3
ISO-25
100
AcDbAlignedDimension
 13
70.80441112356368
 23
68.88724580087987
 33
0.0
 14
70.80441112356368
 24
78.88724580087987
 34
0.0
 50
90.0
100
AcDbRotatedDimension
1001
ACAD
1000
DSTYLE
1002
{
1070
   144
1040
1.0
1070
    41
1040
2.0
1070
    44
1040
1.0
1070
    42
1040
1.0
1070
   147
1040
1.524
1070
    77
1070
     3
1070
   279
1070
     2
1070
    74
1070
     1
1070
   140
1040
3.0
1002
}
  0
DIMENSION
  5
8936
102
{ACAD_REACTORS
330
8938
102
}
102
{ACAD_XDICTIONARY
360
8937
102
}
330
1F
100
AcDbEntity
  8
WY
100
AcDbDimension
  2
*D281
 10
70.80441112356368
 20
93.99950755091616
 30
0.0
 11
109.8270299642636
 21
97.02350755091616
 31
0.0
 70
    32
 71
     5
 42
78.0452376813999
 73
     0
 74
     0
 75
     0
  3
ISO-25
100
AcDbAlignedDimension
 13
148.8496488049636
 23
78.88724580087987
 33
0.0
 14
70.80441112356368
 24
78.88724580087987
 34
0.0
100
AcDbRotatedDimension
1001
ACAD
1000
DSTYLE
1002
{
1070
   271
1070
     1
1070
   144
1040
1.0
1070
    41
1040
2.0
1070
    44
1040
1.0
1070
    42
1040
1.0
1070
   147
1040
1.524
1070
    77
1070
     3
1070
   279
1070
     2
1070
    74
1070
     1
1070
   140
1040
3.0
1002
}
  0
TEXT
  5
8972
330
1F
100
AcDbEntity
  8
1
100
AcDbText
 10
23.556480715947
 20
270.604838025609
 30
0.0
 40
5.0
  1
Przekaźnik instalacyjny, do montażu na szynie 35mm
 41
0.8
 51
15.0
  7
ITALIC
100
AcDbText
  0
TEXT
  5
8973
330
1F
100
AcDbEntity
  8
1
100
AcDbText
 10
74.60740061710382
 20
262.1751556437671
 30
0.0
 40
5.0
  1
wg PN-EN 60715. 
 41
0.8
 51
15.0
  7
ITALIC
100
AcDbText
  0
TEXT
  5
8974
330
1F
100
AcDbEntity
  8
1
100
AcDbText
 10
18.32633284383618
 20
251.893633917854
 30
0.0
 40
5.0
  1
Installation relay, direct mounting on 35mm rail mount
 41
0.8
 51
15.0
  7
ITALIC
100
AcDbText
  0
TEXT
  5
8975
330
1F
100
AcDbEntity
  8
1
100
AcDbText
 10
67.07503745966375
 20
243.4639515360122
 30
0.0
 40
5.0
  1
acc. to PN-EN 60715.
 41
0.8
 51
15.0
  7
ITALIC
100
AcDbText
  0
TEXT
  5
8976
330
1F
100
AcDbEntity
  8
1
100
AcDbText
 10
45.28065528560808
 20
231.3403744029987
 30
0.0
 40
5.0
  1
Wymiary zewnętrzne/General dimensions
 41
0.8
 51
15.0
  7
ITALIC
100
AcDbText
  0
LINE
  5
8978
330
1F
100
AcDbEntity
  8
OSIE
 48
0.5
100
AcDbLine
 10
70.80441112356368
 20
82.15006764993558
 30
0.0
 11
70.80441112356368
 21
65.62442487262479
 31
0.0
  0
LINE
  5
89A7
102
{ACAD_REACTORS
330
8B13
102
}
330
1F
100
AcDbEntity
  8
OSIE
 48
0.5
100
AcDbLine
 10
148.8496488049636
 20
82.15006718953526
 30
0.0
 11
148.8496488049636
 21
65.62442441222447
 31
0.0
  0
LINE
  5
8B08
330
1F
100
AcDbEntity
  8
OSIE
 48
0.5
100
AcDbLine
 10
74.40039811745639
 20
78.88724580087987
 30
0.0
 11
67.20842412967099
 21
78.88724580087987
 31
0.0
  0
LINE
  5
8B09
330
1F
100
AcDbEntity
  8
OSIE
 48
0.5
100
AcDbLine
 10
74.40039811745639
 20
68.88724580087987
 30
0.0
 11
67.20842412967099
 21
68.88724580087987
 31
0.0
  0
LINE
  5
8B0E
330
1F
100
AcDbEntity
  8
OSIE
 48
0.5
100
AcDbLine
 10
152.4456357988563
 20
78.88724580087985
 30
0.0
 11
145.2536618110709
 21
78.88724580087985
 31
0.0
  0
LINE
  5
8B0F
330
1F
100
AcDbEntity
  8
OSIE
 48
0.5
100
AcDbLine
 10
152.4456357988563
 20
68.88724580087985
 30
0.0
 11
145.2536618110709
 21
68.88724580087985
 31
0.0
  0
DIMENSION
  5
8B11
102
{ACAD_REACTORS
330
8B13
102
}
102
{ACAD_XDICTIONARY
360
8B12
102
}
330
1F
100
AcDbEntity
  8
WY
100
AcDbDimension
  2
*D283
 10
148.8496488049636
 20
87.44337667589802
 30
0.0
 11
143.1996486239136
 21
90.46737667589802
 31
0.0
 70
    32
 71
     5
 42
11.30000036209998
 73
     0
 74
     0
 75
     0
  3
ISO-25
100
AcDbAlignedDimension
 13
137.5496484428636
 23
82.48323279477258
 33
0.0
 14
148.8496488049636
 24
82.15006718953526
 34
0.0
100
AcDbRotatedDimension
1001
ACAD
1000
DSTYLE
1002
{
1070
   144
1040
1.0
1070
    41
1040
2.0
1070
    44
1040
1.0
1070
    42
1040
1.0
1070
   147
1040
1.524
1070
    77
1070
     3
1070
   279
1070
     2
1070
    74
1070
     1
1070
   140
1040
3.0
1002
}
  0
ARC
  5
981F
330
1F
100
AcDbEntity
  8
1
  6
Continuous
 62
     0
100
AcDbCircle
 10
137.5270288697135
 20
78.9122458007802
 30
0.0
 40
1.925000000000009
100
AcDbArc
 50
325.4756816964058
 51
124.5243183035838
  0
LINE
  5
9820
330
1F
100
AcDbEntity
  8
1
  6
Continuous
 62
     0
100
AcDbLine
 10
137.7038070749137
 20
79.58400074058014
 30
0.0
 11
138.057359475914
 21
79.93755314168052
 31
0.0
  0
ARC
  5
9821
330
1F
100
AcDbEntity
  8
1
  6
Continuous
 62
     0
100
AcDbCircle
 10
137.5270288697135
 20
79.76077393828032
 30
0.0
 40
0.250000000000002
100
AcDbArc
 50
225.0000000000645
 51
315.0
  0
LINE
  5
9822
330
1F
100
AcDbEntity
  8
1
  6
Continuous
 62
     0
100
AcDbLine
 10
138.057359475914
 20
79.93755314168052
 30
0.0
 11
138.5523313473137
 21
79.44257381978028
 31
0.0
  0
ARC
  5
9823
330
1F
100
AcDbEntity
  8
1
  6
Continuous
 62
     0
100
AcDbCircle
 10
138.375557007114
 20
78.9122458007802
 30
0.0
 40
0.250000000000002
100
AcDbArc
 50
135.0000000000092
 51
224.9999999999908
  0
LINE
  5
9824
330
1F
100
AcDbEntity
  8
1
  6
Continuous
 62
     0
100
AcDbLine
 10
138.5523313473137
 20
79.44257381978028
 30
0.0
 11
138.1987789462133
 21
79.08902141868035
 31
0.0
  0
LINE
  5
9825
330
1F
100
AcDbEntity
  8
1
  6
Continuous
 62
     0
100
AcDbLine
 10
137.3502546738138
 20
79.58400074058014
 30
0.0
 11
136.6162607263137
 21
80.31799468818022
 31
0.0
  0
LINE
  5
9826
330
1F
100
AcDbEntity
  8
1
  6
Continuous
 62
     0
100
AcDbLine
 10
138.0220064710135
 20
78.91224894338043
 30
0.0
 11
137.5270271490141
 21
79.40722081478012
 31
0.0
  0
LINE
  5
9827
330
1F
100
AcDbEntity
  8
1
  6
Continuous
 62
     0
100
AcDbLine
 10
137.5270271490141
 20
79.40722081478012
 30
0.0
 11
137.5270271490141
 21
79.51077643448039
 31
0.0
  0
LINE
  5
9828
330
1F
100
AcDbEntity
  8
1
  6
Continuous
 62
     0
100
AcDbLine
 10
138.3755588721139
 20
79.26580134448037
 30
0.0
 11
137.8805795501136
 21
79.7607732158805
 31
0.0
  0
LINE
  5
9829
330
1F
100
AcDbEntity
  8
1
  6
Continuous
 62
     0
100
AcDbLine
 10
136.6785028766141
 20
79.26580134448037
 30
0.0
 11
137.1734747480137
 21
79.7607732158805
 31
0.0
  0
LINE
  5
982A
330
1F
100
AcDbEntity
  8
1
  6
Continuous
 62
     0
100
AcDbLine
 10
137.0320552777135
 20
78.91224894338043
 30
0.0
 11
137.5270271490141
 21
79.40722081478012
 31
0.0
  0
SPLINE
  5
982B
330
1F
100
AcDbEntity
  8
1
  6
Continuous
 62
     0
100
AcDbSpline
210
0.0
220
0.0
230
1.0
 70
     8
 71
     3
 72
    13
 73
     9
 74
     0
 42
0.000000001
 43
0.00000001
 40
0.0
 40
0.0
 40
0.0
 40
0.0
 40
0.061914364577025
 40
0.2843564167231151
 40
0.5046381287603324
 40
0.7209777905014423
 40
0.9334201858800846
 40
1.0
 40
1.0
 40
1.0
 40
1.0
 10
136.1212814043453
 20
79.8230153661772
 30
0.0
 10
136.1155191264212
 20
79.82877766853576
 30
0.0
 10
136.0890544971904
 20
79.85524240998771
 30
0.0
 10
136.0427020342819
 20
79.90159232803913
 30
0.0
 10
135.9912324926742
 20
79.95307281127876
 30
0.0
 10
135.9554772809248
 20
79.9888320922552
 30
0.0
 10
135.9421086154258
 20
80.00218037114897
 30
0.0
 10
135.941255442424
 20
80.00304584376559
 30
0.0
 10
135.9410518597057
 20
80.00325236139739
 30
0.0
  0
LINE
  5
982C
330
1F
100
AcDbEntity
  8
1
  6
Continuous
 62
     0
100
AcDbLine
 10
136.8552753518139
 20
79.08902141868035
 30
0.0
 11
136.1212814043134
 21
79.82301536618039
 31
0.0
  0
ARC
  5
982D
330
1F
100
AcDbEntity
  8
1
  6
Continuous
 62
     0
100
AcDbCircle
 10
137.5270288697135
 20
78.9122458007802
 30
0.0
 40
1.925000000000009
100
AcDbArc
 50
124.5243183035838
 51
145.475681696401
  0
ARC
  5
982E
330
1F
100
AcDbEntity
  8
1
  6
Continuous
 62
     0
100
AcDbCircle
 10
137.5270288697135
 20
78.9122458007802
 30
0.0
 40
1.925000000000032
100
AcDbArc
 50
145.4756816964003
 51
304.5243183035997
  0
LINE
  5
982F
330
1F
100
AcDbEntity
  8
1
  6
Continuous
 62
     0
100
AcDbLine
 10
138.9327728937138
 20
78.00147507008037
 30
0.0
 11
138.1987789462133
 21
78.73546901758041
 31
0.0
  0
ARC
  5
9830
330
1F
100
AcDbEntity
  8
1
  6
Continuous
 62
     0
100
AcDbCircle
 10
137.5270288697135
 20
78.9122458007802
 30
0.0
 40
1.925000000000009
100
AcDbArc
 50
304.5243183036002
 51
325.4756816964058
  0
SPLINE
  5
9831
330
1F
100
AcDbEntity
  8
1
  6
Continuous
 62
     0
100
AcDbSpline
210
0.0
220
0.0
230
1.0
 70
     8
 71
     3
 72
    12
 73
     8
 74
     0
 42
0.000000001
 43
0.00000001
 40
0.0
 40
0.0
 40
0.0
 40
0.0
 40
0.2093160190199715
 40
0.4190868294988201
 40
0.6302697094471587
 40
0.8448632698421173
 40
1.0
 40
1.0
 40
1.0
 40
1.0
 10
138.6180305670192
 20
77.32626620350325
 30
0.0
 10
138.6161010879474
 20
77.3281957011724
 30
0.0
 10
138.6122379375271
 20
77.3320588888279
 30
0.0
 10
138.5821237261104
 20
77.36217281988607
 30
0.0
 10
138.5375916221934
 20
77.40670600235958
 30
0.0
 10
138.4867334334664
 20
77.45756047262071
 30
0.0
 10
138.4522641415225
 20
77.49203703073604
 30
0.0
 10
138.4378010223796
 20
77.50650319872344
 30
0.0
  0
SPLINE
  5
9832
330
1F
100
AcDbEntity
  8
1
  6
Continuous
 62
     0
100
AcDbSpline
210
0.0
220
0.0
230
1.0
 70
     8
 71
     3
 72
    12
 73
     8
 74
     0
 42
0.000000001
 43
0.00000001
 40
0.0
 40
0.0
 40
0.0
 40
0.0
 40
0.2093144363951233
 40
0.4190836608104751
 40
0.6302847873358363
 40
0.8448644428208754
 40
1.0
 40
1.0
 40
1.0
 40
1.0
 10
139.1130098889759
 20
77.82123807487929
 30
0.0
 10
139.1110802694462
 20
77.8231676160332
 30
0.0
 10
139.1072168378056
 20
77.82703089075144
 30
0.0
 10
139.0771037957471
 20
77.8571451143695
 30
0.0
 10
139.0325623478926
 20
77.90168201651855
 30
0.0
 10
138.9817157436415
 20
77.95254429100774
 30
0.0
 10
138.9472394368628
 20
77.98701209488095
 30
0.0
 10
138.9327728937557
 20
78.00147507009947
 30
0.0
  0
LINE
  5
9833
330
1F
100
AcDbEntity
  8
1
  6
Continuous
 62
     0
100
AcDbLine
 10
136.5017229508136
 20
78.38191661658053
 30
0.0
 11
136.8552753518139
 21
78.73546901758041
 31
0.0
  0
LINE
  5
9834
330
1F
100
AcDbEntity
  8
1
  6
Continuous
 62
     0
100
AcDbLine
 10
136.9967022727138
 20
77.88693729458024
 30
0.0
 11
136.5017229508136
 21
78.38191661658053
 31
0.0
  0
LINE
  5
9835
330
1F
100
AcDbEntity
  8
1
  6
Continuous
 62
     0
100
AcDbLine
 10
137.3502546738138
 20
78.24049714618027
 30
0.0
 11
136.9967022727138
 21
77.88693729458024
 31
0.0
  0
ARC
  5
9836
330
1F
100
AcDbEntity
  8
1
  6
Continuous
 62
     0
100
AcDbCircle
 10
137.5270288697135
 20
78.06371766338012
 30
0.0
 40
0.2500000000000221
100
AcDbArc
 50
44.99999999992171
 51
134.9999999999309
  0
LINE
  5
9837
330
1F
100
AcDbEntity
  8
1
  6
Continuous
 62
     0
100
AcDbLine
 10
138.4378010224137
 20
77.50650319868024
 30
0.0
 11
137.7038070749137
 21
78.24049714618027
 31
0.0
  0
LINE
  5
9838
330
1F
100
AcDbEntity
  8
1
  6
Continuous
 62
     0
100
AcDbLine
 10
138.3755588721139
 20
78.5586890917804
 30
0.0
 11
137.8805795501136
 21
78.06371722038025
 31
0.0
  0
LINE
  5
9839
330
1F
100
AcDbEntity
  8
1
  6
Continuous
 62
     0
100
AcDbLine
 10
137.1734747480137
 20
78.06371722038025
 30
0.0
 11
136.6785028766141
 21
78.5586890917804
 31
0.0
  0
LINE
  5
983A
330
1F
100
AcDbEntity
  8
1
  6
Continuous
 62
     0
100
AcDbLine
 10
137.5270271490141
 20
78.41726962148019
 30
0.0
 11
137.0320552777135
 21
78.91224894338043
 31
0.0
  0
LINE
  5
983B
330
1F
100
AcDbEntity
  8
1
  6
Continuous
 62
     0
100
AcDbLine
 10
137.5270271490141
 20
78.41726962148019
 30
0.0
 11
137.5270271490141
 21
78.31371400178037
 31
0.0
  0
LINE
  5
983C
330
1F
100
AcDbEntity
  8
1
  6
Continuous
 62
     0
100
AcDbLine
 10
138.0220064710135
 20
78.91224894338043
 30
0.0
 11
137.5270271490141
 21
78.41726962148019
 31
0.0
  0
ARC
  5
983D
330
1F
100
AcDbEntity
  8
1
  6
Continuous
 62
     0
100
AcDbCircle
 10
136.6785007323139
 20
78.9122458007802
 30
0.0
 40
0.250000000000002
100
AcDbArc
 50
314.9999999999355
 51
45.00000000006448
  0
LINE
  5
983E
330
1F
100
AcDbEntity
  8
1
  6
Continuous
 62
     0
100
AcDbLine
 10
138.0220064710135
 20
78.91224894338043
 30
0.0
 11
138.125554640114
 21
78.91224894338043
 31
0.0
  0
LINE
  5
983F
330
1F
100
AcDbEntity
  8
1
  6
Continuous
 62
     0
100
AcDbLine
 10
137.0320552777135
 20
78.91224894338043
 30
0.0
 11
136.9284996579141
 21
78.91224894338043
 31
0.0
  0
SPLINE
  5
9840
330
1F
100
AcDbEntity
  8
1
  6
Continuous
 62
     0
100
AcDbSpline
210
0.0
220
0.0
230
1.0
 70
     8
 71
     3
 72
    13
 73
     9
 74
     0
 42
0.000000001
 43
0.00000001
 40
0.0
 40
0.0
 40
0.0
 40
0.0
 40
0.0619273629538652
 40
0.2843682341316168
 40
0.5046378107643609
 40
0.7209763239353673
 40
0.9334212530455448
 40
1.0
 40
1.0
 40
1.0
 40
1.0
 10
136.6162607263019
 20
80.31799468813384
 30
0.0
 10
136.6104958021539
 20
80.3237568264864
 30
0.0
 10
136.5840234768117
 20
80.35021635955914
 30
0.0
 10
136.5376773693794
 20
80.3965736978827
 30
0.0
 10
136.4862023911988
 20
80.44804475865627
 30
0.0
 10
136.4504492362718
 20
80.48379894637597
 30
0.0
 10
136.4370805312234
 20
80.49716741859461
 30
0.0
 10
136.4362273188596
 20
80.49802064229166
 30
0.0
 10
136.4360237310817
 20
80.49822423277342
 30
0.0
  0
LINE
  5
9841
330
1F
100
AcDbEntity
  8
OSIE
 48
0.5
100
AcDbLine
 10
137.5270288697135
 20
76.28234471122343
 30
0.0
 11
137.5270288697135
 21
81.54214689033698
 31
0.0
  0
LINE
  5
9842
330
1F
100
AcDbEntity
  8
OSIE
 48
0.5
100
AcDbLine
 10
134.8971277801567
 20
78.9122458007802
 30
0.0
 11
140.1569299592703
 21
78.9122458007802
 31
0.0
  0
LINE
  5
9867
330
1F
100
AcDbEntity
  8
OSIE
 48
0.5
100
AcDbLine
 10
137.5270288697135
 20
71.28234471122343
 30
0.0
 11
137.5270288697135
 21
76.54214689033698
 31
0.0
  0
ARC
  5
9868
330
1F
100
AcDbEntity
  8
1
  6
Continuous
 62
     0
100
AcDbCircle
 10
137.5270288697135
 20
68.9122458007802
 30
0.0
 40
1.925000000000021
100
AcDbArc
 50
20.47568169639983
 51
179.5243183035956
  0
ARC
  5
9869
330
1F
100
AcDbEntity
  8
1
  6
Continuous
 62
     0
100
AcDbCircle
 10
137.5270288697135
 20
68.9122458007802
 30
0.0
 40
1.925000000000001
100
AcDbArc
 50
200.4756816963994
 51
359.524318303609
  0
ARC
  5
986A
330
1F
100
AcDbEntity
  8
1
  6
Continuous
 62
     0
100
AcDbCircle
 10
138.0137246149139
 20
69.60731935918025
 30
0.0
 40
0.2500000000000081
100
AcDbArc
 50
189.9999999999515
 51
279.999999999952
  0
LINE
  5
986B
330
1F
100
AcDbEntity
  8
1
  6
Continuous
 62
     0
100
AcDbLine
 10
137.6806953738138
 20
70.05631003198019
 30
0.0
 11
137.767524440114
 21
69.56390861088053
 31
0.0
  0
LINE
  5
986C
330
1F
100
AcDbEntity
  8
1
  6
Continuous
 62
     0
100
AcDbLine
 10
136.9913304041135
 20
69.93475380958049
 30
0.0
 11
137.6806953738138
 21
70.05631003198019
 31
0.0
  0
LINE
  5
986D
330
1F
100
AcDbEntity
  8
1
  6
Continuous
 62
     0
100
AcDbLine
 10
137.0781594704137
 20
69.44235238848037
 30
0.0
 11
136.9913304041135
 21
69.93475380958049
 31
0.0
  0
ARC
  5
986E
330
1F
100
AcDbEntity
  8
1
  6
Continuous
 62
     0
100
AcDbCircle
 10
136.8319553113139
 20
69.3989415459802
 30
0.0
 40
0.2500000000000312
100
AcDbArc
 50
280.0000000000569
 51
10.00000000005634
  0
LINE
  5
986F
330
1F
100
AcDbEntity
  8
1
  6
Continuous
 62
     0
100
AcDbLine
 10
139.0793928693134
 20
69.5413706045803
 30
0.0
 11
138.0571359585134
 21
69.36111870828032
 31
0.0
  0
LINE
  5
9870
330
1F
100
AcDbEntity
  8
1
  6
Continuous
 62
     0
100
AcDbLine
 10
136.8753695677138
 20
69.15274087008052
 30
0.0
 11
135.8531126569138
 21
68.9724889736805
 31
0.0
  0
ARC
  5
9871
330
1F
100
AcDbEntity
  8
1
  6
Continuous
 62
     0
100
AcDbCircle
 10
137.0403331245139
 20
68.21717224238014
 30
0.0
 40
0.2499999999999752
100
AcDbArc
 50
10.0000000000586
 51
100.0000000000592
  0
LINE
  5
9872
330
1F
100
AcDbEntity
  8
1
  6
Continuous
 62
     0
100
AcDbLine
 10
137.3733589242134
 20
67.76817712608013
 30
0.0
 11
137.2865373085139
 21
68.26058599768035
 31
0.0
  0
LINE
  5
9873
330
1F
100
AcDbEntity
  8
1
  6
Continuous
 62
     0
100
AcDbLine
 10
137.9759022783134
 20
68.3821347695804
 30
0.0
 11
138.0627238940139
 21
67.88973334848029
 31
0.0
  0
ARC
  5
9874
330
1F
100
AcDbEntity
  8
1
  6
Continuous
 62
     0
100
AcDbCircle
 10
138.222102428114
 20
68.4255500555802
 30
0.0
 40
0.2500000000000032
100
AcDbArc
 50
100.000000000058
 51
189.9999999999526
  0
LINE
  5
9875
330
1F
100
AcDbEntity
  8
1
  6
Continuous
 62
     0
100
AcDbLine
 10
139.2009416412135
 20
68.85200563488038
 30
0.0
 11
138.178692180914
 21
68.67175373848036
 31
0.0
  0
LINE
  5
9876
330
1F
100
AcDbEntity
  8
1
  6
Continuous
 62
     0
100
AcDbLine
 10
136.9969183396139
 20
68.46337590038016
 30
0.0
 11
135.9746688793135
 21
68.28312400398013
 31
0.0
  0
LINE
  5
9877
330
1F
100
AcDbEntity
  8
1
  6
Continuous
 62
     0
100
AcDbLine
 10
138.3033403943138
 20
69.40452579078024
 30
0.0
 11
138.4248891662133
 21
68.71516082108033
 31
0.0
  0
LINE
  5
9878
330
1F
100
AcDbEntity
  8
1
  6
Continuous
 62
     0
100
AcDbLine
 10
137.9324877451141
 20
68.62833920538029
 30
0.0
 11
138.0173126052138
 21
68.56894317688025
 31
0.0
  0
LINE
  5
9879
330
1F
100
AcDbEntity
  8
1
  6
Continuous
 62
     0
100
AcDbLine
 10
137.8109315227135
 20
69.3177041750802
 30
0.0
 11
137.9324877451141
 21
68.62833920538029
 31
0.0
  0
LINE
  5
987A
330
1F
100
AcDbEntity
  8
1
  6
Continuous
 62
     0
100
AcDbLine
 10
137.8109315227135
 20
69.3177041750802
 30
0.0
 11
137.870327551214
 21
69.40252903518027
 31
0.0
  0
LINE
  5
987B
330
1F
100
AcDbEntity
  8
1
  6
Continuous
 62
     0
100
AcDbLine
 10
137.7241099070139
 20
69.8101055961803
 30
0.0
 11
137.0347449373136
 21
69.68855682428025
 31
0.0
  0
LINE
  5
987C
330
1F
100
AcDbEntity
  8
1
  6
Continuous
 62
     0
100
AcDbLine
 10
137.2431227754138
 20
68.50678298288008
 30
0.0
 11
137.1837267469137
 21
68.42195812278047
 31
0.0
  0
LINE
  5
987D
330
1F
100
AcDbEntity
  8
1
  6
Continuous
 62
     0
100
AcDbLine
 10
137.9324877451141
 20
68.62833920538029
 30
0.0
 11
137.2431227754138
 21
68.50678298288008
 31
0.0
  0
LINE
  5
987E
330
1F
100
AcDbEntity
  8
1
  6
Continuous
 62
     0
100
AcDbLine
 10
136.7507213543137
 20
68.41996136718049
 30
0.0
 11
136.629165131914
 21
69.10932633698044
 31
0.0
  0
LINE
  5
987F
330
1F
100
AcDbEntity
  8
1
  6
Continuous
 62
     0
100
AcDbLine
 10
137.8109315227135
 20
69.3177041750802
 30
0.0
 11
137.1215665530141
 21
69.19614795268049
 31
0.0
  0
LINE
  5
9880
330
1F
100
AcDbEntity
  8
1
  6
Continuous
 62
     0
100
AcDbLine
 10
137.1215665530141
 20
69.19614795268049
 30
0.0
 11
137.0367416929136
 21
69.25554398118052
 31
0.0
  0
LINE
  5
9881
330
1F
100
AcDbEntity
  8
1
  6
Continuous
 62
     0
100
AcDbLine
 10
137.2431227754138
 20
68.50678298288008
 30
0.0
 11
137.1215665530141
 21
69.19614795268049
 31
0.0
  0
LINE
  5
9882
330
1F
100
AcDbEntity
  8
1
  6
Continuous
 62
     0
100
AcDbLine
 10
138.0627238940139
 20
67.88973334848029
 30
0.0
 11
137.3733589242134
 21
67.76817712608013
 31
0.0
  0
LINE
  5
9883
330
1F
100
AcDbEntity
  8
1
  6
Continuous
 62
     0
100
AcDbLine
 10
138.0193093608137
 20
68.13593778428017
 30
0.0
 11
137.3299443911134
 21
68.01438156188047
 31
0.0
  0
ARC
  5
9884
330
1F
100
AcDbEntity
  8
1
  6
Continuous
 62
     0
100
AcDbCircle
 10
137.5270288697135
 20
68.9122458007802
 30
0.0
 40
1.925000000000001
100
AcDbArc
 50
359.524318303609
 51
20.47568169639943
  0
SPLINE
  5
9885
330
1F
100
AcDbEntity
  8
1
  6
Continuous
 62
     0
100
AcDbSpline
210
0.0
220
0.0
230
1.0
 70
     8
 71
     3
 72
    12
 73
     8
 74
     0
 42
0.000000001
 43
0.00000001
 40
0.0
 40
0.0
 40
0.0
 40
0.0
 40
0.2093177146531092
 40
0.4190873356804861
 40
0.6302857314824128
 40
0.8448686085559983
 40
1.0
 40
1.0
 40
1.0
 40
1.0
 10
139.3304103802135
 20
69.58562705336058
 30
0.0
 10
139.3277216241673
 20
69.58515574771505
 30
0.0
 10
139.3223383071869
 20
69.58421211889859
 30
0.0
 10
139.28040249971
 20
69.57680865027001
 30
0.0
 10
139.2183736757139
 20
69.56587029388734
 30
0.0
 10
139.1475468328705
 20
69.5533888383035
 30
0.0
 10
139.0995374946939
 20
69.54492289714031
 30
0.0
 10
139.0793928693225
 20
69.54137060461485
 30
0.0
  0
SPLINE
  5
9886
330
1F
100
AcDbEntity
  8
1
  6
Continuous
 62
     0
100
AcDbSpline
210
0.0
220
0.0
230
1.0
 70
     8
 71
     3
 72
    12
 73
     8
 74
     0
 42
0.000000001
 43
0.00000001
 40
0.0
 40
0.0
 40
0.0
 40
0.0
 40
0.2093123953662675
 40
0.4190888045103331
 40
0.6302711642033074
 40
0.8448517876403836
 40
1.0
 40
1.0
 40
1.0
 40
1.0
 10
139.4519591520717
 20
68.8962620836302
 30
0.0
 10
139.4492741837254
 20
68.89579070649566
 30
0.0
 10
139.4438982948665
 20
68.8948469072549
 30
0.0
 10
139.4019492291947
 20
68.88744432629224
 30
0.0
 10
139.3399303487732
 20
68.87650490522006
 30
0.0
 10
139.2691005114599
 20
68.86402302698994
 30
0.0
 10
139.2210886964145
 20
68.85555785136845
 30
0.0
 10
139.2009416411807
 20
68.85200563488448
 30
0.0
  0
SPLINE
  5
9887
330
1F
100
AcDbEntity
  8
1
  6
Continuous
 62
     0
100
AcDbSpline
210
0.0
220
0.0
230
1.0
 70
     8
 71
     3
 72
    13
 73
     9
 74
     0
 42
0.000000001
 43
0.00000001
 40
0.0
 40
0.0
 40
0.0
 40
0.0
 40
0.0619255964755553
 40
0.2843670344938834
 40
0.5046378734365987
 40
0.7209770371376174
 40
0.9334202213497128
 40
1.0
 40
1.0
 40
1.0
 40
1.0
 10
135.8531126569202
 20
68.97248897371733
 30
0.0
 10
135.8450857055492
 20
68.9710746270745
 30
0.0
 10
135.8082253362151
 20
68.96457984004851
 30
0.0
 10
135.7436709537111
 20
68.9531911337032
 30
0.0
 10
135.6719851819986
 20
68.94054448976672
 30
0.0
 10
135.6221840096838
 20
68.9317730027507
 30
0.0
 10
135.6035784791289
 20
68.92848928731078
 30
0.0
 10
135.6023809076202
 20
68.9282759745594
 30
0.0
 10
135.6020951460292
 20
68.92822507439101
 30
0.0
  0
ARC
  5
9888
330
1F
100
AcDbEntity
  8
1
  6
Continuous
 62
     0
100
AcDbCircle
 10
137.5270288697135
 20
68.9122458007802
 30
0.0
 40
1.925000000000021
100
AcDbArc
 50
179.5243183035956
 51
200.4756816963998
  0
SPLINE
  5
9889
330
1F
100
AcDbEntity
  8
1
  6
Continuous
 62
     0
100
AcDbSpline
210
0.0
220
0.0
230
1.0
 70
     8
 71
     3
 72
    13
 73
     9
 74
     0
 42
0.000000001
 43
0.00000001
 40
0.0
 40
0.0
 40
0.0
 40
0.0
 40
0.0619252427413735
 40
0.284365410119699
 40
0.5046349908214054
 40
0.7209837301607352
 40
0.9334206016697237
 40
1.0
 40
1.0
 40
1.0
 40
1.0
 10
135.974668879359
 20
68.28312400398696
 30
0.0
 10
135.9666419360798
 20
68.28170965691166
 30
0.0
 10
135.9297816039017
 20
68.27521486789888
 30
0.0
 10
135.8652263789623
 20
68.26382620659038
 30
0.0
 10
135.7935430532694
 20
68.25117916156037
 30
0.0
 10
135.7437288995822
 20
68.24240838663277
 30
0.0
 10
135.7251353997627
 20
68.23912428976942
 30
0.0
 10
135.7239372687837
 20
68.23891100022243
 30
0.0
 10
135.723651368468
 20
68.23886010466063
 30
0.0
  0
LINE
  5
988A
330
1F
100
AcDbEntity
  8
OSIE
 48
0.5
100
AcDbLine
 10
134.8971277801567
 20
68.9122458007802
 30
0.0
 11
140.1569299592703
 21
68.9122458007802
 31
0.0
  0
LINE
  5
988B
330
1F
100
AcDbEntity
  8
OSIE
 48
0.5
100
AcDbLine
 10
137.5270288697135
 20
66.28234471122343
 30
0.0
 11
137.5270288697135
 21
71.54214689033698
 31
0.0
  0
ARC
  5
988C
330
1F
100
AcDbEntity
  8
1
  6
Continuous
 62
     7
100
AcDbCircle
 10
70.80441112356368
 20
73.88724626128018
 30
0.0
 40
1.925000000000021
100
AcDbArc
 50
20.47568169639929
 51
179.5243183035956
  0
SPLINE
  5
988D
330
1F
100
AcDbEntity
  8
1
  6
Continuous
 62
     7
100
AcDbSpline
210
0.0
220
0.0
230
1.0
 70
     8
 71
     3
 72
    12
 73
     8
 74
     0
 42
0.000000001
 43
0.00000001
 40
0.0
 40
0.0
 40
0.0
 40
0.0
 40
0.2093177146531092
 40
0.4190873356804861
 40
0.6302857314824128
 40
0.8448686085559983
 40
1.0
 40
1.0
 40
1.0
 40
1.0
 10
72.60779263406323
 20
74.56062751386057
 30
0.0
 10
72.60510387801753
 20
74.56015620821503
 30
0.0
 10
72.59972056103709
 20
74.55921257939858
 30
0.0
 10
72.55778475356021
 20
74.55180911077
 30
0.0
 10
72.49575592956364
 20
74.54087075438733
 30
0.0
 10
72.42492908672068
 20
74.52838929880349
 30
0.0
 10
72.37691974854363
 20
74.5199233576403
 30
0.0
 10
72.35677512317227
 20
74.51637106511484
 30
0.0
  0
SPLINE
  5
988E
330
1F
100
AcDbEntity
  8
1
  6
Continuous
 62
     7
100
AcDbSpline
210
0.0
220
0.0
230
1.0
 70
     8
 71
     3
 72
    12
 73
     8
 74
     0
 42
0.000000001
 43
0.00000001
 40
0.0
 40
0.0
 40
0.0
 40
0.0
 40
0.2093123953662675
 40
0.4190888045103331
 40
0.6302711642033074
 40
0.8448517876403836
 40
1.0
 40
1.0
 40
1.0
 40
1.0
 10
72.72934140592145
 20
73.87126254413019
 30
0.0
 10
72.72665643757557
 20
73.87079116699564
 30
0.0
 10
72.72128054871644
 20
73.86984736775489
 30
0.0
 10
72.67933148304462
 20
73.86244478679222
 30
0.0
 10
72.6173126026232
 20
73.85150536572004
 30
0.0
 10
72.54648276530963
 20
73.83902348748992
 30
0.0
 10
72.4984709502645
 20
73.83055831186843
 30
0.0
 10
72.47832389503048
 20
73.82700609538446
 30
0.0
  0
ARC
  5
988F
330
1F
100
AcDbEntity
  8
1
  6
Continuous
 62
     7
100
AcDbCircle
 10
70.80441112356368
 20
73.88724626128018
 30
0.0
 40
1.925000000000001
100
AcDbArc
 50
200.4756816963996
 51
359.5243183036092
  0
ARC
  5
9890
330
1F
100
AcDbEntity
  8
1
  6
Continuous
 62
     7
100
AcDbCircle
 10
71.29110686876368
 20
74.58231981968024
 30
0.0
 40
0.2500000000000081
100
AcDbArc
 50
189.999999999952
 51
280.0000000000051
  0
LINE
  5
9891
330
1F
100
AcDbEntity
  8
1
  6
Continuous
 62
     7
100
AcDbLine
 10
70.95807762766356
 20
75.03131049248017
 30
0.0
 11
71.04490669396375
 21
74.53890907138052
 31
0.0
  0
LINE
  5
9892
330
1F
100
AcDbEntity
  8
1
  6
Continuous
 62
     7
100
AcDbLine
 10
70.26871265796365
 20
74.90975427008047
 30
0.0
 11
70.95807762766356
 21
75.03131049248017
 31
0.0
  0
LINE
  5
9893
330
1F
100
AcDbEntity
  8
1
  6
Continuous
 62
     7
100
AcDbLine
 10
70.35554172426384
 20
74.41735284898036
 30
0.0
 11
70.26871265796365
 21
74.90975427008047
 31
0.0
  0
ARC
  5
9894
330
1F
100
AcDbEntity
  8
1
  6
Continuous
 62
     7
100
AcDbCircle
 10
70.10933756516363
 20
74.37394200648018
 30
0.0
 40
0.2500000000000312
100
AcDbArc
 50
280.0000000000569
 51
10.00000000005691
  0
LINE
  5
9895
330
1F
100
AcDbEntity
  8
1
  6
Continuous
 62
     7
100
AcDbLine
 10
72.35677512316363
 20
74.51637106508028
 30
0.0
 11
71.3345182123636
 21
74.3361191687803
 31
0.0
  0
LINE
  5
9896
330
1F
100
AcDbEntity
  8
1
  6
Continuous
 62
     7
100
AcDbLine
 10
70.15275182156358
 20
74.1277413305805
 30
0.0
 11
69.13049491076356
 21
73.94748943418048
 31
0.0
  0
ARC
  5
9897
330
1F
100
AcDbEntity
  8
1
  6
Continuous
 62
     7
100
AcDbCircle
 10
70.31771537836369
 20
73.19217270288013
 30
0.0
 40
0.2499999999999752
100
AcDbArc
 50
10.00000000005917
 51
99.99999999995315
  0
LINE
  5
9898
330
1F
100
AcDbEntity
  8
1
  6
Continuous
 62
     7
100
AcDbLine
 10
70.65074117806364
 20
72.74317758658012
 30
0.0
 11
70.5639195623636
 21
73.23558645818034
 31
0.0
  0
LINE
  5
9899
330
1F
100
AcDbEntity
  8
1
  6
Continuous
 62
     7
100
AcDbLine
 10
71.25328453216355
 20
73.35713523008039
 30
0.0
 11
71.3401061478636
 21
72.86473380898028
 31
0.0
  0
ARC
  5
989A
330
1F
100
AcDbEntity
  8
1
  6
Continuous
 62
     7
100
AcDbCircle
 10
71.49948468196374
 20
73.40055051608019
 30
0.0
 40
0.2500000000000032
100
AcDbArc
 50
100.000000000005
 51
189.999999999952
  0
LINE
  5
989B
330
1F
100
AcDbEntity
  8
1
  6
Continuous
 62
     7
100
AcDbLine
 10
72.47832389506368
 20
73.82700609538037
 30
0.0
 11
71.45607443476376
 21
73.64675419898035
 31
0.0
  0
LINE
  5
989C
330
1F
100
AcDbEntity
  8
1
  6
Continuous
 62
     7
100
AcDbLine
 10
70.27430059346364
 20
73.43837636088014
 30
0.0
 11
69.25205113316372
 21
73.25812446448012
 31
0.0
  0
LINE
  5
989D
330
1F
100
AcDbEntity
  8
1
  6
Continuous
 62
     7
100
AcDbLine
 10
71.58072264816371
 20
74.37952625128023
 30
0.0
 11
71.70227142006354
 21
73.69016128158032
 31
0.0
  0
ARC
  5
989E
330
1F
100
AcDbEntity
  8
1
  6
Continuous
 62
     7
100
AcDbCircle
 10
70.80441112356368
 20
73.88724626128018
 30
0.0
 40
1.925000000000001
100
AcDbArc
 50
359.5243183036092
 51
20.47568169640038
  0
LINE
  5
989F
330
1F
100
AcDbEntity
  8
1
  6
Continuous
 62
     7
100
AcDbLine
 10
71.20986999896388
 20
73.60333966588027
 30
0.0
 11
71.29469485906372
 21
73.54394363738024
 31
0.0
  0
LINE
  5
98A0
330
1F
100
AcDbEntity
  8
1
  6
Continuous
 62
     7
100
AcDbLine
 10
71.08831377656372
 20
74.29270463558018
 30
0.0
 11
71.20986999896388
 21
73.60333966588027
 31
0.0
  0
LINE
  5
98A1
330
1F
100
AcDbEntity
  8
1
  6
Continuous
 62
     7
100
AcDbLine
 10
71.08831377656372
 20
74.29270463558018
 30
0.0
 11
71.14770980506376
 21
74.37752949568025
 31
0.0
  0
LINE
  5
98A2
330
1F
100
AcDbEntity
  8
1
  6
Continuous
 62
     7
100
AcDbLine
 10
71.00149216086368
 20
74.78510605668029
 30
0.0
 11
70.31212719116377
 21
74.66355728478024
 31
0.0
  0
LINE
  5
98A3
330
1F
100
AcDbEntity
  8
1
  6
Continuous
 62
     7
100
AcDbLine
 10
70.52050502926375
 20
73.48178344338007
 30
0.0
 11
70.46110900076371
 21
73.39695858328045
 31
0.0
  0
LINE
  5
98A4
330
1F
100
AcDbEntity
  8
1
  6
Continuous
 62
     7
100
AcDbLine
 10
71.20986999896388
 20
73.60333966588027
 30
0.0
 11
70.52050502926375
 21
73.48178344338007
 31
0.0
  0
LINE
  5
98A5
330
1F
100
AcDbEntity
  8
1
  6
Continuous
 62
     7
100
AcDbLine
 10
70.02810360816386
 20
73.39496182768048
 30
0.0
 11
69.9065473857637
 21
74.08432679748043
 31
0.0
  0
LINE
  5
98A6
330
1F
100
AcDbEntity
  8
1
  6
Continuous
 62
     7
100
AcDbLine
 10
71.08831377656372
 20
74.29270463558018
 30
0.0
 11
70.39894880686381
 21
74.17114841318048
 31
0.0
  0
LINE
  5
98A7
330
1F
100
AcDbEntity
  8
1
  6
Continuous
 62
     7
100
AcDbLine
 10
70.39894880686381
 20
74.17114841318048
 30
0.0
 11
70.31412394676374
 21
74.23054444168051
 31
0.0
  0
LINE
  5
98A8
330
1F
100
AcDbEntity
  8
1
  6
Continuous
 62
     7
100
AcDbLine
 10
70.52050502926375
 20
73.48178344338007
 30
0.0
 11
70.39894880686381
 21
74.17114841318048
 31
0.0
  0
LINE
  5
98A9
330
1F
100
AcDbEntity
  8
1
  6
Continuous
 62
     7
100
AcDbLine
 10
71.3401061478636
 20
72.86473380898028
 30
0.0
 11
70.65074117806364
 21
72.74317758658012
 31
0.0
  0
LINE
  5
98AA
330
1F
100
AcDbEntity
  8
1
  6
Continuous
 62
     7
100
AcDbLine
 10
71.2966916146637
 20
73.11093824478016
 30
0.0
 11
70.60732664496356
 21
72.98938202238045
 31
0.0
  0
SPLINE
  5
98AB
330
1F
100
AcDbEntity
  8
1
  6
Continuous
 62
     7
100
AcDbSpline
210
0.0
220
0.0
230
1.0
 70
     8
 71
     3
 72
    13
 73
     9
 74
     0
 42
0.000000001
 43
0.00000001
 40
0.0
 40
0.0
 40
0.0
 40
0.0
 40
0.0619255964755553
 40
0.2843670344938834
 40
0.5046378734365987
 40
0.7209770371376174
 40
0.9334202213497128
 40
1.0
 40
1.0
 40
1.0
 40
1.0
 10
69.13049491076993
 20
73.94748943421732
 30
0.0
 10
69.12246795939893
 20
73.94607508757448
 30
0.0
 10
69.08560759006502
 20
73.9395803005485
 30
0.0
 10
69.0210532075613
 20
73.92819159420318
 30
0.0
 10
68.94936743584833
 20
73.9155449502667
 30
0.0
 10
68.89956626353353
 20
73.90677346325069
 30
0.0
 10
68.88096073297868
 20
73.90348974781077
 30
0.0
 10
68.87976316147035
 20
73.90327643505938
 30
0.0
 10
68.87947739987897
 20
73.90322553489099
 30
0.0
  0
ARC
  5
98AC
102
{ACAD_REACTORS
330
891C
102
}
330
1F
100
AcDbEntity
  8
1
  6
Continuous
 62
     7
100
AcDbCircle
 10
70.80441112356368
 20
73.88724626128018
 30
0.0
 40
1.925000000000021
100
AcDbArc
 50
179.5243183035956
 51
200.4756816963993
  0
SPLINE
  5
98AD
330
1F
100
AcDbEntity
  8
1
  6
Continuous
 62
     7
100
AcDbSpline
210
0.0
220
0.0
230
1.0
 70
     8
 71
     3
 72
    13
 73
     9
 74
     0
 42
0.000000001
 43
0.00000001
 40
0.0
 40
0.0
 40
0.0
 40
0.0
 40
0.0619252427413735
 40
0.284365410119699
 40
0.5046349908214054
 40
0.7209837301607352
 40
0.9334206016697237
 40
1.0
 40
1.0
 40
1.0
 40
1.0
 10
69.25205113320874
 20
73.25812446448694
 30
0.0
 10
69.24402418992952
 20
73.25671011741164
 30
0.0
 10
69.20716385775165
 20
73.25021532839887
 30
0.0
 10
69.14260863281208
 20
73.23882666709036
 30
0.0
 10
69.07092530711918
 20
73.22617962206036
 30
0.0
 10
69.02111115343212
 20
73.21740884713276
 30
0.0
 10
69.0025176536127
 20
73.2141247502694
 30
0.0
 10
69.00131952263371
 20
73.21391146072241
 30
0.0
 10
69.00103362231778
 20
73.21386056516062
 30
0.0
  0
ENDSEC
  0
SECTION
  2
OBJECTS
  0
DICTIONARY
  5
C
330
0
100
AcDbDictionary
281
     1
  3
ACAD_DETAILVIEWSTYLE
350
4C4
  3
ACAD_GROUP
350
D
  3
ACAD_IMAGE_VARS
350
4BE
  3
ACAD_LAYOUT
350
498
  3
ACAD_MATERIAL
350
4B4
  3
ACAD_MLEADERSTYLE
350
4BA
  3
ACAD_MLINESTYLE
350
17
  3
ACAD_PLOTSETTINGS
350
473
  3
ACAD_PLOTSTYLENAME
350
474
  3
ACAD_SCALELIST
350
476
  3
ACAD_SECTIONVIEWSTYLE
350
4C5
  3
ACAD_TABLESTYLE
350
4B8
  3
ACAD_VISUALSTYLE
350
49B
  3
ACDB_RECOMPOSE_DATA
350
98B1
  3
AcDbVariableDictionary
350
4BF
  3
APPDATA
350
4BC
  3
CENTERLINE
350
995
  3
DimOffsetDictionary
350
990
  0
SUN
  5
4BD
330
29
100
AcDbSun
 90
        1
290
     0
 63
     7
421
 16777215
 40
1.0
291
     1
 91
  2455826
 92
 54000000
292
     0
 70
     2
 71
   256
280
     1
  0
DICTIONARY
  5
724
330
2
100
AcDbDictionary
280
     1
281
     1
  3
ACAD_LAYERSTATES
360
725
  0
DICTIONARY
  5
251B
330
251A
100
AcDbDictionary
280
     1
281
     1
  3
ACAD_DIMASSOC
360
251C
  0
DICTIONARY
  5
251E
330
251D
100
AcDbDictionary
280
     1
281
     1
  0
DICTIONARY
  5
2520
330
251F
100
AcDbDictionary
280
     1
281
     1
  3
ACAD_DIMASSOC
360
2521
  0
DICTIONARY
  5
2523
330
2522
100
AcDbDictionary
280
     1
281
     1
  3
ACAD_DIMASSOC
360
2524
  0
DICTIONARY
  5
2526
330
2525
100
AcDbDictionary
280
     1
281
     1
  3
ACAD_DIMASSOC
360
2527
  0
DICTIONARY
  5
2529
330
2528
100
AcDbDictionary
280
     1
281
     1
  3
ACAD_DIMASSOC
360
252A
  0
DICTIONARY
  5
252C
330
252B
100
AcDbDictionary
280
     1
281
     1
  3
ACAD_DIMASSOC
360
252D
  0
DICTIONARY
  5
252F
330
252E
100
AcDbDictionary
280
     1
281
     1
  3
ACAD_DIMASSOC
360
2530
  0
DICTIONARY
  5
2532
330
2531
100
AcDbDictionary
280
     1
281
     1
  0
DICTIONARY
  5
891B
330
891A
100
AcDbDictionary
280
     1
281
     1
  3
ACAD_DIMASSOC
360
891C
  0
DICTIONARY
  5
8937
330
8936
100
AcDbDictionary
280
     1
281
     1
  3
ACAD_DIMASSOC
360
8938
  0
DICTIONARY
  5
8B12
330
8B11
100
AcDbDictionary
280
     1
281
     1
  3
ACAD_DIMASSOC
360
8B13
  0
DICTIONARY
  5
4C4
102
{ACAD_REACTORS
330
C
102
}
330
C
100
AcDbDictionary
281
     1
  0
DICTIONARY
  5
D
102
{ACAD_REACTORS
330
C
102
}
330
C
100
AcDbDictionary
281
     1
  0
RASTERVARIABLES
  5
4BE
102
{ACAD_REACTORS
330
C
102
}
330
C
100
AcDbRasterVariables
 90
        0
 70
     1
 71
     1
 72
     0
  0
DICTIONARY
  5
498
102
{ACAD_REACTORS
330
C
102
}
330
C
100
AcDbDictionary
281
     1
  3
Arkusz 1
350
49A
  3
Model
350
499
  0
DICTIONARY
  5
4B4
102
{ACAD_REACTORS
330
C
102
}
330
C
100
AcDbDictionary
281
     1
  3
ByBlock
350
4B6
  3
ByLayer
350
4B5
  3
Global
350
4B7
  0
DICTIONARY
  5
4BA
102
{ACAD_REACTORS
330
C
102
}
330
C
100
AcDbDictionary
281
     1
  3
Standard
350
4BB
  0
DICTIONARY
  5
17
102
{ACAD_REACTORS
330
C
102
}
330
C
100
AcDbDictionary
281
     1
  3
STANDARD
350
18
  0
DICTIONARY
  5
473
102
{ACAD_REACTORS
330
C
102
}
330
C
100
AcDbDictionary
281
     1
  0
ACDBDICTIONARYWDFLT
  5
474
102
{ACAD_REACTORS
330
C
102
}
330
C
100
AcDbDictionary
281
     1
  3
Normal
350
475
100
AcDbDictionaryWithDefault
340
475
  0
DICTIONARY
  5
476
102
{ACAD_REACTORS
330
C
102
}
330
C
100
AcDbDictionary
281
     1
  3
A0
350
477
  3
A1
350
478
  3
A2
350
479
  3
A3
350
47A
  3
A4
350
47B
  3
A5
350
47C
  3
A6
350
47D
  3
A7
350
47E
  3
A8
350
47F
  3
A9
350
480
  3
B0
350
481
  3
B1
350
482
  3
B2
350
483
  3
B3
350
484
  3
B4
350
485
  3
B5
350
486
  3
B6
350
487
  3
B7
350
488
  3
B8
350
489
  3
B9
350
48A
  3
C0
350
48B
  3
C1
350
48C
  3
C2
350
48D
  3
C3
350
48E
  3
C4
350
48F
  3
C5
350
490
  3
C6
350
491
  3
C7
350
492
  3
C8
350
493
  3
C9
350
494
  3
D0
350
495
  3
D1
350
496
  3
D2
350
497
  0
DICTIONARY
  5
4C5
102
{ACAD_REACTORS
330
C
102
}
330
C
100
AcDbDictionary
281
     1
  0
DICTIONARY
  5
4B8
102
{ACAD_REACTORS
330
C
102
}
330
C
100
AcDbDictionary
281
     1
  3
Standard
350
4B9
  0
DICTIONARY
  5
49B
102
{ACAD_REACTORS
330
C
102
}
330
C
100
AcDbDictionary
281
     1
  3
2dWireframe
350
4A0
  3
Basic
350
4A3
  3
Brighten
350
4A7
  3
ColorChange
350
4AB
  3
Conceptual
350
4A5
  3
Dim
350
4A6
  3
EdgeColorOff
350
4AE
  3
Facepattern
350
4AA
  3
Flat
350
49C
  3
FlatWithEdges
350
49D
  3
Gouraud
350
49E
  3
GouraudWithEdges
350
49F
  3
Hidden
350
4A2
  3
JitterOff
350
4AC
  3
Linepattern
350
4A9
  3
OverhangOff
350
4AD
  3
Realistic
350
4A4
  3
Shaded
350
4B3
  3
Shaded with edges
350
4B2
  3
Shades of Gray
350
4AF
  3
Sketchy
350
4B0
  3
Thicken
350
4A8
  3
Wireframe
350
4A1
  3
X-Ray
350
4B1
  0
XRECORD
  5
98B1
102
{ACAD_REACTORS
330
C
102
}
330
C
100
AcDbXrecord
280
     1
 90
        1
330
4B9
  0
DICTIONARY
  5
4BF
102
{ACAD_REACTORS
330
C
102
}
330
C
100
AcDbDictionary
281
     1
  3
CANNOSCALE
350
4C0
  3
CMLEADERSTYLE
350
4C2
  3
CTABLESTYLE
350
4C1
  3
HPTRANSPARENCY
350
98F
  3
MSLTSCALE
350
4C3
  0
DICTIONARY
  5
4BC
102
{ACAD_REACTORS
330
C
102
}
330
C
100
AcDbDictionary
281
     1
  0
DICTIONARY
  5
995
102
{ACAD_REACTORS
330
C
102
}
330
C
100
AcDbDictionary
281
     1
  3
CLEXTENSION
350
8B24
  0
DICTIONARY
  5
990
102
{ACAD_REACTORS
330
C
102
}
330
C
100
AcDbDictionary
281
     1
  3
DIMRAILANGLE
350
8B22
  3
DIMRAILFIRSTOFFSET
350
8B20
  3
DIMRAILOFFSET
350
8B21
  3
DIMRAILSENABLED
350
8B23
  0
DICTIONARY
  5
725
102
{ACAD_REACTORS
330
724
102
}
330
724
100
AcDbDictionary
281
     1
  0
DIMASSOC
  5
251C
102
{ACAD_REACTORS
330
251B
102
}
330
251B
100
AcDbDimAssoc
330
251A
 90
        1
 70
     0
 71
     1
  1
AcDbOsnapPointRef
 72
    13
331
22FB
 73
     0
 91
        0
 40
0.0
 10
0.0
 20
0.0
 30
0.0
 75
     0
  0
DIMASSOC
  5
2521
102
{ACAD_REACTORS
330
2520
102
}
330
2520
100
AcDbDimAssoc
330
251F
 90
        3
 70
     0
 71
     1
  1
AcDbOsnapPointRef
 72
    13
331
2370
 73
     0
 91
        0
 40
0.0
 10
0.0
 20
0.0
 30
0.0
 75
     0
  1
AcDbOsnapPointRef
 72
    13
331
22FB
 73
     0
 91
        0
 40
0.0
 10
0.0
 20
0.0
 30
0.0
 75
     0
  0
DIMASSOC
  5
2524
102
{ACAD_REACTORS
330
2523
102
}
330
2523
100
AcDbDimAssoc
330
2522
 90
        1
 70
     0
 71
     1
  1
AcDbOsnapPointRef
 72
     1
331
234F
 73
     0
 91
        0
 40
0.0
 10
0.0
 20
0.0
 30
0.0
 75
     0
  0
DIMASSOC
  5
2527
102
{ACAD_REACTORS
330
2526
102
}
330
2526
100
AcDbDimAssoc
330
2525
 90
        3
 70
     0
 71
     1
  1
AcDbOsnapPointRef
 72
     1
331
2337
 73
     0
 91
        0
 40
0.0
 10
0.0
 20
0.0
 30
0.0
 75
     0
  1
AcDbOsnapPointRef
 72
    13
331
232C
 73
     0
 91
        0
 40
0.0
 10
0.0
 20
0.0
 30
0.0
 75
     0
  0
DIMASSOC
  5
252A
102
{ACAD_REACTORS
330
2529
102
}
330
2529
100
AcDbDimAssoc
330
2528
 90
        3
 70
     0
 71
     1
  1
AcDbOsnapPointRef
 72
     1
331
237D
 73
     0
 91
        0
 40
0.0
 10
0.0
 20
0.0
 30
0.0
 75
     0
  1
AcDbOsnapPointRef
 72
     1
331
2381
 73
     0
 91
        0
 40
0.0
 10
0.0
 20
0.0
 30
0.0
 75
     0
  0
DIMASSOC
  5
252D
102
{ACAD_REACTORS
330
252C
102
}
330
252C
100
AcDbDimAssoc
330
252B
 90
        2
 70
     0
 71
     1
  1
AcDbOsnapPointRef
 72
     1
331
2382
 73
     0
 91
        0
 40
0.0
 10
0.0
 20
0.0
 30
0.0
 75
     0
  0
DIMASSOC
  5
2530
102
{ACAD_REACTORS
330
252F
102
}
330
252F
100
AcDbDimAssoc
330
252E
 90
        3
 70
     0
 71
     1
  1
AcDbOsnapPointRef
 72
    13
331
230C
 73
     0
 91
        0
 40
0.0
 10
0.0
 20
0.0
 30
0.0
 75
     0
  1
AcDbOsnapPointRef
 72
    13
331
22FB
 73
     0
 91
        0
 40
0.0
 10
0.0
 20
0.0
 30
0.0
 75
     0
  0
DIMASSOC
  5
891C
102
{ACAD_REACTORS
330
891B
102
}
330
891B
100
AcDbDimAssoc
330
891A
 90
        3
 70
     0
 71
     1
  1
AcDbOsnapPointRef
 72
     3
331
2E4E
 73
     0
 91
        0
 40
0.0
 10
0.0
 20
0.0
 30
0.0
 75
     0
  1
AcDbOsnapPointRef
 72
     3
331
2E77
 73
     0
 91
        0
 40
0.0
 10
0.0
 20
0.0
 30
0.0
 75
     0
  0
DIMASSOC
  5
8938
102
{ACAD_REACTORS
330
8937
102
}
330
8937
100
AcDbDimAssoc
330
8936
 90
        3
 70
     0
 71
     1
  1
AcDbOsnapPointRef
 72
     3
331
2E97
 73
     0
 91
        0
 40
0.0
 10
0.0
 20
0.0
 30
0.0
 75
     0
  1
AcDbOsnapPointRef
 72
     3
331
2E77
 73
     0
 91
        0
 40
0.0
 10
0.0
 20
0.0
 30
0.0
 75
     0
  0
DIMASSOC
  5
8B13
102
{ACAD_REACTORS
330
8B12
102
}
330
8B12
100
AcDbDimAssoc
330
8B11
 90
        2
 70
     0
 71
     1
  1
AcDbOsnapPointRef
 72
    13
331
89A7
 73
     0
 91
        0
 40
0.0
 10
0.0
 20
0.0
 30
0.0
 75
     0
  0
LAYOUT
  5
49A
102
{ACAD_REACTORS
330
498
102
}
330
498
100
AcDbPlotSettings
  1

  2
none_device
  4

  6

 40
0.0
 41
0.0
 42
0.0
 43
0.0
 44
0.0
 45
0.0
 46
0.0
 47
0.0
 48
0.0
 49
0.0
140
0.0
141
0.0
142
1.0
143
1.0
 70
   688
 72
     1
 73
     0
 74
     5
  7

 75
    16
 76
     0
 77
     2
 78
   300
147
1.0
148
0.0
149
0.0
100
AcDbLayout
  1
Arkusz 1
 70
     1
 71
     1
 10
0.0
 20
0.0
 11
0.0
 21
0.0
 12
0.0
 22
0.0
 32
0.0
 14
1.000000000000000E+20
 24
1.000000000000000E+20
 34
1.000000000000000E+20
 15
-1.000000000000000E+20
 25
-1.000000000000000E+20
 35
-1.000000000000000E+20
146
0.0
 13
0.0
 23
0.0
 33
0.0
 16
1.0
 26
0.0
 36
0.0
 17
0.0
 27
1.0
 37
0.0
 76
     0
330
1B
  0
LAYOUT
  5
499
102
{ACAD_REACTORS
330
498
102
}
330
498
100
AcDbPlotSettings
  1

  2
none_device
  4
Letter_(8.50_x_11.00_Inches)
  6

 40
6.35
 41
6.35
 42
6.35
 43
6.35
 44
215.9
 45
279.4
 46
0.0
 47
0.0
 48
0.0
 49
0.0
140
0.0
141
0.0
142
1.0
143
52.49999999846251
 70
  1712
 72
     0
 73
     0
 74
     0
  7

 75
     0
 76
     0
 77
     2
 78
   300
147
0.0190476190481769
148
-0.0000001562100806
149
0.0
100
AcDbLayout
  1
Model
 70
     1
 71
     0
 10
0.0
 20
0.0
 11
420.0
 21
297.0
 12
0.0
 22
0.0
 32
0.0
 14
0.0
 24
0.0
 34
0.0
 15
201.630407
 25
297.0
 35
0.0
146
0.0
 13
0.0
 23
0.0
 33
0.0
 16
1.0
 26
0.0
 36
0.0
 17
0.0
 27
1.0
 37
0.0
 76
     0
330
1F
331
29
  0
MATERIAL
  5
4B6
102
{ACAD_REACTORS
330
4B4
102
}
330
4B4
100
AcDbMaterial
  1
ByBlock
 72
     1
 94
      127
  0
MATERIAL
  5
4B5
102
{ACAD_REACTORS
330
4B4
102
}
330
4B4
100
AcDbMaterial
  1
ByLayer
 72
     1
 94
      127
  0
MATERIAL
  5
4B7
102
{ACAD_REACTORS
330
4B4
102
}
330
4B4
100
AcDbMaterial
  1
Global
 72
     1
 94
      127
  0
MLEADERSTYLE
  5
4BB
102
{ACAD_REACTORS
330
4BA
102
}
330
4BA
100
AcDbMLeaderStyle
170
     2
171
     1
172
     0
 90
        2
 40
0.0
 41
0.0
173
     1
 91
-1056964608
340
14
 92
       -2
290
     1
 42
2.0
291
     1
 43
8.0
  3
Standard
341
0
 44
4.0
300

342
11
174
     1
178
     1
175
     1
176
     0
 93
-1056964608
 45
4.0
292
     0
297
     0
 46
4.0
343
0
 94
-1056964608
 47
1.0
 49
1.0
140
1.0
293
     1
141
0.0
294
     1
177
     0
142
1.0
295
     0
296
     0
143
3.75
1001
ACAD_MLEADERVER
1070
     2
  0
MLINESTYLE
  5
18
102
{ACAD_REACTORS
330
17
102
}
330
17
100
AcDbMlineStyle
  2
Standard
 70
     0
  3

 62
   256
 51
90.0
 52
90.0
 71
     2
 49
0.5
 62
   256
  6
BYLAYER
 49
-0.5
 62
   256
  6
BYLAYER
  0
ACDBPLACEHOLDER
  5
475
102
{ACAD_REACTORS
330
474
102
}
330
474
  0
SCALE
  5
477
102
{ACAD_REACTORS
330
476
102
}
330
476
100
AcDbScale
 70
     0
300
1:1
140
1.0
141
1.0
290
     1
  0
SCALE
  5
478
102
{ACAD_REACTORS
330
476
102
}
330
476
100
AcDbScale
 70
     0
300
1:2
140
1.0
141
2.0
290
     0
  0
SCALE
  5
479
102
{ACAD_REACTORS
330
476
102
}
330
476
100
AcDbScale
 70
     0
300
1:4
140
1.0
141
4.0
290
     0
  0
SCALE
  5
47A
102
{ACAD_REACTORS
330
476
102
}
330
476
100
AcDbScale
 70
     0
300
1:5
140
1.0
141
5.0
290
     0
  0
SCALE
  5
47B
102
{ACAD_REACTORS
330
476
102
}
330
476
100
AcDbScale
 70
     0
300
1:8
140
1.0
141
8.0
290
     0
  0
SCALE
  5
47C
102
{ACAD_REACTORS
330
476
102
}
330
476
100
AcDbScale
 70
     0
300
1:10
140
1.0
141
10.0
290
     0
  0
SCALE
  5
47D
102
{ACAD_REACTORS
330
476
102
}
330
476
100
AcDbScale
 70
     0
300
1:16
140
1.0
141
16.0
290
     0
  0
SCALE
  5
47E
102
{ACAD_REACTORS
330
476
102
}
330
476
100
AcDbScale
 70
     0
300
1:20
140
1.0
141
20.0
290
     0
  0
SCALE
  5
47F
102
{ACAD_REACTORS
330
476
102
}
330
476
100
AcDbScale
 70
     0
300
1:30
140
1.0
141
30.0
290
     0
  0
SCALE
  5
480
102
{ACAD_REACTORS
330
476
102
}
330
476
100
AcDbScale
 70
     0
300
1:40
140
1.0
141
40.0
290
     0
  0
SCALE
  5
481
102
{ACAD_REACTORS
330
476
102
}
330
476
100
AcDbScale
 70
     0
300
1:50
140
1.0
141
50.0
290
     0
  0
SCALE
  5
482
102
{ACAD_REACTORS
330
476
102
}
330
476
100
AcDbScale
 70
     0
300
1:100
140
1.0
141
100.0
290
     0
  0
SCALE
  5
483
102
{ACAD_REACTORS
330
476
102
}
330
476
100
AcDbScale
 70
     0
300
2:1
140
2.0
141
1.0
290
     0
  0
SCALE
  5
484
102
{ACAD_REACTORS
330
476
102
}
330
476
100
AcDbScale
 70
     0
300
4:1
140
4.0
141
1.0
290
     0
  0
SCALE
  5
485
102
{ACAD_REACTORS
330
476
102
}
330
476
100
AcDbScale
 70
     0
300
8:1
140
8.0
141
1.0
290
     0
  0
SCALE
  5
486
102
{ACAD_REACTORS
330
476
102
}
330
476
100
AcDbScale
 70
     0
300
10:1
140
10.0
141
1.0
290
     0
  0
SCALE
  5
487
102
{ACAD_REACTORS
330
476
102
}
330
476
100
AcDbScale
 70
     0
300
100:1
140
100.0
141
1.0
290
     0
  0
SCALE
  5
488
102
{ACAD_REACTORS
330
476
102
}
330
476
100
AcDbScale
 70
     0
300
1/128" = 1'-0"
140
0.0078125
141
12.0
290
     0
  0
SCALE
  5
489
102
{ACAD_REACTORS
330
476
102
}
330
476
100
AcDbScale
 70
     0
300
1/64" = 1'-0"
140
0.015625
141
12.0
290
     0
  0
SCALE
  5
48A
102
{ACAD_REACTORS
330
476
102
}
330
476
100
AcDbScale
 70
     0
300
1/32" = 1'-0"
140
0.03125
141
12.0
290
     0
  0
SCALE
  5
48B
102
{ACAD_REACTORS
330
476
102
}
330
476
100
AcDbScale
 70
     0
300
1/16" = 1'-0"
140
0.0625
141
12.0
290
     0
  0
SCALE
  5
48C
102
{ACAD_REACTORS
330
476
102
}
330
476
100
AcDbScale
 70
     0
300
3/32" = 1'-0"
140
0.09375
141
12.0
290
     0
  0
SCALE
  5
48D
102
{ACAD_REACTORS
330
476
102
}
330
476
100
AcDbScale
 70
     0
300
1/8" = 1'-0"
140
0.125
141
12.0
290
     0
  0
SCALE
  5
48E
102
{ACAD_REACTORS
330
476
102
}
330
476
100
AcDbScale
 70
     0
300
3/16" = 1'-0"
140
0.1875
141
12.0
290
     0
  0
SCALE
  5
48F
102
{ACAD_REACTORS
330
476
102
}
330
476
100
AcDbScale
 70
     0
300
1/4" = 1'-0"
140
0.25
141
12.0
290
     0
  0
SCALE
  5
490
102
{ACAD_REACTORS
330
476
102
}
330
476
100
AcDbScale
 70
     0
300
3/8" = 1'-0"
140
0.375
141
12.0
290
     0
  0
SCALE
  5
491
102
{ACAD_REACTORS
330
476
102
}
330
476
100
AcDbScale
 70
     0
300
1/2" = 1'-0"
140
0.5
141
12.0
290
     0
  0
SCALE
  5
492
102
{ACAD_REACTORS
330
476
102
}
330
476
100
AcDbScale
 70
     0
300
3/4" = 1'-0"
140
0.75
141
12.0
290
     0
  0
SCALE
  5
493
102
{ACAD_REACTORS
330
476
102
}
330
476
100
AcDbScale
 70
     0
300
1" = 1'-0"
140
1.0
141
12.0
290
     0
  0
SCALE
  5
494
102
{ACAD_REACTORS
330
476
102
}
330
476
100
AcDbScale
 70
     0
300
1-1/2" = 1'-0"
140
1.5
141
12.0
290
     0
  0
SCALE
  5
495
102
{ACAD_REACTORS
330
476
102
}
330
476
100
AcDbScale
 70
     0
300
3" = 1'-0"
140
3.0
141
12.0
290
     0
  0
SCALE
  5
496
102
{ACAD_REACTORS
330
476
102
}
330
476
100
AcDbScale
 70
     0
300
6" = 1'-0"
140
6.0
141
12.0
290
     0
  0
SCALE
  5
497
102
{ACAD_REACTORS
330
476
102
}
330
476
100
AcDbScale
 70
     0
300
1'-0" = 1'-0"
140
12.0
141
12.0
290
     0
  0
TABLESTYLE
  5
4B9
102
{ACAD_REACTORS
330
4B8
102
}
102
{ACAD_XDICTIONARY
360
98AE
102
}
330
4B8
100
AcDbTableStyle
  3
Standard
 70
     0
 71
     0
 40
1.5
 41
1.5
280
     0
281
     0
  7
STANDARD
140
4.5
170
     2
 62
     0
 63
   257
283
     0
 90
        4
 91
        0
  1

274
    -2
284
     1
 64
     0
275
    -2
285
     1
 65
     0
276
    -2
286
     1
 66
     0
277
    -2
287
     1
 67
     0
278
    -2
288
     1
 68
     0
279
    -2
289
     1
 69
     0
  7
STANDARD
140
6.0
170
     5
 62
     0
 63
   257
283
     0
 90
        4
 91
        0
  1

274
    -2
284
     1
 64
     0
275
    -2
285
     1
 65
     0
276
    -2
286
     1
 66
     0
277
    -2
287
     1
 67
     0
278
    -2
288
     1
 68
     0
279
    -2
289
     1
 69
     0
  7
STANDARD
140
4.5
170
     5
 62
     0
 63
   257
283
     0
 90
        4
 91
        0
  1

274
    -2
284
     1
 64
     0
275
    -2
285
     1
 65
     0
276
    -2
286
     1
 66
     0
277
    -2
287
     1
 67
     0
278
    -2
288
     1
 68
     0
279
    -2
289
     1
 69
     0
  0
VISUALSTYLE
  5
4A0
102
{ACAD_REACTORS
330
49B
102
}
330
49B
100
AcDbVisualStyle
  2
2dWireframe
 70
     4
 71
     0
 72
     2
 73
     0
 90
        0
 40
0.6
 41
30.0
 62
     5
 63
     7
421
 16777215
 74
     1
 91
        4
 64
     7
 65
   257
 75
     1
175
     1
 42
1.0
 92
        0
 66
   257
 43
1.0
 76
     1
 77
     6
 78
     2
 67
     7
 79
     5
170
     0
171
     0
290
     0
174
     0
 93
        1
 44
0.0
173
     0
291
     0
 45
0.0
  0
VISUALSTYLE
  5
4A3
102
{ACAD_REACTORS
330
49B
102
}
330
49B
100
AcDbVisualStyle
  2
Basic
 70
     7
 71
     1
 72
     0
 73
     1
 90
        0
 40
0.6
 41
30.0
 62
     5
 63
     7
421
 16777215
 74
     0
 91
        4
 64
     7
 65
   257
 75
     1
175
     1
 42
1.0
 92
        8
 66
     7
 43
1.0
 76
     1
 77
     6
 78
     2
 67
     7
 79
     5
170
     0
171
     0
290
     0
174
     0
 93
        1
 44
0.0
173
     0
291
     1
 45
0.0
  0
VISUALSTYLE
  5
4A7
102
{ACAD_REACTORS
330
49B
102
}
330
49B
100
AcDbVisualStyle
  2
Brighten
 70
    12
 71
     2
 72
     2
 73
     0
 90
        0
 40
0.6
 41
30.0
 62
     5
 63
     7
421
 16777215
 74
     1
 91
        4
 64
     7
 65
   257
 75
     1
175
     1
 42
1.0
 92
        8
 66
     7
 43
1.0
 76
     1
 77
     6
 78
     2
 67
     7
 79
     5
170
     0
171
     0
290
     0
174
     0
 93
        1
 44
50.0
173
     0
291
     1
 45
0.0
  0
VISUALSTYLE
  5
4AB
102
{ACAD_REACTORS
330
49B
102
}
330
49B
100
AcDbVisualStyle
  2
ColorChange
 70
    16
 71
     2
 72
     2
 73
     3
 90
        0
 40
0.6
 41
30.0
 62
     5
 63
     8
421
  8421504
 74
     1
 91
        4
 64
     7
 65
   257
 75
     1
175
     1
 42
1.0
 92
        8
 66
     8
424
  8421504
 43
1.0
 76
     1
 77
     6
 78
     2
 67
     7
 79
     5
170
     0
171
     0
290
     0
174
     0
 93
        1
 44
0.0
173
     0
291
     1
 45
0.0
  0
VISUALSTYLE
  5
4A5
102
{ACAD_REACTORS
330
49B
102
}
330
49B
100
AcDbVisualStyle
  2
Conceptual
 70
     9
 71
     3
 72
     2
 73
     0
 90
        0
 40
0.6
 41
30.0
 62
     5
 63
     7
421
 16777215
 74
     2
 91
        2
 64
     7
 65
   257
 75
     1
175
     1
 42
179.0
 92
        8
 66
     7
 43
1.0
 76
     1
 77
     6
 78
     2
 67
     7
 79
     3
170
     0
171
     0
290
     0
174
     0
 93
        1
 44
0.0
173
     0
291
     0
 45
0.0
  0
VISUALSTYLE
  5
4A6
102
{ACAD_REACTORS
330
49B
102
}
330
49B
100
AcDbVisualStyle
  2
Dim
 70
    11
 71
     2
 72
     2
 73
     0
 90
        0
 40
0.6
 41
30.0
 62
     5
 63
     7
421
 16777215
 74
     1
 91
        4
 64
     7
 65
   257
 75
     1
175
     1
 42
1.0
 92
        8
 66
     7
 43
1.0
 76
     1
 77
     6
 78
     2
 67
     7
 79
     5
170
     0
171
     0
290
     0
174
     0
 93
        1
 44
-50.0
173
     0
291
     1
 45
0.0
  0
VISUALSTYLE
  5
4AE
102
{ACAD_REACTORS
330
49B
102
}
330
49B
100
AcDbVisualStyle
  2
EdgeColorOff
 70
    22
 71
     2
 72
     2
 73
     0
 90
        0
 40
0.6
 41
30.0
 62
     5
 63
     7
421
 16777215
 74
     1
 91
        4
 64
     7
 65
   257
 75
     1
175
     1
 42
1.0
 92
        8
 66
     7
 43
1.0
 76
     1
 77
     6
 78
     2
 67
     7
 79
     5
170
     0
171
     0
290
     0
174
     0
 93
        1
 44
0.0
173
     0
291
     1
 45
0.0
  0
VISUALSTYLE
  5
4AA
102
{ACAD_REACTORS
330
49B
102
}
330
49B
100
AcDbVisualStyle
  2
Facepattern
 70
    15
 71
     2
 72
     2
 73
     0
 90
        0
 40
0.6
 41
30.0
 62
     5
 63
     7
421
 16777215
 74
     1
 91
        4
 64
     7
 65
   257
 75
     1
175
     1
 42
1.0
 92
        8
 66
     7
 43
1.0
 76
     1
 77
     6
 78
     2
 67
     7
 79
     5
170
     0
171
     0
290
     0
174
     0
 93
        1
 44
0.0
173
     0
291
     1
 45
0.0
  0
VISUALSTYLE
  5
49C
102
{ACAD_REACTORS
330
49B
102
}
330
49B
100
AcDbVisualStyle
  2
Flat
 70
     0
 71
     2
 72
     1
 73
     1
 90
        2
 40
0.6
 41
30.0
 62
     5
 63
     7
421
 16777215
 74
     0
 91
        0
 64
     7
 65
   257
 75
     1
175
     1
 42
1.0
 92
        8
 66
     7
 43
1.0
 76
     1
 77
     6
 78
     2
 67
     7
 79
     5
170
     0
171
     0
290
     0
174
     0
 93
       13
 44
0.0
173
     0
291
     1
 45
0.0
  0
VISUALSTYLE
  5
49D
102
{ACAD_REACTORS
330
49B
102
}
330
49B
100
AcDbVisualStyle
  2
FlatWithEdges
 70
     1
 71
     2
 72
     1
 73
     1
 90
        2
 40
0.6
 41
30.0
 62
     5
 63
     7
421
 16777215
 74
     1
 91
        0
 64
     7
 65
   257
 75
     1
175
     1
 42
1.0
 92
        0
 66
   257
 43
1.0
 76
     1
 77
     6
 78
     2
 67
     7
 79
     5
170
     0
171
     0
290
     0
174
     0
 93
       13
 44
0.0
173
     0
291
     1
 45
0.0
  0
VISUALSTYLE
  5
49E
102
{ACAD_REACTORS
330
49B
102
}
330
49B
100
AcDbVisualStyle
  2
Gouraud
 70
     2
 71
     2
 72
     2
 73
     1
 90
        2
 40
0.6
 41
30.0
 62
     5
 63
     7
421
 16777215
 74
     0
 91
        0
 64
     7
 65
   257
 75
     1
175
     1
 42
1.0
 92
        0
 66
     7
 43
1.0
 76
     1
 77
     6
 78
     2
 67
     7
 79
     5
170
     0
171
     0
290
     0
174
     0
 93
       13
 44
0.0
173
     0
291
     1
 45
0.0
  0
VISUALSTYLE
  5
49F
102
{ACAD_REACTORS
330
49B
102
}
330
49B
100
AcDbVisualStyle
  2
GouraudWithEdges
 70
     3
 71
     2
 72
     2
 73
     1
 90
        2
 40
0.6
 41
30.0
 62
     5
 63
     7
421
 16777215
 74
     1
 91
        0
 64
     7
 65
   257
 75
     1
175
     1
 42
1.0
 92
        0
 66
   257
 43
1.0
 76
     1
 77
     6
 78
     2
 67
     7
 79
     5
170
     0
171
     0
290
     0
174
     0
 93
       13
 44
0.0
173
     0
291
     1
 45
0.0
  0
VISUALSTYLE
  5
4A2
102
{ACAD_REACTORS
330
49B
102
}
330
49B
100
AcDbVisualStyle
  2
Hidden
 70
     6
 71
     1
 72
     2
 73
     2
 90
        0
 40
0.6
 41
30.0
 62
     5
 63
     7
421
 16777215
 74
     2
 91
        2
 64
     7
 65
   257
 75
     2
175
     1
 42
40.0
 92
        0
 66
   257
 43
1.0
 76
     1
 77
     6
 78
     2
 67
     7
 79
     3
170
     0
171
     0
290
     0
174
     0
 93
        1
 44
0.0
173
     0
291
     0
 45
0.0
  0
VISUALSTYLE
  5
4AC
102
{ACAD_REACTORS
330
49B
102
}
330
49B
100
AcDbVisualStyle
  2
JitterOff
 70
    20
 71
     2
 72
     2
 73
     0
 90
        0
 40
0.6
 41
30.0
 62
     5
 63
     7
421
 16777215
 74
     1
 91
        4
 64
     7
 65
   257
 75
     1
175
     1
 42
1.0
 92
       10
 66
     7
 43
1.0
 76
     1
 77
     6
 78
     2
 67
     7
 79
     5
170
     0
171
     0
290
     0
174
     0
 93
        1
 44
0.0
173
     0
291
     1
 45
0.0
  0
VISUALSTYLE
  5
4A9
102
{ACAD_REACTORS
330
49B
102
}
330
49B
100
AcDbVisualStyle
  2
Linepattern
 70
    14
 71
     2
 72
     2
 73
     0
 90
        0
 40
0.6
 41
30.0
 62
     5
 63
     7
421
 16777215
 74
     1
 91
        4
 64
     7
 65
   257
 75
     7
175
     7
 42
1.0
 92
        8
 66
     7
 43
1.0
 76
     1
 77
     6
 78
     2
 67
     7
 79
     5
170
     0
171
     0
290
     0
174
     0
 93
        1
 44
0.0
173
     0
291
     1
 45
0.0
  0
VISUALSTYLE
  5
4AD
102
{ACAD_REACTORS
330
49B
102
}
330
49B
100
AcDbVisualStyle
  2
OverhangOff
 70
    21
 71
     2
 72
     2
 73
     0
 90
        0
 40
0.6
 41
30.0
 62
     5
 63
     7
421
 16777215
 74
     1
 91
        4
 64
     7
 65
   257
 75
     1
175
     1
 42
1.0
 92
        9
 66
     7
 43
1.0
 76
     1
 77
     6
 78
     2
 67
     7
 79
     5
170
     0
171
     0
290
     0
174
     0
 93
        1
 44
0.0
173
     0
291
     1
 45
0.0
  0
VISUALSTYLE
  5
4A4
102
{ACAD_REACTORS
330
49B
102
}
330
49B
100
AcDbVisualStyle
  2
Realistic
 70
     8
 71
     2
 72
     3
 73
     0
 90
        2
 40
0.6
 41
30.0
 62
     5
 63
     7
421
 16777215
 74
     0
 91
        0
 64
     7
 65
   257
 75
     1
175
     1
 42
1.0
 92
        8
 66
   257
 43
1.0
 76
     1
 77
     6
 78
     2
 67
     7
 79
     3
170
     0
171
     0
290
     0
174
     0
 93
       13
 44
0.0
173
     0
291
     0
 45
0.0
  0
VISUALSTYLE
  5
4B3
102
{ACAD_REACTORS
330
49B
102
}
330
49B
100
AcDbVisualStyle
  2
Shaded
 70
    27
 71
     2
 72
     2
 73
     1
 90
        2
 40
0.6
 41
30.0
 62
     5
 63
     7
421
 16777215
 74
     0
 91
        4
 64
     7
 65
   257
 75
     1
175
     1
 42
1.0
 92
        8
 66
   257
 43
1.0
 76
     1
 77
     6
 78
     2
 67
     8
425
  7895160
 79
     3
170
     0
171
     0
290
     0
174
     0
 93
        5
 44
0.0
173
     0
291
     0
 45
0.0
  0
VISUALSTYLE
  5
4B2
102
{ACAD_REACTORS
330
49B
102
}
330
49B
100
AcDbVisualStyle
  2
Shaded with edges
 70
    26
 71
     2
 72
     2
 73
     1
 90
        2
 40
0.6
 41
30.0
 62
     5
 63
     7
421
 16777215
 74
     1
 91
       10
 64
     7
 65
   257
 75
     2
175
     1
 42
1.0
 92
        8
 66
   257
 43
1.0
 76
     1
 77
     6
 78
     2
 67
     7
 79
     3
170
     0
171
     0
290
     0
174
     0
 93
        5
 44
0.0
173
     0
291
     0
 45
0.0
  0
VISUALSTYLE
  5
4AF
102
{ACAD_REACTORS
330
49B
102
}
330
49B
100
AcDbVisualStyle
  2
Shades of Gray
 70
    23
 71
     2
 72
     2
 73
     3
 90
        0
 40
0.6
 41
30.0
 62
     5
 63
     7
421
 16777215
 74
     2
 91
        2
 64
     7
 65
     7
 75
     1
175
     1
 42
40.0
 92
        8
 66
     7
 43
1.0
 76
     1
 77
     6
 78
     2
 67
     7
 79
     3
170
     0
171
     0
290
     0
174
     0
 93
        1
 44
0.0
173
     0
291
     0
 45
0.0
  0
VISUALSTYLE
  5
4B0
102
{ACAD_REACTORS
330
49B
102
}
330
49B
100
AcDbVisualStyle
  2
Sketchy
 70
    24
 71
     1
 72
     2
 73
     2
 90
        0
 40
0.6
 41
30.0
 62
     5
 63
     7
421
 16777215
 74
     2
 91
        2
 64
     7
 65
     7
 75
     1
175
     1
 42
40.0
 92
       11
 66
     7
 43
1.0
 76
     1
 77
     6
 78
     2
 67
     7
 79
     6
170
     0
171
     0
290
     0
174
     0
 93
        1
 44
0.0
173
     0
291
     0
 45
0.0
  0
VISUALSTYLE
  5
4A8
102
{ACAD_REACTORS
330
49B
102
}
330
49B
100
AcDbVisualStyle
  2
Thicken
 70
    13
 71
     2
 72
     2
 73
     0
 90
        0
 40
0.6
 41
30.0
 62
     5
 63
     7
421
 16777215
 74
     1
 91
        4
 64
     7
 65
   257
 75
     1
175
     1
 42
1.0
 92
       12
 66
     7
 43
1.0
 76
     1
 77
     6
 78
     2
 67
     7
 79
     5
170
     0
171
     0
290
     0
174
     0
 93
        1
 44
0.0
173
     0
291
     1
 45
0.0
  0
VISUALSTYLE
  5
4A1
102
{ACAD_REACTORS
330
49B
102
}
330
49B
100
AcDbVisualStyle
  2
Wireframe
 70
     5
 71
     0
 72
     2
 73
     0
 90
        0
 40
0.6
 41
30.0
 62
     5
 63
     7
421
 16777215
 74
     1
 91
        4
 64
     7
 65
   257
 75
     1
175
     1
 42
1.0
 92
        0
 66
   257
 43
1.0
 76
     1
 77
     6
 78
     2
 67
     7
 79
     3
170
     0
171
     0
290
     0
174
     0
 93
        1
 44
0.0
173
     0
291
     0
 45
0.0
  0
VISUALSTYLE
  5
4B1
102
{ACAD_REACTORS
330
49B
102
}
330
49B
100
AcDbVisualStyle
  2
X-Ray
 70
    25
 71
     2
 72
     2
 73
     1
 90
        1
 40
0.5
 41
30.0
 62
     5
 63
     7
421
 16777215
 74
     1
 91
        0
 64
     7
 65
   257
 75
     1
175
     1
 42
1.0
 92
        8
 66
     7
 43
1.0
 76
     1
 77
     6
 78
     2
 67
     7
 79
     3
170
     0
171
     0
290
     0
174
     0
 93
       13
 44
0.0
173
     0
291
     0
 45
0.0
  0
DICTIONARYVAR
  5
4C0
102
{ACAD_REACTORS
330
4BF
102
}
330
4BF
100
DictionaryVariables
280
     0
  1
1:1
  0
DICTIONARYVAR
  5
4C2
102
{ACAD_REACTORS
330
4BF
102
}
330
4BF
100
DictionaryVariables
280
     0
  1
Standard
  0
DICTIONARYVAR
  5
4C1
102
{ACAD_REACTORS
330
4BF
102
}
330
4BF
100
DictionaryVariables
280
     0
  1
Standard
  0
DICTIONARYVAR
  5
98F
102
{ACAD_REACTORS
330
4BF
102
}
330
4BF
100
DictionaryVariables
280
     0
  1
.
  0
DICTIONARYVAR
  5
4C3
102
{ACAD_REACTORS
330
4BF
102
}
330
4BF
100
DictionaryVariables
280
     0
  1
0
  0
DICTIONARYVAR
  5
8B24
102
{ACAD_REACTORS
330
995
102
}
330
995
100
DictionaryVariables
280
     0
  1
0.250000
  0
DICTIONARYVAR
  5
8B22
102
{ACAD_REACTORS
330
990
102
}
330
990
100
DictionaryVariables
280
     0
  1
0.261799
  0
DICTIONARYVAR
  5
8B20
102
{ACAD_REACTORS
330
990
102
}
330
990
100
DictionaryVariables
280
     0
  1
0.400000
  0
DICTIONARYVAR
  5
8B21
102
{ACAD_REACTORS
330
990
102
}
330
990
100
DictionaryVariables
280
     0
  1
0.250000
  0
DICTIONARYVAR
  5
8B23
102
{ACAD_REACTORS
330
990
102
}
330
990
100
DictionaryVariables
280
     0
  1
0
  0
DICTIONARY
  5
98AE
330
4B9
100
AcDbDictionary
280
     1
281
     1
  3
ACAD_ROUNDTRIP_2008_TABLESTYLE_CELLSTYLEMAP
360
98AF
  0
CELLSTYLEMAP
  5
98AF
102
{ACAD_REACTORS
330
98AE
102
}
330
98AE
100
AcDbCellStyleMap
 90
        3
300
CELLSTYLE
  1
TABLEFORMAT_BEGIN
 90
        5
170
     1
 91
        0
 92
    32768
 62
   257
 93
        1
300
CONTENTFORMAT
  1
CONTENTFORMAT_BEGIN
 90
        0
 91
        0
 92
        4
 93
        0
300

 40
0.0
140
1.0
 94
        5
 62
     0
340
11
144
6.0
309
CONTENTFORMAT_END
171
     1
301
MARGIN
  1
CELLMARGIN_BEGIN
 40
1.5
 40
1.5
 40
1.5
 40
1.5
 40
1.5
 40
1.5
309
CELLMARGIN_END
 94
        6
 95
        1
302
GRIDFORMAT
  1
GRIDFORMAT_BEGIN
 90
        0
 91
        1
 62
     0
 92
       -2
340
14
 93
        0
 40
0.045
309
GRIDFORMAT_END
 95
        2
302
GRIDFORMAT
  1
GRIDFORMAT_BEGIN
 90
        0
 91
        1
 62
     0
 92
       -2
340
14
 93
        0
 40
0.045
309
GRIDFORMAT_END
 95
        4
302
GRIDFORMAT
  1
GRIDFORMAT_BEGIN
 90
        0
 91
        1
 62
     0
 92
       -2
340
14
 93
        0
 40
0.045
309
GRIDFORMAT_END
 95
        8
302
GRIDFORMAT
  1
GRIDFORMAT_BEGIN
 90
        0
 91
        1
 62
     0
 92
       -2
340
14
 93
        0
 40
0.045
309
GRIDFORMAT_END
 95
       16
302
GRIDFORMAT
  1
GRIDFORMAT_BEGIN
 90
        0
 91
        1
 62
     0
 92
       -2
340
14
 93
        0
 40
0.045
309
GRIDFORMAT_END
 95
       32
302
GRIDFORMAT
  1
GRIDFORMAT_BEGIN
 90
        0
 91
        1
 62
     0
 92
       -2
340
14
 93
        0
 40
0.045
309
GRIDFORMAT_END
309
TABLEFORMAT_END
  1
CELLSTYLE_BEGIN
 90
        1
 91
        1
300
_TITLE
309
CELLSTYLE_END
300
CELLSTYLE
  1
TABLEFORMAT_BEGIN
 90
        5
170
     1
 91
        0
 92
        0
 62
   257
 93
        1
300
CONTENTFORMAT
  1
CONTENTFORMAT_BEGIN
 90
        0
 91
        0
 92
        4
 93
        0
300

 40
0.0
140
1.0
 94
        5
 62
     0
340
11
144
4.5
309
CONTENTFORMAT_END
171
     1
301
MARGIN
  1
CELLMARGIN_BEGIN
 40
1.5
 40
1.5
 40
1.5
 40
1.5
 40
1.5
 40
1.5
309
CELLMARGIN_END
 94
        6
 95
        1
302
GRIDFORMAT
  1
GRIDFORMAT_BEGIN
 90
        0
 91
        1
 62
     0
 92
       -2
340
14
 93
        0
 40
0.045
309
GRIDFORMAT_END
 95
        2
302
GRIDFORMAT
  1
GRIDFORMAT_BEGIN
 90
        0
 91
        1
 62
     0
 92
       -2
340
14
 93
        0
 40
0.045
309
GRIDFORMAT_END
 95
        4
302
GRIDFORMAT
  1
GRIDFORMAT_BEGIN
 90
        0
 91
        1
 62
     0
 92
       -2
340
14
 93
        0
 40
0.045
309
GRIDFORMAT_END
 95
        8
302
GRIDFORMAT
  1
GRIDFORMAT_BEGIN
 90
        0
 91
        1
 62
     0
 92
       -2
340
14
 93
        0
 40
0.045
309
GRIDFORMAT_END
 95
       16
302
GRIDFORMAT
  1
GRIDFORMAT_BEGIN
 90
        0
 91
        1
 62
     0
 92
       -2
340
14
 93
        0
 40
0.045
309
GRIDFORMAT_END
 95
       32
302
GRIDFORMAT
  1
GRIDFORMAT_BEGIN
 90
        0
 91
        1
 62
     0
 92
       -2
340
14
 93
        0
 40
0.045
309
GRIDFORMAT_END
309
TABLEFORMAT_END
  1
CELLSTYLE_BEGIN
 90
        2
 91
        1
300
_HEADER
309
CELLSTYLE_END
300
CELLSTYLE
  1
TABLEFORMAT_BEGIN
 90
        5
170
     1
 91
        0
 92
        0
 62
   257
 93
        1
300
CONTENTFORMAT
  1
CONTENTFORMAT_BEGIN
 90
        0
 91
        0
 92
        4
 93
        0
300

 40
0.0
140
1.0
 94
        2
 62
     0
340
11
144
4.5
309
CONTENTFORMAT_END
171
     1
301
MARGIN
  1
CELLMARGIN_BEGIN
 40
1.5
 40
1.5
 40
1.5
 40
1.5
 40
1.5
 40
1.5
309
CELLMARGIN_END
 94
        6
 95
        1
302
GRIDFORMAT
  1
GRIDFORMAT_BEGIN
 90
        0
 91
        1
 62
     0
 92
       -2
340
14
 93
        0
 40
0.045
309
GRIDFORMAT_END
 95
        2
302
GRIDFORMAT
  1
GRIDFORMAT_BEGIN
 90
        0
 91
        1
 62
     0
 92
       -2
340
14
 93
        0
 40
0.045
309
GRIDFORMAT_END
 95
        4
302
GRIDFORMAT
  1
GRIDFORMAT_BEGIN
 90
        0
 91
        1
 62
     0
 92
       -2
340
14
 93
        0
 40
0.045
309
GRIDFORMAT_END
 95
        8
302
GRIDFORMAT
  1
GRIDFORMAT_BEGIN
 90
        0
 91
        1
 62
     0
 92
       -2
340
14
 93
        0
 40
0.045
309
GRIDFORMAT_END
 95
       16
302
GRIDFORMAT
  1
GRIDFORMAT_BEGIN
 90
        0
 91
        1
 62
     0
 92
       -2
340
14
 93
        0
 40
0.045
309
GRIDFORMAT_END
 95
       32
302
GRIDFORMAT
  1
GRIDFORMAT_BEGIN
 90
        0
 91
        1
 62
     0
 92
       -2
340
14
 93
        0
 40
0.045
309
GRIDFORMAT_END
309
TABLEFORMAT_END
  1
CELLSTYLE_BEGIN
 90
        3
 91
        2
300
_DATA
309
CELLSTYLE_END
  0
ENDSEC
  0
EOF
